  0
SECTION
  2
HEADER
  9
$ACADVER
  1
AC1009
  9
$INSBASE
 10
0.0
 20
0.0
 30
0.0
  9
$EXTMIN
 10
47.54436686190067
 20
47.15288632743998
 30
0.0
  9
$EXTMAX
 10
89.712088208087394
 20
93.750457649912477
 30
5.0
  9
$LIMMIN
 10
0.0
 20
0.0
  9
$LIMMAX
 10
420.0
 20
297.0
  9
$ORTHOMODE
 70
     0
  9
$REGENMODE
 70
     1
  9
$FILLMODE
 70
     1
  9
$QTEXTMODE
 70
     0
  9
$MIRRTEXT
 70
     1
  9
$DRAGMODE
 70
     2
  9
$LTSCALE
 40
0.3
  9
$OSMODE
 70
    37
  9
$ATTMODE
 70
     1
  9
$TEXTSIZE
 40
2.5
  9
$TRACEWID
 40
1.0
  9
$TEXTSTYLE
  7
STANDARD
  9
$CLAYER
  8
2
  9
$CELTYPE
  6
BYLAYER
  9
$CECOLOR
 62
   256
  9
$DIMSCALE
 40
1.0
  9
$DIMASZ
 40
2.5
  9
$DIMEXO
 40
0.625
  9
$DIMDLI
 40
3.75
  9
$DIMRND
 40
0.0
  9
$DIMDLE
 40
0.0
  9
$DIMEXE
 40
1.25
  9
$DIMTP
 40
0.0
  9
$DIMTM
 40
0.0
  9
$DIMTXT
 40
2.5
  9
$DIMCEN
 40
2.5
  9
$DIMTSZ
 40
0.0
  9
$DIMTOL
 70
     0
  9
$DIMLIM
 70
     0
  9
$DIMTIH
 70
     0
  9
$DIMTOH
 70
     0
  9
$DIMSE1
 70
     0
  9
$DIMSE2
 70
     0
  9
$DIMTAD
 70
     1
  9
$DIMZIN
 70
     8
  9
$DIMBLK
  1

  9
$DIMASO
 70
     1
  9
$DIMSHO
 70
     1
  9
$DIMPOST
  1

  9
$DIMAPOST
  1

  9
$DIMALT
 70
     0
  9
$DIMALTD
 70
     3
  9
$DIMALTF
 40
0.03937007874016
  9
$DIMLFAC
 40
1.0
  9
$DIMTOFL
 70
     1
  9
$DIMTVP
 40
0.0
  9
$DIMTIX
 70
     0
  9
$DIMSOXD
 70
     0
  9
$DIMSAH
 70
     0
  9
$DIMBLK1
  1

  9
$DIMBLK2
  1

  9
$DIMSTYLE
  2
ISO-25
  9
$DIMCLRD
 70
     0
  9
$DIMCLRE
 70
     0
  9
$DIMCLRT
 70
     0
  9
$DIMTFAC
 40
1.0
  9
$DIMGAP
 40
0.625
  9
$LUNITS
 70
     2
  9
$LUPREC
 70
     4
  9
$SKETCHINC
 40
1.0
  9
$FILLETRAD
 40
10.0
  9
$AUNITS
 70
     0
  9
$AUPREC
 70
     0
  9
$MENU
  1
.
  9
$ELEVATION
 40
0.0
  9
$PELEVATION
 40
0.0
  9
$THICKNESS
 40
0.0
  9
$LIMCHECK
 70
     0
  9
$BLIPMODE
 70
     0
  9
$CHAMFERA
 40
10.0
  9
$CHAMFERB
 40
10.0
  9
$SKPOLY
 70
     0
  9
$TDCREATE
 40
2453447.387976238
  9
$TDUPDATE
 40
2453551.921198668
  9
$TDINDWG
 40
0.0209876736
  9
$TDUSRTIMER
 40
0.0209876736
  9
$USRTIMER
 70
     1
  9
$ANGBASE
 50
0.0
  9
$ANGDIR
 70
     0
  9
$PDMODE
 70
     0
  9
$PDSIZE
 40
0.0
  9
$PLINEWID
 40
0.0
  9
$COORDS
 70
     1
  9
$SPLFRAME
 70
     0
  9
$SPLINETYPE
 70
     6
  9
$SPLINESEGS
 70
     8
  9
$ATTDIA
 70
     0
  9
$ATTREQ
 70
     1
  9
$HANDLING
 70
-16383
  9
$HANDSEED
  5
498
  9
$SURFTAB1
 70
     6
  9
$SURFTAB2
 70
     6
  9
$SURFTYPE
 70
     6
  9
$SURFU
 70
     6
  9
$SURFV
 70
     6
  9
$UCSNAME
  2

  9
$UCSORG
 10
0.0
 20
0.0
 30
0.0
  9
$UCSXDIR
 10
1.0
 20
0.0
 30
0.0
  9
$UCSYDIR
 10
0.0
 20
1.0
 30
0.0
  9
$PUCSNAME
  2

  9
$PUCSORG
 10
0.0
 20
0.0
 30
0.0
  9
$PUCSXDIR
 10
1.0
 20
0.0
 30
0.0
  9
$PUCSYDIR
 10
0.0
 20
1.0
 30
0.0
  9
$USERI1
 70
     0
  9
$USERI2
 70
     0
  9
$USERI3
 70
     0
  9
$USERI4
 70
     0
  9
$USERI5
 70
     0
  9
$USERR1
 40
0.0
  9
$USERR2
 40
0.0
  9
$USERR3
 40
0.0
  9
$USERR4
 40
0.0
  9
$USERR5
 40
0.0
  9
$WORLDVIEW
 70
     1
  9
$SHADEDGE
 70
     3
  9
$SHADEDIF
 70
    70
  9
$TILEMODE
 70
     1
  9
$MAXACTVP
 70
    64
  9
$PLIMCHECK
 70
     0
  9
$PEXTMIN
 10
1.0000000000000000E+020
 20
1.0000000000000000E+020
 30
1.0000000000000000E+020
  9
$PEXTMAX
 10
-1.0000000000000000E+020
 20
-1.0000000000000000E+020
 30
-1.0000000000000000E+020
  9
$PLIMMIN
 10
0.0
 20
0.0
  9
$PLIMMAX
 10
420.0
 20
297.0
  9
$UNITMODE
 70
     0
  9
$VISRETAIN
 70
     1
  9
$PLINEGEN
 70
     0
  9
$PSLTSCALE
 70
     1
  0
ENDSEC
  0
SECTION
  2
TABLES
  0
TABLE
  2
VPORT
 70
     2
  0
VPORT
  2
*ACTIVE
 70
     0
 10
0.0
 20
0.0
 11
1.0
 21
1.0
 12
71.664827496123195
 22
72.024152520856816
 13
0.0
 23
0.0
 14
10.0
 24
10.0
 15
10.0
 25
10.0
 16
0.0
 26
0.0
 36
1.0
 17
0.0
 27
0.0
 37
0.0
 40
56.163294762447428
 41
2.5392405063291128
 42
50.0
 43
0.0
 44
0.0
 50
0.0
 51
0.0
 71
     0
 72
   100
 73
     1
 74
     3
 75
     0
 76
     0
 77
     0
 78
     0
  0
ENDTAB
  0
TABLE
  2
LTYPE
 70
     3
  0
LTYPE
  2
CONTINUOUS
 70
     0
  3
Solid line
 72
    65
 73
     0
 40
0.0
  0
LTYPE
  2
CENTER
 70
     0
  3
Center ____ _ ____ _ ____ _ ____ _ ____ _ ____
 72
    65
 73
     4
 40
50.799999999999997
 49
31.75
 49
-6.3499999999999988
 49
6.3499999999999988
 49
-6.3499999999999988
  0
LTYPE
  2
DASHED2
 70
     0
  3
Dashed (.5x) _ _ _ _ _ _ _ _ _ _ _ _ _ _ _ _ _
 72
    65
 73
     2
 40
9.5249999999999986
 49
6.3499999999999988
 49
-3.1749999999999989
  0
ENDTAB
  0
TABLE
  2
LAYER
 70
     5
  0
LAYER
  2
0
 70
     0
 62
     7
  6
CONTINUOUS
  0
LAYER
  2
1
 70
     0
 62
     7
  6
CENTER
  0
LAYER
  2
2
 70
     0
 62
     7
  6
CONTINUOUS
  0
LAYER
  2
3
 70
     0
 62
     7
  6
DASHED2
  0
LAYER
  2
DEFPOINTS
 70
     0
 62
     7
  6
CONTINUOUS
  0
ENDTAB
  0
TABLE
  2
STYLE
 70
     3
  0
STYLE
  2
STANDARD
 70
     0
 40
0.0
 41
1.0
 50
0.0
 71
     0
 42
2.5
  3
txt
  4

  0
STYLE
  2
\U+00C9L\U+00C9R_\U+00C2S\U+00C2V\U+00C2B\U+00C2N
 70
     0
 40
1.0
 41
1.0
 50
0.0
 71
     0
 42
1.0
  3
\U+00E9l\U+00E9r \U+00E2S\U+00E2V\U+00E2b\U+00E2N
  4

  0
STYLE
  2

 70
     1
 40
0.0
 41
1.0
 50
0.0
 71
     0
 42
2.5
  3
ltypeshp.shx
  4

  0
ENDTAB
  0
TABLE
  2
VIEW
 70
     0
  0
ENDTAB
  0
TABLE
  2
UCS
 70
     0
  0
ENDTAB
  0
TABLE
  2
APPID
 70
     1
  0
APPID
  2
ACAD
 70
     0
  0
ENDTAB
  0
TABLE
  2
DIMSTYLE
 70
     2
  0
DIMSTYLE
  2
ISO-25
 70
     0
  3

  4

  5

  6

  7

 40
1.0
 41
2.5
 42
0.625
 43
3.75
 44
1.25
 45
0.0
 46
0.0
 47
0.0
 48
0.0
140
2.5
141
2.5
142
0.0
143
0.03937007874016
144
1.0
145
0.0
146
1.0
147
0.625
 71
     0
 72
     0
 73
     0
 74
     0
 75
     0
 76
     0
 77
     1
 78
     8
170
     0
171
     3
172
     1
173
     0
174
     0
175
     0
176
     0
177
     0
178
     0
  0
DIMSTYLE
  2
STANDARD
 70
     0
  3

  4

  5

  6

  7

 40
1.0
 41
0.18
 42
0.0625
 43
0.38
 44
0.18
 45
0.0
 46
0.0
 47
0.0
 48
0.0
140
0.18
141
0.09
142
0.0
143
25.399999999999999
144
1.0
145
0.0
146
1.0
147
0.09
 71
     0
 72
     0
 73
     1
 74
     1
 75
     0
 76
     0
 77
     0
 78
     0
170
     0
171
     2
172
     0
173
     0
174
     0
175
     0
176
     0
177
     0
178
     0
  0
ENDTAB
  0
ENDSEC
  0
SECTION
  2
BLOCKS
  0
BLOCK
  8
0
  2
$MODEL_SPACE
 70
     0
 10
0.0
 20
0.0
 30
0.0
  3
$MODEL_SPACE
  1

  0
ENDBLK
  5
21
  8
0
  0
BLOCK
 67
     1
  8
0
  2
$PAPER_SPACE
 70
     0
 10
0.0
 20
0.0
 30
0.0
  3
$PAPER_SPACE
  1

  0
ENDBLK
  5
1D
 67
     1
  8
0
  0
BLOCK
  8
0
  2
*D1
 70
     1
 10
0.0
 20
0.0
 30
0.0
  3
*D1
  1

  0
LINE
  5
375
  8
2
 62
     0
 10
65.711750258071262
 20
73.653028654874191
 30
0.0
 11
51.036509378122439
 21
73.653028654874191
 31
0.0
  0
LINE
  5
376
  8
2
 62
     0
 10
66.611750258071254
 20
75.653028654874177
 30
0.0
 11
51.036509378122439
 21
75.653028654874177
 31
0.0
  0
LINE
  5
377
  8
2
 62
     0
 10
52.286509378122439
 20
71.153028654874191
 30
0.0
 11
52.286509378122439
 21
68.653028654874191
 31
0.0
  0
LINE
  5
378
  8
2
 62
     0
 10
52.286509378122439
 20
78.153028654874177
 30
0.0
 11
52.286509378122453
 21
83.569695321540848
 31
0.0
  0
LINE
  5
379
  8
2
 62
     0
 10
52.286509378122439
 20
73.653028654874191
 30
0.0
 11
52.286509378122439
 21
75.653028654874177
 31
0.0
  0
SOLID
  5
37A
  8
2
 62
     0
 10
51.869842711455782
 20
71.153028654874191
 30
0.0
 11
52.70317604478911
 21
71.153028654874191
 31
0.0
 12
52.286509378122439
 22
73.653028654874191
 32
0.0
 13
52.286509378122439
 23
73.653028654874191
 33
0.0
  0
SOLID
  5
37B
  8
2
 62
     0
 10
51.869842711455782
 20
78.153028654874177
 30
0.0
 11
52.70317604478911
 21
78.153028654874177
 31
0.0
 12
52.286509378122439
 22
75.653028654874177
 32
0.0
 13
52.286509378122439
 23
75.653028654874177
 33
0.0
  0
TEXT
  5
37C
  8
2
 62
     0
 10
51.661509378122432
 20
81.278028654874191
 30
0.0
 40
2.5
  1
2
 50
90.0
  0
POINT
  5
37D
  8
DEFPOINTS
 62
     0
 10
66.336750258071262
 20
73.653028654874191
 30
0.0
  0
POINT
  5
37E
  8
DEFPOINTS
 62
     0
 10
67.236750258071254
 20
75.653028654874177
 30
0.0
  0
POINT
  5
37F
  8
DEFPOINTS
 62
     0
 10
52.286509378122439
 20
75.653028654874177
 30
0.0
  0
ENDBLK
  5
381
  8
0
  0
BLOCK
  8
0
  2
*D2
 70
     1
 10
0.0
 20
0.0
 30
0.0
  3
*D2
  1

  0
LINE
  5
433
  8
2
 62
     0
 10
63.13675025807126
 20
73.028028654874191
 30
0.0
 11
63.13675025807126
 21
64.166298838809809
 31
0.0
  0
LINE
  5
434
  8
2
 62
     0
 10
65.13675025807126
 20
73.028028654874191
 30
0.0
 11
65.13675025807126
 21
64.166298838809809
 31
0.0
  0
LINE
  5
435
  8
2
 62
     0
 10
60.63675025807126
 20
65.416298838809809
 30
0.0
 11
58.13675025807126
 21
65.416298838809809
 31
0.0
  0
LINE
  5
436
  8
2
 62
     0
 10
67.63675025807126
 20
65.416298838809809
 30
0.0
 11
75.553416924737931
 21
65.416298838809809
 31
0.0
  0
LINE
  5
437
  8
2
 62
     0
 10
63.13675025807126
 20
65.416298838809809
 30
0.0
 11
65.13675025807126
 21
65.416298838809809
 31
0.0
  0
SOLID
  5
438
  8
2
 62
     0
 10
60.63675025807126
 20
65.83296550547648
 30
0.0
 11
60.63675025807126
 21
64.999632172143137
 31
0.0
 12
63.13675025807126
 22
65.416298838809809
 32
0.0
 13
63.13675025807126
 23
65.416298838809809
 33
0.0
  0
SOLID
  5
439
  8
2
 62
     0
 10
67.63675025807126
 20
65.83296550547648
 30
0.0
 11
67.63675025807126
 21
64.999632172143137
 31
0.0
 12
65.13675025807126
 22
65.416298838809809
 32
0.0
 13
65.13675025807126
 23
65.416298838809809
 33
0.0
  0
INSERT
  5
43A
  8
2
  2
*U8
 10
0.0
 20
0.0
 30
0.0
  0
POINT
  5
43B
  8
DEFPOINTS
 62
     0
 10
63.13675025807126
 20
73.653028654874191
 30
0.0
  0
POINT
  5
43C
  8
DEFPOINTS
 62
     0
 10
65.13675025807126
 20
73.653028654874191
 30
0.0
  0
POINT
  5
43D
  8
DEFPOINTS
 62
     0
 10
65.13675025807126
 20
65.416298838809809
 30
0.0
  0
ENDBLK
  5
391
  8
0
  0
BLOCK
  8
0
  2
*D3
 70
     1
 10
0.0
 20
0.0
 30
0.0
  3
*D3
  1

  0
LINE
  5
43E
  8
2
 62
     0
 10
61.936750258071257
 20
73.028028654874191
 30
0.0
 11
61.936750258071257
 21
58.920274410768378
 31
0.0
  0
LINE
  5
43F
  8
2
 62
     0
 10
66.336750258071262
 20
73.028028654874191
 30
0.0
 11
66.336750258071262
 21
58.920274410768378
 31
0.0
  0
LINE
  5
440
  8
2
 62
     0
 10
59.436750258071257
 20
60.170274410768378
 30
0.0
 11
56.936750258071257
 21
60.170274410768378
 31
0.0
  0
LINE
  5
441
  8
2
 62
     0
 10
68.836750258071262
 20
60.170274410768378
 30
0.0
 11
80.086750258071277
 21
60.170274410768378
 31
0.0
  0
LINE
  5
442
  8
2
 62
     0
 10
61.936750258071257
 20
60.170274410768378
 30
0.0
 11
66.336750258071262
 21
60.170274410768378
 31
0.0
  0
SOLID
  5
443
  8
2
 62
     0
 10
59.436750258071257
 20
60.58694107743505
 30
0.0
 11
59.436750258071257
 21
59.753607744101721
 31
0.0
 12
61.936750258071257
 22
60.170274410768378
 32
0.0
 13
61.936750258071257
 23
60.170274410768378
 33
0.0
  0
SOLID
  5
444
  8
2
 62
     0
 10
68.836750258071262
 20
60.58694107743505
 30
0.0
 11
68.836750258071262
 21
59.753607744101721
 31
0.0
 12
66.336750258071262
 22
60.170274410768378
 32
0.0
 13
66.336750258071262
 23
60.170274410768378
 33
0.0
  0
INSERT
  5
445
  8
2
  2
*U9
 10
0.0
 20
0.0
 30
0.0
  0
POINT
  5
446
  8
DEFPOINTS
 62
     0
 10
61.936750258071257
 20
73.653028654874191
 30
0.0
  0
POINT
  5
447
  8
DEFPOINTS
 62
     0
 10
66.336750258071262
 20
73.653028654874191
 30
0.0
  0
POINT
  5
448
  8
DEFPOINTS
 62
     0
 10
66.336750258071262
 20
60.170274410768378
 30
0.0
  0
ENDBLK
  5
3A0
  8
0
  0
BLOCK
  8
0
  2
*D4
 70
     1
 10
0.0
 20
0.0
 30
0.0
  3
*D4
  1

  0
LINE
  5
449
  8
2
 62
     0
 10
61.036750258071258
 20
74.028028654874191
 30
0.0
 11
61.036750258071258
 21
53.372654681608147
 31
0.0
  0
LINE
  5
44A
  8
2
 62
     0
 10
67.236750258071254
 20
74.028028654874191
 30
0.0
 11
67.236750258071254
 21
53.372654681608147
 31
0.0
  0
LINE
  5
44B
  8
2
 62
     0
 10
58.536750258071258
 20
54.622654681608147
 30
0.0
 11
56.036750258071258
 21
54.622654681608147
 31
0.0
  0
LINE
  5
44C
  8
2
 62
     0
 10
69.736750258071254
 20
54.622654681608147
 30
0.0
 11
80.986750258071254
 21
54.622654681608147
 31
0.0
  0
LINE
  5
44D
  8
2
 62
     0
 10
61.036750258071258
 20
54.622654681608147
 30
0.0
 11
67.236750258071254
 21
54.622654681608147
 31
0.0
  0
SOLID
  5
44E
  8
2
 62
     0
 10
58.536750258071258
 20
55.039321348274818
 30
0.0
 11
58.536750258071258
 21
54.205988014941489
 31
0.0
 12
61.036750258071258
 22
54.622654681608147
 32
0.0
 13
61.036750258071258
 23
54.622654681608147
 33
0.0
  0
SOLID
  5
44F
  8
2
 62
     0
 10
69.736750258071254
 20
55.039321348274818
 30
0.0
 11
69.736750258071254
 21
54.205988014941489
 31
0.0
 12
67.236750258071254
 22
54.622654681608147
 32
0.0
 13
67.236750258071254
 23
54.622654681608147
 33
0.0
  0
INSERT
  5
450
  8
2
  2
*U10
 10
0.0
 20
0.0
 30
0.0
  0
POINT
  5
451
  8
DEFPOINTS
 62
     0
 10
61.036750258071258
 20
74.653028654874191
 30
0.0
  0
POINT
  5
452
  8
DEFPOINTS
 62
     0
 10
67.236750258071254
 20
74.653028654874191
 30
0.0
  0
POINT
  5
453
  8
DEFPOINTS
 62
     0
 10
67.236750258071254
 20
54.622654681608147
 30
0.0
  0
ENDBLK
  5
3AF
  8
0
  0
BLOCK
  8
0
  2
*D5
 70
     1
 10
0.0
 20
0.0
 30
0.0
  3
*D5
  1

  0
LINE
  5
40D
  8
2
 62
     0
 10
68.673350258071267
 20
87.653028654874177
 30
0.0
 11
80.798308475497237
 21
87.653028654874177
 31
0.0
  0
LINE
  5
40E
  8
2
 62
     0
 10
66.961750258071262
 20
79.653028654874191
 30
0.0
 11
80.798308475497237
 21
79.653028654874191
 31
0.0
  0
LINE
  5
40F
  8
2
 62
     0
 10
79.548308475497237
 20
85.153028654874177
 30
0.0
 11
79.548308475497237
 21
82.153028654874191
 31
0.0
  0
SOLID
  5
410
  8
2
 62
     0
 10
79.131641808830565
 20
85.153028654874177
 30
0.0
 11
79.964975142163894
 21
85.153028654874177
 31
0.0
 12
79.548308475497237
 22
87.653028654874177
 32
0.0
 13
79.548308475497237
 23
87.653028654874177
 33
0.0
  0
SOLID
  5
411
  8
2
 62
     0
 10
79.131641808830565
 20
82.153028654874191
 30
0.0
 11
79.964975142163894
 21
82.153028654874191
 31
0.0
 12
79.548308475497237
 22
79.653028654874191
 32
0.0
 13
79.548308475497237
 23
79.653028654874191
 33
0.0
  0
TEXT
  5
412
  8
2
 62
     0
 10
78.923308475497223
 20
82.819695321540877
 30
0.0
 40
2.5
  1
8
 50
90.0
  0
POINT
  5
413
  8
DEFPOINTS
 62
     0
 10
68.048350258071267
 20
87.653028654874177
 30
0.0
  0
POINT
  5
414
  8
DEFPOINTS
 62
     0
 10
66.336750258071262
 20
79.653028654874191
 30
0.0
  0
POINT
  5
415
  8
DEFPOINTS
 62
     0
 10
79.548308475497237
 20
79.653028654874191
 30
0.0
  0
ENDBLK
  5
417
  8
0
  0
BLOCK
  8
0
  2
*D6
 70
     1
 10
0.0
 20
0.0
 30
0.0
  3
*D6
  1

  0
LINE
  5
41A
  8
2
 62
     0
 10
68.673350258071267
 20
87.653028654874177
 30
0.0
 11
85.255198215108607
 21
87.653028654874177
 31
0.0
  0
LINE
  5
41B
  8
2
 62
     0
 10
68.869550258071257
 20
77.652528654874175
 30
0.0
 11
85.255198215108607
 21
77.652528654874175
 31
0.0
  0
LINE
  5
41C
  8
2
 62
     0
 10
84.005198215108607
 20
85.153028654874177
 30
0.0
 11
84.005198215108607
 21
80.152528654874175
 31
0.0
  0
SOLID
  5
41D
  8
2
 62
     0
 10
83.588531548441935
 20
85.153028654874177
 30
0.0
 11
84.421864881775278
 21
85.153028654874177
 31
0.0
 12
84.005198215108607
 22
87.653028654874177
 32
0.0
 13
84.005198215108607
 23
87.653028654874177
 33
0.0
  0
SOLID
  5
41E
  8
2
 62
     0
 10
83.588531548441935
 20
80.152528654874175
 30
0.0
 11
84.421864881775278
 21
80.152528654874175
 31
0.0
 12
84.005198215108607
 22
77.652528654874175
 32
0.0
 13
84.005198215108607
 23
77.652528654874175
 33
0.0
  0
TEXT
  5
41F
  8
2
 62
     0
 10
83.380198215108607
 20
81.194445321540869
 30
0.0
 40
2.5
  1
10
 50
90.0
  0
POINT
  5
420
  8
DEFPOINTS
 62
     0
 10
68.048350258071267
 20
87.653028654874177
 30
0.0
  0
POINT
  5
421
  8
DEFPOINTS
 62
     0
 10
68.244550258071257
 20
77.652528654874175
 30
0.0
  0
POINT
  5
422
  8
DEFPOINTS
 62
     0
 10
84.005198215108607
 20
77.652528654874175
 30
0.0
  0
ENDBLK
  5
424
  8
0
  0
BLOCK
  8
0
  2
*D7
 70
     1
 10
0.0
 20
0.0
 30
0.0
  3
*D7
  1

  0
LINE
  5
427
  8
2
 62
     0
 10
84.630198215108607
 20
87.653028654874177
 30
0.0
 11
89.712088208087394
 21
87.653028654874177
 31
0.0
  0
LINE
  5
428
  8
2
 62
     0
 10
66.336750258071262
 20
73.653028654874191
 30
0.0
 11
89.712088208087394
 21
73.653028654874191
 31
0.0
  0
LINE
  5
429
  8
2
 62
     0
 10
88.462088208087394
 20
85.153028654874177
 30
0.0
 11
88.462088208087394
 21
76.153028654874191
 31
0.0
  0
SOLID
  5
42A
  8
2
 62
     0
 10
88.045421541420737
 20
85.153028654874177
 30
0.0
 11
88.87875487475408
 21
85.153028654874177
 31
0.0
 12
88.462088208087394
 22
87.653028654874177
 32
0.0
 13
88.462088208087394
 23
87.653028654874177
 33
0.0
  0
SOLID
  5
42B
  8
2
 62
     0
 10
88.045421541420737
 20
76.153028654874191
 30
0.0
 11
88.87875487475408
 21
76.153028654874191
 31
0.0
 12
88.462088208087394
 22
73.653028654874191
 32
0.0
 13
88.462088208087394
 23
73.653028654874191
 33
0.0
  0
TEXT
  5
42C
  8
2
 62
     0
 10
87.837088208087394
 20
78.986361988207534
 30
0.0
 40
2.5
  1
14
 50
90.0
  0
POINT
  5
42D
  8
DEFPOINTS
 62
     0
 10
84.005198215108607
 20
87.653028654874177
 30
0.0
  0
POINT
  5
42E
  8
DEFPOINTS
 62
     0
 10
65.711750258071262
 20
73.653028654874191
 30
0.0
  0
POINT
  5
42F
  8
DEFPOINTS
 62
     0
 10
88.462088208087394
 20
73.653028654874191
 30
0.0
  0
ENDBLK
  5
431
  8
0
  0
BLOCK
  8
0
  2
*U8
 70
     1
 10
0.0
 20
0.0
 30
0.0
  3
*U8
  1

  0
TEXT
  5
480
  8
2
 62
     0
 10
70.76175025807126
 20
66.041298838809809
 30
0.0
 40
2.5
  1
\U+2205
  0
TEXT
  5
481
  8
2
 62
     0
 10
73.26175025807126
 20
66.041298838809809
 30
0.0
 40
2.5
  1
2
  0
ENDBLK
  5
483
  8
0
  0
BLOCK
  8
0
  2
*U9
 70
     1
 10
0.0
 20
0.0
 30
0.0
  3
*U9
  1

  0
TEXT
  5
485
  8
2
 62
     0
 10
71.961750258071262
 20
60.795274410768378
 30
0.0
 40
2.5
  1
\U+2205
  0
TEXT
  5
486
  8
2
 62
     0
 10
74.461750258071262
 20
60.795274410768378
 30
0.0
 40
2.5
  1
4.4
  0
ENDBLK
  5
488
  8
0
  0
BLOCK
  8
0
  2
*U10
 70
     1
 10
0.0
 20
0.0
 30
0.0
  3
*U10
  1

  0
TEXT
  5
48A
  8
2
 62
     0
 10
72.861750258071254
 20
55.247654681608147
 30
0.0
 40
2.5
  1
\U+2205
  0
TEXT
  5
48B
  8
2
 62
     0
 10
75.361750258071254
 20
55.247654681608147
 30
0.0
 40
2.5
  1
6.2
  0
ENDBLK
  5
48D
  8
0
  0
ENDSEC
  0
SECTION
  2
ENTITIES
  0
TEXT
  5
EF
  8
2
 10
51.419715551757783
 20
47.152886327440008
 30
0.0
 40
2.5399440000000002
  1
No. 270.005
 51
-0.0000015352344868
  7
\U+00C9L\U+00C9R_\U+00C2S\U+00C2V\U+00C2B\U+00C2N
  0
LINE
  5
1B8
  8
0
 39
5.0
 10
60.225150258071253
 20
87.653028654874177
 30
0.0
 11
60.225150258071253
 21
87.653028654874177
 31
0.0
  0
LINE
  5
1B9
  8
0
 39
5.0
 10
60.225150258071253
 20
87.653028654874177
 30
0.0
 11
60.125250258071247
 21
87.651128654874185
 31
0.0
  0
LINE
  5
1BA
  8
0
 39
5.0
 10
60.125250258071247
 20
87.651128654874185
 30
0.0
 11
60.035150258071248
 21
87.645628654874201
 31
0.0
  0
LINE
  5
1BB
  8
0
 39
5.0
 10
60.035150258071248
 20
87.645628654874201
 30
0.0
 11
59.954150258071252
 21
87.636128654874199
 31
0.0
  0
LINE
  5
1BC
  8
0
 39
5.0
 10
59.954150258071252
 20
87.636128654874199
 30
0.0
 11
59.882150258071249
 21
87.622728654874194
 31
0.0
  0
LINE
  5
1BD
  8
0
 39
5.0
 10
59.882150258071249
 20
87.622728654874194
 30
0.0
 11
59.818250258071252
 21
87.605028654874189
 31
0.0
  0
LINE
  5
1BE
  8
0
 39
5.0
 10
59.818250258071252
 20
87.605028654874189
 30
0.0
 11
59.762450258071247
 21
87.583228654874205
 31
0.0
  0
LINE
  5
1BF
  8
0
 39
5.0
 10
59.762450258071247
 20
87.583228654874205
 30
0.0
 11
59.71395025807125
 21
87.556928654874199
 31
0.0
  0
LINE
  5
1C0
  8
0
 39
5.0
 10
59.71395025807125
 20
87.556928654874199
 30
0.0
 11
59.672650258071251
 21
87.526028654874196
 31
0.0
  0
LINE
  5
1C1
  8
0
 39
5.0
 10
59.672650258071251
 20
87.526028654874196
 30
0.0
 11
59.637650258071247
 21
87.490128654874198
 31
0.0
  0
LINE
  5
1C2
  8
0
 39
5.0
 10
59.637650258071247
 20
87.490128654874198
 30
0.0
 11
59.60885025807125
 21
87.4495286548742
 31
0.0
  0
LINE
  5
1C3
  8
0
 39
5.0
 10
59.60885025807125
 20
87.4495286548742
 30
0.0
 11
59.585650258071247
 21
87.403728654874186
 31
0.0
  0
LINE
  5
1C4
  8
0
 39
5.0
 10
59.585650258071247
 20
87.403728654874186
 30
0.0
 11
59.567850258071253
 21
87.352928654874205
 31
0.0
  0
LINE
  5
1C5
  8
0
 39
5.0
 10
59.567850258071253
 20
87.352928654874205
 30
0.0
 11
59.554550258071252
 21
87.296528654874194
 31
0.0
  0
LINE
  5
1C6
  8
0
 39
5.0
 10
59.554550258071252
 20
87.296528654874194
 30
0.0
 11
59.545750258071251
 21
87.234828654874192
 31
0.0
  0
LINE
  5
1C7
  8
0
 39
5.0
 10
59.545750258071251
 20
87.234828654874192
 30
0.0
 11
59.540750258071249
 21
87.167428654874186
 31
0.0
  0
LINE
  5
1C8
  8
0
 39
5.0
 10
59.540750258071249
 20
87.167428654874186
 30
0.0
 11
59.539350258071252
 21
87.0942286548742
 31
0.0
  0
LINE
  5
1C9
  8
0
 39
5.0
 10
59.539350258071252
 20
87.0942286548742
 30
0.0
 11
59.539350258071252
 21
78.2804286548742
 31
0.0
  0
LINE
  5
1CA
  8
0
 39
5.0
 10
59.539350258071252
 20
78.2804286548742
 30
0.0
 11
59.539350258071252
 21
78.2804286548742
 31
0.0
  0
LINE
  5
1CB
  8
0
 39
5.0
 10
59.539350258071252
 20
78.2804286548742
 30
0.0
 11
59.53865025807125
 21
78.271828654874199
 31
0.0
  0
LINE
  5
1CC
  8
0
 39
5.0
 10
59.53865025807125
 20
78.271828654874199
 30
0.0
 11
59.53735025807125
 21
78.331428654874188
 31
0.0
  0
LINE
  5
1CD
  8
0
 39
5.0
 10
59.53735025807125
 20
78.331428654874188
 30
0.0
 11
59.536650258071262
 21
78.294028654874197
 31
0.0
  0
LINE
  5
1CE
  8
0
 39
5.0
 10
59.536650258071262
 20
78.294028654874197
 30
0.0
 11
59.538050258071252
 21
78.245828654874174
 31
0.0
  0
LINE
  5
1CF
  8
0
 39
5.0
 10
59.538050258071252
 20
78.245828654874174
 30
0.0
 11
59.542450258071248
 21
78.188828654874186
 31
0.0
  0
LINE
  5
1D0
  8
0
 39
5.0
 10
59.542450258071248
 20
78.188828654874186
 30
0.0
 11
59.551250258071249
 21
78.125628654874191
 31
0.0
  0
LINE
  5
1D1
  8
0
 39
5.0
 10
59.551250258071249
 20
78.125628654874191
 30
0.0
 11
59.565650258071251
 21
78.058428654874191
 31
0.0
  0
LINE
  5
1D2
  8
0
 39
5.0
 10
59.565650258071251
 20
78.058428654874191
 30
0.0
 11
59.586950258071248
 21
77.989528654874192
 31
0.0
  0
LINE
  5
1D3
  8
0
 39
5.0
 10
59.586950258071248
 20
77.989528654874192
 30
0.0
 11
59.616050258071247
 21
77.920928654874174
 31
0.0
  0
LINE
  5
1D4
  8
0
 39
5.0
 10
59.616050258071247
 20
77.920928654874174
 30
0.0
 11
59.654550258071247
 21
77.855528654874192
 31
0.0
  0
LINE
  5
1D5
  8
0
 39
5.0
 10
59.654550258071247
 20
77.855528654874192
 30
0.0
 11
59.703550258071253
 21
77.795228654874194
 31
0.0
  0
LINE
  5
1D6
  8
0
 39
5.0
 10
59.703550258071253
 20
77.795228654874194
 30
0.0
 11
59.764350258071246
 21
77.742628654874196
 31
0.0
  0
LINE
  5
1D7
  8
0
 39
5.0
 10
59.764350258071246
 20
77.742628654874196
 30
0.0
 11
59.837850258071263
 21
77.699728654874193
 31
0.0
  0
LINE
  5
1D8
  8
0
 39
5.0
 10
59.837850258071263
 20
77.699728654874193
 30
0.0
 11
59.925750258071247
 21
77.668928654874193
 31
0.0
  0
LINE
  5
1D9
  8
0
 39
5.0
 10
59.925750258071247
 20
77.668928654874193
 30
0.0
 11
60.028950258071248
 21
77.652528654874175
 31
0.0
  0
LINE
  5
1DA
  8
0
 39
5.0
 10
60.028950258071248
 20
77.652528654874175
 30
0.0
 11
60.148950258071253
 21
77.653028654874191
 31
0.0
  0
LINE
  5
1DC
  8
0
 39
5.0
 10
62.206350258071247
 20
77.653028654874191
 30
0.0
 11
62.206350258071247
 21
75.653028654874191
 31
0.0
  0
LINE
  5
1DD
  8
0
 39
5.0
 10
61.936750258071257
 20
75.653028654874191
 30
0.0
 11
61.266550258071248
 21
75.653028654874191
 31
0.0
  0
LINE
  5
22C
  8
0
 39
5.0
 10
64.13675025807126
 20
78.610628654874191
 30
0.0
 11
63.13675025807126
 21
78.610628654874191
 31
0.0
  0
LINE
  5
26A
  8
1
 10
64.13675025807126
 20
87.953028654874188
 30
0.0
 11
64.13675025807126
 21
73.353028654874194
 31
0.0
  0
LINE
  5
26D
  8
0
 10
60.225150258071253
 20
87.653028654874177
 30
0.0
 11
68.048350258071267
 21
87.653028654874177
 31
0.0
  0
LINE
  5
270
  8
0
 10
68.247696599534692
 20
77.653028654874191
 30
0.0
 11
64.13675025807126
 21
77.653028654874191
 31
0.0
  0
LINE
  5
271
  8
0
 39
5.0
 10
68.244550258071257
 20
77.652528654874175
 30
0.0
 11
68.124550258071267
 21
77.653028654874191
 31
0.0
  0
LINE
  5
272
  8
0
 39
5.0
 10
68.347750258071272
 20
77.668928654874193
 30
0.0
 11
68.244550258071257
 21
77.652528654874175
 31
0.0
  0
LINE
  5
273
  8
0
 39
5.0
 10
68.435650258071263
 20
77.699728654874193
 30
0.0
 11
68.347750258071272
 21
77.668928654874193
 31
0.0
  0
LINE
  5
274
  8
0
 39
5.0
 10
68.509150258071244
 20
77.742628654874196
 30
0.0
 11
68.435650258071263
 21
77.699728654874193
 31
0.0
  0
LINE
  5
275
  8
0
 39
5.0
 10
68.569950258071259
 20
77.795228654874194
 30
0.0
 11
68.509150258071244
 21
77.742628654874196
 31
0.0
  0
LINE
  5
276
  8
0
 39
5.0
 10
68.618950258071266
 20
77.855528654874192
 30
0.0
 11
68.569950258071259
 21
77.795228654874194
 31
0.0
  0
LINE
  5
277
  8
0
 39
5.0
 10
68.657450258071265
 20
77.920928654874174
 30
0.0
 11
68.618950258071266
 21
77.855528654874192
 31
0.0
  0
LINE
  5
278
  8
0
 39
5.0
 10
68.686550258071264
 20
77.989528654874192
 30
0.0
 11
68.657450258071265
 21
77.920928654874174
 31
0.0
  0
LINE
  5
279
  8
0
 39
5.0
 10
68.707850258071261
 20
78.058428654874191
 30
0.0
 11
68.686550258071264
 21
77.989528654874192
 31
0.0
  0
LINE
  5
27A
  8
0
 39
5.0
 10
68.722250258071256
 20
78.125628654874191
 30
0.0
 11
68.707850258071261
 21
78.058428654874191
 31
0.0
  0
LINE
  5
27B
  8
0
 39
5.0
 10
68.731050258071264
 20
78.188828654874186
 30
0.0
 11
68.722250258071256
 21
78.125628654874191
 31
0.0
  0
LINE
  5
27C
  8
0
 39
5.0
 10
68.735450258071268
 20
78.245828654874174
 30
0.0
 11
68.731050258071264
 21
78.188828654874186
 31
0.0
  0
LINE
  5
27D
  8
0
 39
5.0
 10
68.736850258071257
 20
78.294028654874197
 30
0.0
 11
68.735450258071268
 21
78.245828654874174
 31
0.0
  0
LINE
  5
27E
  8
0
 39
5.0
 10
68.736150258071262
 20
78.331428654874188
 30
0.0
 11
68.736850258071257
 21
78.294028654874197
 31
0.0
  0
LINE
  5
27F
  8
0
 39
5.0
 10
68.734850258071276
 20
78.271828654874199
 30
0.0
 11
68.736150258071262
 21
78.331428654874188
 31
0.0
  0
LINE
  5
280
  8
0
 39
5.0
 10
68.734150258071267
 20
78.2804286548742
 30
0.0
 11
68.734850258071276
 21
78.271828654874199
 31
0.0
  0
LINE
  5
281
  8
0
 39
5.0
 10
68.734150258071267
 20
78.2804286548742
 30
0.0
 11
68.734150258071267
 21
78.2804286548742
 31
0.0
  0
LINE
  5
282
  8
0
 39
5.0
 10
68.734150258071267
 20
87.0942286548742
 30
0.0
 11
68.734150258071267
 21
78.2804286548742
 31
0.0
  0
LINE
  5
283
  8
0
 39
5.0
 10
68.732750258071263
 20
87.167428654874186
 30
0.0
 11
68.734150258071267
 21
87.0942286548742
 31
0.0
  0
LINE
  5
284
  8
0
 39
5.0
 10
68.727750258071254
 20
87.234828654874192
 30
0.0
 11
68.732750258071263
 21
87.167428654874186
 31
0.0
  0
LINE
  5
285
  8
0
 39
5.0
 10
68.71895025807126
 20
87.296528654874194
 30
0.0
 11
68.727750258071254
 21
87.234828654874192
 31
0.0
  0
LINE
  5
286
  8
0
 39
5.0
 10
68.705650258071273
 20
87.352928654874205
 30
0.0
 11
68.71895025807126
 21
87.296528654874194
 31
0.0
  0
LINE
  5
287
  8
0
 39
5.0
 10
68.687850258071265
 20
87.403728654874186
 30
0.0
 11
68.705650258071273
 21
87.352928654874205
 31
0.0
  0
LINE
  5
288
  8
0
 39
5.0
 10
68.664650258071276
 20
87.4495286548742
 30
0.0
 11
68.687850258071265
 21
87.403728654874186
 31
0.0
  0
LINE
  5
289
  8
0
 39
5.0
 10
68.635850258071244
 20
87.490128654874198
 30
0.0
 11
68.664650258071276
 21
87.4495286548742
 31
0.0
  0
LINE
  5
28A
  8
0
 39
5.0
 10
68.600850258071262
 20
87.526028654874196
 30
0.0
 11
68.635850258071244
 21
87.490128654874198
 31
0.0
  0
LINE
  5
28B
  8
0
 39
5.0
 10
68.559550258071255
 20
87.556928654874199
 30
0.0
 11
68.600850258071262
 21
87.526028654874196
 31
0.0
  0
LINE
  5
28C
  8
0
 39
5.0
 10
68.511050258071265
 20
87.583228654874205
 30
0.0
 11
68.559550258071255
 21
87.556928654874199
 31
0.0
  0
LINE
  5
28D
  8
0
 39
5.0
 10
68.45525025807126
 20
87.605028654874189
 30
0.0
 11
68.511050258071265
 21
87.583228654874205
 31
0.0
  0
LINE
  5
28E
  8
0
 39
5.0
 10
68.39135025807127
 20
87.622728654874194
 30
0.0
 11
68.45525025807126
 21
87.605028654874189
 31
0.0
  0
LINE
  5
28F
  8
0
 39
5.0
 10
68.319350258071253
 20
87.636128654874199
 30
0.0
 11
68.39135025807127
 21
87.622728654874194
 31
0.0
  0
LINE
  5
290
  8
0
 39
5.0
 10
68.238350258071264
 20
87.645628654874201
 30
0.0
 11
68.319350258071253
 21
87.636128654874199
 31
0.0
  0
LINE
  5
291
  8
0
 39
5.0
 10
68.148250258071272
 20
87.651128654874185
 30
0.0
 11
68.238350258071264
 21
87.645628654874201
 31
0.0
  0
LINE
  5
292
  8
0
 39
5.0
 10
68.048350258071267
 20
87.653028654874177
 30
0.0
 11
68.148250258071272
 21
87.651128654874185
 31
0.0
  0
LINE
  5
293
  8
0
 39
5.0
 10
68.048350258071267
 20
87.653028654874177
 30
0.0
 11
68.048350258071267
 21
87.653028654874177
 31
0.0
  0
LINE
  5
2BE
  8
0
 39
5.0
 10
66.281950258071248
 20
87.653028654874177
 30
0.0
 11
66.281950258071248
 21
87.653028654874177
 31
0.0
  0
LINE
  5
2BF
  8
0
 39
5.0
 10
66.281950258071248
 20
87.653028654874177
 30
0.0
 11
66.381850258071253
 21
87.651128654874185
 31
0.0
  0
LINE
  5
2C0
  8
0
 39
5.0
 10
66.381850258071253
 20
87.651128654874185
 30
0.0
 11
66.471950258071246
 21
87.645628654874201
 31
0.0
  0
LINE
  5
2C1
  8
0
 39
5.0
 10
66.471950258071246
 20
87.645628654874201
 30
0.0
 11
66.552950258071249
 21
87.636128654874199
 31
0.0
  0
LINE
  5
2C2
  8
0
 39
5.0
 10
66.552950258071249
 20
87.636128654874199
 30
0.0
 11
66.624950258071252
 21
87.622728654874194
 31
0.0
  0
LINE
  5
2C3
  8
0
 39
5.0
 10
66.624950258071252
 20
87.622728654874194
 30
0.0
 11
66.688850258071241
 21
87.605028654874189
 31
0.0
  0
LINE
  5
2C4
  8
0
 39
5.0
 10
66.688850258071241
 20
87.605028654874189
 30
0.0
 11
66.744650258071246
 21
87.583228654874205
 31
0.0
  0
LINE
  5
2C5
  8
0
 39
5.0
 10
66.744650258071246
 20
87.583228654874205
 30
0.0
 11
66.79315025807125
 21
87.556928654874199
 31
0.0
  0
LINE
  5
2C6
  8
0
 39
5.0
 10
66.79315025807125
 20
87.556928654874199
 30
0.0
 11
66.834450258071243
 21
87.526028654874196
 31
0.0
  0
LINE
  5
2C7
  8
0
 39
5.0
 10
66.834450258071243
 20
87.526028654874196
 30
0.0
 11
66.86945025807124
 21
87.490128654874198
 31
0.0
  0
LINE
  5
2C8
  8
0
 39
5.0
 10
66.86945025807124
 20
87.490128654874198
 30
0.0
 11
66.898250258071258
 21
87.4495286548742
 31
0.0
  0
LINE
  5
2C9
  8
0
 39
5.0
 10
66.898250258071258
 20
87.4495286548742
 30
0.0
 11
66.921450258071246
 21
87.403728654874186
 31
0.0
  0
LINE
  5
2CA
  8
0
 39
5.0
 10
66.921450258071246
 20
87.403728654874186
 30
0.0
 11
66.939250258071255
 21
87.352928654874205
 31
0.0
  0
LINE
  5
2CB
  8
0
 39
5.0
 10
66.939250258071255
 20
87.352928654874205
 30
0.0
 11
66.952550258071241
 21
87.296528654874194
 31
0.0
  0
LINE
  5
2CC
  8
0
 39
5.0
 10
66.952550258071241
 20
87.296528654874194
 30
0.0
 11
66.961350258071249
 21
87.234828654874192
 31
0.0
  0
LINE
  5
2CD
  8
0
 39
5.0
 10
66.961350258071249
 20
87.234828654874192
 30
0.0
 11
66.966350258071245
 21
87.167428654874186
 31
0.0
  0
LINE
  5
2CE
  8
0
 39
5.0
 10
66.966350258071245
 20
87.167428654874186
 30
0.0
 11
66.967750258071248
 21
87.0942286548742
 31
0.0
  0
LINE
  5
2CF
  8
0
 39
5.0
 10
66.967750258071248
 20
87.0942286548742
 30
0.0
 11
66.967750258071248
 21
78.2804286548742
 31
0.0
  0
LINE
  5
2D0
  8
0
 39
5.0
 10
66.967750258071248
 20
78.2804286548742
 30
0.0
 11
66.967750258071248
 21
78.2804286548742
 31
0.0
  0
LINE
  5
2D1
  8
0
 39
5.0
 10
66.967750258071248
 20
78.2804286548742
 30
0.0
 11
66.968450258071243
 21
78.271828654874199
 31
0.0
  0
LINE
  5
2D2
  8
0
 39
5.0
 10
66.968450258071243
 20
78.271828654874199
 30
0.0
 11
66.969750258071244
 21
78.331428654874188
 31
0.0
  0
LINE
  5
2D3
  8
0
 39
5.0
 10
66.969750258071244
 20
78.331428654874188
 30
0.0
 11
66.970450258071239
 21
78.294028654874197
 31
0.0
  0
LINE
  5
2D4
  8
0
 39
5.0
 10
66.970450258071239
 20
78.294028654874197
 30
0.0
 11
66.969050258071249
 21
78.245828654874174
 31
0.0
  0
LINE
  5
2D5
  8
0
 39
5.0
 10
66.969050258071249
 20
78.245828654874174
 30
0.0
 11
66.964650258071245
 21
78.188828654874186
 31
0.0
  0
LINE
  5
2D6
  8
0
 39
5.0
 10
66.964650258071245
 20
78.188828654874186
 30
0.0
 11
66.955850258071223
 21
78.125628654874191
 31
0.0
  0
LINE
  5
2D7
  8
0
 39
5.0
 10
66.955850258071223
 20
78.125628654874191
 30
0.0
 11
66.941450258071242
 21
78.058428654874191
 31
0.0
  0
LINE
  5
2D8
  8
0
 39
5.0
 10
66.941450258071242
 20
78.058428654874191
 30
0.0
 11
66.920150258071246
 21
77.989528654874192
 31
0.0
  0
LINE
  5
2D9
  8
0
 39
5.0
 10
66.920150258071246
 20
77.989528654874192
 30
0.0
 11
66.891050258071246
 21
77.920928654874174
 31
0.0
  0
LINE
  5
2DA
  8
0
 39
5.0
 10
66.891050258071246
 20
77.920928654874174
 30
0.0
 11
66.852550258071247
 21
77.855528654874192
 31
0.0
  0
LINE
  5
2DB
  8
0
 39
5.0
 10
66.852550258071247
 20
77.855528654874192
 30
0.0
 11
66.80355025807124
 21
77.795228654874194
 31
0.0
  0
LINE
  5
2DC
  8
0
 39
5.0
 10
66.80355025807124
 20
77.795228654874194
 30
0.0
 11
66.74275025807124
 21
77.742628654874196
 31
0.0
  0
LINE
  5
2DD
  8
0
 39
5.0
 10
66.74275025807124
 20
77.742628654874196
 30
0.0
 11
66.669250258071244
 21
77.699728654874193
 31
0.0
  0
LINE
  5
2DE
  8
0
 39
5.0
 10
66.669250258071244
 20
77.699728654874193
 30
0.0
 11
66.581350258071254
 21
77.668928654874193
 31
0.0
  0
LINE
  5
2DF
  8
0
 39
5.0
 10
66.581350258071254
 20
77.668928654874193
 30
0.0
 11
66.478150258071238
 21
77.652528654874175
 31
0.0
  0
LINE
  5
2E0
  8
0
 39
5.0
 10
66.478150258071238
 20
77.652528654874175
 30
0.0
 11
66.358150258071248
 21
77.653028654874191
 31
0.0
  0
LINE
  5
2E1
  8
0
 39
5.0
 10
67.457350258071259
 20
77.652528654874175
 30
0.0
 11
67.577350258071249
 21
77.653028654874191
 31
0.0
  0
LINE
  5
2E2
  8
0
 39
5.0
 10
67.354150258071243
 20
77.668928654874193
 30
0.0
 11
67.457350258071259
 21
77.652528654874175
 31
0.0
  0
LINE
  5
2E3
  8
0
 39
5.0
 10
67.266250258071253
 20
77.699728654874193
 30
0.0
 11
67.354150258071243
 21
77.668928654874193
 31
0.0
  0
LINE
  5
2E4
  8
0
 39
5.0
 10
67.192750258071257
 20
77.742628654874196
 30
0.0
 11
67.266250258071253
 21
77.699728654874193
 31
0.0
  0
LINE
  5
2E5
  8
0
 39
5.0
 10
67.131950258071257
 20
77.795228654874194
 30
0.0
 11
67.192750258071257
 21
77.742628654874196
 31
0.0
  0
LINE
  5
2E6
  8
0
 39
5.0
 10
67.08295025807125
 20
77.855528654874192
 30
0.0
 11
67.131950258071257
 21
77.795228654874194
 31
0.0
  0
LINE
  5
2E7
  8
0
 39
5.0
 10
67.044450258071251
 20
77.920928654874174
 30
0.0
 11
67.08295025807125
 21
77.855528654874192
 31
0.0
  0
LINE
  5
2E8
  8
0
 39
5.0
 10
67.015350258071251
 20
77.989528654874192
 30
0.0
 11
67.044450258071251
 21
77.920928654874174
 31
0.0
  0
LINE
  5
2E9
  8
0
 39
5.0
 10
66.994050258071255
 20
78.058428654874191
 30
0.0
 11
67.015350258071251
 21
77.989528654874192
 31
0.0
  0
LINE
  5
2EA
  8
0
 39
5.0
 10
66.97965025807126
 20
78.125628654874191
 30
0.0
 11
66.994050258071255
 21
78.058428654874191
 31
0.0
  0
LINE
  5
2EB
  8
0
 39
5.0
 10
66.970850258071252
 20
78.188828654874186
 30
0.0
 11
66.97965025807126
 21
78.125628654874191
 31
0.0
  0
LINE
  5
2EC
  8
0
 39
5.0
 10
66.966450258071248
 20
78.245828654874174
 30
0.0
 11
66.970850258071252
 21
78.188828654874186
 31
0.0
  0
LINE
  5
2ED
  8
0
 39
5.0
 10
66.965050258071258
 20
78.294028654874197
 30
0.0
 11
66.966450258071248
 21
78.245828654874174
 31
0.0
  0
LINE
  5
2EE
  8
0
 39
5.0
 10
66.965750258071253
 20
78.331428654874188
 30
0.0
 11
66.965050258071258
 21
78.294028654874197
 31
0.0
  0
LINE
  5
2EF
  8
0
 39
5.0
 10
66.967050258071239
 20
78.271828654874199
 30
0.0
 11
66.965750258071253
 21
78.331428654874188
 31
0.0
  0
LINE
  5
2F0
  8
0
 39
5.0
 10
66.967750258071248
 20
78.2804286548742
 30
0.0
 11
66.967050258071239
 21
78.271828654874199
 31
0.0
  0
LINE
  5
2F1
  8
0
 39
5.0
 10
66.967750258071248
 20
78.2804286548742
 30
0.0
 11
66.967750258071248
 21
78.2804286548742
 31
0.0
  0
LINE
  5
2F2
  8
0
 39
5.0
 10
66.967750258071248
 20
87.0942286548742
 30
0.0
 11
66.967750258071248
 21
78.2804286548742
 31
0.0
  0
LINE
  5
2F3
  8
0
 39
5.0
 10
66.969150258071252
 20
87.167428654874186
 30
0.0
 11
66.967750258071248
 21
87.0942286548742
 31
0.0
  0
LINE
  5
2F4
  8
0
 39
5.0
 10
66.974150258071234
 20
87.234828654874192
 30
0.0
 11
66.969150258071252
 21
87.167428654874186
 31
0.0
  0
LINE
  5
2F5
  8
0
 39
5.0
 10
66.982950258071256
 20
87.296528654874194
 30
0.0
 11
66.974150258071234
 21
87.234828654874192
 31
0.0
  0
LINE
  5
2F6
  8
0
 39
5.0
 10
66.996250258071242
 20
87.352928654874205
 30
0.0
 11
66.982950258071256
 21
87.296528654874194
 31
0.0
  0
LINE
  5
2F7
  8
0
 39
5.0
 10
67.014050258071251
 20
87.403728654874186
 30
0.0
 11
66.996250258071242
 21
87.352928654874205
 31
0.0
  0
LINE
  5
2F8
  8
0
 39
5.0
 10
67.037250258071225
 20
87.4495286548742
 30
0.0
 11
67.014050258071251
 21
87.403728654874186
 31
0.0
  0
LINE
  5
2F9
  8
0
 39
5.0
 10
67.066050258071243
 20
87.490128654874198
 30
0.0
 11
67.037250258071225
 21
87.4495286548742
 31
0.0
  0
LINE
  5
2FA
  8
0
 39
5.0
 10
67.101050258071254
 20
87.526028654874196
 30
0.0
 11
67.066050258071243
 21
87.490128654874198
 31
0.0
  0
LINE
  5
2FB
  8
0
 39
5.0
 10
67.142350258071247
 20
87.556928654874199
 30
0.0
 11
67.101050258071254
 21
87.526028654874196
 31
0.0
  0
LINE
  5
2FC
  8
0
 39
5.0
 10
67.190850258071251
 20
87.583228654874205
 30
0.0
 11
67.142350258071247
 21
87.556928654874199
 31
0.0
  0
LINE
  5
2FD
  8
0
 39
5.0
 10
67.246650258071256
 20
87.605028654874189
 30
0.0
 11
67.190850258071251
 21
87.583228654874205
 31
0.0
  0
LINE
  5
2FE
  8
0
 39
5.0
 10
67.310550258071245
 20
87.622728654874194
 30
0.0
 11
67.246650258071256
 21
87.605028654874189
 31
0.0
  0
LINE
  5
2FF
  8
0
 39
5.0
 10
67.382550258071234
 20
87.636128654874199
 30
0.0
 11
67.310550258071245
 21
87.622728654874194
 31
0.0
  0
LINE
  5
300
  8
0
 39
5.0
 10
67.463550258071251
 20
87.645628654874201
 30
0.0
 11
67.382550258071234
 21
87.636128654874199
 31
0.0
  0
LINE
  5
301
  8
0
 39
5.0
 10
67.553650258071244
 20
87.651128654874185
 30
0.0
 11
67.463550258071251
 21
87.645628654874201
 31
0.0
  0
LINE
  5
302
  8
0
 39
5.0
 10
67.653550258071235
 20
87.653028654874177
 30
0.0
 11
67.553650258071244
 21
87.651128654874185
 31
0.0
  0
LINE
  5
303
  8
0
 39
5.0
 10
67.653550258071235
 20
87.653028654874177
 30
0.0
 11
67.653550258071235
 21
87.653028654874177
 31
0.0
  0
LINE
  5
305
  8
0
 10
62.20635025807124
 20
77.653028654874191
 30
0.0
 11
60.025803916607821
 21
77.653028654874191
 31
0.0
  0
LINE
  5
30A
  8
2
 10
61.63675025807126
 20
87.653028654874177
 30
0.0
 11
61.63675025807126
 21
79.653028654874191
 31
0.0
  0
LINE
  5
30B
  8
0
 10
61.936750258071257
 20
87.653028654874177
 30
0.0
 11
61.936750258071257
 21
79.653028654874191
 31
0.0
  0
LINE
  5
30F
  8
0
 10
61.63675025807126
 20
79.653028654874191
 30
0.0
 11
64.13675025807126
 21
79.653028654874191
 31
0.0
  0
LINE
  5
313
  8
0
 10
63.13675025807126
 20
73.653028654874191
 30
0.0
 11
63.13675025807126
 21
78.610628654874191
 31
0.0
  0
LINE
  5
316
  8
0
 10
63.13675025807126
 20
78.610628654874191
 30
0.0
 11
61.936750258071257
 21
79.653028654874191
 31
0.0
  0
LINE
  5
323
  8
0
 10
61.036750258071258
 20
75.653028654874191
 30
0.0
 11
62.206350258071261
 21
75.653028654874191
 31
0.0
  0
LINE
  5
328
  8
0
 10
61.936750258071257
 20
73.653028654874191
 30
0.0
 11
61.036750258071258
 21
74.653028654874191
 31
0.0
  0
LINE
  5
329
  8
0
 10
61.936750258071257
 20
73.653028654874191
 30
0.0
 11
64.13675025807126
 21
73.653028654874191
 31
0.0
  0
LINE
  5
32A
  8
0
 10
61.036750258071258
 20
74.653028654874191
 30
0.0
 11
61.036750258071258
 21
75.653028654874191
 31
0.0
  0
LINE
  5
33E
  8
0
 39
5.0
 10
64.13675025807126
 20
75.65302865487422
 30
0.0
 11
67.236750258071254
 21
75.653028654874177
 31
0.0
  0
LINE
  5
33F
  8
0
 39
5.0
 10
66.067150258071266
 20
77.653028654874191
 30
0.0
 11
66.067150258071266
 21
75.653028654874191
 31
0.0
  0
LINE
  5
340
  8
0
 10
66.336750258071262
 20
73.653028654874191
 30
0.0
 11
64.13675025807126
 21
73.653028654874191
 31
0.0
  0
LINE
  5
341
  8
0
 10
67.236750258071254
 20
74.653028654874191
 30
0.0
 11
67.236750258071254
 21
75.653028654874191
 31
0.0
  0
LINE
  5
342
  8
0
 10
66.336750258071262
 20
73.653028654874191
 30
0.0
 11
67.236750258071254
 21
74.653028654874191
 31
0.0
  0
LINE
  5
345
  8
3
 10
65.13675025807126
 20
78.610628654874191
 30
0.0
 11
66.336750258071262
 21
79.653028654874191
 31
0.0
  0
LINE
  5
346
  8
3
 10
66.63675025807126
 20
79.653028654874191
 30
0.0
 11
64.13675025807126
 21
79.653028654874191
 31
0.0
  0
LINE
  5
347
  8
3
 10
66.63675025807126
 20
87.653028654874177
 30
0.0
 11
66.63675025807126
 21
79.653028654874191
 31
0.0
  0
LINE
  5
348
  8
3
 10
66.336750258071262
 20
87.653028654874177
 30
0.0
 11
66.336750258071262
 21
79.653028654874191
 31
0.0
  0
LINE
  5
34A
  8
3
 10
64.13675025807126
 20
78.610628654874191
 30
0.0
 11
65.13675025807126
 21
78.610628654874191
 31
0.0
  0
LINE
  5
34D
  8
3
 10
65.13675025807126
 20
73.653028654874191
 30
0.0
 11
65.13675025807126
 21
78.610628654874191
 31
0.0
  0
LINE
  5
350
  8
0
 10
67.236750258071254
 20
74.653028654874191
 30
0.0
 11
64.13675025807126
 21
74.653028654874191
 31
0.0
  0
DIMENSION
  5
373
  8
2
  2
*D1
 10
52.286509378122439
 20
75.653028654874177
 30
0.0
 11
50.411509378122432
 21
82.111361988207506
 31
0.0
 70
     0
 13
66.336750258071262
 23
73.653028654874191
 33
0.0
 14
67.236750258071254
 24
75.653028654874177
 34
0.0
 50
90.0
  0
DIMENSION
  5
383
  8
2
  2
*D2
 10
65.13675025807126
 20
65.416298838809809
 30
0.0
 11
72.845083591404588
 21
67.291298838809809
 31
0.0
 70
     0
  1
%%c<>
 13
63.13675025807126
 23
73.653028654874191
 33
0.0
 14
65.13675025807126
 24
73.653028654874191
 34
0.0
  0
DIMENSION
  5
392
  8
2
  2
*D3
 10
66.336750258071262
 20
60.170274410768378
 30
0.0
 11
75.711750258071262
 21
62.045274410768378
 31
0.0
 70
     0
  1
%%c<>
 13
61.936750258071257
 23
73.653028654874191
 33
0.0
 14
66.336750258071262
 24
73.653028654874191
 34
0.0
  0
DIMENSION
  5
3A1
  8
2
  2
*D4
 10
67.236750258071254
 20
54.622654681608147
 30
0.0
 11
76.611750258071254
 21
56.497654681608147
 31
0.0
 70
     0
  1
%%c<>
 13
61.036750258071258
 23
74.653028654874191
 33
0.0
 14
67.236750258071254
 24
74.653028654874191
 34
0.0
  0
DIMENSION
  5
40B
  8
2
  2
*D5
 10
79.548308475497237
 20
79.653028654874191
 30
0.0
 11
77.673308475497223
 21
83.653028654874205
 31
0.0
 70
     0
 13
68.048350258071267
 23
87.653028654874177
 33
0.0
 14
66.336750258071262
 24
79.653028654874191
 34
0.0
 50
90.0
  0
DIMENSION
  5
418
  8
2
  2
*D6
 10
84.005198215108607
 20
77.652528654874175
 30
0.0
 11
82.130198215108607
 21
82.652778654874183
 31
0.0
 70
     0
 13
68.048350258071267
 23
87.653028654874177
 33
0.0
 14
68.244550258071257
 24
77.652528654874175
 34
0.0
 50
90.0
  0
DIMENSION
  5
425
  8
2
  2
*D7
 10
88.462088208087394
 20
73.653028654874191
 30
0.0
 11
86.587088208087394
 21
80.653028654874205
 31
0.0
 70
     0
 13
84.005198215108607
 23
87.653028654874177
 33
0.0
 14
65.711750258071262
 24
73.653028654874191
 34
0.0
 50
90.0
  0
TEXT
  5
456
  8
2
 10
49.901020749654101
 20
91.250457649912477
 30
0.0
 40
2.5
  1
M5
  0
TEXT
  5
457
  8
2
 10
49.901020496286641
 20
87.06383429004967
 30
0.0
 40
2.5
  1
H8
  0
POLYLINE
  8
2
  5
48E
  66
     1
 10
0.000000
 20
0.000000
 30
0.000000
  70
     8
  0
VERTEX
  8
2
  5
48F
 10
61.6368
 20
83.6530
 30
0.000000
  70
    32
  0
VERTEX
  8
2
  5
490
 10
54.8353
 20
90.6706
 30
0.000000
  70
    32
  0
VERTEX
  8
2
  5
491
 10
48.6660
 20
90.6706
 30
0.000000
  70
    32
  0
SEQEND
  8
2
  5
492
  0
POLYLINE
  8
2
  5
493
  66
     1
 10
0.000000
 20
0.000000
 30
0.000000
  70
     8
  0
VERTEX
  8
2
  5
494
 10
59.5394
 20
82.6873
 30
0.000000
  70
    32
  0
VERTEX
  8
2
  5
495
 10
54.8353
 20
86.4707
 30
0.000000
  70
    32
  0
VERTEX
  8
2
  5
496
 10
47.5444
 20
86.4707
 30
0.000000
  70
    32
  0
SEQEND
  8
2
  5
497
  0
ENDSEC
  0
EOF
