  0
SECTION
  2
HEADER
  9
$ACADVER
  1
AC1009
  9
$INSBASE
 10
0.0
 20
0.0
 30
0.0
  9
$EXTMIN
 10
63.756630619851592
 20
21.880094813400898
 30
0.0
  9
$EXTMAX
 10
119.8845019269116
 20
86.51152642422403
 30
5.0
  9
$LIMMIN
 10
0.0
 20
0.0
  9
$LIMMAX
 10
420.0
 20
297.0
  9
$ORTHOMODE
 70
     0
  9
$REGENMODE
 70
     1
  9
$FILLMODE
 70
     1
  9
$QTEXTMODE
 70
     0
  9
$MIRRTEXT
 70
     1
  9
$DRAGMODE
 70
     2
  9
$LTSCALE
 40
0.3
  9
$OSMODE
 70
    37
  9
$ATTMODE
 70
     1
  9
$TEXTSIZE
 40
2.5
  9
$TRACEWID
 40
1.0
  9
$TEXTSTYLE
  7
STANDARD
  9
$CLAYER
  8
2
  9
$CELTYPE
  6
BYLAYER
  9
$CECOLOR
 62
   256
  9
$DIMSCALE
 40
1.0
  9
$DIMASZ
 40
2.5
  9
$DIMEXO
 40
0.625
  9
$DIMDLI
 40
3.75
  9
$DIMRND
 40
0.0
  9
$DIMDLE
 40
0.0
  9
$DIMEXE
 40
1.25
  9
$DIMTP
 40
0.0
  9
$DIMTM
 40
0.0
  9
$DIMTXT
 40
2.5
  9
$DIMCEN
 40
2.5
  9
$DIMTSZ
 40
0.0
  9
$DIMTOL
 70
     0
  9
$DIMLIM
 70
     0
  9
$DIMTIH
 70
     0
  9
$DIMTOH
 70
     0
  9
$DIMSE1
 70
     0
  9
$DIMSE2
 70
     0
  9
$DIMTAD
 70
     1
  9
$DIMZIN
 70
     8
  9
$DIMBLK
  1

  9
$DIMASO
 70
     1
  9
$DIMSHO
 70
     1
  9
$DIMPOST
  1

  9
$DIMAPOST
  1

  9
$DIMALT
 70
     0
  9
$DIMALTD
 70
     3
  9
$DIMALTF
 40
0.03937007874016
  9
$DIMLFAC
 40
1.0
  9
$DIMTOFL
 70
     1
  9
$DIMTVP
 40
0.0
  9
$DIMTIX
 70
     0
  9
$DIMSOXD
 70
     0
  9
$DIMSAH
 70
     0
  9
$DIMBLK1
  1

  9
$DIMBLK2
  1

  9
$DIMSTYLE
  2
ISO-25
  9
$DIMCLRD
 70
     0
  9
$DIMCLRE
 70
     0
  9
$DIMCLRT
 70
     0
  9
$DIMTFAC
 40
1.0
  9
$DIMGAP
 40
0.625
  9
$LUNITS
 70
     2
  9
$LUPREC
 70
     4
  9
$SKETCHINC
 40
1.0
  9
$FILLETRAD
 40
10.0
  9
$AUNITS
 70
     0
  9
$AUPREC
 70
     0
  9
$MENU
  1
.
  9
$ELEVATION
 40
0.0
  9
$PELEVATION
 40
0.0
  9
$THICKNESS
 40
0.0
  9
$LIMCHECK
 70
     0
  9
$BLIPMODE
 70
     0
  9
$CHAMFERA
 40
10.0
  9
$CHAMFERB
 40
10.0
  9
$SKPOLY
 70
     0
  9
$TDCREATE
 40
2453447.4331617011
  9
$TDUPDATE
 40
2453551.9249264812
  9
$TDINDWG
 40
0.01595
  9
$TDUSRTIMER
 40
0.01595
  9
$USRTIMER
 70
     1
  9
$ANGBASE
 50
0.0
  9
$ANGDIR
 70
     0
  9
$PDMODE
 70
     0
  9
$PDSIZE
 40
0.0
  9
$PLINEWID
 40
0.0
  9
$COORDS
 70
     1
  9
$SPLFRAME
 70
     0
  9
$SPLINETYPE
 70
     6
  9
$SPLINESEGS
 70
     8
  9
$ATTDIA
 70
     0
  9
$ATTREQ
 70
     1
  9
$HANDLING
 70
-16383
  9
$HANDSEED
  5
3BC
  9
$SURFTAB1
 70
     6
  9
$SURFTAB2
 70
     6
  9
$SURFTYPE
 70
     6
  9
$SURFU
 70
     6
  9
$SURFV
 70
     6
  9
$UCSNAME
  2

  9
$UCSORG
 10
0.0
 20
0.0
 30
0.0
  9
$UCSXDIR
 10
1.0
 20
0.0
 30
0.0
  9
$UCSYDIR
 10
0.0
 20
1.0
 30
0.0
  9
$PUCSNAME
  2

  9
$PUCSORG
 10
0.0
 20
0.0
 30
0.0
  9
$PUCSXDIR
 10
1.0
 20
0.0
 30
0.0
  9
$PUCSYDIR
 10
0.0
 20
1.0
 30
0.0
  9
$USERI1
 70
     0
  9
$USERI2
 70
     0
  9
$USERI3
 70
     0
  9
$USERI4
 70
     0
  9
$USERI5
 70
     0
  9
$USERR1
 40
0.0
  9
$USERR2
 40
0.0
  9
$USERR3
 40
0.0
  9
$USERR4
 40
0.0
  9
$USERR5
 40
0.0
  9
$WORLDVIEW
 70
     1
  9
$SHADEDGE
 70
     3
  9
$SHADEDIF
 70
    70
  9
$TILEMODE
 70
     1
  9
$MAXACTVP
 70
    64
  9
$PLIMCHECK
 70
     0
  9
$PEXTMIN
 10
1.0000000000000000E+020
 20
1.0000000000000000E+020
 30
1.0000000000000000E+020
  9
$PEXTMAX
 10
-1.0000000000000000E+020
 20
-1.0000000000000000E+020
 30
-1.0000000000000000E+020
  9
$PLIMMIN
 10
0.0
 20
0.0
  9
$PLIMMAX
 10
420.0
 20
297.0
  9
$UNITMODE
 70
     0
  9
$VISRETAIN
 70
     1
  9
$PLINEGEN
 70
     0
  9
$PSLTSCALE
 70
     1
  0
ENDSEC
  0
SECTION
  2
TABLES
  0
TABLE
  2
VPORT
 70
     2
  0
VPORT
  2
*ACTIVE
 70
     0
 10
0.0
 20
0.0
 11
1.0
 21
1.0
 12
111.0049267209413
 22
53.591979425336987
 13
0.0
 23
0.0
 14
10.0
 24
10.0
 15
10.0
 25
10.0
 16
0.0
 26
0.0
 36
1.0
 17
0.0
 27
0.0
 37
0.0
 40
70.051554255814651
 41
2.5392405063291141
 42
50.0
 43
0.0
 44
0.0
 50
0.0
 51
0.0
 71
     0
 72
   100
 73
     1
 74
     3
 75
     0
 76
     0
 77
     0
 78
     0
  0
ENDTAB
  0
TABLE
  2
LTYPE
 70
     3
  0
LTYPE
  2
CONTINUOUS
 70
     0
  3
Solid line
 72
    65
 73
     0
 40
0.0
  0
LTYPE
  2
CENTER
 70
     0
  3
Center ____ _ ____ _ ____ _ ____ _ ____ _ ____
 72
    65
 73
     4
 40
50.799999999999997
 49
31.75
 49
-6.3499999999999988
 49
6.3499999999999988
 49
-6.3499999999999988
  0
LTYPE
  2
DASHED2
 70
     0
  3
Dashed (.5x) _ _ _ _ _ _ _ _ _ _ _ _ _ _ _ _ _
 72
    65
 73
     2
 40
9.5249999999999986
 49
6.3499999999999988
 49
-3.1749999999999989
  0
ENDTAB
  0
TABLE
  2
LAYER
 70
     5
  0
LAYER
  2
0
 70
     0
 62
     7
  6
CONTINUOUS
  0
LAYER
  2
1
 70
     0
 62
     7
  6
CENTER
  0
LAYER
  2
2
 70
     0
 62
     7
  6
CONTINUOUS
  0
LAYER
  2
3
 70
     0
 62
     7
  6
DASHED2
  0
LAYER
  2
DEFPOINTS
 70
     0
 62
     7
  6
CONTINUOUS
  0
ENDTAB
  0
TABLE
  2
STYLE
 70
     3
  0
STYLE
  2
STANDARD
 70
     0
 40
0.0
 41
1.0
 50
0.0
 71
     0
 42
2.5
  3
txt
  4

  0
STYLE
  2
\U+00C9L\U+00C9R_\U+00C2S\U+00C2V\U+00C2B\U+00C2N
 70
     0
 40
1.0
 41
1.0
 50
0.0
 71
     0
 42
1.0
  3
\U+00E9l\U+00E9r \U+00E2S\U+00E2V\U+00E2b\U+00E2N
  4

  0
STYLE
  2

 70
     1
 40
0.0
 41
1.0
 50
0.0
 71
     0
 42
2.5
  3
ltypeshp.shx
  4

  0
ENDTAB
  0
TABLE
  2
VIEW
 70
     0
  0
ENDTAB
  0
TABLE
  2
UCS
 70
     0
  0
ENDTAB
  0
TABLE
  2
APPID
 70
     1
  0
APPID
  2
ACAD
 70
     0
  0
ENDTAB
  0
TABLE
  2
DIMSTYLE
 70
     2
  0
DIMSTYLE
  2
ISO-25
 70
     0
  3

  4

  5

  6

  7

 40
1.0
 41
2.5
 42
0.625
 43
3.75
 44
1.25
 45
0.0
 46
0.0
 47
0.0
 48
0.0
140
2.5
141
2.5
142
0.0
143
0.03937007874016
144
1.0
145
0.0
146
1.0
147
0.625
 71
     0
 72
     0
 73
     0
 74
     0
 75
     0
 76
     0
 77
     1
 78
     8
170
     0
171
     3
172
     1
173
     0
174
     0
175
     0
176
     0
177
     0
178
     0
  0
DIMSTYLE
  2
STANDARD
 70
     0
  3

  4

  5

  6

  7

 40
1.0
 41
0.18
 42
0.0625
 43
0.38
 44
0.18
 45
0.0
 46
0.0
 47
0.0
 48
0.0
140
0.18
141
0.09
142
0.0
143
25.399999999999999
144
1.0
145
0.0
146
1.0
147
0.09
 71
     0
 72
     0
 73
     1
 74
     1
 75
     0
 76
     0
 77
     0
 78
     0
170
     0
171
     2
172
     0
173
     0
174
     0
175
     0
176
     0
177
     0
178
     0
  0
ENDTAB
  0
ENDSEC
  0
SECTION
  2
BLOCKS
  0
BLOCK
  8
0
  2
$MODEL_SPACE
 70
     0
 10
0.0
 20
0.0
 30
0.0
  3
$MODEL_SPACE
  1

  0
ENDBLK
  5
21
  8
0
  0
BLOCK
 67
     1
  8
0
  2
$PAPER_SPACE
 70
     0
 10
0.0
 20
0.0
 30
0.0
  3
$PAPER_SPACE
  1

  0
ENDBLK
  5
1D
 67
     1
  8
0
  0
BLOCK
  8
0
  2
*D1
 70
     1
 10
0.0
 20
0.0
 30
0.0
  3
*D1
  1

  0
LINE
  5
2EC
  8
2
 62
     0
 10
96.436646412653175
 20
79.405825879427454
 30
0.0
 11
110.5827503640771
 21
79.405825879427454
 31
0.0
  0
LINE
  5
2ED
  8
2
 62
     0
 10
94.904046412653187
 20
66.905825879427482
 30
0.0
 11
110.5827503640771
 21
66.905825879427454
 31
0.0
  0
LINE
  5
2EE
  8
2
 62
     0
 10
109.3327503640771
 20
76.905825879427454
 30
0.0
 11
109.3327503640771
 21
69.405825879427454
 31
0.0
  0
SOLID
  5
2EF
  8
2
 62
     0
 10
108.9160836974104
 20
76.905825879427454
 30
0.0
 11
109.7494170307438
 21
76.905825879427454
 31
0.0
 12
109.3327503640771
 22
79.405825879427454
 32
0.0
 13
109.3327503640771
 23
79.405825879427454
 33
0.0
  0
SOLID
  5
2F0
  8
2
 62
     0
 10
108.9160836974104
 20
69.405825879427454
 30
0.0
 11
109.7494170307438
 21
69.405825879427454
 31
0.0
 12
109.3327503640771
 22
66.905825879427454
 32
0.0
 13
109.3327503640771
 23
66.905825879427454
 33
0.0
  0
TEXT
  5
2F1
  8
2
 62
     0
 10
108.7077503640771
 20
69.822492546094168
 30
0.0
 40
2.5
  1
12.5
 50
90.0
  0
POINT
  5
2F2
  8
DEFPOINTS
 62
     0
 10
95.811646412653175
 20
79.405825879427482
 30
0.0
  0
POINT
  5
2F3
  8
DEFPOINTS
 62
     0
 10
94.279046412653187
 20
66.905825879427482
 30
0.0
  0
POINT
  5
2F4
  8
DEFPOINTS
 62
     0
 10
109.3327503640771
 20
66.905825879427454
 30
0.0
  0
ENDBLK
  5
2EB
  8
0
  0
BLOCK
  8
0
  2
*D2
 70
     1
 10
0.0
 20
0.0
 30
0.0
  3
*D2
  1

  0
LINE
  5
302
  8
2
 62
     0
 10
109.9577503640771
 20
79.405825879427454
 30
0.0
 11
115.13467131988919
 21
79.405825879427454
 31
0.0
  0
LINE
  5
303
  8
2
 62
     0
 10
93.604723877441856
 20
63.405825879427482
 30
0.0
 11
115.13467131988919
 21
63.405825879427482
 31
0.0
  0
LINE
  5
304
  8
2
 62
     0
 10
113.88467131988919
 20
76.905825879427454
 30
0.0
 11
113.88467131988919
 21
65.905825879427482
 31
0.0
  0
SOLID
  5
305
  8
2
 62
     0
 10
113.46800465322249
 20
76.905825879427454
 30
0.0
 11
114.30133798655589
 21
76.905825879427454
 31
0.0
 12
113.88467131988919
 22
79.405825879427454
 32
0.0
 13
113.88467131988919
 23
79.405825879427454
 33
0.0
  0
SOLID
  5
306
  8
2
 62
     0
 10
113.46800465322249
 20
65.905825879427482
 30
0.0
 11
114.30133798655589
 21
65.905825879427482
 31
0.0
 12
113.88467131988919
 22
63.405825879427482
 32
0.0
 13
113.88467131988919
 23
63.405825879427482
 33
0.0
  0
TEXT
  5
307
  8
2
 62
     0
 10
113.25967131988919
 20
69.739159212760839
 30
0.0
 40
2.5
  1
16
 50
90.0
  0
POINT
  5
308
  8
DEFPOINTS
 62
     0
 10
109.3327503640771
 20
79.405825879427454
 30
0.0
  0
POINT
  5
309
  8
DEFPOINTS
 62
     0
 10
92.979723877441856
 20
63.405825879427482
 30
0.0
  0
POINT
  5
30A
  8
DEFPOINTS
 62
     0
 10
113.88467131988919
 20
63.405825879427482
 30
0.0
  0
ENDBLK
  5
301
  8
0
  0
BLOCK
  8
0
  2
*D3
 70
     1
 10
0.0
 20
0.0
 30
0.0
  3
*D3
  1

  0
LINE
  5
30D
  8
2
 62
     0
 10
114.50967131988919
 20
79.405825879427454
 30
0.0
 11
119.8845019269116
 21
79.405825879427454
 31
0.0
  0
LINE
  5
30E
  8
2
 62
     0
 10
91.804046412653193
 20
59.405825879427489
 30
0.0
 11
119.8845019269116
 21
59.405825879427482
 31
0.0
  0
LINE
  5
30F
  8
2
 62
     0
 10
118.6345019269116
 20
76.905825879427454
 30
0.0
 11
118.6345019269116
 21
61.905825879427482
 31
0.0
  0
SOLID
  5
310
  8
2
 62
     0
 10
118.217835260245
 20
76.905825879427454
 30
0.0
 11
119.0511685935783
 21
76.905825879427454
 31
0.0
 12
118.6345019269116
 22
79.405825879427454
 32
0.0
 13
118.6345019269116
 23
79.405825879427454
 33
0.0
  0
SOLID
  5
311
  8
2
 62
     0
 10
118.217835260245
 20
61.905825879427482
 30
0.0
 11
119.0511685935783
 21
61.905825879427482
 31
0.0
 12
118.6345019269116
 22
59.405825879427482
 32
0.0
 13
118.6345019269116
 23
59.405825879427482
 33
0.0
  0
TEXT
  5
312
  8
2
 62
     0
 10
118.0095019269116
 20
67.530825879427496
 30
0.0
 40
2.5
  1
20
 50
90.0
  0
POINT
  5
313
  8
DEFPOINTS
 62
     0
 10
113.88467131988919
 20
79.405825879427454
 30
0.0
  0
POINT
  5
314
  8
DEFPOINTS
 62
     0
 10
91.179046412653193
 20
59.405825879427489
 30
0.0
  0
POINT
  5
315
  8
DEFPOINTS
 62
     0
 10
118.6345019269116
 20
59.405825879427482
 30
0.0
  0
ENDBLK
  5
317
  8
0
  0
BLOCK
  8
0
  2
*D4
 70
     1
 10
0.0
 20
0.0
 30
0.0
  3
*D4
  1

  0
LINE
  5
31A
  8
2
 62
     0
 10
90.554046412653193
 20
59.405825879427489
 30
0.0
 11
70.183059481813814
 21
59.405825879427489
 31
0.0
  0
LINE
  5
31B
  8
2
 62
     0
 10
91.454046412653184
 20
61.405825879427482
 30
0.0
 11
70.183059481813814
 21
61.405825879427489
 31
0.0
  0
LINE
  5
31C
  8
2
 62
     0
 10
71.433059481813814
 20
56.905825879427489
 30
0.0
 11
71.433059481813814
 21
54.405825879427489
 31
0.0
  0
LINE
  5
31D
  8
2
 62
     0
 10
71.433059481813814
 20
63.905825879427489
 30
0.0
 11
71.433059481813814
 21
69.322492546094153
 31
0.0
  0
LINE
  5
31E
  8
2
 62
     0
 10
71.433059481813814
 20
59.405825879427489
 30
0.0
 11
71.433059481813814
 21
61.405825879427489
 31
0.0
  0
SOLID
  5
31F
  8
2
 62
     0
 10
71.016392815147142
 20
56.905825879427489
 30
0.0
 11
71.849726148480485
 21
56.905825879427489
 31
0.0
 12
71.433059481813814
 22
59.405825879427489
 32
0.0
 13
71.433059481813814
 23
59.405825879427489
 33
0.0
  0
SOLID
  5
320
  8
2
 62
     0
 10
71.016392815147142
 20
63.905825879427489
 30
0.0
 11
71.849726148480485
 21
63.905825879427489
 31
0.0
 12
71.433059481813814
 22
61.405825879427489
 32
0.0
 13
71.433059481813814
 23
61.405825879427489
 33
0.0
  0
TEXT
  5
321
  8
2
 62
     0
 10
70.8080594818138
 20
67.03082587942751
 30
0.0
 40
2.5
  1
2
 50
90.0
  0
POINT
  5
322
  8
DEFPOINTS
 62
     0
 10
91.179046412653193
 20
59.405825879427489
 30
0.0
  0
POINT
  5
323
  8
DEFPOINTS
 62
     0
 10
92.079046412653184
 20
61.405825879427482
 30
0.0
  0
POINT
  5
324
  8
DEFPOINTS
 62
     0
 10
71.433059481813814
 20
61.405825879427489
 30
0.0
  0
ENDBLK
  5
326
  8
0
  0
BLOCK
  8
0
  2
*D5
 70
     1
 10
0.0
 20
0.0
 30
0.0
  3
*D5
  1

  0
LINE
  5
366
  8
2
 62
     0
 10
87.97904641265319
 20
58.780825879427489
 30
0.0
 11
87.97904641265319
 21
47.803965162382617
 31
0.0
  0
LINE
  5
367
  8
2
 62
     0
 10
89.979046412653204
 20
58.780825879427489
 30
0.0
 11
89.979046412653204
 21
47.803965162382617
 31
0.0
  0
LINE
  5
368
  8
2
 62
     0
 10
85.47904641265319
 20
49.053965162382617
 30
0.0
 11
82.97904641265319
 21
49.053965162382617
 31
0.0
  0
LINE
  5
369
  8
2
 62
     0
 10
92.479046412653204
 20
49.053965162382617
 30
0.0
 11
100.3957130793198
 21
49.053965162382617
 31
0.0
  0
LINE
  5
36A
  8
2
 62
     0
 10
87.97904641265319
 20
49.053965162382617
 30
0.0
 11
89.979046412653204
 21
49.053965162382617
 31
0.0
  0
SOLID
  5
36B
  8
2
 62
     0
 10
85.47904641265319
 20
49.470631829049289
 30
0.0
 11
85.47904641265319
 21
48.63729849571596
 31
0.0
 12
87.97904641265319
 22
49.053965162382617
 32
0.0
 13
87.97904641265319
 23
49.053965162382617
 33
0.0
  0
SOLID
  5
36C
  8
2
 62
     0
 10
92.479046412653204
 20
49.470631829049289
 30
0.0
 11
92.479046412653204
 21
48.63729849571596
 31
0.0
 12
89.979046412653204
 22
49.053965162382617
 32
0.0
 13
89.979046412653204
 23
49.053965162382617
 33
0.0
  0
INSERT
  5
36D
  8
2
  2
*U8
 10
0.0
 20
0.0
 30
0.0
  0
POINT
  5
36E
  8
DEFPOINTS
 62
     0
 10
87.97904641265319
 20
59.405825879427489
 30
0.0
  0
POINT
  5
36F
  8
DEFPOINTS
 62
     0
 10
89.979046412653204
 20
59.405825879427489
 30
0.0
  0
POINT
  5
370
  8
DEFPOINTS
 62
     0
 10
89.979046412653204
 20
49.053965162382617
 30
0.0
  0
ENDBLK
  5
336
  8
0
  0
BLOCK
  8
0
  2
*D6
 70
     1
 10
0.0
 20
0.0
 30
0.0
  3
*D6
  1

  0
LINE
  5
371
  8
2
 62
     0
 10
86.779046412653187
 20
58.780825879427489
 30
0.0
 11
86.779046412653187
 21
42.412301746000722
 31
0.0
  0
LINE
  5
372
  8
2
 62
     0
 10
91.179046412653193
 20
58.780825879427489
 30
0.0
 11
91.179046412653193
 21
42.412301746000722
 31
0.0
  0
LINE
  5
373
  8
2
 62
     0
 10
84.279046412653187
 20
43.662301746000722
 30
0.0
 11
81.779046412653187
 21
43.662301746000722
 31
0.0
  0
LINE
  5
374
  8
2
 62
     0
 10
93.679046412653193
 20
43.662301746000722
 30
0.0
 11
104.92904641265309
 21
43.662301746000722
 31
0.0
  0
LINE
  5
375
  8
2
 62
     0
 10
86.779046412653187
 20
43.662301746000722
 30
0.0
 11
91.179046412653193
 21
43.662301746000722
 31
0.0
  0
SOLID
  5
376
  8
2
 62
     0
 10
84.279046412653187
 20
44.078968412667379
 30
0.0
 11
84.279046412653187
 21
43.24563507933405
 31
0.0
 12
86.779046412653187
 22
43.662301746000722
 32
0.0
 13
86.779046412653187
 23
43.662301746000722
 33
0.0
  0
SOLID
  5
377
  8
2
 62
     0
 10
93.679046412653193
 20
44.078968412667379
 30
0.0
 11
93.679046412653193
 21
43.24563507933405
 31
0.0
 12
91.179046412653193
 22
43.662301746000722
 32
0.0
 13
91.179046412653193
 23
43.662301746000722
 33
0.0
  0
INSERT
  5
378
  8
2
  2
*U9
 10
0.0
 20
0.0
 30
0.0
  0
POINT
  5
379
  8
DEFPOINTS
 62
     0
 10
86.779046412653187
 20
59.405825879427489
 30
0.0
  0
POINT
  5
37A
  8
DEFPOINTS
 62
     0
 10
91.179046412653193
 20
59.405825879427489
 30
0.0
  0
POINT
  5
37B
  8
DEFPOINTS
 62
     0
 10
91.179046412653193
 20
43.662301746000722
 30
0.0
  0
ENDBLK
  5
355
  8
0
  0
BLOCK
  8
0
  2
*D7
 70
     1
 10
0.0
 20
0.0
 30
0.0
  3
*D7
  1

  0
LINE
  5
37C
  8
2
 62
     0
 10
85.879046412653196
 20
59.780825879427489
 30
0.0
 11
85.879046412653196
 21
36.718727114707157
 31
0.0
  0
LINE
  5
37D
  8
2
 62
     0
 10
92.079046412653184
 20
59.780825879427489
 30
0.0
 11
92.079046412653184
 21
36.718727114707157
 31
0.0
  0
LINE
  5
37E
  8
2
 62
     0
 10
83.379046412653196
 20
37.968727114707157
 30
0.0
 11
80.879046412653196
 21
37.968727114707157
 31
0.0
  0
LINE
  5
37F
  8
2
 62
     0
 10
94.579046412653184
 20
37.968727114707157
 30
0.0
 11
105.8290464126531
 21
37.968727114707157
 31
0.0
  0
LINE
  5
380
  8
2
 62
     0
 10
85.879046412653196
 20
37.968727114707157
 30
0.0
 11
92.079046412653184
 21
37.968727114707157
 31
0.0
  0
SOLID
  5
381
  8
2
 62
     0
 10
83.379046412653196
 20
38.385393781373828
 30
0.0
 11
83.379046412653196
 21
37.5520604480405
 31
0.0
 12
85.879046412653196
 22
37.968727114707157
 32
0.0
 13
85.879046412653196
 23
37.968727114707157
 33
0.0
  0
SOLID
  5
382
  8
2
 62
     0
 10
94.579046412653184
 20
38.385393781373828
 30
0.0
 11
94.579046412653184
 21
37.5520604480405
 31
0.0
 12
92.079046412653184
 22
37.968727114707157
 32
0.0
 13
92.079046412653184
 23
37.968727114707157
 33
0.0
  0
INSERT
  5
383
  8
2
  2
*U10
 10
0.0
 20
0.0
 30
0.0
  0
POINT
  5
384
  8
DEFPOINTS
 62
     0
 10
85.879046412653196
 20
60.405825879427489
 30
0.0
  0
POINT
  5
385
  8
DEFPOINTS
 62
     0
 10
92.079046412653184
 20
60.405825879427489
 30
0.0
  0
POINT
  5
386
  8
DEFPOINTS
 62
     0
 10
92.079046412653184
 20
37.968727114707157
 30
0.0
  0
ENDBLK
  5
364
  8
0
  0
BLOCK
  8
0
  2
*U8
 70
     1
 10
0.0
 20
0.0
 30
0.0
  3
*U8
  1

  0
TEXT
  5
3A4
  8
2
 62
     0
 10
95.604046412653204
 20
49.678965162382617
 30
0.0
 40
2.5
  1
\U+2205
  0
TEXT
  5
3A5
  8
2
 62
     0
 10
98.104046412653204
 20
49.678965162382617
 30
0.0
 40
2.5
  1
2
  0
ENDBLK
  5
3A7
  8
0
  0
BLOCK
  8
0
  2
*U9
 70
     1
 10
0.0
 20
0.0
 30
0.0
  3
*U9
  1

  0
TEXT
  5
3A9
  8
2
 62
     0
 10
96.804046412653193
 20
44.287301746000722
 30
0.0
 40
2.5
  1
\U+2205
  0
TEXT
  5
3AA
  8
2
 62
     0
 10
99.304046412653193
 20
44.287301746000722
 30
0.0
 40
2.5
  1
4.4
  0
ENDBLK
  5
3AC
  8
0
  0
BLOCK
  8
0
  2
*U10
 70
     1
 10
0.0
 20
0.0
 30
0.0
  3
*U10
  1

  0
TEXT
  5
3AE
  8
2
 62
     0
 10
97.704046412653184
 20
38.593727114707157
 30
0.0
 40
2.5
  1
\U+2205
  0
TEXT
  5
3AF
  8
2
 62
     0
 10
100.2040464126531
 20
38.593727114707157
 30
0.0
 40
2.5
  1
6.2
  0
ENDBLK
  5
3B1
  8
0
  0
ENDSEC
  0
SECTION
  2
ENTITIES
  0
TEXT
  5
F2
  8
2
 10
74.594698465917688
 20
21.880094813400909
 30
0.0
 40
2.5399440000000002
  1
No. 270.007
 51
-0.0000015352344868
  7
\U+00C9L\U+00C9R_\U+00C2S\U+00C2V\U+00C2B\U+00C2N
  0
LINE
  5
1BC
  8
0
 39
5.0
 10
89.895446412653186
 20
79.405825879427482
 30
0.0
 11
93.066446412653207
 21
79.405825879427482
 31
0.0
  0
LINE
  5
1BD
  8
0
 39
5.0
 10
93.066446412653207
 20
79.405825879427482
 30
0.0
 11
93.066446412653207
 21
79.405825879427482
 31
0.0
  0
LINE
  5
1BE
  8
0
 39
5.0
 10
93.066446412653207
 20
79.405825879427482
 30
0.0
 11
93.157346412653183
 21
79.4012258794275
 31
0.0
  0
LINE
  5
1BF
  8
0
 39
5.0
 10
93.157346412653183
 20
79.4012258794275
 30
0.0
 11
93.245546412653184
 21
79.388125879427491
 31
0.0
  0
LINE
  5
1C0
  8
0
 39
5.0
 10
93.245546412653184
 20
79.388125879427491
 30
0.0
 11
93.330946412653191
 21
79.366625879427474
 31
0.0
  0
LINE
  5
1C1
  8
0
 39
5.0
 10
93.330946412653191
 20
79.366625879427474
 30
0.0
 11
93.412546412653185
 21
79.337625879427492
 31
0.0
  0
LINE
  5
1C2
  8
0
 39
5.0
 10
93.412546412653185
 20
79.337625879427492
 30
0.0
 11
93.490546412653174
 21
79.301025879427499
 31
0.0
  0
LINE
  5
1C3
  8
0
 39
5.0
 10
93.490546412653174
 20
79.301025879427499
 30
0.0
 11
93.563946412653195
 21
79.257725879427483
 31
0.0
  0
LINE
  5
1C4
  8
0
 39
5.0
 10
93.563946412653195
 20
79.257725879427483
 30
0.0
 11
93.632646412653187
 21
79.207825879427489
 31
0.0
  0
LINE
  5
1C5
  8
0
 39
5.0
 10
93.632646412653187
 20
79.207825879427489
 30
0.0
 11
93.695846412653168
 21
79.152125879427501
 31
0.0
  0
LINE
  5
1C6
  8
0
 39
5.0
 10
93.695846412653168
 20
79.152125879427501
 30
0.0
 11
93.753546412653165
 21
79.090525879427489
 31
0.0
  0
LINE
  5
1C7
  8
0
 39
5.0
 10
93.753546412653165
 20
79.090525879427489
 30
0.0
 11
93.804846412653177
 21
79.024025879427484
 31
0.0
  0
LINE
  5
1C8
  8
0
 39
5.0
 10
93.804846412653177
 20
79.024025879427484
 30
0.0
 11
93.84974641265319
 21
78.952725879427476
 31
0.0
  0
LINE
  5
1C9
  8
0
 39
5.0
 10
93.84974641265319
 20
78.952725879427476
 30
0.0
 11
93.887246412653184
 21
78.877425879427491
 31
0.0
  0
LINE
  5
1CA
  8
0
 39
5.0
 10
93.887246412653184
 20
78.877425879427491
 30
0.0
 11
93.917346412653188
 21
78.798125879427474
 31
0.0
  0
LINE
  5
1CB
  8
0
 39
5.0
 10
93.917346412653188
 20
78.798125879427474
 30
0.0
 11
93.939346412653165
 21
78.715525879427489
 31
0.0
  0
LINE
  5
1CC
  8
0
 39
5.0
 10
93.939346412653165
 20
78.715525879427489
 30
0.0
 11
93.952946412653176
 21
78.630025879427492
 31
0.0
  0
LINE
  5
1CD
  8
0
 39
5.0
 10
93.952946412653176
 20
78.630025879427492
 30
0.0
 11
93.957446412653184
 21
78.542225879427491
 31
0.0
  0
LINE
  5
1CE
  8
0
 39
5.0
 10
93.957446412653184
 20
78.542225879427491
 30
0.0
 11
93.957446412653184
 21
64.318225879427487
 31
0.0
  0
LINE
  5
1CF
  8
0
 39
5.0
 10
93.957446412653184
 20
64.318225879427487
 30
0.0
 11
93.957446412653184
 21
64.318225879427487
 31
0.0
  0
LINE
  5
1D0
  8
0
 39
5.0
 10
93.957446412653184
 20
64.318225879427487
 30
0.0
 11
93.952946412653176
 21
64.23012587942749
 31
0.0
  0
LINE
  5
1D1
  8
0
 39
5.0
 10
93.952946412653176
 20
64.23012587942749
 30
0.0
 11
93.939346412653165
 21
64.144625879427494
 31
0.0
  0
LINE
  5
1D2
  8
0
 39
5.0
 10
93.939346412653165
 20
64.144625879427494
 30
0.0
 11
93.917346412653188
 21
64.061925879427491
 31
0.0
  0
LINE
  5
1D3
  8
0
 39
5.0
 10
93.917346412653188
 20
64.061925879427491
 30
0.0
 11
93.887246412653184
 21
63.982825879427487
 31
0.0
  0
LINE
  5
1D4
  8
0
 39
5.0
 10
93.887246412653184
 20
63.982825879427487
 30
0.0
 11
93.84974641265319
 21
63.907325879427489
 31
0.0
  0
LINE
  5
1D5
  8
0
 39
5.0
 10
93.84974641265319
 20
63.907325879427489
 30
0.0
 11
93.804846412653177
 21
63.836125879427492
 31
0.0
  0
LINE
  5
1D6
  8
0
 39
5.0
 10
93.804846412653177
 20
63.836125879427492
 30
0.0
 11
93.753546412653165
 21
63.769525879427491
 31
0.0
  0
LINE
  5
1D7
  8
0
 39
5.0
 10
93.753546412653165
 20
63.769525879427491
 30
0.0
 11
93.695846412653168
 21
63.708225879427488
 31
0.0
  0
LINE
  5
1D8
  8
0
 39
5.0
 10
93.695846412653168
 20
63.708225879427488
 30
0.0
 11
93.632646412653187
 21
63.65222587942749
 31
0.0
  0
LINE
  5
1D9
  8
0
 39
5.0
 10
93.632646412653187
 20
63.65222587942749
 30
0.0
 11
93.563946412653195
 21
63.602425879427493
 31
0.0
  0
LINE
  5
1DA
  8
0
 39
5.0
 10
93.563946412653195
 20
63.602425879427493
 30
0.0
 11
93.490546412653174
 21
63.559025879427487
 31
0.0
  0
LINE
  5
1DB
  8
0
 39
5.0
 10
93.490546412653174
 20
63.559025879427487
 30
0.0
 11
93.412546412653185
 21
63.522625879427501
 31
0.0
  0
LINE
  5
1DC
  8
0
 39
5.0
 10
93.412546412653185
 20
63.522625879427501
 30
0.0
 11
93.330946412653191
 21
63.493425879427491
 31
0.0
  0
LINE
  5
1DD
  8
0
 39
5.0
 10
93.330946412653191
 20
63.493425879427491
 30
0.0
 11
92.979723877441856
 21
63.405825879427482
 31
0.0
  0
LINE
  5
20E
  8
0
 39
5.0
 10
88.953646412653185
 20
79.405825879427482
 30
0.0
 11
82.121046412653186
 21
79.405825879427482
 31
0.0
  0
LINE
  5
20F
  8
0
 39
5.0
 10
82.121046412653186
 20
79.405825879427482
 30
0.0
 11
82.121046412653186
 21
79.405825879427482
 31
0.0
  0
LINE
  5
210
  8
0
 39
5.0
 10
82.121046412653186
 20
79.405825879427482
 30
0.0
 11
82.017046412653187
 21
79.399625879427489
 31
0.0
  0
LINE
  5
211
  8
0
 39
5.0
 10
82.017046412653187
 20
79.399625879427489
 30
0.0
 11
81.914846412653191
 21
79.382025879427488
 31
0.0
  0
LINE
  5
212
  8
0
 39
5.0
 10
81.914846412653191
 20
79.382025879427488
 30
0.0
 11
81.815246412653167
 21
79.353725879427486
 31
0.0
  0
LINE
  5
213
  8
0
 39
5.0
 10
81.815246412653167
 20
79.353725879427486
 30
0.0
 11
81.718646412653186
 21
79.316025879427485
 31
0.0
  0
LINE
  5
214
  8
0
 39
5.0
 10
81.718646412653186
 20
79.316025879427485
 30
0.0
 11
81.626146412653185
 21
79.269525879427491
 31
0.0
  0
LINE
  5
215
  8
0
 39
5.0
 10
81.626146412653185
 20
79.269525879427491
 30
0.0
 11
81.538046412653188
 21
79.215525879427474
 31
0.0
  0
LINE
  5
216
  8
0
 39
5.0
 10
81.538046412653188
 20
79.215525879427474
 30
0.0
 11
81.455146412653207
 21
79.154625879427499
 31
0.0
  0
LINE
  5
217
  8
0
 39
5.0
 10
81.455146412653207
 20
79.154625879427499
 30
0.0
 11
81.378146412653194
 21
79.088225879427483
 31
0.0
  0
LINE
  5
218
  8
0
 39
5.0
 10
81.378146412653194
 20
79.088225879427483
 30
0.0
 11
81.307746412653174
 21
79.0168258794275
 31
0.0
  0
LINE
  5
219
  8
0
 39
5.0
 10
81.307746412653174
 20
79.0168258794275
 30
0.0
 11
81.244546412653193
 21
78.941825879427483
 31
0.0
  0
LINE
  5
21A
  8
0
 39
5.0
 10
81.244546412653193
 20
78.941825879427483
 30
0.0
 11
81.189346412653165
 21
78.863825879427495
 31
0.0
  0
LINE
  5
21B
  8
0
 39
5.0
 10
81.189346412653165
 20
78.863825879427495
 30
0.0
 11
81.142446412653186
 21
78.784225879427481
 31
0.0
  0
LINE
  5
21C
  8
0
 39
5.0
 10
81.142446412653186
 20
78.784225879427481
 30
0.0
 11
81.104946412653192
 21
78.703425879427499
 31
0.0
  0
LINE
  5
21D
  8
0
 39
5.0
 10
81.104946412653192
 20
78.703425879427499
 30
0.0
 11
81.077246412653196
 21
78.622925879427498
 31
0.0
  0
LINE
  5
21E
  8
0
 39
5.0
 10
81.077246412653196
 20
78.622925879427498
 30
0.0
 11
81.060146412653182
 21
78.543425879427488
 31
0.0
  0
LINE
  5
21F
  8
0
 39
5.0
 10
81.060146412653182
 20
78.543425879427488
 30
0.0
 11
81.054246412653185
 21
78.466025879427491
 31
0.0
  0
LINE
  5
220
  8
0
 39
5.0
 10
81.054246412653185
 20
78.466025879427491
 30
0.0
 11
81.054246412653185
 21
64.394425879427487
 31
0.0
  0
LINE
  5
221
  8
0
 39
5.0
 10
81.054246412653185
 20
64.394425879427487
 30
0.0
 11
81.054246412653185
 21
64.394425879427487
 31
0.0
  0
LINE
  5
222
  8
0
 39
5.0
 10
81.054246412653185
 20
64.394425879427487
 30
0.0
 11
81.058746412653193
 21
64.383225879427485
 31
0.0
  0
LINE
  5
223
  8
0
 39
5.0
 10
81.058746412653193
 20
64.383225879427485
 30
0.0
 11
81.072046412653165
 21
64.351825879427494
 31
0.0
  0
LINE
  5
224
  8
0
 39
5.0
 10
81.072046412653165
 20
64.351825879427494
 30
0.0
 11
81.094146412653174
 21
64.303125879427483
 31
0.0
  0
LINE
  5
225
  8
0
 39
5.0
 10
81.094146412653174
 20
64.303125879427483
 30
0.0
 11
81.124646412653192
 21
64.240325879427488
 31
0.0
  0
LINE
  5
226
  8
0
 39
5.0
 10
81.124646412653192
 20
64.240325879427488
 30
0.0
 11
81.163746412653182
 21
64.166025879427494
 31
0.0
  0
LINE
  5
227
  8
0
 39
5.0
 10
81.163746412653182
 20
64.166025879427494
 30
0.0
 11
81.211146412653207
 21
64.083525879427498
 31
0.0
  0
LINE
  5
228
  8
0
 39
5.0
 10
81.211146412653207
 20
64.083525879427498
 30
0.0
 11
81.266846412653194
 21
63.99552587942749
 31
0.0
  0
LINE
  5
229
  8
0
 39
5.0
 10
81.266846412653194
 20
63.99552587942749
 30
0.0
 11
81.330546412653163
 21
63.90542587942749
 31
0.0
  0
LINE
  5
22A
  8
0
 39
5.0
 10
81.330546412653163
 20
63.90542587942749
 30
0.0
 11
81.40254641265318
 21
63.815625879427493
 31
0.0
  0
LINE
  5
22B
  8
0
 39
5.0
 10
81.40254641265318
 20
63.815625879427493
 30
0.0
 11
81.482246412653183
 21
63.729425879427488
 31
0.0
  0
LINE
  5
22C
  8
0
 39
5.0
 10
81.482246412653183
 20
63.729425879427488
 30
0.0
 11
81.569846412653192
 21
63.649825879427489
 31
0.0
  0
LINE
  5
22D
  8
0
 39
5.0
 10
81.569846412653192
 20
63.649825879427489
 30
0.0
 11
81.665146412653186
 21
63.579925879427492
 31
0.0
  0
LINE
  5
22E
  8
0
 39
5.0
 10
81.665146412653186
 20
63.579925879427492
 30
0.0
 11
81.768146412653181
 21
63.522225879427488
 31
0.0
  0
LINE
  5
22F
  8
0
 39
5.0
 10
81.768146412653181
 20
63.522225879427488
 30
0.0
 11
81.878446412653176
 21
63.48032587942749
 31
0.0
  0
LINE
  5
230
  8
0
 39
5.0
 10
81.878446412653176
 20
63.48032587942749
 30
0.0
 11
82.248745990712365
 21
63.405825879427482
 31
0.0
  0
LINE
  5
23E
  8
0
 39
5.0
 10
88.979046412653176
 20
79.405825879427482
 30
0.0
 11
95.811646412653175
 21
79.405825879427482
 31
0.0
  0
LINE
  5
23F
  8
0
 39
5.0
 10
95.811646412653175
 20
79.405825879427482
 30
0.0
 11
95.811646412653175
 21
79.405825879427482
 31
0.0
  0
LINE
  5
240
  8
0
 39
5.0
 10
95.811646412653175
 20
79.405825879427482
 30
0.0
 11
95.915846412653195
 21
79.399625879427489
 31
0.0
  0
LINE
  5
241
  8
0
 39
5.0
 10
95.915846412653195
 20
79.399625879427489
 30
0.0
 11
96.018046412653163
 21
79.382025879427488
 31
0.0
  0
LINE
  5
242
  8
0
 39
5.0
 10
96.018046412653163
 20
79.382025879427488
 30
0.0
 11
96.117746412653204
 21
79.353725879427486
 31
0.0
  0
LINE
  5
243
  8
0
 39
5.0
 10
96.117746412653204
 20
79.353725879427486
 30
0.0
 11
96.214146412653164
 21
79.316025879427485
 31
0.0
  0
LINE
  5
244
  8
0
 39
5.0
 10
96.214146412653164
 20
79.316025879427485
 30
0.0
 11
96.306846412653186
 21
79.269525879427491
 31
0.0
  0
LINE
  5
245
  8
0
 39
5.0
 10
96.306846412653186
 20
79.269525879427491
 30
0.0
 11
96.394946412653184
 21
79.215525879427474
 31
0.0
  0
LINE
  5
246
  8
0
 39
5.0
 10
96.394946412653184
 20
79.215525879427474
 30
0.0
 11
96.477846412653165
 21
79.154625879427499
 31
0.0
  0
LINE
  5
247
  8
0
 39
5.0
 10
96.477846412653165
 20
79.154625879427499
 30
0.0
 11
96.554646412653184
 21
79.088225879427483
 31
0.0
  0
LINE
  5
248
  8
0
 39
5.0
 10
96.554646412653184
 20
79.088225879427483
 30
0.0
 11
96.62514641265318
 21
79.0168258794275
 31
0.0
  0
LINE
  5
249
  8
0
 39
5.0
 10
96.62514641265318
 20
79.0168258794275
 30
0.0
 11
96.688346412653175
 21
78.941825879427483
 31
0.0
  0
LINE
  5
24A
  8
0
 39
5.0
 10
96.688346412653175
 20
78.941825879427483
 30
0.0
 11
96.743746412653195
 21
78.863825879427495
 31
0.0
  0
LINE
  5
24B
  8
0
 39
5.0
 10
96.743746412653195
 20
78.863825879427495
 30
0.0
 11
96.790446412653196
 21
78.784225879427481
 31
0.0
  0
LINE
  5
24C
  8
0
 39
5.0
 10
96.790446412653196
 20
78.784225879427481
 30
0.0
 11
96.828046412653194
 21
78.703425879427499
 31
0.0
  0
LINE
  5
24D
  8
0
 39
5.0
 10
96.828046412653194
 20
78.703425879427499
 30
0.0
 11
96.855646412653186
 21
78.622925879427498
 31
0.0
  0
LINE
  5
24E
  8
0
 39
5.0
 10
96.855646412653186
 20
78.622925879427498
 30
0.0
 11
96.872746412653186
 21
78.543425879427488
 31
0.0
  0
LINE
  5
24F
  8
0
 39
5.0
 10
96.872746412653186
 20
78.543425879427488
 30
0.0
 11
96.878446412653176
 21
78.466025879427491
 31
0.0
  0
LINE
  5
250
  8
0
 39
5.0
 10
96.878446412653176
 20
78.466025879427491
 30
0.0
 11
96.878446412653176
 21
64.394425879427487
 31
0.0
  0
LINE
  5
251
  8
0
 39
5.0
 10
96.878446412653176
 20
64.394425879427487
 30
0.0
 11
96.878446412653176
 21
64.394425879427487
 31
0.0
  0
LINE
  5
252
  8
0
 39
5.0
 10
96.878446412653176
 20
64.394425879427487
 30
0.0
 11
96.874146412653175
 21
64.383225879427485
 31
0.0
  0
LINE
  5
253
  8
0
 39
5.0
 10
96.874146412653175
 20
64.383225879427485
 30
0.0
 11
96.860846412653189
 21
64.351825879427494
 31
0.0
  0
LINE
  5
254
  8
0
 39
5.0
 10
96.860846412653189
 20
64.351825879427494
 30
0.0
 11
96.838846412653183
 21
64.303125879427483
 31
0.0
  0
LINE
  5
255
  8
0
 39
5.0
 10
96.838846412653183
 20
64.303125879427483
 30
0.0
 11
96.808246412653176
 21
64.240325879427488
 31
0.0
  0
LINE
  5
256
  8
0
 39
5.0
 10
96.808246412653176
 20
64.240325879427488
 30
0.0
 11
96.769246412653189
 21
64.166025879427494
 31
0.0
  0
LINE
  5
257
  8
0
 39
5.0
 10
96.769246412653189
 20
64.166025879427494
 30
0.0
 11
96.721846412653164
 21
64.083525879427498
 31
0.0
  0
LINE
  5
258
  8
0
 39
5.0
 10
96.721846412653164
 20
64.083525879427498
 30
0.0
 11
96.66624641265318
 21
63.99552587942749
 31
0.0
  0
LINE
  5
259
  8
0
 39
5.0
 10
96.66624641265318
 20
63.99552587942749
 30
0.0
 11
96.602246412653187
 21
63.90542587942749
 31
0.0
  0
LINE
  5
25A
  8
0
 39
5.0
 10
96.602246412653187
 20
63.90542587942749
 30
0.0
 11
96.530446412653191
 21
63.815625879427493
 31
0.0
  0
LINE
  5
25B
  8
0
 39
5.0
 10
96.530446412653191
 20
63.815625879427493
 30
0.0
 11
96.450646412653185
 21
63.729425879427488
 31
0.0
  0
LINE
  5
25C
  8
0
 39
5.0
 10
96.450646412653185
 20
63.729425879427488
 30
0.0
 11
96.36314641265318
 21
63.649825879427489
 31
0.0
  0
LINE
  5
25D
  8
0
 39
5.0
 10
96.36314641265318
 20
63.649825879427489
 30
0.0
 11
96.267746412653196
 21
63.579925879427492
 31
0.0
  0
LINE
  5
25E
  8
0
 39
5.0
 10
96.267746412653196
 20
63.579925879427492
 30
0.0
 11
96.164946412653194
 21
63.522225879427488
 31
0.0
  0
LINE
  5
25F
  8
0
 39
5.0
 10
96.164946412653194
 20
63.522225879427488
 30
0.0
 11
96.054546412653195
 21
63.48032587942749
 31
0.0
  0
LINE
  5
260
  8
0
 39
5.0
 10
96.054546412653195
 20
63.48032587942749
 30
0.0
 11
95.684246834594006
 21
63.405825879427482
 31
0.0
  0
LINE
  5
26A
  8
1
 10
88.979046412653176
 20
79.705825879427479
 30
0.0
 11
88.979046412653176
 21
59.105825879427492
 31
0.0
  0
LINE
  5
272
  8
0
 10
83.679046412653193
 20
66.905825879427482
 30
0.0
 11
88.979046412653176
 21
66.905825879427482
 31
0.0
  0
LINE
  5
273
  8
0
 10
83.979046412653176
 20
66.905825879427482
 30
0.0
 11
83.979046412653176
 21
79.405825879427482
 31
0.0
  0
LINE
  5
276
  8
0
 10
87.97904641265319
 20
64.905825879427482
 30
0.0
 11
87.97904641265319
 21
59.405825879427489
 31
0.0
  0
LINE
  5
278
  8
0
 10
87.97904641265319
 20
64.905825879427482
 30
0.0
 11
83.979046412653176
 21
66.905825879427482
 31
0.0
  0
LINE
  5
27A
  8
0
 10
87.97904641265319
 20
64.905825879427482
 30
0.0
 11
88.979046412653176
 21
64.905825879427482
 31
0.0
  0
LINE
  5
27F
  8
2
 10
83.679046412653193
 20
66.905825879427482
 30
0.0
 11
83.679046412653193
 21
79.405825879427482
 31
0.0
  0
LINE
  5
285
  8
0
 10
95.684246834594006
 20
63.405825879427482
 30
0.0
 11
88.979046412653176
 21
63.405825879427489
 31
0.0
  0
LINE
  5
288
  8
0
 10
86.779046412653187
 20
63.405825879427489
 30
0.0
 11
82.248745990712365
 21
63.405825879427482
 31
0.0
  0
LINE
  5
28A
  8
0
 10
85.879046412653196
 20
61.405825879427482
 30
0.0
 11
86.779046412653187
 21
61.405825879427489
 31
0.0
  0
LINE
  5
28B
  8
0
 10
86.779046412653187
 20
59.405825879427489
 30
0.0
 11
88.979046412653176
 21
59.405825879427489
 31
0.0
  0
LINE
  5
28D
  8
0
 10
86.779046412653187
 20
63.405825879427489
 30
0.0
 11
86.779046412653187
 21
61.405825879427482
 31
0.0
  0
LINE
  5
296
  8
0
 10
85.879046412653196
 20
61.405825879427482
 30
0.0
 11
85.879046412653196
 21
60.405825879427489
 31
0.0
  0
LINE
  5
297
  8
0
 10
86.779046412653187
 20
59.405825879427489
 30
0.0
 11
85.879046412653196
 21
60.405825879427489
 31
0.0
  0
LINE
  5
29D
  8
0
 39
5.0
 10
94.583946412653177
 20
63.493425879427491
 30
0.0
 11
94.935168947864497
 21
63.405825879427482
 31
0.0
  0
LINE
  5
29E
  8
0
 39
5.0
 10
94.502346412653182
 20
63.522625879427501
 30
0.0
 11
94.583946412653177
 21
63.493425879427491
 31
0.0
  0
LINE
  5
29F
  8
0
 39
5.0
 10
94.424346412653179
 20
63.559025879427487
 30
0.0
 11
94.502346412653182
 21
63.522625879427501
 31
0.0
  0
LINE
  5
2A0
  8
0
 39
5.0
 10
94.350946412653173
 20
63.602425879427493
 30
0.0
 11
94.424346412653179
 21
63.559025879427487
 31
0.0
  0
LINE
  5
2A1
  8
0
 39
5.0
 10
94.28224641265318
 20
63.65222587942749
 30
0.0
 11
94.350946412653173
 21
63.602425879427493
 31
0.0
  0
LINE
  5
2A2
  8
0
 39
5.0
 10
94.219046412653185
 20
63.708225879427488
 30
0.0
 11
94.28224641265318
 21
63.65222587942749
 31
0.0
  0
LINE
  5
2A3
  8
0
 39
5.0
 10
94.161346412653188
 20
63.769525879427491
 30
0.0
 11
94.219046412653185
 21
63.708225879427488
 31
0.0
  0
LINE
  5
2A4
  8
0
 39
5.0
 10
94.110046412653205
 20
63.836125879427492
 30
0.0
 11
94.161346412653188
 21
63.769525879427491
 31
0.0
  0
LINE
  5
2A5
  8
0
 39
5.0
 10
94.065146412653164
 20
63.907325879427489
 30
0.0
 11
94.110046412653205
 21
63.836125879427492
 31
0.0
  0
LINE
  5
2A6
  8
0
 39
5.0
 10
94.027646412653183
 20
63.982825879427487
 30
0.0
 11
94.065146412653164
 21
63.907325879427489
 31
0.0
  0
LINE
  5
2A7
  8
0
 39
5.0
 10
93.997546412653165
 20
64.061925879427491
 30
0.0
 11
94.027646412653183
 21
63.982825879427487
 31
0.0
  0
LINE
  5
2A8
  8
0
 39
5.0
 10
93.975546412653188
 20
64.144625879427494
 30
0.0
 11
93.997546412653165
 21
64.061925879427491
 31
0.0
  0
LINE
  5
2A9
  8
0
 39
5.0
 10
93.961946412653191
 20
64.23012587942749
 30
0.0
 11
93.975546412653188
 21
64.144625879427494
 31
0.0
  0
LINE
  5
2AA
  8
0
 39
5.0
 10
93.957446412653184
 20
64.318225879427487
 30
0.0
 11
93.961946412653191
 21
64.23012587942749
 31
0.0
  0
LINE
  5
2AB
  8
0
 39
5.0
 10
93.957446412653184
 20
64.318225879427487
 30
0.0
 11
93.957446412653184
 21
64.318225879427487
 31
0.0
  0
LINE
  5
2AC
  8
0
 39
5.0
 10
93.957446412653184
 20
78.542225879427491
 30
0.0
 11
93.957446412653184
 21
64.318225879427487
 31
0.0
  0
LINE
  5
2AD
  8
0
 39
5.0
 10
93.961946412653191
 20
78.630025879427492
 30
0.0
 11
93.957446412653184
 21
78.542225879427491
 31
0.0
  0
LINE
  5
2AE
  8
0
 39
5.0
 10
93.975546412653188
 20
78.715525879427489
 30
0.0
 11
93.961946412653191
 21
78.630025879427492
 31
0.0
  0
LINE
  5
2AF
  8
0
 39
5.0
 10
93.997546412653165
 20
78.798125879427474
 30
0.0
 11
93.975546412653188
 21
78.715525879427489
 31
0.0
  0
LINE
  5
2B0
  8
0
 39
5.0
 10
94.027646412653183
 20
78.877425879427491
 30
0.0
 11
93.997546412653165
 21
78.798125879427474
 31
0.0
  0
LINE
  5
2B1
  8
0
 39
5.0
 10
94.065146412653164
 20
78.952725879427476
 30
0.0
 11
94.027646412653183
 21
78.877425879427491
 31
0.0
  0
LINE
  5
2B2
  8
0
 39
5.0
 10
94.110046412653205
 20
79.024025879427484
 30
0.0
 11
94.065146412653164
 21
78.952725879427476
 31
0.0
  0
LINE
  5
2B3
  8
0
 39
5.0
 10
94.161346412653188
 20
79.090525879427489
 30
0.0
 11
94.110046412653205
 21
79.024025879427484
 31
0.0
  0
LINE
  5
2B4
  8
0
 39
5.0
 10
94.219046412653185
 20
79.152125879427501
 30
0.0
 11
94.161346412653188
 21
79.090525879427489
 31
0.0
  0
LINE
  5
2B5
  8
0
 39
5.0
 10
94.28224641265318
 20
79.207825879427489
 30
0.0
 11
94.219046412653185
 21
79.152125879427501
 31
0.0
  0
LINE
  5
2B6
  8
0
 39
5.0
 10
94.350946412653173
 20
79.257725879427483
 30
0.0
 11
94.28224641265318
 21
79.207825879427489
 31
0.0
  0
LINE
  5
2B7
  8
0
 39
5.0
 10
94.424346412653179
 20
79.301025879427499
 30
0.0
 11
94.350946412653173
 21
79.257725879427483
 31
0.0
  0
LINE
  5
2B8
  8
0
 39
5.0
 10
94.502346412653182
 20
79.337625879427492
 30
0.0
 11
94.424346412653179
 21
79.301025879427499
 31
0.0
  0
LINE
  5
2B9
  8
0
 39
5.0
 10
94.583946412653177
 20
79.366625879427474
 30
0.0
 11
94.502346412653182
 21
79.337625879427492
 31
0.0
  0
LINE
  5
2BA
  8
0
 39
5.0
 10
94.669346412653184
 20
79.388125879427491
 30
0.0
 11
94.583946412653177
 21
79.366625879427474
 31
0.0
  0
LINE
  5
2BB
  8
0
 39
5.0
 10
94.757546412653184
 20
79.4012258794275
 30
0.0
 11
94.669346412653184
 21
79.388125879427491
 31
0.0
  0
LINE
  5
2BC
  8
0
 39
5.0
 10
94.848446412653175
 20
79.405825879427482
 30
0.0
 11
94.757546412653184
 21
79.4012258794275
 31
0.0
  0
LINE
  5
2BD
  8
0
 39
5.0
 10
94.848446412653175
 20
79.405825879427482
 30
0.0
 11
94.848446412653175
 21
79.405825879427482
 31
0.0
  0
LINE
  5
2CA
  8
3
 10
94.279046412653187
 20
66.905825879427482
 30
0.0
 11
94.279046412653187
 21
79.405825879427482
 31
0.0
  0
LINE
  5
2CB
  8
3
 10
93.979046412653176
 20
66.905825879427482
 30
0.0
 11
93.979046412653176
 21
79.405825879427482
 31
0.0
  0
LINE
  5
2CC
  8
0
 10
91.179046412653193
 20
59.405825879427489
 30
0.0
 11
88.979046412653176
 21
59.405825879427489
 31
0.0
  0
LINE
  5
2CD
  8
3
 10
89.979046412653204
 20
64.905825879427482
 30
0.0
 11
93.979046412653176
 21
66.905825879427482
 31
0.0
  0
LINE
  5
2CE
  8
3
 10
94.279046412653187
 20
66.905825879427482
 30
0.0
 11
88.979046412653176
 21
66.905825879427482
 31
0.0
  0
LINE
  5
2CF
  8
0
 10
91.179046412653193
 20
63.405825879427489
 30
0.0
 11
91.179046412653193
 21
61.405825879427482
 31
0.0
  0
LINE
  5
2D0
  8
0
 10
91.179046412653193
 20
59.405825879427489
 30
0.0
 11
92.079046412653184
 21
60.405825879427489
 31
0.0
  0
LINE
  5
2D1
  8
0
 10
92.079046412653184
 20
61.405825879427482
 30
0.0
 11
92.079046412653184
 21
60.405825879427489
 31
0.0
  0
LINE
  5
2D3
  8
3
 10
89.979046412653204
 20
64.905825879427482
 30
0.0
 11
89.979046412653204
 21
59.405825879427489
 31
0.0
  0
LINE
  5
2D4
  8
3
 10
89.979046412653204
 20
64.905825879427482
 30
0.0
 11
88.979046412653176
 21
64.905825879427482
 31
0.0
  0
LINE
  5
2D6
  8
0
 10
92.079046412653184
 20
61.405825879427482
 30
0.0
 11
88.979046412653176
 21
61.405825879427482
 31
0.0
  0
LINE
  5
2D7
  8
0
 10
92.079046412653184
 20
60.405825879427489
 30
0.0
 11
88.979046412653176
 21
60.405825879427489
 31
0.0
  0
DIMENSION
  5
2DE
  8
2
  2
*D1
 10
109.3327503640771
 20
66.905825879427454
 30
0.0
 11
107.4577503640771
 21
73.155825879427496
 31
0.0
 70
     0
 13
95.811646412653175
 23
79.405825879427482
 33
0.0
 14
94.279046412653187
 24
66.905825879427482
 34
0.0
 50
90.0
  0
DIMENSION
  5
2F5
  8
2
  2
*D2
 10
113.88467131988919
 20
63.405825879427482
 30
0.0
 11
112.00967131988919
 21
71.40582587942751
 31
0.0
 70
     0
 13
109.3327503640771
 23
79.405825879427454
 33
0.0
 14
92.979723877441856
 24
63.405825879427482
 34
0.0
 50
90.0
  0
DIMENSION
  5
30B
  8
2
  2
*D3
 10
118.6345019269116
 20
59.405825879427482
 30
0.0
 11
116.7595019269116
 21
69.405825879427496
 31
0.0
 70
     0
 13
113.88467131988919
 23
79.405825879427454
 33
0.0
 14
91.179046412653193
 24
59.405825879427489
 34
0.0
 50
90.0
  0
DIMENSION
  5
318
  8
2
  2
*D4
 10
71.433059481813814
 20
61.405825879427489
 30
0.0
 11
69.5580594818138
 21
67.864159212760839
 31
0.0
 70
     0
 13
91.179046412653193
 23
59.405825879427489
 33
0.0
 14
92.079046412653184
 24
61.405825879427482
 34
0.0
 50
90.0
  0
DIMENSION
  5
328
  8
2
  2
*D5
 10
89.979046412653204
 20
49.053965162382617
 30
0.0
 11
97.687379745986519
 21
50.928965162382617
 31
0.0
 70
     0
  1
%%c<>
 13
87.97904641265319
 23
59.405825879427489
 33
0.0
 14
89.979046412653204
 24
59.405825879427489
 34
0.0
  0
DIMENSION
  5
347
  8
2
  2
*D6
 10
91.179046412653193
 20
43.662301746000722
 30
0.0
 11
100.55404641265309
 21
45.537301746000722
 31
0.0
 70
     0
  1
%%c<>
 13
86.779046412653187
 23
59.405825879427489
 33
0.0
 14
91.179046412653193
 24
59.405825879427489
 34
0.0
  0
DIMENSION
  5
356
  8
2
  2
*D7
 10
92.079046412653184
 20
37.968727114707157
 30
0.0
 11
101.4540464126531
 21
39.843727114707157
 31
0.0
 70
     0
  1
%%c<>
 13
85.879046412653196
 23
60.405825879427489
 33
0.0
 14
92.079046412653184
 24
60.405825879427489
 34
0.0
  0
TEXT
  5
388
  8
2
 10
64.45615908127553
 20
84.011526424223987
 30
0.0
 40
2.5
  1
G1/8
  0
TEXT
  5
389
  8
2
 10
65.155687202023955
 20
76.503107721263945
 30
0.0
 40
2.5
  1
H14
  0
POLYLINE
  8
2
  5
3B2
  66
     1
 10
0.000000
 20
0.000000
 30
0.000000
  70
     8
  0
VERTEX
  8
2
  5
3B3
 10
83.6790
 20
73.1558
 30
0.000000
  70
    32
  0
VERTEX
  8
2
  5
3B4
 10
73.3751
 20
83.1939
 30
0.000000
  70
    32
  0
VERTEX
  8
2
  5
3B5
 10
63.7566
 20
83.1939
 30
0.000000
  70
    32
  0
SEQEND
  8
2
  5
3B6
  0
POLYLINE
  8
2
  5
3B7
  66
     1
 10
0.000000
 20
0.000000
 30
0.000000
  70
     8
  0
VERTEX
  8
2
  5
3B8
 10
81.0542
 20
71.4302
 30
0.000000
  70
    32
  0
VERTEX
  8
2
  5
3B9
 10
71.4514
 20
75.6854
 30
0.000000
  70
    32
  0
VERTEX
  8
2
  5
3BA
 10
64.1064
 20
75.6854
 30
0.000000
  70
    32
  0
SEQEND
  8
2
  5
3BB
  0
ENDSEC
  0
EOF
