  0
SECTION
  2
HEADER
  9
$ACADVER
  1
AC1009
  9
$INSBASE
 10
0.0
 20
0.0
 30
0.0
  9
$EXTMIN
 10
64.613472218070001
 20
31.30397689167064
 30
0.0
  9
$EXTMAX
 10
120.3572250946431
 20
86.51152642422403
 30
5.0
  9
$LIMMIN
 10
0.0
 20
0.0
  9
$LIMMAX
 10
420.0
 20
297.0
  9
$ORTHOMODE
 70
     0
  9
$REGENMODE
 70
     1
  9
$FILLMODE
 70
     1
  9
$QTEXTMODE
 70
     0
  9
$MIRRTEXT
 70
     1
  9
$DRAGMODE
 70
     2
  9
$LTSCALE
 40
0.3
  9
$OSMODE
 70
    37
  9
$ATTMODE
 70
     1
  9
$TEXTSIZE
 40
2.5
  9
$TRACEWID
 40
1.0
  9
$TEXTSTYLE
  7
STANDARD
  9
$CLAYER
  8
1
  9
$CELTYPE
  6
BYLAYER
  9
$CECOLOR
 62
   256
  9
$DIMSCALE
 40
1.0
  9
$DIMASZ
 40
2.5
  9
$DIMEXO
 40
0.625
  9
$DIMDLI
 40
3.75
  9
$DIMRND
 40
0.0
  9
$DIMDLE
 40
0.0
  9
$DIMEXE
 40
1.25
  9
$DIMTP
 40
0.0
  9
$DIMTM
 40
0.0
  9
$DIMTXT
 40
2.5
  9
$DIMCEN
 40
2.5
  9
$DIMTSZ
 40
0.0
  9
$DIMTOL
 70
     0
  9
$DIMLIM
 70
     0
  9
$DIMTIH
 70
     0
  9
$DIMTOH
 70
     0
  9
$DIMSE1
 70
     0
  9
$DIMSE2
 70
     0
  9
$DIMTAD
 70
     1
  9
$DIMZIN
 70
     8
  9
$DIMBLK
  1

  9
$DIMASO
 70
     1
  9
$DIMSHO
 70
     1
  9
$DIMPOST
  1

  9
$DIMAPOST
  1

  9
$DIMALT
 70
     0
  9
$DIMALTD
 70
     3
  9
$DIMALTF
 40
0.03937007874016
  9
$DIMLFAC
 40
1.0
  9
$DIMTOFL
 70
     1
  9
$DIMTVP
 40
0.0
  9
$DIMTIX
 70
     0
  9
$DIMSOXD
 70
     0
  9
$DIMSAH
 70
     0
  9
$DIMBLK1
  1

  9
$DIMBLK2
  1

  9
$DIMSTYLE
  2
ISO-25
  9
$DIMCLRD
 70
     0
  9
$DIMCLRE
 70
     0
  9
$DIMCLRT
 70
     0
  9
$DIMTFAC
 40
1.0
  9
$DIMGAP
 40
0.625
  9
$LUNITS
 70
     2
  9
$LUPREC
 70
     4
  9
$SKETCHINC
 40
1.0
  9
$FILLETRAD
 40
10.0
  9
$AUNITS
 70
     0
  9
$AUPREC
 70
     0
  9
$MENU
  1
.
  9
$ELEVATION
 40
0.0
  9
$PELEVATION
 40
0.0
  9
$THICKNESS
 40
0.0
  9
$LIMCHECK
 70
     0
  9
$BLIPMODE
 70
     0
  9
$CHAMFERA
 40
10.0
  9
$CHAMFERB
 40
10.0
  9
$SKPOLY
 70
     0
  9
$TDCREATE
 40
2453447.4331617011
  9
$TDUPDATE
 40
2453551.9257585881
  9
$TDINDWG
 40
0.0513259028
  9
$TDUSRTIMER
 40
0.0513259028
  9
$USRTIMER
 70
     1
  9
$ANGBASE
 50
0.0
  9
$ANGDIR
 70
     0
  9
$PDMODE
 70
     0
  9
$PDSIZE
 40
0.0
  9
$PLINEWID
 40
0.0
  9
$COORDS
 70
     1
  9
$SPLFRAME
 70
     0
  9
$SPLINETYPE
 70
     6
  9
$SPLINESEGS
 70
     8
  9
$ATTDIA
 70
     0
  9
$ATTREQ
 70
     1
  9
$HANDLING
 70
-16383
  9
$HANDSEED
  5
811
  9
$SURFTAB1
 70
     6
  9
$SURFTAB2
 70
     6
  9
$SURFTYPE
 70
     6
  9
$SURFU
 70
     6
  9
$SURFV
 70
     6
  9
$UCSNAME
  2

  9
$UCSORG
 10
0.0
 20
0.0
 30
0.0
  9
$UCSXDIR
 10
1.0
 20
0.0
 30
0.0
  9
$UCSYDIR
 10
0.0
 20
1.0
 30
0.0
  9
$PUCSNAME
  2

  9
$PUCSORG
 10
0.0
 20
0.0
 30
0.0
  9
$PUCSXDIR
 10
1.0
 20
0.0
 30
0.0
  9
$PUCSYDIR
 10
0.0
 20
1.0
 30
0.0
  9
$USERI1
 70
     0
  9
$USERI2
 70
     0
  9
$USERI3
 70
     0
  9
$USERI4
 70
     0
  9
$USERI5
 70
     0
  9
$USERR1
 40
0.0
  9
$USERR2
 40
0.0
  9
$USERR3
 40
0.0
  9
$USERR4
 40
0.0
  9
$USERR5
 40
0.0
  9
$WORLDVIEW
 70
     1
  9
$SHADEDGE
 70
     3
  9
$SHADEDIF
 70
    70
  9
$TILEMODE
 70
     1
  9
$MAXACTVP
 70
    64
  9
$PLIMCHECK
 70
     0
  9
$PEXTMIN
 10
1.0000000000000000E+020
 20
1.0000000000000000E+020
 30
1.0000000000000000E+020
  9
$PEXTMAX
 10
-1.0000000000000000E+020
 20
-1.0000000000000000E+020
 30
-1.0000000000000000E+020
  9
$PLIMMIN
 10
0.0
 20
0.0
  9
$PLIMMAX
 10
420.0
 20
297.0
  9
$UNITMODE
 70
     0
  9
$VISRETAIN
 70
     1
  9
$PLINEGEN
 70
     0
  9
$PSLTSCALE
 70
     1
  0
ENDSEC
  0
SECTION
  2
TABLES
  0
TABLE
  2
VPORT
 70
     2
  0
VPORT
  2
*ACTIVE
 70
     0
 10
0.0
 20
0.0
 11
1.0
 21
1.0
 12
108.02898422198351
 22
49.788125774883348
 13
0.0
 23
0.0
 14
10.0
 24
10.0
 15
10.0
 25
10.0
 16
0.0
 26
0.0
 36
1.0
 17
0.0
 27
0.0
 37
0.0
 40
80.375373973293165
 41
2.5392405063291141
 42
50.0
 43
0.0
 44
0.0
 50
0.0
 51
0.0
 71
     0
 72
   100
 73
     1
 74
     3
 75
     0
 76
     0
 77
     0
 78
     0
  0
ENDTAB
  0
TABLE
  2
LTYPE
 70
     3
  0
LTYPE
  2
CONTINUOUS
 70
     0
  3
Solid line
 72
    65
 73
     0
 40
0.0
  0
LTYPE
  2
CENTER
 70
     0
  3
Center ____ _ ____ _ ____ _ ____ _ ____ _ ____
 72
    65
 73
     4
 40
50.799999999999997
 49
31.75
 49
-6.3499999999999988
 49
6.3499999999999988
 49
-6.3499999999999988
  0
LTYPE
  2
DASHED2
 70
     0
  3
Dashed (.5x) _ _ _ _ _ _ _ _ _ _ _ _ _ _ _ _ _
 72
    65
 73
     2
 40
9.5249999999999986
 49
6.3499999999999988
 49
-3.1749999999999989
  0
ENDTAB
  0
TABLE
  2
LAYER
 70
     5
  0
LAYER
  2
0
 70
     0
 62
     7
  6
CONTINUOUS
  0
LAYER
  2
1
 70
     0
 62
     7
  6
CENTER
  0
LAYER
  2
2
 70
     0
 62
     7
  6
CONTINUOUS
  0
LAYER
  2
3
 70
     0
 62
     7
  6
DASHED2
  0
LAYER
  2
DEFPOINTS
 70
     0
 62
     7
  6
CONTINUOUS
  0
ENDTAB
  0
TABLE
  2
STYLE
 70
     3
  0
STYLE
  2
STANDARD
 70
     0
 40
0.0
 41
1.0
 50
0.0
 71
     0
 42
2.5
  3
txt
  4

  0
STYLE
  2
\U+00C9L\U+00C9R_\U+00C2S\U+00C2V\U+00C2B\U+00C2N
 70
     0
 40
1.0
 41
1.0
 50
0.0
 71
     0
 42
1.0
  3
\U+00E9l\U+00E9r \U+00E2S\U+00E2V\U+00E2b\U+00E2N
  4

  0
STYLE
  2

 70
     1
 40
0.0
 41
1.0
 50
0.0
 71
     0
 42
2.5
  3
ltypeshp.shx
  4

  0
ENDTAB
  0
TABLE
  2
VIEW
 70
     0
  0
ENDTAB
  0
TABLE
  2
UCS
 70
     0
  0
ENDTAB
  0
TABLE
  2
APPID
 70
     1
  0
APPID
  2
ACAD
 70
     0
  0
ENDTAB
  0
TABLE
  2
DIMSTYLE
 70
     2
  0
DIMSTYLE
  2
ISO-25
 70
     0
  3

  4

  5

  6

  7

 40
1.0
 41
2.5
 42
0.625
 43
3.75
 44
1.25
 45
0.0
 46
0.0
 47
0.0
 48
0.0
140
2.5
141
2.5
142
0.0
143
0.03937007874016
144
1.0
145
0.0
146
1.0
147
0.625
 71
     0
 72
     0
 73
     0
 74
     0
 75
     0
 76
     0
 77
     1
 78
     8
170
     0
171
     3
172
     1
173
     0
174
     0
175
     0
176
     0
177
     0
178
     0
  0
DIMSTYLE
  2
STANDARD
 70
     0
  3

  4

  5

  6

  7

 40
1.0
 41
0.18
 42
0.0625
 43
0.38
 44
0.18
 45
0.0
 46
0.0
 47
0.0
 48
0.0
140
0.18
141
0.09
142
0.0
143
25.399999999999999
144
1.0
145
0.0
146
1.0
147
0.09
 71
     0
 72
     0
 73
     1
 74
     1
 75
     0
 76
     0
 77
     0
 78
     0
170
     0
171
     2
172
     0
173
     0
174
     0
175
     0
176
     0
177
     0
178
     0
  0
ENDTAB
  0
ENDSEC
  0
SECTION
  2
BLOCKS
  0
BLOCK
  8
0
  2
$MODEL_SPACE
 70
     0
 10
0.0
 20
0.0
 30
0.0
  3
$MODEL_SPACE
  1

  0
ENDBLK
  5
21
  8
0
  0
BLOCK
 67
     1
  8
0
  2
$PAPER_SPACE
 70
     0
 10
0.0
 20
0.0
 30
0.0
  3
$PAPER_SPACE
  1

  0
ENDBLK
  5
1D
 67
     1
  8
0
  0
BLOCK
  8
0
  2
*D1
 70
     1
 10
0.0
 20
0.0
 30
0.0
  3
*D1
  1

  0
LINE
  5
693
  8
2
 62
     0
 10
96.436646412653175
 20
79.405825879427454
 30
0.0
 11
110.5827503640771
 21
79.405825879427454
 31
0.0
  0
LINE
  5
694
  8
2
 62
     0
 10
94.904046412653187
 20
66.405825879427482
 30
0.0
 11
110.5827503640771
 21
66.405825879427468
 31
0.0
  0
LINE
  5
695
  8
2
 62
     0
 10
109.3327503640771
 20
76.905825879427454
 30
0.0
 11
109.3327503640771
 21
68.905825879427468
 31
0.0
  0
SOLID
  5
696
  8
2
 62
     0
 10
108.9160836974104
 20
76.905825879427454
 30
0.0
 11
109.7494170307438
 21
76.905825879427454
 31
0.0
 12
109.3327503640771
 22
79.405825879427454
 32
0.0
 13
109.3327503640771
 23
79.405825879427454
 33
0.0
  0
SOLID
  5
697
  8
2
 62
     0
 10
108.9160836974104
 20
68.905825879427468
 30
0.0
 11
109.7494170307438
 21
68.905825879427468
 31
0.0
 12
109.3327503640771
 22
66.405825879427468
 32
0.0
 13
109.3327503640771
 23
66.405825879427468
 33
0.0
  0
TEXT
  5
698
  8
1
 62
     0
 10
108.7077503640771
 20
71.239159212760825
 30
0.0
 40
2.5
  1
13
 50
90.0
  0
POINT
  5
699
  8
DEFPOINTS
 62
     0
 10
95.811646412653175
 20
79.405825879427482
 30
0.0
  0
POINT
  5
69A
  8
DEFPOINTS
 62
     0
 10
94.279046412653187
 20
66.405825879427482
 30
0.0
  0
POINT
  5
69B
  8
DEFPOINTS
 62
     0
 10
109.3327503640771
 20
66.405825879427468
 30
0.0
  0
ENDBLK
  5
2EB
  8
0
  0
BLOCK
  8
0
  2
*D2
 70
     1
 10
0.0
 20
0.0
 30
0.0
  3
*D2
  1

  0
LINE
  5
6FC
  8
2
 62
     0
 10
109.9577503640771
 20
79.405825879427454
 30
0.0
 11
115.13467131988919
 21
79.405825879427454
 31
0.0
  0
LINE
  5
6FD
  8
2
 62
     0
 10
93.604723877441856
 20
63.905825879427482
 30
0.0
 11
115.13467131988919
 21
63.905825879427482
 31
0.0
  0
LINE
  5
6FE
  8
2
 62
     0
 10
113.88467131988919
 20
76.905825879427454
 30
0.0
 11
113.88467131988919
 21
66.405825879427482
 31
0.0
  0
SOLID
  5
6FF
  8
2
 62
     0
 10
113.46800465322249
 20
76.905825879427454
 30
0.0
 11
114.30133798655589
 21
76.905825879427454
 31
0.0
 12
113.88467131988919
 22
79.405825879427454
 32
0.0
 13
113.88467131988919
 23
79.405825879427454
 33
0.0
  0
SOLID
  5
700
  8
2
 62
     0
 10
113.46800465322249
 20
66.405825879427482
 30
0.0
 11
114.30133798655589
 21
66.405825879427482
 31
0.0
 12
113.88467131988919
 22
63.905825879427482
 32
0.0
 13
113.88467131988919
 23
63.905825879427482
 33
0.0
  0
TEXT
  5
701
  8
1
 62
     0
 10
113.25967131988919
 20
68.322492546094182
 30
0.0
 40
2.5
  1
15.5
 50
90.0
  0
POINT
  5
702
  8
DEFPOINTS
 62
     0
 10
109.3327503640771
 20
79.405825879427454
 30
0.0
  0
POINT
  5
703
  8
DEFPOINTS
 62
     0
 10
92.979723877441856
 20
63.905825879427482
 30
0.0
  0
POINT
  5
704
  8
DEFPOINTS
 62
     0
 10
113.88467131988919
 20
63.905825879427482
 30
0.0
  0
ENDBLK
  5
301
  8
0
  0
BLOCK
  8
0
  2
*D3
 70
     1
 10
0.0
 20
0.0
 30
0.0
  3
*D3
  1

  0
LINE
  5
747
  8
2
 62
     0
 10
114.50967131988919
 20
79.405825879427454
 30
0.0
 11
120.3572250946431
 21
79.405825879427454
 31
0.0
  0
LINE
  5
748
  8
2
 62
     0
 10
92.35404641265319
 20
59.405825879427489
 30
0.0
 11
120.3572250946431
 21
59.405825879427489
 31
0.0
  0
LINE
  5
749
  8
2
 62
     0
 10
119.1072250946431
 20
76.905825879427454
 30
0.0
 11
119.1072250946431
 21
61.905825879427489
 31
0.0
  0
SOLID
  5
74A
  8
2
 62
     0
 10
118.6905584279764
 20
76.905825879427454
 30
0.0
 11
119.5238917613097
 21
76.905825879427454
 31
0.0
 12
119.1072250946431
 22
79.405825879427454
 32
0.0
 13
119.1072250946431
 23
79.405825879427454
 33
0.0
  0
SOLID
  5
74B
  8
2
 62
     0
 10
118.6905584279764
 20
61.905825879427489
 30
0.0
 11
119.5238917613097
 21
61.905825879427489
 31
0.0
 12
119.1072250946431
 22
59.405825879427489
 32
0.0
 13
119.1072250946431
 23
59.405825879427489
 33
0.0
  0
TEXT
  5
74C
  8
1
 62
     0
 10
118.4822250946431
 20
67.530825879427496
 30
0.0
 40
2.5
  1
20
 50
90.0
  0
POINT
  5
74D
  8
DEFPOINTS
 62
     0
 10
113.88467131988919
 20
79.405825879427454
 30
0.0
  0
POINT
  5
74E
  8
DEFPOINTS
 62
     0
 10
91.72904641265319
 20
59.405825879427489
 30
0.0
  0
POINT
  5
74F
  8
DEFPOINTS
 62
     0
 10
119.1072250946431
 20
59.405825879427489
 30
0.0
  0
ENDBLK
  5
426
  8
0
  0
BLOCK
  8
0
  2
*D4
 70
     1
 10
0.0
 20
0.0
 30
0.0
  3
*D4
  1

  0
LINE
  5
73C
  8
2
 62
     0
 10
85.854046412653176
 20
59.405825879427489
 30
0.0
 11
71.417737709128687
 21
59.405825879427503
 31
0.0
  0
LINE
  5
73D
  8
2
 62
     0
 10
83.85404641265319
 20
61.405825879427489
 30
0.0
 11
71.417737709128687
 21
61.405825879427503
 31
0.0
  0
LINE
  5
73E
  8
2
 62
     0
 10
72.667737709128687
 20
56.905825879427503
 30
0.0
 11
72.667737709128687
 21
54.405825879427503
 31
0.0
  0
LINE
  5
73F
  8
2
 62
     0
 10
72.667737709128687
 20
63.905825879427503
 30
0.0
 11
72.667737709128687
 21
69.322492546094182
 31
0.0
  0
LINE
  5
740
  8
2
 62
     0
 10
72.667737709128687
 20
59.405825879427503
 30
0.0
 11
72.667737709128687
 21
61.405825879427503
 31
0.0
  0
SOLID
  5
741
  8
2
 62
     0
 10
72.251071042462016
 20
56.905825879427503
 30
0.0
 11
73.084404375795359
 21
56.905825879427503
 31
0.0
 12
72.667737709128687
 22
59.405825879427503
 32
0.0
 13
72.667737709128687
 23
59.405825879427503
 33
0.0
  0
SOLID
  5
742
  8
2
 62
     0
 10
72.251071042462016
 20
63.905825879427503
 30
0.0
 11
73.084404375795359
 21
63.905825879427503
 31
0.0
 12
72.667737709128687
 22
61.405825879427503
 32
0.0
 13
72.667737709128687
 23
61.405825879427503
 33
0.0
  0
TEXT
  5
743
  8
1
 62
     0
 10
72.042737709128673
 20
67.030825879427525
 30
0.0
 40
2.5
  1
2
 50
90.0
  0
POINT
  5
744
  8
DEFPOINTS
 62
     0
 10
86.479046412653176
 20
59.405825879427489
 30
0.0
  0
POINT
  5
745
  8
DEFPOINTS
 62
     0
 10
84.47904641265319
 20
61.405825879427489
 30
0.0
  0
POINT
  5
746
  8
DEFPOINTS
 62
     0
 10
72.667737709128687
 20
61.405825879427503
 30
0.0
  0
ENDBLK
  5
5AF
  8
0
  0
BLOCK
  8
0
  2
*D5
 70
     1
 10
0.0
 20
0.0
 30
0.0
  3
*D5
  1

  0
LINE
  5
7C4
  8
2
 62
     0
 10
87.97904641265319
 20
58.780825879427489
 30
0.0
 11
87.97904641265319
 21
47.768548499964197
 31
0.0
  0
LINE
  5
7C5
  8
2
 62
     0
 10
89.979046412653204
 20
58.780825879427482
 30
0.0
 11
89.979046412653204
 21
47.768548499964197
 31
0.0
  0
LINE
  5
7C6
  8
2
 62
     0
 10
85.47904641265319
 20
49.018548499964197
 30
0.0
 11
82.97904641265319
 21
49.018548499964197
 31
0.0
  0
LINE
  5
7C7
  8
2
 62
     0
 10
92.479046412653204
 20
49.018548499964197
 30
0.0
 11
100.3957130793198
 21
49.018548499964197
 31
0.0
  0
LINE
  5
7C8
  8
2
 62
     0
 10
87.97904641265319
 20
49.018548499964197
 30
0.0
 11
89.979046412653204
 21
49.018548499964197
 31
0.0
  0
SOLID
  5
7C9
  8
2
 62
     0
 10
85.47904641265319
 20
49.435215166630861
 30
0.0
 11
85.47904641265319
 21
48.601881833297533
 31
0.0
 12
87.97904641265319
 22
49.018548499964197
 32
0.0
 13
87.97904641265319
 23
49.018548499964197
 33
0.0
  0
SOLID
  5
7CA
  8
2
 62
     0
 10
92.479046412653204
 20
49.435215166630861
 30
0.0
 11
92.479046412653204
 21
48.601881833297533
 31
0.0
 12
89.979046412653204
 22
49.018548499964197
 32
0.0
 13
89.979046412653204
 23
49.018548499964197
 33
0.0
  0
INSERT
  5
7CB
  8
1
  2
*U8
 10
0.0
 20
0.0
 30
0.0
  0
POINT
  5
7CC
  8
DEFPOINTS
 62
     0
 10
87.97904641265319
 20
59.405825879427489
 30
0.0
  0
POINT
  5
7CD
  8
DEFPOINTS
 62
     0
 10
89.979046412653204
 20
59.405825879427482
 30
0.0
  0
POINT
  5
7CE
  8
DEFPOINTS
 62
     0
 10
89.979046412653204
 20
49.018548499964197
 30
0.0
  0
ENDBLK
  5
77B
  8
0
  0
BLOCK
  8
0
  2
*D6
 70
     1
 10
0.0
 20
0.0
 30
0.0
  3
*D6
  1

  0
LINE
  5
7CF
  8
2
 62
     0
 10
86.479046412653176
 20
60.780825879427489
 30
0.0
 11
86.479046412653176
 21
41.768821199725998
 31
0.0
  0
LINE
  5
7D0
  8
2
 62
     0
 10
91.479046412653176
 20
60.780825879427489
 30
0.0
 11
91.479046412653176
 21
41.768821199725998
 31
0.0
  0
LINE
  5
7D1
  8
2
 62
     0
 10
83.979046412653176
 20
43.018821199725998
 30
0.0
 11
81.479046412653176
 21
43.018821199725998
 31
0.0
  0
LINE
  5
7D2
  8
2
 62
     0
 10
93.979046412653176
 20
43.018821199725998
 30
0.0
 11
101.8957130793198
 21
43.018821199725998
 31
0.0
  0
LINE
  5
7D3
  8
2
 62
     0
 10
86.479046412653176
 20
43.018821199725998
 30
0.0
 11
91.479046412653176
 21
43.018821199725998
 31
0.0
  0
SOLID
  5
7D4
  8
2
 62
     0
 10
83.979046412653176
 20
43.435487866392663
 30
0.0
 11
83.979046412653176
 21
42.602154533059341
 31
0.0
 12
86.479046412653176
 22
43.018821199725998
 32
0.0
 13
86.479046412653176
 23
43.018821199725998
 33
0.0
  0
SOLID
  5
7D5
  8
2
 62
     0
 10
93.979046412653176
 20
43.435487866392663
 30
0.0
 11
93.979046412653176
 21
42.602154533059341
 31
0.0
 12
91.479046412653176
 22
43.018821199725998
 32
0.0
 13
91.479046412653176
 23
43.018821199725998
 33
0.0
  0
INSERT
  5
7D6
  8
1
  2
*U9
 10
0.0
 20
0.0
 30
0.0
  0
POINT
  5
7D7
  8
DEFPOINTS
 62
     0
 10
86.479046412653176
 20
61.405825879427489
 30
0.0
  0
POINT
  5
7D8
  8
DEFPOINTS
 62
     0
 10
91.479046412653176
 20
61.405825879427489
 30
0.0
  0
POINT
  5
7D9
  8
DEFPOINTS
 62
     0
 10
91.479046412653176
 20
43.018821199725998
 30
0.0
  0
ENDBLK
  5
7A2
  8
0
  0
BLOCK
  8
0
  2
*D7
 70
     1
 10
0.0
 20
0.0
 30
0.0
  3
*D7
  1

  0
LINE
  5
7DA
  8
2
 62
     0
 10
84.979046412653204
 20
59.280825879427503
 30
0.0
 11
84.979046412653204
 21
36.473906964172443
 31
0.0
  0
LINE
  5
7DB
  8
2
 62
     0
 10
92.97904641265319
 20
59.280825879427503
 30
0.0
 11
92.97904641265319
 21
36.473906964172443
 31
0.0
  0
LINE
  5
7DC
  8
2
 62
     0
 10
87.479046412653204
 20
37.723906964172443
 30
0.0
 11
90.47904641265319
 21
37.723906964172443
 31
0.0
  0
SOLID
  5
7DD
  8
2
 62
     0
 10
87.479046412653204
 20
38.140573630839107
 30
0.0
 11
87.479046412653204
 21
37.307240297505771
 31
0.0
 12
84.979046412653204
 22
37.723906964172443
 32
0.0
 13
84.979046412653204
 23
37.723906964172443
 33
0.0
  0
SOLID
  5
7DE
  8
2
 62
     0
 10
90.47904641265319
 20
38.140573630839107
 30
0.0
 11
90.47904641265319
 21
37.307240297505771
 31
0.0
 12
92.97904641265319
 22
37.723906964172443
 32
0.0
 13
92.97904641265319
 23
37.723906964172443
 33
0.0
  0
INSERT
  5
7DF
  8
1
  2
*U10
 10
0.0
 20
0.0
 30
0.0
  0
POINT
  5
7E0
  8
DEFPOINTS
 62
     0
 10
84.979046412653204
 20
59.905825879427503
 30
0.0
  0
POINT
  5
7E1
  8
DEFPOINTS
 62
     0
 10
92.97904641265319
 20
59.905825879427503
 30
0.0
  0
POINT
  5
7E2
  8
DEFPOINTS
 62
     0
 10
92.97904641265319
 20
37.723906964172443
 30
0.0
  0
ENDBLK
  5
7BA
  8
0
  0
BLOCK
  8
0
  2
*U8
 70
     1
 10
0.0
 20
0.0
 30
0.0
  3
*U8
  1

  0
TEXT
  5
7F9
  8
1
 62
     0
 10
95.604046412653204
 20
49.643548499964197
 30
0.0
 40
2.5
  1
\U+2205
  0
TEXT
  5
7FA
  8
1
 62
     0
 10
98.104046412653204
 20
49.643548499964197
 30
0.0
 40
2.5
  1
2
  0
ENDBLK
  5
7FC
  8
0
  0
BLOCK
  8
0
  2
*U9
 70
     1
 10
0.0
 20
0.0
 30
0.0
  3
*U9
  1

  0
TEXT
  5
7FE
  8
1
 62
     0
 10
97.104046412653204
 20
43.643821199725998
 30
0.0
 40
2.5
  1
\U+2205
  0
TEXT
  5
7FF
  8
1
 62
     0
 10
99.604046412653204
 20
43.643821199725998
 30
0.0
 40
2.5
  1
5
  0
ENDBLK
  5
801
  8
0
  0
BLOCK
  8
0
  2
*U10
 70
     1
 10
0.0
 20
0.0
 30
0.0
  3
*U10
  1

  0
TEXT
  5
803
  8
1
 62
     0
 10
86.895713079319862
 20
38.348906964172443
 30
0.0
 40
2.5
  1
\U+2205
  0
TEXT
  5
804
  8
1
 62
     0
 10
89.395713079319862
 20
38.348906964172443
 30
0.0
 40
2.5
  1
8
  0
ENDBLK
  5
806
  8
0
  0
ENDSEC
  0
SECTION
  2
ENTITIES
  0
TEXT
  5
F2
  8
2
 10
77.565596410987879
 20
31.303976891670651
 30
0.0
 40
2.5399440000000002
  1
No. 270.017
 51
-0.0000015352344868
  7
\U+00C9L\U+00C9R_\U+00C2S\U+00C2V\U+00C2B\U+00C2N
  0
LINE
  5
1BC
  8
0
 39
5.0
 10
89.895446412653186
 20
79.405825879427482
 30
0.0
 11
93.066446412653207
 21
79.405825879427482
 31
0.0
  0
LINE
  5
1BD
  8
0
 39
5.0
 10
92.566446412653193
 20
79.405825879427482
 30
0.0
 11
92.566446412653193
 21
79.405825879427482
 31
0.0
  0
LINE
  5
1BE
  8
0
 39
5.0
 10
92.566446412653193
 20
79.405825879427482
 30
0.0
 11
92.657346412653183
 21
79.4012258794275
 31
0.0
  0
LINE
  5
1BF
  8
0
 39
5.0
 10
92.657346412653183
 20
79.4012258794275
 30
0.0
 11
92.745546412653184
 21
79.388125879427491
 31
0.0
  0
LINE
  5
1C0
  8
0
 39
5.0
 10
92.745546412653184
 20
79.388125879427491
 30
0.0
 11
92.830946412653205
 21
79.366625879427474
 31
0.0
  0
LINE
  5
1C1
  8
0
 39
5.0
 10
92.830946412653205
 20
79.366625879427474
 30
0.0
 11
92.912546412653185
 21
79.337625879427492
 31
0.0
  0
LINE
  5
1C2
  8
0
 39
5.0
 10
92.912546412653185
 20
79.337625879427492
 30
0.0
 11
92.990546412653188
 21
79.301025879427499
 31
0.0
  0
LINE
  5
1C3
  8
0
 39
5.0
 10
92.990546412653188
 20
79.301025879427499
 30
0.0
 11
93.063946412653195
 21
79.257725879427483
 31
0.0
  0
LINE
  5
1C4
  8
0
 39
5.0
 10
93.063946412653195
 20
79.257725879427483
 30
0.0
 11
93.132646412653173
 21
79.207825879427489
 31
0.0
  0
LINE
  5
1C5
  8
0
 39
5.0
 10
93.132646412653173
 20
79.207825879427489
 30
0.0
 11
93.195846412653182
 21
79.152125879427501
 31
0.0
  0
LINE
  5
1C6
  8
0
 39
5.0
 10
93.195846412653182
 20
79.152125879427501
 30
0.0
 11
93.253546412653179
 21
79.090525879427489
 31
0.0
  0
LINE
  5
1C7
  8
0
 39
5.0
 10
93.253546412653179
 20
79.090525879427489
 30
0.0
 11
93.304846412653177
 21
79.024025879427484
 31
0.0
  0
LINE
  5
1C8
  8
0
 39
5.0
 10
93.304846412653177
 20
79.024025879427484
 30
0.0
 11
93.349746412653175
 21
78.952725879427476
 31
0.0
  0
LINE
  5
1C9
  8
0
 39
5.0
 10
93.349746412653175
 20
78.952725879427476
 30
0.0
 11
93.387246412653184
 21
78.877425879427491
 31
0.0
  0
LINE
  5
1CA
  8
0
 39
5.0
 10
93.387246412653184
 20
78.877425879427491
 30
0.0
 11
93.417346412653174
 21
78.798125879427474
 31
0.0
  0
LINE
  5
1CB
  8
0
 39
5.0
 10
93.417346412653174
 20
78.798125879427474
 30
0.0
 11
93.439346412653194
 21
78.715525879427489
 31
0.0
  0
LINE
  5
1CC
  8
0
 39
5.0
 10
93.439346412653194
 20
78.715525879427489
 30
0.0
 11
93.452946412653176
 21
78.630025879427492
 31
0.0
  0
LINE
  5
1CD
  8
0
 39
5.0
 10
93.452946412653176
 20
78.630025879427492
 30
0.0
 11
93.457446412653184
 21
78.542225879427491
 31
0.0
  0
LINE
  5
1CE
  8
0
 39
5.0
 10
93.457446412653184
 20
78.542225879427491
 30
0.0
 11
93.457446412653184
 21
64.818225879427473
 31
0.0
  0
LINE
  5
1CF
  8
0
 39
5.0
 10
93.457446412653184
 20
64.818225879427473
 30
0.0
 11
93.457446412653184
 21
64.818225879427473
 31
0.0
  0
LINE
  5
1D0
  8
0
 39
5.0
 10
93.457446412653184
 20
64.818225879427473
 30
0.0
 11
93.452946412653176
 21
64.730125879427476
 31
0.0
  0
LINE
  5
1D1
  8
0
 39
5.0
 10
93.452946412653176
 20
64.730125879427476
 30
0.0
 11
93.439346412653194
 21
64.644625879427466
 31
0.0
  0
LINE
  5
1D2
  8
0
 39
5.0
 10
93.439346412653194
 20
64.644625879427466
 30
0.0
 11
93.417346412653174
 21
64.561925879427491
 31
0.0
  0
LINE
  5
1D3
  8
0
 39
5.0
 10
93.417346412653174
 20
64.561925879427491
 30
0.0
 11
93.387246412653184
 21
64.48282587942748
 31
0.0
  0
LINE
  5
1D4
  8
0
 39
5.0
 10
93.387246412653184
 20
64.48282587942748
 30
0.0
 11
93.349746412653175
 21
64.407325879427475
 31
0.0
  0
LINE
  5
1D5
  8
0
 39
5.0
 10
93.349746412653175
 20
64.407325879427475
 30
0.0
 11
93.304846412653177
 21
64.336125879427485
 31
0.0
  0
LINE
  5
1D6
  8
0
 39
5.0
 10
93.304846412653177
 20
64.336125879427485
 30
0.0
 11
93.253546412653179
 21
64.269525879427476
 31
0.0
  0
LINE
  5
1D7
  8
0
 39
5.0
 10
93.253546412653179
 20
64.269525879427476
 30
0.0
 11
93.195846412653182
 21
64.208225879427474
 31
0.0
  0
LINE
  5
1D8
  8
0
 39
5.0
 10
93.195846412653182
 20
64.208225879427474
 30
0.0
 11
93.132646412653173
 21
64.152225879427476
 31
0.0
  0
LINE
  5
1D9
  8
0
 39
5.0
 10
93.132646412653173
 20
64.152225879427476
 30
0.0
 11
93.063946412653195
 21
64.102425879427472
 31
0.0
  0
LINE
  5
1DA
  8
0
 39
5.0
 10
93.063946412653195
 20
64.102425879427472
 30
0.0
 11
92.990546412653188
 21
64.05902587942748
 31
0.0
  0
LINE
  5
1DB
  8
0
 39
5.0
 10
92.990546412653188
 20
64.05902587942748
 30
0.0
 11
92.912546412653185
 21
64.022625879427494
 31
0.0
  0
LINE
  5
1DC
  8
0
 39
5.0
 10
92.912546412653185
 20
64.022625879427494
 30
0.0
 11
92.830946412653205
 21
63.993425879427491
 31
0.0
  0
LINE
  5
1DD
  8
0
 39
5.0
 10
92.830946412653205
 20
63.993425879427491
 30
0.0
 11
92.47972387744187
 21
63.905825879427482
 31
0.0
  0
LINE
  5
20E
  8
0
 39
5.0
 10
88.953646412653185
 20
79.405825879427482
 30
0.0
 11
82.121046412653371
 21
79.405825879427496
 31
0.0
  0
LINE
  5
20F
  8
0
 39
5.0
 10
82.121046412653186
 20
79.405825879427482
 30
0.0
 11
82.121046412653186
 21
79.405825879427482
 31
0.0
  0
LINE
  5
210
  8
0
 39
5.0
 10
82.121046412653186
 20
79.405825879427482
 30
0.0
 11
82.017046412653187
 21
79.399625879427489
 31
0.0
  0
LINE
  5
211
  8
0
 39
5.0
 10
82.017046412653187
 20
79.399625879427489
 30
0.0
 11
81.914846412653191
 21
79.382025879427488
 31
0.0
  0
LINE
  5
212
  8
0
 39
5.0
 10
81.914846412653191
 20
79.382025879427488
 30
0.0
 11
81.815246412653167
 21
79.353725879427486
 31
0.0
  0
LINE
  5
213
  8
0
 39
5.0
 10
81.815246412653167
 20
79.353725879427486
 30
0.0
 11
81.718646412653186
 21
79.316025879427485
 31
0.0
  0
LINE
  5
214
  8
0
 39
5.0
 10
81.718646412653186
 20
79.316025879427485
 30
0.0
 11
81.626146412653185
 21
79.269525879427491
 31
0.0
  0
LINE
  5
215
  8
0
 39
5.0
 10
81.626146412653185
 20
79.269525879427491
 30
0.0
 11
81.538046412653188
 21
79.215525879427474
 31
0.0
  0
LINE
  5
216
  8
0
 39
5.0
 10
81.538046412653188
 20
79.215525879427474
 30
0.0
 11
81.455146412653207
 21
79.154625879427499
 31
0.0
  0
LINE
  5
217
  8
0
 39
5.0
 10
81.455146412653207
 20
79.154625879427499
 30
0.0
 11
81.378146412653194
 21
79.088225879427483
 31
0.0
  0
LINE
  5
218
  8
0
 39
5.0
 10
81.378146412653194
 20
79.088225879427483
 30
0.0
 11
81.307746412653174
 21
79.0168258794275
 31
0.0
  0
LINE
  5
219
  8
0
 39
5.0
 10
81.307746412653174
 20
79.0168258794275
 30
0.0
 11
81.244546412653193
 21
78.941825879427483
 31
0.0
  0
LINE
  5
21A
  8
0
 39
5.0
 10
81.244546412653193
 20
78.941825879427483
 30
0.0
 11
81.189346412653165
 21
78.863825879427495
 31
0.0
  0
LINE
  5
21B
  8
0
 39
5.0
 10
81.189346412653165
 20
78.863825879427495
 30
0.0
 11
81.142446412653186
 21
78.784225879427481
 31
0.0
  0
LINE
  5
21C
  8
0
 39
5.0
 10
81.142446412653186
 20
78.784225879427481
 30
0.0
 11
81.104946412653192
 21
78.703425879427499
 31
0.0
  0
LINE
  5
21D
  8
0
 39
5.0
 10
81.104946412653192
 20
78.703425879427499
 30
0.0
 11
81.077246412653196
 21
78.622925879427498
 31
0.0
  0
LINE
  5
21E
  8
0
 39
5.0
 10
81.077246412653196
 20
78.622925879427498
 30
0.0
 11
81.060146412653182
 21
78.543425879427488
 31
0.0
  0
LINE
  5
21F
  8
0
 39
5.0
 10
81.060146412653182
 20
78.543425879427488
 30
0.0
 11
81.054246412653185
 21
78.466025879427491
 31
0.0
  0
LINE
  5
220
  8
0
 39
5.0
 10
81.054246412653185
 20
78.466025879427491
 30
0.0
 11
81.054246412653185
 21
64.894425879427473
 31
0.0
  0
LINE
  5
221
  8
0
 39
5.0
 10
81.054246412653185
 20
64.894425879427473
 30
0.0
 11
81.054246412653185
 21
64.894425879427473
 31
0.0
  0
LINE
  5
222
  8
0
 39
5.0
 10
81.054246412653185
 20
64.894425879427473
 30
0.0
 11
81.058746412653193
 21
64.883225879427499
 31
0.0
  0
LINE
  5
223
  8
0
 39
5.0
 10
81.058746412653193
 20
64.883225879427499
 30
0.0
 11
81.072046412653165
 21
64.85182587942748
 31
0.0
  0
LINE
  5
224
  8
0
 39
5.0
 10
81.072046412653165
 20
64.85182587942748
 30
0.0
 11
81.094146412653174
 21
64.803125879427483
 31
0.0
  0
LINE
  5
225
  8
0
 39
5.0
 10
81.094146412653174
 20
64.803125879427483
 30
0.0
 11
81.124646412653192
 21
64.740325879427473
 31
0.0
  0
LINE
  5
226
  8
0
 39
5.0
 10
81.124646412653192
 20
64.740325879427473
 30
0.0
 11
81.163746412653182
 21
64.66602587942748
 31
0.0
  0
LINE
  5
227
  8
0
 39
5.0
 10
81.163746412653182
 20
64.66602587942748
 30
0.0
 11
81.211146412653207
 21
64.583525879427498
 31
0.0
  0
LINE
  5
228
  8
0
 39
5.0
 10
81.211146412653207
 20
64.583525879427498
 30
0.0
 11
81.266846412653194
 21
64.495525879427476
 31
0.0
  0
LINE
  5
229
  8
0
 39
5.0
 10
81.266846412653194
 20
64.495525879427476
 30
0.0
 11
81.330546412653163
 21
64.405425879427483
 31
0.0
  0
LINE
  5
22A
  8
0
 39
5.0
 10
81.330546412653163
 20
64.405425879427483
 30
0.0
 11
81.40254641265318
 21
64.315625879427472
 31
0.0
  0
LINE
  5
22B
  8
0
 39
5.0
 10
81.40254641265318
 20
64.315625879427472
 30
0.0
 11
81.482246412653183
 21
64.229425879427481
 31
0.0
  0
LINE
  5
22C
  8
0
 39
5.0
 10
81.482246412653183
 20
64.229425879427481
 30
0.0
 11
81.569846412653192
 21
64.149825879427482
 31
0.0
  0
LINE
  5
22D
  8
0
 39
5.0
 10
81.569846412653192
 20
64.149825879427482
 30
0.0
 11
81.665146412653186
 21
64.079925879427492
 31
0.0
  0
LINE
  5
22E
  8
0
 39
5.0
 10
81.665146412653186
 20
64.079925879427492
 30
0.0
 11
81.768146412653181
 21
64.022225879427481
 31
0.0
  0
LINE
  5
22F
  8
0
 39
5.0
 10
81.768146412653181
 20
64.022225879427481
 30
0.0
 11
81.878446412653176
 21
63.980325879427483
 31
0.0
  0
LINE
  5
230
  8
0
 39
5.0
 10
81.878446412653176
 20
63.980325879427483
 30
0.0
 11
82.248745990712365
 21
63.905825879427482
 31
0.0
  0
LINE
  5
23E
  8
0
 39
5.0
 10
88.979046412653176
 20
79.405825879427482
 30
0.0
 11
95.811646412653332
 21
79.405825879427482
 31
0.0
  0
LINE
  5
23F
  8
0
 39
5.0
 10
95.811646412653175
 20
79.405825879427482
 30
0.0
 11
95.811646412653175
 21
79.405825879427482
 31
0.0
  0
LINE
  5
240
  8
0
 39
5.0
 10
95.811646412653175
 20
79.405825879427482
 30
0.0
 11
95.915846412653195
 21
79.399625879427489
 31
0.0
  0
LINE
  5
241
  8
0
 39
5.0
 10
95.915846412653195
 20
79.399625879427489
 30
0.0
 11
96.018046412653163
 21
79.382025879427488
 31
0.0
  0
LINE
  5
242
  8
0
 39
5.0
 10
96.018046412653163
 20
79.382025879427488
 30
0.0
 11
96.117746412653204
 21
79.353725879427486
 31
0.0
  0
LINE
  5
243
  8
0
 39
5.0
 10
96.117746412653204
 20
79.353725879427486
 30
0.0
 11
96.214146412653164
 21
79.316025879427485
 31
0.0
  0
LINE
  5
244
  8
0
 39
5.0
 10
96.214146412653164
 20
79.316025879427485
 30
0.0
 11
96.306846412653186
 21
79.269525879427491
 31
0.0
  0
LINE
  5
245
  8
0
 39
5.0
 10
96.306846412653186
 20
79.269525879427491
 30
0.0
 11
96.394946412653184
 21
79.215525879427474
 31
0.0
  0
LINE
  5
246
  8
0
 39
5.0
 10
96.394946412653184
 20
79.215525879427474
 30
0.0
 11
96.477846412653165
 21
79.154625879427499
 31
0.0
  0
LINE
  5
247
  8
0
 39
5.0
 10
96.477846412653165
 20
79.154625879427499
 30
0.0
 11
96.554646412653184
 21
79.088225879427483
 31
0.0
  0
LINE
  5
248
  8
0
 39
5.0
 10
96.554646412653184
 20
79.088225879427483
 30
0.0
 11
96.62514641265318
 21
79.0168258794275
 31
0.0
  0
LINE
  5
249
  8
0
 39
5.0
 10
96.62514641265318
 20
79.0168258794275
 30
0.0
 11
96.688346412653175
 21
78.941825879427483
 31
0.0
  0
LINE
  5
24A
  8
0
 39
5.0
 10
96.688346412653175
 20
78.941825879427483
 30
0.0
 11
96.743746412653195
 21
78.863825879427495
 31
0.0
  0
LINE
  5
24B
  8
0
 39
5.0
 10
96.743746412653195
 20
78.863825879427495
 30
0.0
 11
96.790446412653196
 21
78.784225879427481
 31
0.0
  0
LINE
  5
24C
  8
0
 39
5.0
 10
96.790446412653196
 20
78.784225879427481
 30
0.0
 11
96.828046412653194
 21
78.703425879427499
 31
0.0
  0
LINE
  5
24D
  8
0
 39
5.0
 10
96.828046412653194
 20
78.703425879427499
 30
0.0
 11
96.855646412653186
 21
78.622925879427498
 31
0.0
  0
LINE
  5
24E
  8
0
 39
5.0
 10
96.855646412653186
 20
78.622925879427498
 30
0.0
 11
96.872746412653186
 21
78.543425879427488
 31
0.0
  0
LINE
  5
24F
  8
0
 39
5.0
 10
96.872746412653186
 20
78.543425879427488
 30
0.0
 11
96.878446412653176
 21
78.466025879427491
 31
0.0
  0
LINE
  5
250
  8
0
 39
5.0
 10
96.878446412653176
 20
78.466025879427491
 30
0.0
 11
96.878446412653176
 21
64.894425879427473
 31
0.0
  0
LINE
  5
251
  8
0
 39
5.0
 10
96.878446412653176
 20
64.894425879427473
 30
0.0
 11
96.878446412653176
 21
64.894425879427473
 31
0.0
  0
LINE
  5
252
  8
0
 39
5.0
 10
96.878446412653176
 20
64.894425879427473
 30
0.0
 11
96.874146412653175
 21
64.883225879427499
 31
0.0
  0
LINE
  5
253
  8
0
 39
5.0
 10
96.874146412653175
 20
64.883225879427499
 30
0.0
 11
96.860846412653189
 21
64.85182587942748
 31
0.0
  0
LINE
  5
254
  8
0
 39
5.0
 10
96.860846412653189
 20
64.85182587942748
 30
0.0
 11
96.838846412653183
 21
64.803125879427483
 31
0.0
  0
LINE
  5
255
  8
0
 39
5.0
 10
96.838846412653183
 20
64.803125879427483
 30
0.0
 11
96.808246412653176
 21
64.740325879427473
 31
0.0
  0
LINE
  5
256
  8
0
 39
5.0
 10
96.808246412653176
 20
64.740325879427473
 30
0.0
 11
96.769246412653189
 21
64.66602587942748
 31
0.0
  0
LINE
  5
257
  8
0
 39
5.0
 10
96.769246412653189
 20
64.66602587942748
 30
0.0
 11
96.721846412653164
 21
64.583525879427498
 31
0.0
  0
LINE
  5
258
  8
0
 39
5.0
 10
96.721846412653164
 20
64.583525879427498
 30
0.0
 11
96.66624641265318
 21
64.495525879427476
 31
0.0
  0
LINE
  5
259
  8
0
 39
5.0
 10
96.66624641265318
 20
64.495525879427476
 30
0.0
 11
96.602246412653187
 21
64.405425879427483
 31
0.0
  0
LINE
  5
25A
  8
0
 39
5.0
 10
96.602246412653187
 20
64.405425879427483
 30
0.0
 11
96.530446412653191
 21
64.315625879427472
 31
0.0
  0
LINE
  5
25B
  8
0
 39
5.0
 10
96.530446412653191
 20
64.315625879427472
 30
0.0
 11
96.450646412653185
 21
64.229425879427481
 31
0.0
  0
LINE
  5
25C
  8
0
 39
5.0
 10
96.450646412653185
 20
64.229425879427481
 30
0.0
 11
96.36314641265318
 21
64.149825879427482
 31
0.0
  0
LINE
  5
25D
  8
0
 39
5.0
 10
96.36314641265318
 20
64.149825879427482
 30
0.0
 11
96.267746412653196
 21
64.079925879427492
 31
0.0
  0
LINE
  5
25E
  8
0
 39
5.0
 10
96.267746412653196
 20
64.079925879427492
 30
0.0
 11
96.164946412653194
 21
64.022225879427481
 31
0.0
  0
LINE
  5
25F
  8
0
 39
5.0
 10
96.164946412653194
 20
64.022225879427481
 30
0.0
 11
96.054546412653195
 21
63.980325879427483
 31
0.0
  0
LINE
  5
260
  8
0
 39
5.0
 10
96.054546412653195
 20
63.980325879427483
 30
0.0
 11
95.684246834594006
 21
63.905825879427482
 31
0.0
  0
LINE
  5
26A
  8
1
 10
88.979046412653176
 20
79.705825879427479
 30
0.0
 11
88.979046412653176
 21
57.405825879427503
 31
0.0
  0
LINE
  5
272
  8
0
 10
83.679046412653193
 20
66.405825879427482
 30
0.0
 11
88.979046412653176
 21
66.405825879427482
 31
0.0
  0
LINE
  5
273
  8
0
 10
83.979046412653176
 20
66.405825879427482
 30
0.0
 11
83.979046412653176
 21
79.405825879427482
 31
0.0
  0
LINE
  5
27F
  8
2
 10
83.679046412653193
 20
66.405825879427482
 30
0.0
 11
83.679046412653193
 21
79.405825879427482
 31
0.0
  0
LINE
  5
285
  8
0
 10
95.684246834594006
 20
63.905825879427482
 30
0.0
 11
88.979046412653176
 21
63.905825879427482
 31
0.0
  0
LINE
  5
288
  8
0
 10
86.479046412653176
 20
63.905825879427489
 30
0.0
 11
82.248745990712266
 21
63.905825879427489
 31
0.0
  0
LINE
  5
29D
  8
0
 39
5.0
 10
94.083946412653177
 20
63.993425879427491
 30
0.0
 11
94.435168947864497
 21
63.905825879427482
 31
0.0
  0
LINE
  5
29E
  8
0
 39
5.0
 10
94.002346412653196
 20
64.022625879427494
 30
0.0
 11
94.083946412653177
 21
63.993425879427491
 31
0.0
  0
LINE
  5
29F
  8
0
 39
5.0
 10
93.924346412653165
 20
64.05902587942748
 30
0.0
 11
94.002346412653196
 21
64.022625879427494
 31
0.0
  0
LINE
  5
2A0
  8
0
 39
5.0
 10
93.850946412653158
 20
64.102425879427472
 30
0.0
 11
93.924346412653165
 21
64.05902587942748
 31
0.0
  0
LINE
  5
2A1
  8
0
 39
5.0
 10
93.782246412653166
 20
64.152225879427476
 30
0.0
 11
93.850946412653158
 21
64.102425879427472
 31
0.0
  0
LINE
  5
2A2
  8
0
 39
5.0
 10
93.719046412653185
 20
64.208225879427474
 30
0.0
 11
93.782246412653166
 21
64.152225879427476
 31
0.0
  0
LINE
  5
2A3
  8
0
 39
5.0
 10
93.661346412653174
 20
64.269525879427476
 30
0.0
 11
93.719046412653185
 21
64.208225879427474
 31
0.0
  0
LINE
  5
2A4
  8
0
 39
5.0
 10
93.61004641265319
 20
64.336125879427485
 30
0.0
 11
93.661346412653174
 21
64.269525879427476
 31
0.0
  0
LINE
  5
2A5
  8
0
 39
5.0
 10
93.565146412653178
 20
64.407325879427475
 30
0.0
 11
93.61004641265319
 21
64.336125879427485
 31
0.0
  0
LINE
  5
2A6
  8
0
 39
5.0
 10
93.527646412653183
 20
64.48282587942748
 30
0.0
 11
93.565146412653178
 21
64.407325879427475
 31
0.0
  0
LINE
  5
2A7
  8
0
 39
5.0
 10
93.497546412653179
 20
64.561925879427491
 30
0.0
 11
93.527646412653183
 21
64.48282587942748
 31
0.0
  0
LINE
  5
2A8
  8
0
 39
5.0
 10
93.475546412653173
 20
64.644625879427466
 30
0.0
 11
93.497546412653179
 21
64.561925879427491
 31
0.0
  0
LINE
  5
2A9
  8
0
 39
5.0
 10
93.461946412653177
 20
64.730125879427476
 30
0.0
 11
93.475546412653173
 21
64.644625879427466
 31
0.0
  0
LINE
  5
2AA
  8
0
 39
5.0
 10
93.457446412653184
 20
64.818225879427473
 30
0.0
 11
93.461946412653177
 21
64.730125879427476
 31
0.0
  0
LINE
  5
2AB
  8
0
 39
5.0
 10
93.457446412653184
 20
64.818225879427473
 30
0.0
 11
93.457446412653184
 21
64.818225879427473
 31
0.0
  0
LINE
  5
2AC
  8
0
 39
5.0
 10
93.457446412653184
 20
78.542225879427491
 30
0.0
 11
93.457446412653184
 21
64.818225879427473
 31
0.0
  0
LINE
  5
2AD
  8
0
 39
5.0
 10
93.461946412653177
 20
78.630025879427492
 30
0.0
 11
93.457446412653184
 21
78.542225879427491
 31
0.0
  0
LINE
  5
2AE
  8
0
 39
5.0
 10
93.475546412653173
 20
78.715525879427489
 30
0.0
 11
93.461946412653177
 21
78.630025879427492
 31
0.0
  0
LINE
  5
2AF
  8
0
 39
5.0
 10
93.497546412653179
 20
78.798125879427474
 30
0.0
 11
93.475546412653173
 21
78.715525879427489
 31
0.0
  0
LINE
  5
2B0
  8
0
 39
5.0
 10
93.527646412653183
 20
78.877425879427491
 30
0.0
 11
93.497546412653179
 21
78.798125879427474
 31
0.0
  0
LINE
  5
2B1
  8
0
 39
5.0
 10
93.565146412653178
 20
78.952725879427476
 30
0.0
 11
93.527646412653183
 21
78.877425879427491
 31
0.0
  0
LINE
  5
2B2
  8
0
 39
5.0
 10
93.61004641265319
 20
79.024025879427484
 30
0.0
 11
93.565146412653178
 21
78.952725879427476
 31
0.0
  0
LINE
  5
2B3
  8
0
 39
5.0
 10
93.661346412653174
 20
79.090525879427489
 30
0.0
 11
93.61004641265319
 21
79.024025879427484
 31
0.0
  0
LINE
  5
2B4
  8
0
 39
5.0
 10
93.719046412653185
 20
79.152125879427501
 30
0.0
 11
93.661346412653174
 21
79.090525879427489
 31
0.0
  0
LINE
  5
2B5
  8
0
 39
5.0
 10
93.782246412653166
 20
79.207825879427489
 30
0.0
 11
93.719046412653185
 21
79.152125879427501
 31
0.0
  0
LINE
  5
2B6
  8
0
 39
5.0
 10
93.850946412653158
 20
79.257725879427483
 30
0.0
 11
93.782246412653166
 21
79.207825879427489
 31
0.0
  0
LINE
  5
2B7
  8
0
 39
5.0
 10
93.924346412653165
 20
79.301025879427499
 30
0.0
 11
93.850946412653158
 21
79.257725879427483
 31
0.0
  0
LINE
  5
2B8
  8
0
 39
5.0
 10
94.002346412653196
 20
79.337625879427492
 30
0.0
 11
93.924346412653165
 21
79.301025879427499
 31
0.0
  0
LINE
  5
2B9
  8
0
 39
5.0
 10
94.083946412653177
 20
79.366625879427474
 30
0.0
 11
94.002346412653196
 21
79.337625879427492
 31
0.0
  0
LINE
  5
2BA
  8
0
 39
5.0
 10
94.169346412653184
 20
79.388125879427491
 30
0.0
 11
94.083946412653177
 21
79.366625879427474
 31
0.0
  0
LINE
  5
2BB
  8
0
 39
5.0
 10
94.257546412653184
 20
79.4012258794275
 30
0.0
 11
94.169346412653184
 21
79.388125879427491
 31
0.0
  0
LINE
  5
2BC
  8
0
 39
5.0
 10
94.348446412653175
 20
79.405825879427482
 30
0.0
 11
94.257546412653184
 21
79.4012258794275
 31
0.0
  0
LINE
  5
2BD
  8
0
 39
5.0
 10
94.348446412653175
 20
79.405825879427482
 30
0.0
 11
94.348446412653175
 21
79.405825879427482
 31
0.0
  0
LINE
  5
2CE
  8
3
 10
94.279046412653187
 20
66.405825879427482
 30
0.0
 11
88.979046412653176
 21
66.405825879427482
 31
0.0
  0
LINE
  5
2D4
  8
3
 10
89.979046412653204
 20
63.905825879427482
 30
0.0
 11
88.979046412653176
 21
63.905825879427482
 31
0.0
  0
DIMENSION
  5
2DE
  8
2
  2
*D1
 10
109.3327503640771
 20
66.405825879427468
 30
0.0
 11
107.4577503640771
 21
72.905825879427496
 31
0.0
 70
     0
 13
95.811646412653175
 23
79.405825879427482
 33
0.0
 14
94.279046412653187
 24
66.405825879427482
 34
0.0
 50
90.0
  0
DIMENSION
  5
2F5
  8
2
  2
*D2
 10
113.88467131988919
 20
63.905825879427482
 30
0.0
 11
112.00967131988919
 21
71.65582587942751
 31
0.0
 70
     0
 13
109.3327503640771
 23
79.405825879427454
 33
0.0
 14
92.979723877441856
 24
63.905825879427482
 34
0.0
 50
90.0
  0
TEXT
  5
388
  8
1
 10
65.623051582948563
 20
84.011526424223987
 30
0.0
 40
2.5
  1
G1/8
  0
TEXT
  5
389
  8
1
 10
65.527105349372334
 20
79.840751579537354
 30
0.0
 40
2.5
  1
H14
  0
LINE
  5
409
  8
0
 10
86.479046412653219
 20
59.405825879427489
 30
0.0
 11
88.979046412653176
 21
59.405825879427482
 31
0.0
  0
DIMENSION
  5
41A
  8
2
  2
*D3
 10
119.1072250946431
 20
59.405825879427489
 30
0.0
 11
117.2322250946431
 21
69.405825879427496
 31
0.0
 70
     0
 13
113.88467131988919
 23
79.405825879427454
 33
0.0
 14
91.72904641265319
 24
59.405825879427489
 34
0.0
 50
90.0
  0
LINE
  5
526
  8
0
 10
86.479046412653176
 20
59.405825879427489
 30
0.0
 11
88.979046412653176
 21
59.405825879427489
 31
0.0
  0
LINE
  5
55E
  8
0
 10
84.979046412653204
 20
61.405825879427503
 30
0.0
 11
86.479046412653176
 21
61.405825879427489
 31
0.0
  0
LINE
  5
569
  8
0
 10
86.479046412653176
 20
63.905825879427489
 30
0.0
 11
86.479046412653176
 21
61.405825879427489
 31
0.0
  0
LINE
  5
588
  8
0
 10
91.479046412653176
 20
63.905825879427489
 30
0.0
 11
95.709346834594015
 21
63.905825879427482
 31
0.0
  0
LINE
  5
59D
  8
3
 10
93.979046412653176
 20
66.405825879427482
 30
0.0
 11
93.979046412653176
 21
79.405825879427482
 31
0.0
  0
LINE
  5
59E
  8
3
 10
94.279046412653187
 20
66.405825879427482
 30
0.0
 11
94.279046412653187
 21
79.405825879427482
 31
0.0
  0
DIMENSION
  5
5A1
  8
2
  2
*D4
 10
72.667737709128687
 20
61.405825879427503
 30
0.0
 11
70.792737709128673
 21
67.864159212760853
 31
0.0
 70
     0
 13
86.479046412653176
 23
59.405825879427489
 33
0.0
 14
84.47904641265319
 24
61.405825879427489
 34
0.0
 50
90.0
  0
POLYLINE
  8
2
  5
807
  66
     1
 10
0.000000
 20
0.000000
 30
0.000000
  70
     8
  0
VERTEX
  8
2
  5
808
 10
83.6790
 20
73.9058
 30
0.000000
  70
    32
  0
VERTEX
  8
2
  5
809
 10
74.7551
 20
83.4212
 30
0.000000
  70
    32
  0
VERTEX
  8
2
  5
80A
 10
65.3620
 20
83.4212
 30
0.000000
  70
    32
  0
SEQEND
  8
2
  5
80B
  0
LINE
  5
5C5
  8
0
 10
87.97904641265319
 20
65.155825879427482
 30
0.0
 11
88.979046412653176
 21
65.155825879427482
 31
0.0
  0
POLYLINE
  8
2
  5
80C
  66
     1
 10
0.000000
 20
0.000000
 30
0.000000
  70
     8
  0
VERTEX
  8
2
  5
80D
 10
81.0542
 20
71.6802
 30
0.000000
  70
    32
  0
VERTEX
  8
2
  5
80E
 10
72.3195
 20
79.1024
 30
0.000000
  70
    32
  0
VERTEX
  8
2
  5
80F
 10
64.6135
 20
79.1024
 30
0.000000
  70
    32
  0
SEQEND
  8
2
  5
810
  0
LINE
  5
758
  8
0
 10
87.97904641265319
 20
65.155825879427482
 30
0.0
 11
87.97904641265319
 21
59.405825879427482
 31
0.0
  0
LINE
  5
759
  8
0
 10
87.97904641265319
 20
65.155825879427482
 30
0.0
 11
83.979046412653176
 21
66.405825879427482
 31
0.0
  0
LINE
  5
75C
  8
0
 10
84.979046412653204
 20
59.905825879427503
 30
0.0
 11
84.979046412653204
 21
61.405825879427489
 31
0.0
  0
LINE
  5
761
  8
0
 10
86.479046412653219
 20
59.405825879427489
 30
0.0
 11
84.979046412653204
 21
59.905825879427503
 31
0.0
  0
LINE
  5
764
  8
0
 10
91.479046412653176
 20
63.905825879427489
 30
0.0
 11
91.479046412653176
 21
61.405825879427489
 31
0.0
  0
LINE
  5
765
  8
0
 10
92.97904641265319
 20
61.405825879427503
 30
0.0
 11
91.479046412653176
 21
61.405825879427489
 31
0.0
  0
LINE
  5
766
  8
0
 10
92.97904641265319
 20
59.905825879427503
 30
0.0
 11
92.97904641265319
 21
61.405825879427489
 31
0.0
  0
LINE
  5
767
  8
0
 10
91.479046412653162
 20
59.405825879427489
 30
0.0
 11
92.97904641265319
 21
59.905825879427503
 31
0.0
  0
LINE
  5
768
  8
0
 10
91.479046412653162
 20
59.405825879427489
 30
0.0
 11
88.979046412653176
 21
59.405825879427482
 31
0.0
  0
LINE
  5
76A
  8
3
 10
89.979046412653204
 20
65.155825879427482
 30
0.0
 11
93.979046412653176
 21
66.405825879427482
 31
0.0
  0
LINE
  5
76B
  8
3
 10
89.979046412653204
 20
65.155825879427482
 30
0.0
 11
88.979046412653176
 21
65.155825879427482
 31
0.0
  0
LINE
  5
76C
  8
3
 10
89.979046412653204
 20
65.155825879427482
 30
0.0
 11
89.979046412653204
 21
59.405825879427482
 31
0.0
  0
DIMENSION
  5
76D
  8
2
  2
*D5
 10
89.979046412653204
 20
49.018548499964197
 30
0.0
 11
97.687379745986519
 21
50.893548499964197
 31
0.0
 70
     0
  1
%%c<>
 13
87.97904641265319
 23
59.405825879427489
 33
0.0
 14
89.979046412653204
 24
59.405825879427482
 34
0.0
  0
DIMENSION
  5
794
  8
2
  2
*D6
 10
91.479046412653176
 20
43.018821199725998
 30
0.0
 11
99.187379745986519
 21
44.893821199725998
 31
0.0
 70
     0
  1
%%c<>
 13
86.479046412653176
 23
61.405825879427489
 33
0.0
 14
91.479046412653176
 24
61.405825879427489
 34
0.0
  0
DIMENSION
  5
7AE
  8
2
  2
*D7
 10
92.97904641265319
 20
37.723906964172443
 30
0.0
 11
88.979046412653176
 21
39.598906964172443
 31
0.0
 70
     0
  1
%%c<>
 13
84.979046412653204
 23
59.905825879427503
 33
0.0
 14
92.97904641265319
 24
59.905825879427503
 34
0.0
  0
ENDSEC
  0
EOF
