  0
SECTION
  2
HEADER
  9
$ACADVER
  1
AC1009
  9
$INSBASE
 10
0.0
 20
0.0
 30
0.0
  9
$EXTMIN
 10
70.081291528983513
 20
29.102661929412442
 30
0.0
  9
$EXTMAX
 10
116.4967993170183
 20
95.265673591752275
 30
5.0
  9
$LIMMIN
 10
0.0
 20
0.0
  9
$LIMMAX
 10
420.0
 20
297.0
  9
$ORTHOMODE
 70
     0
  9
$REGENMODE
 70
     1
  9
$FILLMODE
 70
     1
  9
$QTEXTMODE
 70
     0
  9
$MIRRTEXT
 70
     1
  9
$DRAGMODE
 70
     2
  9
$LTSCALE
 40
0.3
  9
$OSMODE
 70
    37
  9
$ATTMODE
 70
     1
  9
$TEXTSIZE
 40
2.5
  9
$TRACEWID
 40
1.0
  9
$TEXTSTYLE
  7
STANDARD
  9
$CLAYER
  8
2
  9
$CELTYPE
  6
BYLAYER
  9
$CECOLOR
 62
   256
  9
$DIMSCALE
 40
1.0
  9
$DIMASZ
 40
2.5
  9
$DIMEXO
 40
0.625
  9
$DIMDLI
 40
3.75
  9
$DIMRND
 40
0.0
  9
$DIMDLE
 40
0.0
  9
$DIMEXE
 40
1.25
  9
$DIMTP
 40
0.0
  9
$DIMTM
 40
0.0
  9
$DIMTXT
 40
2.5
  9
$DIMCEN
 40
2.5
  9
$DIMTSZ
 40
0.0
  9
$DIMTOL
 70
     0
  9
$DIMLIM
 70
     0
  9
$DIMTIH
 70
     0
  9
$DIMTOH
 70
     0
  9
$DIMSE1
 70
     0
  9
$DIMSE2
 70
     0
  9
$DIMTAD
 70
     1
  9
$DIMZIN
 70
     8
  9
$DIMBLK
  1

  9
$DIMASO
 70
     1
  9
$DIMSHO
 70
     1
  9
$DIMPOST
  1

  9
$DIMAPOST
  1

  9
$DIMALT
 70
     0
  9
$DIMALTD
 70
     3
  9
$DIMALTF
 40
0.03937007874016
  9
$DIMLFAC
 40
1.0
  9
$DIMTOFL
 70
     1
  9
$DIMTVP
 40
0.0
  9
$DIMTIX
 70
     0
  9
$DIMSOXD
 70
     0
  9
$DIMSAH
 70
     0
  9
$DIMBLK1
  1

  9
$DIMBLK2
  1

  9
$DIMSTYLE
  2
ISO-25
  9
$DIMCLRD
 70
     0
  9
$DIMCLRE
 70
     0
  9
$DIMCLRT
 70
     0
  9
$DIMTFAC
 40
1.0
  9
$DIMGAP
 40
0.625
  9
$LUNITS
 70
     2
  9
$LUPREC
 70
     4
  9
$SKETCHINC
 40
1.0
  9
$FILLETRAD
 40
10.0
  9
$AUNITS
 70
     0
  9
$AUPREC
 70
     0
  9
$MENU
  1
.
  9
$ELEVATION
 40
0.0
  9
$PELEVATION
 40
0.0
  9
$THICKNESS
 40
0.0
  9
$LIMCHECK
 70
     0
  9
$BLIPMODE
 70
     0
  9
$CHAMFERA
 40
10.0
  9
$CHAMFERB
 40
10.0
  9
$SKPOLY
 70
     0
  9
$TDCREATE
 40
2453447.5951480898
  9
$TDUPDATE
 40
2453551.9260211112
  9
$TDINDWG
 40
0.0378716898
  9
$TDUSRTIMER
 40
0.0378716898
  9
$USRTIMER
 70
     1
  9
$ANGBASE
 50
0.0
  9
$ANGDIR
 70
     0
  9
$PDMODE
 70
     0
  9
$PDSIZE
 40
0.0
  9
$PLINEWID
 40
0.0
  9
$COORDS
 70
     1
  9
$SPLFRAME
 70
     0
  9
$SPLINETYPE
 70
     6
  9
$SPLINESEGS
 70
     8
  9
$ATTDIA
 70
     0
  9
$ATTREQ
 70
     1
  9
$HANDLING
 70
-16383
  9
$HANDSEED
  5
5E4
  9
$SURFTAB1
 70
     6
  9
$SURFTAB2
 70
     6
  9
$SURFTYPE
 70
     6
  9
$SURFU
 70
     6
  9
$SURFV
 70
     6
  9
$UCSNAME
  2

  9
$UCSORG
 10
0.0
 20
0.0
 30
0.0
  9
$UCSXDIR
 10
1.0
 20
0.0
 30
0.0
  9
$UCSYDIR
 10
0.0
 20
1.0
 30
0.0
  9
$PUCSNAME
  2

  9
$PUCSORG
 10
0.0
 20
0.0
 30
0.0
  9
$PUCSXDIR
 10
1.0
 20
0.0
 30
0.0
  9
$PUCSYDIR
 10
0.0
 20
1.0
 30
0.0
  9
$USERI1
 70
     0
  9
$USERI2
 70
     0
  9
$USERI3
 70
     0
  9
$USERI4
 70
     0
  9
$USERI5
 70
     0
  9
$USERR1
 40
0.0
  9
$USERR2
 40
0.0
  9
$USERR3
 40
0.0
  9
$USERR4
 40
0.0
  9
$USERR5
 40
0.0
  9
$WORLDVIEW
 70
     1
  9
$SHADEDGE
 70
     3
  9
$SHADEDIF
 70
    70
  9
$TILEMODE
 70
     1
  9
$MAXACTVP
 70
    64
  9
$PLIMCHECK
 70
     0
  9
$PEXTMIN
 10
1.0000000000000000E+020
 20
1.0000000000000000E+020
 30
1.0000000000000000E+020
  9
$PEXTMAX
 10
-1.0000000000000000E+020
 20
-1.0000000000000000E+020
 30
-1.0000000000000000E+020
  9
$PLIMMIN
 10
0.0
 20
0.0
  9
$PLIMMAX
 10
420.0
 20
297.0
  9
$UNITMODE
 70
     0
  9
$VISRETAIN
 70
     1
  9
$PLINEGEN
 70
     0
  9
$PSLTSCALE
 70
     1
  0
ENDSEC
  0
SECTION
  2
TABLES
  0
TABLE
  2
VPORT
 70
     2
  0
VPORT
  2
*ACTIVE
 70
     0
 10
0.0
 20
0.0
 11
1.0
 21
1.0
 12
75.476703174450449
 22
71.862248199419298
 13
0.0
 23
0.0
 14
10.0
 24
10.0
 15
10.0
 25
10.0
 16
0.0
 26
0.0
 36
1.0
 17
0.0
 27
0.0
 37
0.0
 40
107.15458258278819
 41
2.5392405063291141
 42
50.0
 43
0.0
 44
0.0
 50
0.0
 51
0.0
 71
     0
 72
   100
 73
     1
 74
     3
 75
     0
 76
     0
 77
     0
 78
     0
  0
ENDTAB
  0
TABLE
  2
LTYPE
 70
     3
  0
LTYPE
  2
CONTINUOUS
 70
     0
  3
Solid line
 72
    65
 73
     0
 40
0.0
  0
LTYPE
  2
CENTER
 70
     0
  3
Center ____ _ ____ _ ____ _ ____ _ ____ _ ____
 72
    65
 73
     4
 40
50.799999999999997
 49
31.75
 49
-6.3499999999999988
 49
6.3499999999999988
 49
-6.3499999999999988
  0
LTYPE
  2
DASHED2
 70
     0
  3
Dashed (.5x) _ _ _ _ _ _ _ _ _ _ _ _ _ _ _ _ _
 72
    65
 73
     2
 40
9.5249999999999986
 49
6.3499999999999988
 49
-3.1749999999999989
  0
ENDTAB
  0
TABLE
  2
LAYER
 70
     5
  0
LAYER
  2
0
 70
     0
 62
     7
  6
CONTINUOUS
  0
LAYER
  2
1
 70
     0
 62
     7
  6
CENTER
  0
LAYER
  2
2
 70
     0
 62
     7
  6
CONTINUOUS
  0
LAYER
  2
3
 70
     0
 62
     7
  6
DASHED2
  0
LAYER
  2
DEFPOINTS
 70
     0
 62
     7
  6
CONTINUOUS
  0
ENDTAB
  0
TABLE
  2
STYLE
 70
     3
  0
STYLE
  2
STANDARD
 70
     0
 40
0.0
 41
1.0
 50
0.0
 71
     0
 42
2.5
  3
txt
  4

  0
STYLE
  2
\U+00C9L\U+00C9R_\U+00C2S\U+00C2V\U+00C2B\U+00C2N
 70
     0
 40
1.0
 41
1.0
 50
0.0
 71
     0
 42
1.0
  3
\U+00E9l\U+00E9r \U+00E2S\U+00E2V\U+00E2b\U+00E2N
  4

  0
STYLE
  2

 70
     1
 40
0.0
 41
1.0
 50
0.0
 71
     0
 42
2.5
  3
ltypeshp.shx
  4

  0
ENDTAB
  0
TABLE
  2
VIEW
 70
     0
  0
ENDTAB
  0
TABLE
  2
UCS
 70
     0
  0
ENDTAB
  0
TABLE
  2
APPID
 70
     1
  0
APPID
  2
ACAD
 70
     0
  0
ENDTAB
  0
TABLE
  2
DIMSTYLE
 70
     2
  0
DIMSTYLE
  2
ISO-25
 70
     0
  3

  4

  5

  6

  7

 40
1.0
 41
2.5
 42
0.625
 43
3.75
 44
1.25
 45
0.0
 46
0.0
 47
0.0
 48
0.0
140
2.5
141
2.5
142
0.0
143
0.03937007874016
144
1.0
145
0.0
146
1.0
147
0.625
 71
     0
 72
     0
 73
     0
 74
     0
 75
     0
 76
     0
 77
     1
 78
     8
170
     0
171
     3
172
     1
173
     0
174
     0
175
     0
176
     0
177
     0
178
     0
  0
DIMSTYLE
  2
STANDARD
 70
     0
  3

  4

  5

  6

  7

 40
1.0
 41
0.18
 42
0.0625
 43
0.38
 44
0.18
 45
0.0
 46
0.0
 47
0.0
 48
0.0
140
0.18
141
0.09
142
0.0
143
25.399999999999999
144
1.0
145
0.0
146
1.0
147
0.09
 71
     0
 72
     0
 73
     1
 74
     1
 75
     0
 76
     0
 77
     0
 78
     0
170
     0
171
     2
172
     0
173
     0
174
     0
175
     0
176
     0
177
     0
178
     0
  0
ENDTAB
  0
ENDSEC
  0
SECTION
  2
BLOCKS
  0
BLOCK
  8
0
  2
$MODEL_SPACE
 70
     0
 10
0.0
 20
0.0
 30
0.0
  3
$MODEL_SPACE
  1

  0
ENDBLK
  5
21
  8
0
  0
BLOCK
 67
     1
  8
0
  2
$PAPER_SPACE
 70
     0
 10
0.0
 20
0.0
 30
0.0
  3
$PAPER_SPACE
  1

  0
ENDBLK
  5
1D
 67
     1
  8
0
  0
BLOCK
  8
0
  2
*D1
 70
     1
 10
0.0
 20
0.0
 30
0.0
  3
*D1
  1

  0
LINE
  5
4CC
  8
2
 62
     0
 10
100.5900430908855
 20
80.694725956373688
 30
0.0
 11
110.990171663225
 21
80.694725956373688
 31
0.0
  0
LINE
  5
4CD
  8
2
 62
     0
 10
100.5900430908855
 20
64.694725956373702
 30
0.0
 11
110.990171663225
 21
64.694725956373702
 31
0.0
  0
LINE
  5
4CE
  8
2
 62
     0
 10
109.740171663225
 20
78.194725956373702
 30
0.0
 11
109.740171663225
 21
67.194725956373702
 31
0.0
  0
SOLID
  5
4CF
  8
2
 62
     0
 10
109.3235049965583
 20
78.194725956373702
 30
0.0
 11
110.1568383298917
 21
78.194725956373702
 31
0.0
 12
109.740171663225
 22
80.694725956373688
 32
0.0
 13
109.740171663225
 23
80.694725956373688
 33
0.0
  0
SOLID
  5
4D0
  8
2
 62
     0
 10
109.3235049965583
 20
67.194725956373702
 30
0.0
 11
110.1568383298917
 21
67.194725956373702
 31
0.0
 12
109.740171663225
 22
64.694725956373702
 32
0.0
 13
109.740171663225
 23
64.694725956373702
 33
0.0
  0
TEXT
  5
4D1
  8
2
 62
     0
 10
109.115171663225
 20
71.028059289707059
 30
0.0
 40
2.5
  1
16
 50
90.0
  0
POINT
  5
4D2
  8
DEFPOINTS
 62
     0
 10
99.965043090885587
 20
80.694725956373688
 30
0.0
  0
POINT
  5
4D3
  8
DEFPOINTS
 62
     0
 10
99.965043090885587
 20
64.694725956373702
 30
0.0
  0
POINT
  5
4D4
  8
DEFPOINTS
 62
     0
 10
109.740171663225
 20
64.694725956373702
 30
0.0
  0
ENDBLK
  5
4C2
  8
0
  0
BLOCK
  8
0
  2
*D2
 70
     1
 10
0.0
 20
0.0
 30
0.0
  3
*D2
  1

  0
LINE
  5
576
  8
2
 62
     0
 10
88.392643090885571
 20
58.194725956373702
 30
0.0
 11
75.304126115417617
 21
58.194725956373709
 31
0.0
  0
LINE
  5
577
  8
2
 62
     0
 10
87.507443090885573
 20
60.194725956373702
 30
0.0
 11
75.304126115417617
 21
60.194725956373702
 31
0.0
  0
LINE
  5
578
  8
2
 62
     0
 10
76.554126115417617
 20
62.694725956373702
 30
0.0
 11
76.554126115417617
 21
65.194725956373716
 31
0.0
  0
LINE
  5
579
  8
2
 62
     0
 10
76.554126115417617
 20
55.694725956373709
 30
0.0
 11
76.554126115417617
 21
47.379791788061482
 31
0.0
  0
LINE
  5
57A
  8
2
 62
     0
 10
76.554126115417617
 20
60.194725956373702
 30
0.0
 11
76.554126115417617
 21
58.194725956373709
 31
0.0
  0
SOLID
  5
57B
  8
2
 62
     0
 10
76.137459448750946
 20
62.694725956373702
 30
0.0
 11
76.970792782084288
 21
62.694725956373702
 31
0.0
 12
76.554126115417617
 22
60.194725956373702
 32
0.0
 13
76.554126115417617
 23
60.194725956373702
 33
0.0
  0
SOLID
  5
57C
  8
2
 62
     0
 10
76.137459448750946
 20
55.694725956373709
 30
0.0
 11
76.970792782084288
 21
55.694725956373709
 31
0.0
 12
76.554126115417617
 22
58.194725956373709
 32
0.0
 13
76.554126115417617
 23
58.194725956373709
 33
0.0
  0
TEXT
  5
57D
  8
2
 62
     0
 10
75.929126115417603
 20
48.004791788061489
 30
0.0
 40
2.5
  1
2
 50
90.0
  0
POINT
  5
57E
  8
DEFPOINTS
 62
     0
 10
89.017643090885571
 20
58.194725956373702
 30
0.0
  0
POINT
  5
57F
  8
DEFPOINTS
 62
     0
 10
88.132443090885573
 20
60.194725956373702
 30
0.0
  0
POINT
  5
580
  8
DEFPOINTS
 62
     0
 10
76.554126115417617
 20
60.194725956373702
 30
0.0
  0
ENDBLK
  5
507
  8
0
  0
BLOCK
  8
0
  2
*D3
 70
     1
 10
0.0
 20
0.0
 30
0.0
  3
*D3
  1

  0
LINE
  5
53E
  8
2
 62
     0
 10
91.882443090885573
 20
57.569725956373702
 30
0.0
 11
91.882443090885573
 21
45.805445773250987
 31
0.0
  0
LINE
  5
53F
  8
2
 62
     0
 10
94.382443090885573
 20
57.569725956373702
 30
0.0
 11
94.382443090885573
 21
45.805445773250987
 31
0.0
  0
LINE
  5
540
  8
2
 62
     0
 10
89.382443090885573
 20
47.055445773250987
 30
0.0
 11
86.882443090885573
 21
47.055445773250987
 31
0.0
  0
LINE
  5
541
  8
2
 62
     0
 10
96.882443090885573
 20
47.055445773250987
 30
0.0
 11
108.1324430908855
 21
47.055445773250987
 31
0.0
  0
LINE
  5
542
  8
2
 62
     0
 10
91.882443090885573
 20
47.055445773250987
 30
0.0
 11
94.382443090885573
 21
47.055445773250987
 31
0.0
  0
SOLID
  5
543
  8
2
 62
     0
 10
89.382443090885573
 20
47.472112439917659
 30
0.0
 11
89.382443090885573
 21
46.63877910658433
 31
0.0
 12
91.882443090885573
 22
47.055445773250987
 32
0.0
 13
91.882443090885573
 23
47.055445773250987
 33
0.0
  0
SOLID
  5
544
  8
2
 62
     0
 10
96.882443090885573
 20
47.472112439917659
 30
0.0
 11
96.882443090885573
 21
46.63877910658433
 31
0.0
 12
94.382443090885573
 22
47.055445773250987
 32
0.0
 13
94.382443090885573
 23
47.055445773250987
 33
0.0
  0
INSERT
  5
545
  8
2
  2
*U8
 10
0.0
 20
0.0
 30
0.0
  0
POINT
  5
546
  8
DEFPOINTS
 62
     0
 10
91.882443090885573
 20
58.194725956373702
 30
0.0
  0
POINT
  5
547
  8
DEFPOINTS
 62
     0
 10
94.382443090885573
 20
58.194725956373702
 30
0.0
  0
POINT
  5
548
  8
DEFPOINTS
 62
     0
 10
94.382443090885573
 20
47.055445773250987
 30
0.0
  0
ENDBLK
  5
521
  8
0
  0
BLOCK
  8
0
  2
*D4
 70
     1
 10
0.0
 20
0.0
 30
0.0
  3
*D4
  1

  0
LINE
  5
549
  8
2
 62
     0
 10
90.632443090885573
 20
59.569725956373702
 30
0.0
 11
90.632443090885573
 21
40.94134854215136
 31
0.0
  0
LINE
  5
54A
  8
2
 62
     0
 10
95.632443090885573
 20
59.569725956373702
 30
0.0
 11
95.632443090885573
 21
40.94134854215136
 31
0.0
  0
LINE
  5
54B
  8
2
 62
     0
 10
88.132443090885573
 20
42.19134854215136
 30
0.0
 11
85.632443090885573
 21
42.19134854215136
 31
0.0
  0
LINE
  5
54C
  8
2
 62
     0
 10
98.132443090885573
 20
42.19134854215136
 30
0.0
 11
106.0491097575522
 21
42.19134854215136
 31
0.0
  0
LINE
  5
54D
  8
2
 62
     0
 10
90.632443090885573
 20
42.19134854215136
 30
0.0
 11
95.632443090885573
 21
42.19134854215136
 31
0.0
  0
SOLID
  5
54E
  8
2
 62
     0
 10
88.132443090885573
 20
42.608015208818017
 30
0.0
 11
88.132443090885573
 21
41.774681875484688
 31
0.0
 12
90.632443090885573
 22
42.19134854215136
 32
0.0
 13
90.632443090885573
 23
42.19134854215136
 33
0.0
  0
SOLID
  5
54F
  8
2
 62
     0
 10
98.132443090885573
 20
42.608015208818017
 30
0.0
 11
98.132443090885573
 21
41.774681875484688
 31
0.0
 12
95.632443090885573
 22
42.19134854215136
 32
0.0
 13
95.632443090885573
 23
42.19134854215136
 33
0.0
  0
INSERT
  5
550
  8
2
  2
*U9
 10
0.0
 20
0.0
 30
0.0
  0
POINT
  5
551
  8
DEFPOINTS
 62
     0
 10
90.632443090885573
 20
60.194725956373702
 30
0.0
  0
POINT
  5
552
  8
DEFPOINTS
 62
     0
 10
95.632443090885573
 20
60.194725956373702
 30
0.0
  0
POINT
  5
553
  8
DEFPOINTS
 62
     0
 10
95.632443090885573
 20
42.19134854215136
 30
0.0
  0
ENDBLK
  5
530
  8
0
  0
BLOCK
  8
0
  2
*D5
 70
     1
 10
0.0
 20
0.0
 30
0.0
  3
*D5
  1

  0
LINE
  5
554
  8
2
 62
     0
 10
88.132443090885573
 20
58.4549259563737
 30
0.0
 11
88.132443090885573
 21
36.07725190788247
 31
0.0
  0
LINE
  5
555
  8
2
 62
     0
 10
98.132443090885573
 20
58.4549259563737
 30
0.0
 11
98.132443090885573
 21
36.07725190788247
 31
0.0
  0
LINE
  5
556
  8
2
 62
     0
 10
90.632443090885573
 20
37.32725190788247
 30
0.0
 11
95.632443090885573
 21
37.32725190788247
 31
0.0
  0
SOLID
  5
557
  8
2
 62
     0
 10
90.632443090885573
 20
37.743918574549127
 30
0.0
 11
90.632443090885573
 21
36.910585241215799
 31
0.0
 12
88.132443090885573
 22
37.32725190788247
 32
0.0
 13
88.132443090885573
 23
37.32725190788247
 33
0.0
  0
SOLID
  5
558
  8
2
 62
     0
 10
95.632443090885573
 20
37.743918574549127
 30
0.0
 11
95.632443090885573
 21
36.910585241215799
 31
0.0
 12
98.132443090885573
 22
37.32725190788247
 32
0.0
 13
98.132443090885573
 23
37.32725190788247
 33
0.0
  0
INSERT
  5
559
  8
2
  2
*U10
 10
0.0
 20
0.0
 30
0.0
  0
POINT
  5
55A
  8
DEFPOINTS
 62
     0
 10
88.132443090885573
 20
59.0799259563737
 30
0.0
  0
POINT
  5
55B
  8
DEFPOINTS
 62
     0
 10
98.132443090885573
 20
59.0799259563737
 30
0.0
  0
POINT
  5
55C
  8
DEFPOINTS
 62
     0
 10
98.132443090885573
 20
37.32725190788247
 30
0.0
  0
ENDBLK
  5
53D
  8
0
  0
BLOCK
  8
0
  2
*D6
 70
     1
 10
0.0
 20
0.0
 30
0.0
  3
*D6
  1

  0
LINE
  5
560
  8
2
 62
     0
 10
87.507443090885573
 20
80.694725956373688
 30
0.0
 11
75.304126115417603
 21
80.694725956373688
 31
0.0
  0
LINE
  5
561
  8
2
 62
     0
 10
88.507443090885545
 20
67.694725956373702
 30
0.0
 11
75.304126115417603
 21
67.694725956373702
 31
0.0
  0
LINE
  5
562
  8
2
 62
     0
 10
76.554126115417603
 20
78.194725956373702
 30
0.0
 11
76.554126115417603
 21
70.194725956373702
 31
0.0
  0
SOLID
  5
563
  8
2
 62
     0
 10
76.137459448750931
 20
78.194725956373702
 30
0.0
 11
76.970792782084274
 21
78.194725956373702
 31
0.0
 12
76.554126115417603
 22
80.694725956373688
 32
0.0
 13
76.554126115417603
 23
80.694725956373688
 33
0.0
  0
SOLID
  5
564
  8
2
 62
     0
 10
76.137459448750931
 20
70.194725956373702
 30
0.0
 11
76.970792782084274
 21
70.194725956373702
 31
0.0
 12
76.554126115417603
 22
67.694725956373702
 32
0.0
 13
76.554126115417603
 23
67.694725956373702
 33
0.0
  0
TEXT
  5
565
  8
2
 62
     0
 10
75.929126115417588
 20
72.528059289707045
 30
0.0
 40
2.5
  1
13
 50
90.0
  0
POINT
  5
566
  8
DEFPOINTS
 62
     0
 10
88.132443090885573
 20
80.694725956373688
 30
0.0
  0
POINT
  5
567
  8
DEFPOINTS
 62
     0
 10
89.132443090885545
 20
67.694725956373702
 30
0.0
  0
POINT
  5
568
  8
DEFPOINTS
 62
     0
 10
76.554126115417603
 20
67.694725956373702
 30
0.0
  0
ENDBLK
  5
56A
  8
0
  0
BLOCK
  8
0
  2
*D7
 70
     1
 10
0.0
 20
0.0
 30
0.0
  3
*D7
  1

  0
LINE
  5
5AF
  8
2
 62
     0
 10
110.365171663225
 20
80.694725956373688
 30
0.0
 11
116.4967993170183
 21
80.694725956373688
 31
0.0
  0
LINE
  5
5B0
  8
2
 62
     0
 10
97.872243090885576
 20
58.194725956373702
 30
0.0
 11
116.4967993170183
 21
58.194725956373688
 31
0.0
  0
LINE
  5
5B1
  8
2
 62
     0
 10
115.2467993170183
 20
78.194725956373702
 30
0.0
 11
115.2467993170183
 21
60.694725956373688
 31
0.0
  0
SOLID
  5
5B2
  8
2
 62
     0
 10
114.8301326503517
 20
78.194725956373702
 30
0.0
 11
115.663465983685
 21
78.194725956373702
 31
0.0
 12
115.2467993170183
 22
80.694725956373688
 32
0.0
 13
115.2467993170183
 23
80.694725956373688
 33
0.0
  0
SOLID
  5
5B3
  8
2
 62
     0
 10
114.8301326503517
 20
60.694725956373688
 30
0.0
 11
115.663465983685
 21
60.694725956373688
 31
0.0
 12
115.2467993170183
 22
58.194725956373688
 32
0.0
 13
115.2467993170183
 23
58.194725956373688
 33
0.0
  0
TEXT
  5
5B4
  8
2
 62
     0
 10
114.6217993170183
 20
65.69472595637373
 30
0.0
 40
2.5
  1
22.5
 50
90.0
  0
POINT
  5
5B5
  8
DEFPOINTS
 62
     0
 10
109.740171663225
 20
80.694725956373688
 30
0.0
  0
POINT
  5
5B6
  8
DEFPOINTS
 62
     0
 10
97.247243090885576
 20
58.194725956373702
 30
0.0
  0
POINT
  5
5B7
  8
DEFPOINTS
 62
     0
 10
115.2467993170183
 20
58.194725956373688
 30
0.0
  0
ENDBLK
  5
5B9
  8
0
  0
BLOCK
  8
0
  2
*U8
 70
     1
 10
0.0
 20
0.0
 30
0.0
  3
*U8
  1

  0
TEXT
  5
5CC
  8
2
 62
     0
 10
100.0074430908855
 20
47.680445773250987
 30
0.0
 40
2.5
  1
\U+2205
  0
TEXT
  5
5CD
  8
2
 62
     0
 10
102.5074430908855
 20
47.680445773250987
 30
0.0
 40
2.5
  1
2.5
  0
ENDBLK
  5
5CF
  8
0
  0
BLOCK
  8
0
  2
*U9
 70
     1
 10
0.0
 20
0.0
 30
0.0
  3
*U9
  1

  0
TEXT
  5
5D1
  8
2
 62
     0
 10
101.2574430908855
 20
42.81634854215136
 30
0.0
 40
2.5
  1
\U+2205
  0
TEXT
  5
5D2
  8
2
 62
     0
 10
103.7574430908855
 20
42.81634854215136
 30
0.0
 40
2.5
  1
5
  0
ENDBLK
  5
5D4
  8
0
  0
BLOCK
  8
0
  2
*U10
 70
     1
 10
0.0
 20
0.0
 30
0.0
  3
*U10
  1

  0
TEXT
  5
5D6
  8
2
 62
     0
 10
90.424109757552245
 20
37.95225190788247
 30
0.0
 40
2.5
  1
\U+2205
  0
TEXT
  5
5D7
  8
2
 62
     0
 10
92.924109757552245
 20
37.95225190788247
 30
0.0
 40
2.5
  1
10
  0
ENDBLK
  5
5D9
  8
0
  0
ENDSEC
  0
SECTION
  2
ENTITIES
  0
TEXT
  5
FE
  8
2
 10
81.817013078145266
 20
29.102661929412449
 30
0.0
 40
2.5399440000000002
  1
No. 270.018
 51
-0.0000015352344868
  7
\U+00C9L\U+00C9R_\U+00C2S\U+00C2V\U+00C2B\U+00C2N
  0
LINE
  5
20F
  8
1
 10
93.132443090885573
 20
81.194725956373702
 30
0.0
 11
93.132443090885573
 21
57.694725956373702
 31
0.0
  0
LINE
  5
23B
  8
0
 39
5.0
 10
90.632443090885573
 20
60.194725956373702
 30
0.0
 11
88.132443090885573
 21
60.194725956373702
 31
0.0
  0
LINE
  5
23D
  8
0
 39
5.0
 10
88.132443090885573
 20
59.0799259563737
 30
0.0
 11
89.017643090885571
 21
58.194725956373702
 31
0.0
  0
LINE
  5
23E
  8
0
 39
5.0
 10
89.017643090885571
 20
58.194725956373702
 30
0.0
 11
93.132443090885573
 21
58.194725956373702
 31
0.0
  0
LINE
  5
240
  8
0
 39
5.0
 10
93.132443090885573
 20
80.694725956373688
 30
0.0
 11
99.965043090885587
 21
80.694725956373688
 31
0.0
  0
LINE
  5
241
  8
0
 39
5.0
 10
99.965043090885587
 20
80.694725956373688
 30
0.0
 11
99.965043090885587
 21
80.694725956373688
 31
0.0
  0
LINE
  5
242
  8
0
 39
5.0
 10
99.965043090885587
 20
80.694725956373688
 30
0.0
 11
100.0690430908855
 21
80.688525956373695
 31
0.0
  0
LINE
  5
243
  8
0
 39
5.0
 10
100.0690430908855
 20
80.688525956373695
 30
0.0
 11
100.1712430908855
 21
80.670925956373708
 31
0.0
  0
LINE
  5
244
  8
0
 39
5.0
 10
100.1712430908855
 20
80.670925956373708
 30
0.0
 11
100.27084309088551
 21
80.642625956373706
 31
0.0
  0
LINE
  5
245
  8
0
 39
5.0
 10
100.27084309088551
 20
80.642625956373706
 30
0.0
 11
100.3674430908855
 21
80.604925956373705
 31
0.0
  0
LINE
  5
246
  8
0
 39
5.0
 10
100.3674430908855
 20
80.604925956373705
 30
0.0
 11
100.4599430908855
 21
80.558425956373696
 31
0.0
  0
LINE
  5
247
  8
0
 39
5.0
 10
100.4599430908855
 20
80.558425956373696
 30
0.0
 11
100.5480430908855
 21
80.504425956373694
 31
0.0
  0
LINE
  5
248
  8
0
 39
5.0
 10
100.5480430908855
 20
80.504425956373694
 30
0.0
 11
100.63094309088549
 21
80.443525956373705
 31
0.0
  0
LINE
  5
249
  8
0
 39
5.0
 10
100.63094309088549
 20
80.443525956373705
 30
0.0
 11
100.70794309088549
 21
80.377125956373703
 31
0.0
  0
LINE
  5
24A
  8
0
 39
5.0
 10
100.70794309088549
 20
80.377125956373703
 30
0.0
 11
100.7783430908855
 21
80.305725956373706
 31
0.0
  0
LINE
  5
24B
  8
0
 39
5.0
 10
100.7783430908855
 20
80.305725956373706
 30
0.0
 11
100.84154309088549
 21
80.230725956373703
 31
0.0
  0
LINE
  5
24C
  8
0
 39
5.0
 10
100.84154309088549
 20
80.230725956373703
 30
0.0
 11
100.89674309088549
 21
80.1527259563737
 31
0.0
  0
LINE
  5
24D
  8
0
 39
5.0
 10
100.89674309088549
 20
80.1527259563737
 30
0.0
 11
100.9436430908855
 21
80.073125956373715
 31
0.0
  0
LINE
  5
24E
  8
0
 39
5.0
 10
100.9436430908855
 20
80.073125956373715
 30
0.0
 11
100.9811430908855
 21
79.992325956373705
 31
0.0
  0
LINE
  5
24F
  8
0
 39
5.0
 10
100.9811430908855
 20
79.992325956373705
 30
0.0
 11
101.00884309088551
 21
79.911825956373704
 31
0.0
  0
LINE
  5
250
  8
0
 39
5.0
 10
101.00884309088551
 20
79.911825956373704
 30
0.0
 11
101.02594309088551
 21
79.832325956373694
 31
0.0
  0
LINE
  5
251
  8
0
 39
5.0
 10
101.02594309088551
 20
79.832325956373694
 30
0.0
 11
101.0318430908855
 21
79.754925956373697
 31
0.0
  0
LINE
  5
266
  8
0
 39
5.0
 10
95.632443090885573
 20
60.194725956373702
 30
0.0
 11
98.132443090885573
 21
60.194725956373702
 31
0.0
  0
LINE
  5
268
  8
0
 39
5.0
 10
98.132443090885573
 20
59.0799259563737
 30
0.0
 11
97.247243090885576
 21
58.194725956373702
 31
0.0
  0
LINE
  5
269
  8
0
 39
5.0
 10
97.247243090885576
 20
58.194725956373702
 30
0.0
 11
93.132443090885573
 21
58.194725956373702
 31
0.0
  0
LINE
  5
274
  8
0
 10
101.0318430908855
 20
79.754925956373697
 30
0.0
 11
101.0318430908855
 21
65.634525956373707
 31
0.0
  0
LINE
  5
2CD
  8
0
 39
5.0
 10
86.299843090885545
 20
64.694725956373702
 30
0.0
 11
86.299843090885545
 21
64.694725956373702
 31
0.0
  0
LINE
  5
2CE
  8
0
 39
5.0
 10
86.299843090885545
 20
64.694725956373702
 30
0.0
 11
86.195843090885575
 21
64.700925956373709
 31
0.0
  0
LINE
  5
2CF
  8
0
 39
5.0
 10
86.195843090885575
 20
64.700925956373709
 30
0.0
 11
86.093643090885564
 21
64.718525956373696
 31
0.0
  0
LINE
  5
2D0
  8
0
 39
5.0
 10
86.093643090885564
 20
64.718525956373696
 30
0.0
 11
85.994043090885569
 21
64.746825956373698
 31
0.0
  0
LINE
  5
2D1
  8
0
 39
5.0
 10
85.994043090885569
 20
64.746825956373698
 30
0.0
 11
85.897443090885574
 21
64.784525956373699
 31
0.0
  0
LINE
  5
2D2
  8
0
 39
5.0
 10
85.897443090885574
 20
64.784525956373699
 30
0.0
 11
85.804943090885573
 21
64.831025956373708
 31
0.0
  0
LINE
  5
2D3
  8
0
 39
5.0
 10
85.804943090885573
 20
64.831025956373708
 30
0.0
 11
85.716843090885561
 21
64.885025956373696
 31
0.0
  0
LINE
  5
2D4
  8
0
 39
5.0
 10
85.716843090885561
 20
64.885025956373696
 30
0.0
 11
85.633943090885566
 21
64.945925956373699
 31
0.0
  0
LINE
  5
2D5
  8
0
 39
5.0
 10
85.633943090885566
 20
64.945925956373699
 30
0.0
 11
85.556943090885554
 21
65.012325956373701
 31
0.0
  0
LINE
  5
2D6
  8
0
 39
5.0
 10
85.556943090885554
 20
65.012325956373701
 30
0.0
 11
85.486543090885561
 21
65.083725956373698
 31
0.0
  0
LINE
  5
2D7
  8
0
 39
5.0
 10
85.486543090885561
 20
65.083725956373698
 30
0.0
 11
85.423343090885567
 21
65.158725956373701
 31
0.0
  0
LINE
  5
2D8
  8
0
 39
5.0
 10
85.423343090885567
 20
65.158725956373701
 30
0.0
 11
85.368143090885567
 21
65.236725956373704
 31
0.0
  0
LINE
  5
2D9
  8
0
 39
5.0
 10
85.368143090885567
 20
65.236725956373704
 30
0.0
 11
85.321243090885574
 21
65.316325956373703
 31
0.0
  0
LINE
  5
2DA
  8
0
 39
5.0
 10
85.321243090885574
 20
65.316325956373703
 30
0.0
 11
85.283743090885565
 21
65.397125956373699
 31
0.0
  0
LINE
  5
2DB
  8
0
 39
5.0
 10
85.283743090885565
 20
65.397125956373699
 30
0.0
 11
85.256043090885555
 21
65.4776259563737
 31
0.0
  0
LINE
  5
2DC
  8
0
 39
5.0
 10
85.256043090885555
 20
65.4776259563737
 30
0.0
 11
85.23894309088557
 21
65.55712595637371
 31
0.0
  0
LINE
  5
2DD
  8
0
 39
5.0
 10
85.23894309088557
 20
65.55712595637371
 30
0.0
 11
85.233043090885559
 21
65.634525956373707
 31
0.0
  0
LINE
  5
302
  8
0
 39
5.0
 10
85.23894309088557
 20
79.832325956373694
 30
0.0
 11
85.233043090885559
 21
79.754925956373697
 31
0.0
  0
LINE
  5
303
  8
0
 39
5.0
 10
85.256043090885555
 20
79.911825956373704
 30
0.0
 11
85.23894309088557
 21
79.832325956373694
 31
0.0
  0
LINE
  5
304
  8
0
 39
5.0
 10
85.283743090885565
 20
79.992325956373705
 30
0.0
 11
85.256043090885555
 21
79.911825956373704
 31
0.0
  0
LINE
  5
305
  8
0
 39
5.0
 10
85.321243090885574
 20
80.073125956373715
 30
0.0
 11
85.283743090885565
 21
79.992325956373705
 31
0.0
  0
LINE
  5
306
  8
0
 39
5.0
 10
85.368143090885567
 20
80.1527259563737
 30
0.0
 11
85.321243090885574
 21
80.073125956373715
 31
0.0
  0
LINE
  5
307
  8
0
 39
5.0
 10
85.423343090885567
 20
80.230725956373703
 30
0.0
 11
85.368143090885567
 21
80.1527259563737
 31
0.0
  0
LINE
  5
308
  8
0
 39
5.0
 10
85.486543090885561
 20
80.305725956373706
 30
0.0
 11
85.423343090885567
 21
80.230725956373703
 31
0.0
  0
LINE
  5
309
  8
0
 39
5.0
 10
85.556943090885554
 20
80.377125956373703
 30
0.0
 11
85.486543090885561
 21
80.305725956373706
 31
0.0
  0
LINE
  5
30A
  8
0
 39
5.0
 10
85.633943090885566
 20
80.443525956373705
 30
0.0
 11
85.556943090885554
 21
80.377125956373703
 31
0.0
  0
LINE
  5
30B
  8
0
 39
5.0
 10
85.716843090885561
 20
80.504425956373694
 30
0.0
 11
85.633943090885566
 21
80.443525956373705
 31
0.0
  0
LINE
  5
30C
  8
0
 39
5.0
 10
85.804943090885573
 20
80.558425956373696
 30
0.0
 11
85.716843090885561
 21
80.504425956373694
 31
0.0
  0
LINE
  5
30D
  8
0
 39
5.0
 10
85.897443090885574
 20
80.604925956373705
 30
0.0
 11
85.804943090885573
 21
80.558425956373696
 31
0.0
  0
LINE
  5
30E
  8
0
 39
5.0
 10
85.994043090885569
 20
80.642625956373706
 30
0.0
 11
85.897443090885574
 21
80.604925956373705
 31
0.0
  0
LINE
  5
30F
  8
0
 39
5.0
 10
86.093643090885564
 20
80.670925956373708
 30
0.0
 11
85.994043090885569
 21
80.642625956373706
 31
0.0
  0
LINE
  5
310
  8
0
 39
5.0
 10
86.195843090885575
 20
80.688525956373695
 30
0.0
 11
86.093643090885564
 21
80.670925956373708
 31
0.0
  0
LINE
  5
311
  8
0
 39
5.0
 10
86.299843090885545
 20
80.694725956373688
 30
0.0
 11
86.195843090885575
 21
80.688525956373695
 31
0.0
  0
LINE
  5
312
  8
0
 39
5.0
 10
86.299843090885545
 20
80.694725956373688
 30
0.0
 11
86.299843090885545
 21
80.694725956373688
 31
0.0
  0
LINE
  5
313
  8
0
 39
5.0
 10
93.132443090885573
 20
80.694725956373688
 30
0.0
 11
86.299843090885545
 21
80.694725956373688
 31
0.0
  0
LINE
  5
325
  8
0
 10
85.233043090885559
 20
79.754925956373697
 30
0.0
 11
85.233043090885559
 21
65.634525956373707
 31
0.0
  0
LINE
  5
33C
  8
0
 10
88.632443090885573
 20
80.694725956373688
 30
0.0
 11
88.632443090885573
 21
67.694725956373702
 31
0.0
  0
LINE
  5
343
  8
0
 10
97.632443090885573
 20
80.694725956373688
 30
0.0
 11
97.632443090885573
 21
67.694725956373702
 31
0.0
  0
LINE
  5
34A
  8
0
 10
91.882443090885573
 20
58.194725956373702
 30
0.0
 11
91.882443090885573
 21
65.740725956373694
 31
0.0
  0
LINE
  5
34B
  8
0
 10
94.382443090885573
 20
58.194725956373702
 30
0.0
 11
94.382443090885573
 21
65.740725956373694
 31
0.0
  0
LINE
  5
353
  8
0
 39
5.0
 10
90.632443090885573
 20
64.694725956373702
 30
0.0
 11
86.299843090885545
 21
64.694725956373702
 31
0.0
  0
LINE
  5
356
  8
0
 10
89.132443090885545
 20
67.694725956373702
 30
0.0
 11
91.882443090885573
 21
65.740725956373694
 31
0.0
  0
LINE
  5
357
  8
0
 10
97.132443090885573
 20
67.694725956373702
 30
0.0
 11
94.382443090885573
 21
65.740725956373694
 31
0.0
  0
LINE
  5
358
  8
0
 10
88.132443090885573
 20
67.694725956373702
 30
0.0
 11
93.132443090885573
 21
67.694725956373702
 31
0.0
  0
LINE
  5
35D
  8
2
 10
88.132443090885573
 20
67.694725956373702
 30
0.0
 11
88.132443090885573
 21
80.694725956373688
 31
0.0
  0
LINE
  5
35E
  8
2
 10
98.132443090885573
 20
67.694725956373702
 30
0.0
 11
98.132443090885573
 21
80.694725956373688
 31
0.0
  0
LINE
  5
36A
  8
0
 10
98.132443090885573
 20
67.694725956373702
 30
0.0
 11
93.132443090885573
 21
67.694725956373702
 31
0.0
  0
LINE
  5
376
  8
0
 10
93.132443090885573
 20
65.740725956373694
 30
0.0
 11
91.882443090885573
 21
65.740725956373694
 31
0.0
  0
LINE
  5
378
  8
0
 10
94.382443090885573
 20
65.740725956373694
 30
0.0
 11
93.132443090885573
 21
65.740725956373694
 31
0.0
  0
LINE
  5
467
  8
0
 10
88.132443090885573
 20
60.194725956373702
 30
0.0
 11
88.132443090885573
 21
59.0799259563737
 31
0.0
  0
LINE
  5
468
  8
0
 10
98.132443090885573
 20
60.194725956373702
 30
0.0
 11
98.132443090885573
 21
59.0799259563737
 31
0.0
  0
LINE
  5
47F
  8
0
 10
90.632443090885573
 20
64.694725956373702
 30
0.0
 11
90.632443090885573
 21
60.194725956373702
 31
0.0
  0
LINE
  5
481
  8
0
 10
95.632443090885573
 20
64.694725956373702
 30
0.0
 11
95.632443090885573
 21
60.194725956373702
 31
0.0
  0
LINE
  5
494
  8
0
 39
5.0
 10
95.632443090885573
 20
64.694725956373702
 30
0.0
 11
99.965043090885587
 21
64.694725956373702
 31
0.0
  0
LINE
  5
49F
  8
0
 39
5.0
 10
101.02594309088551
 20
65.55712595637371
 30
0.0
 11
101.0318430908855
 21
65.634525956373707
 31
0.0
  0
LINE
  5
4A0
  8
0
 39
5.0
 10
101.00884309088551
 20
65.4776259563737
 30
0.0
 11
101.02594309088551
 21
65.55712595637371
 31
0.0
  0
LINE
  5
4A1
  8
0
 39
5.0
 10
100.9811430908855
 20
65.397125956373699
 30
0.0
 11
101.00884309088551
 21
65.4776259563737
 31
0.0
  0
LINE
  5
4A2
  8
0
 39
5.0
 10
100.9436430908855
 20
65.316325956373703
 30
0.0
 11
100.9811430908855
 21
65.397125956373699
 31
0.0
  0
LINE
  5
4A3
  8
0
 39
5.0
 10
100.89674309088549
 20
65.236725956373704
 30
0.0
 11
100.9436430908855
 21
65.316325956373703
 31
0.0
  0
LINE
  5
4A4
  8
0
 39
5.0
 10
100.84154309088549
 20
65.158725956373701
 30
0.0
 11
100.89674309088549
 21
65.236725956373704
 31
0.0
  0
LINE
  5
4A5
  8
0
 39
5.0
 10
100.7783430908855
 20
65.083725956373698
 30
0.0
 11
100.84154309088549
 21
65.158725956373701
 31
0.0
  0
LINE
  5
4A6
  8
0
 39
5.0
 10
100.70794309088549
 20
65.012325956373701
 30
0.0
 11
100.7783430908855
 21
65.083725956373698
 31
0.0
  0
LINE
  5
4A7
  8
0
 39
5.0
 10
100.63094309088549
 20
64.945925956373699
 30
0.0
 11
100.70794309088549
 21
65.012325956373701
 31
0.0
  0
LINE
  5
4A8
  8
0
 39
5.0
 10
100.5480430908855
 20
64.885025956373696
 30
0.0
 11
100.63094309088549
 21
64.945925956373699
 31
0.0
  0
LINE
  5
4A9
  8
0
 39
5.0
 10
100.4599430908855
 20
64.831025956373708
 30
0.0
 11
100.5480430908855
 21
64.885025956373696
 31
0.0
  0
LINE
  5
4AA
  8
0
 39
5.0
 10
100.3674430908855
 20
64.784525956373699
 30
0.0
 11
100.4599430908855
 21
64.831025956373708
 31
0.0
  0
LINE
  5
4AB
  8
0
 39
5.0
 10
100.27084309088551
 20
64.746825956373698
 30
0.0
 11
100.3674430908855
 21
64.784525956373699
 31
0.0
  0
LINE
  5
4AC
  8
0
 39
5.0
 10
100.1712430908855
 20
64.718525956373696
 30
0.0
 11
100.27084309088551
 21
64.746825956373698
 31
0.0
  0
LINE
  5
4AD
  8
0
 39
5.0
 10
100.0690430908855
 20
64.700925956373709
 30
0.0
 11
100.1712430908855
 21
64.718525956373696
 31
0.0
  0
LINE
  5
4AE
  8
0
 39
5.0
 10
99.965043090885587
 20
64.694725956373702
 30
0.0
 11
100.0690430908855
 21
64.700925956373709
 31
0.0
  0
LINE
  5
4AF
  8
0
 39
5.0
 10
99.965043090885587
 20
64.694725956373702
 30
0.0
 11
99.965043090885587
 21
64.694725956373702
 31
0.0
  0
DIMENSION
  5
4B6
  8
2
  2
*D1
 10
109.740171663225
 20
64.694725956373702
 30
0.0
 11
107.865171663225
 21
72.69472595637373
 31
0.0
 70
     0
 13
99.965043090885587
 23
80.694725956373688
 33
0.0
 14
99.965043090885587
 24
64.694725956373702
 34
0.0
 50
90.0
  0
DIMENSION
  5
4F9
  8
2
  2
*D2
 10
76.554126115417617
 20
60.194725956373702
 30
0.0
 11
76.554126115417603
 21
48.838125121394818
 31
0.0
 70
   128
 13
89.017643090885571
 23
58.194725956373702
 33
0.0
 14
88.132443090885573
 24
60.194725956373702
 34
0.0
 50
90.0
  0
DIMENSION
  5
513
  8
2
  2
*D3
 10
94.382443090885573
 20
47.055445773250987
 30
0.0
 11
103.7574430908855
 21
48.930445773250987
 31
0.0
 70
     0
  1
%%c<>
 13
91.882443090885573
 23
58.194725956373702
 33
0.0
 14
94.382443090885573
 24
58.194725956373702
 34
0.0
  0
DIMENSION
  5
522
  8
2
  2
*D4
 10
95.632443090885573
 20
42.19134854215136
 30
0.0
 11
103.3407764242189
 21
44.06634854215136
 31
0.0
 70
     0
  1
%%c<>
 13
90.632443090885573
 23
60.194725956373702
 33
0.0
 14
95.632443090885573
 24
60.194725956373702
 34
0.0
  0
DIMENSION
  5
531
  8
2
  2
*D5
 10
98.132443090885573
 20
37.32725190788247
 30
0.0
 11
93.132443090885573
 21
39.20225190788247
 31
0.0
 70
     0
  1
%%c<>
 13
88.132443090885573
 23
59.0799259563737
 33
0.0
 14
98.132443090885573
 24
59.0799259563737
 34
0.0
  0
DIMENSION
  5
55E
  8
2
  2
*D6
 10
76.554126115417603
 20
67.694725956373702
 30
0.0
 11
74.679126115417588
 21
74.194725956373716
 31
0.0
 70
     0
 13
88.132443090885573
 23
80.694725956373688
 33
0.0
 14
89.132443090885545
 24
67.694725956373702
 34
0.0
 50
90.0
  0
TEXT
  5
582
  8
2
 10
71.130940469872769
 20
92.765673591752218
 30
0.0
 40
2.5
  1
G1/8
  0
TEXT
  5
583
  8
2
 10
72.180589410762082
 20
87.000446075956134
 30
0.0
 40
2.5
  1
H14
  0
POLYLINE
  8
2
  5
5DA
  66
     1
 10
0.000000
 20
0.000000
 30
0.000000
  70
     8
  0
VERTEX
  8
2
  5
5DB
 10
85.2330
 20
79.7549
 30
0.000000
  70
    32
  0
VERTEX
  8
2
  5
5DC
 10
78.4785
 20
86.1811
 30
0.000000
  70
    32
  0
VERTEX
  8
2
  5
5DD
 10
70.0813
 20
86.1811
 30
0.000000
  70
    32
  0
SEQEND
  8
2
  5
5DE
  0
POLYLINE
  8
2
  5
5DF
  66
     1
 10
0.000000
 20
0.000000
 30
0.000000
  70
     8
  0
VERTEX
  8
2
  5
5E0
 10
88.6324
 20
80.6947
 30
0.000000
  70
    32
  0
VERTEX
  8
2
  5
5E1
 10
79.9757
 20
91.8556
 30
0.000000
  70
    32
  0
VERTEX
  8
2
  5
5E2
 10
70.9850
 20
91.8556
 30
0.000000
  70
    32
  0
SEQEND
  8
2
  5
5E3
  0
DIMENSION
  5
5AD
  8
2
  2
*D7
 10
115.2467993170183
 20
58.194725956373688
 30
0.0
 11
113.3717993170183
 21
69.44472595637373
 31
0.0
 70
     0
 13
109.740171663225
 23
80.694725956373688
 33
0.0
 14
97.247243090885576
 24
58.194725956373702
 34
0.0
 50
90.0
  0
ENDSEC
  0
EOF
