  0
SECTION
  2
HEADER
  9
$ACADVER
  1
AC1009
  9
$INSBASE
 10
0.0
 20
0.0
 30
0.0
  9
$EXTMIN
 10
49.559274853456202
 20
34.535793168398413
 30
0.0
  9
$EXTMAX
 10
75.634188134995952
 20
58.163451067694211
 30
3.5
  9
$LIMMIN
 10
0.0
 20
0.0
  9
$LIMMAX
 10
420.0
 20
297.0
  9
$ORTHOMODE
 70
     0
  9
$REGENMODE
 70
     1
  9
$FILLMODE
 70
     1
  9
$QTEXTMODE
 70
     0
  9
$MIRRTEXT
 70
     1
  9
$DRAGMODE
 70
     2
  9
$LTSCALE
 40
0.3
  9
$OSMODE
 70
    37
  9
$ATTMODE
 70
     1
  9
$TEXTSIZE
 40
2.5
  9
$TRACEWID
 40
1.0
  9
$TEXTSTYLE
  7
STANDARD
  9
$CLAYER
  8
2
  9
$CELTYPE
  6
BYLAYER
  9
$CECOLOR
 62
   256
  9
$DIMSCALE
 40
0.5
  9
$DIMASZ
 40
2.5
  9
$DIMEXO
 40
0.625
  9
$DIMDLI
 40
3.75
  9
$DIMRND
 40
0.0
  9
$DIMDLE
 40
0.0
  9
$DIMEXE
 40
1.25
  9
$DIMTP
 40
0.0
  9
$DIMTM
 40
0.0
  9
$DIMTXT
 40
2.5
  9
$DIMCEN
 40
2.5
  9
$DIMTSZ
 40
0.0
  9
$DIMTOL
 70
     0
  9
$DIMLIM
 70
     0
  9
$DIMTIH
 70
     0
  9
$DIMTOH
 70
     0
  9
$DIMSE1
 70
     0
  9
$DIMSE2
 70
     0
  9
$DIMTAD
 70
     1
  9
$DIMZIN
 70
     8
  9
$DIMBLK
  1

  9
$DIMASO
 70
     1
  9
$DIMSHO
 70
     1
  9
$DIMPOST
  1

  9
$DIMAPOST
  1

  9
$DIMALT
 70
     0
  9
$DIMALTD
 70
     3
  9
$DIMALTF
 40
0.03937007874016
  9
$DIMLFAC
 40
1.0
  9
$DIMTOFL
 70
     1
  9
$DIMTVP
 40
0.0
  9
$DIMTIX
 70
     0
  9
$DIMSOXD
 70
     0
  9
$DIMSAH
 70
     0
  9
$DIMBLK1
  1

  9
$DIMBLK2
  1

  9
$DIMSTYLE
  2
ISO-25
  9
$DIMCLRD
 70
     0
  9
$DIMCLRE
 70
     0
  9
$DIMCLRT
 70
     0
  9
$DIMTFAC
 40
1.0
  9
$DIMGAP
 40
0.625
  9
$LUNITS
 70
     2
  9
$LUPREC
 70
     4
  9
$SKETCHINC
 40
1.0
  9
$FILLETRAD
 40
10.0
  9
$AUNITS
 70
     0
  9
$AUPREC
 70
     0
  9
$MENU
  1
.
  9
$ELEVATION
 40
0.0
  9
$PELEVATION
 40
0.0
  9
$THICKNESS
 40
0.0
  9
$LIMCHECK
 70
     0
  9
$BLIPMODE
 70
     0
  9
$CHAMFERA
 40
10.0
  9
$CHAMFERB
 40
10.0
  9
$SKPOLY
 70
     0
  9
$TDCREATE
 40
2453447.3747604741
  9
$TDUPDATE
 40
2453551.918361377
  9
$TDINDWG
 40
0.0299869792
  9
$TDUSRTIMER
 40
0.0299869792
  9
$USRTIMER
 70
     1
  9
$ANGBASE
 50
0.0
  9
$ANGDIR
 70
     0
  9
$PDMODE
 70
     0
  9
$PDSIZE
 40
0.0
  9
$PLINEWID
 40
0.0
  9
$COORDS
 70
     1
  9
$SPLFRAME
 70
     0
  9
$SPLINETYPE
 70
     6
  9
$SPLINESEGS
 70
     8
  9
$ATTDIA
 70
     0
  9
$ATTREQ
 70
     1
  9
$HANDLING
 70
-16383
  9
$HANDSEED
  5
4DE
  9
$SURFTAB1
 70
     6
  9
$SURFTAB2
 70
     6
  9
$SURFTYPE
 70
     6
  9
$SURFU
 70
     6
  9
$SURFV
 70
     6
  9
$UCSNAME
  2

  9
$UCSORG
 10
0.0
 20
0.0
 30
0.0
  9
$UCSXDIR
 10
1.0
 20
0.0
 30
0.0
  9
$UCSYDIR
 10
0.0
 20
1.0
 30
0.0
  9
$PUCSNAME
  2

  9
$PUCSORG
 10
0.0
 20
0.0
 30
0.0
  9
$PUCSXDIR
 10
1.0
 20
0.0
 30
0.0
  9
$PUCSYDIR
 10
0.0
 20
1.0
 30
0.0
  9
$USERI1
 70
     0
  9
$USERI2
 70
     0
  9
$USERI3
 70
     0
  9
$USERI4
 70
     0
  9
$USERI5
 70
     0
  9
$USERR1
 40
0.0
  9
$USERR2
 40
0.0
  9
$USERR3
 40
0.0
  9
$USERR4
 40
0.0
  9
$USERR5
 40
0.0
  9
$WORLDVIEW
 70
     1
  9
$SHADEDGE
 70
     3
  9
$SHADEDIF
 70
    70
  9
$TILEMODE
 70
     1
  9
$MAXACTVP
 70
    64
  9
$PLIMCHECK
 70
     0
  9
$PEXTMIN
 10
1.0000000000000000E+020
 20
1.0000000000000000E+020
 30
1.0000000000000000E+020
  9
$PEXTMAX
 10
-1.0000000000000000E+020
 20
-1.0000000000000000E+020
 30
-1.0000000000000000E+020
  9
$PLIMMIN
 10
0.0
 20
0.0
  9
$PLIMMAX
 10
420.0
 20
297.0
  9
$UNITMODE
 70
     0
  9
$VISRETAIN
 70
     1
  9
$PLINEGEN
 70
     0
  9
$PSLTSCALE
 70
     1
  0
ENDSEC
  0
SECTION
  2
TABLES
  0
TABLE
  2
VPORT
 70
     2
  0
VPORT
  2
*ACTIVE
 70
     0
 10
0.0
 20
0.0
 11
1.0
 21
1.0
 12
67.374810748885523
 22
49.444532093730047
 13
0.0
 23
0.0
 14
10.0
 24
10.0
 15
10.0
 25
10.0
 16
0.0
 26
0.0
 36
1.0
 17
0.0
 27
0.0
 37
0.0
 40
32.891526561871409
 41
2.5392405063291141
 42
50.0
 43
0.0
 44
0.0
 50
0.0
 51
0.0
 71
     0
 72
   100
 73
     1
 74
     3
 75
     0
 76
     0
 77
     0
 78
     0
  0
ENDTAB
  0
TABLE
  2
LTYPE
 70
     3
  0
LTYPE
  2
CONTINUOUS
 70
     0
  3
Solid line
 72
    65
 73
     0
 40
0.0
  0
LTYPE
  2
CENTER
 70
     0
  3
Center ____ _ ____ _ ____ _ ____ _ ____ _ ____
 72
    65
 73
     4
 40
50.799999999999997
 49
31.75
 49
-6.3499999999999988
 49
6.3499999999999988
 49
-6.3499999999999988
  0
LTYPE
  2
DASHED2
 70
     0
  3
Dashed (.5x) _ _ _ _ _ _ _ _ _ _ _ _ _ _ _ _ _
 72
    65
 73
     2
 40
9.5249999999999986
 49
6.3499999999999988
 49
-3.1749999999999989
  0
ENDTAB
  0
TABLE
  2
LAYER
 70
     5
  0
LAYER
  2
0
 70
     0
 62
     7
  6
CONTINUOUS
  0
LAYER
  2
DEFPOINTS
 70
     0
 62
     7
  6
CONTINUOUS
  0
LAYER
  2
1
 70
     0
 62
     7
  6
CENTER
  0
LAYER
  2
2
 70
     0
 62
     7
  6
CONTINUOUS
  0
LAYER
  2
3
 70
     0
 62
     7
  6
DASHED2
  0
ENDTAB
  0
TABLE
  2
STYLE
 70
     3
  0
STYLE
  2
STANDARD
 70
     0
 40
0.0
 41
1.0
 50
0.0
 71
     0
 42
2.5
  3
txt
  4

  0
STYLE
  2
\U+00C9L\U+00C9R_\U+00C2S\U+00C2V\U+00C2B\U+00C2N
 70
     0
 40
1.0
 41
1.0
 50
0.0
 71
     0
 42
1.0
  3
\U+00E9l\U+00E9r \U+00E2S\U+00E2V\U+00E2b\U+00E2N
  4

  0
STYLE
  2

 70
     1
 40
0.0
 41
1.0
 50
0.0
 71
     0
 42
2.5
  3
ltypeshp.shx
  4

  0
ENDTAB
  0
TABLE
  2
VIEW
 70
     0
  0
ENDTAB
  0
TABLE
  2
UCS
 70
     0
  0
ENDTAB
  0
TABLE
  2
APPID
 70
     1
  0
APPID
  2
ACAD
 70
     0
  0
ENDTAB
  0
TABLE
  2
DIMSTYLE
 70
     2
  0
DIMSTYLE
  2
ISO-25
 70
     0
  3

  4

  5

  6

  7

 40
0.5
 41
2.5
 42
0.625
 43
3.75
 44
1.25
 45
0.0
 46
0.0
 47
0.0
 48
0.0
140
2.5
141
2.5
142
0.0
143
0.03937007874016
144
1.0
145
0.0
146
1.0
147
0.625
 71
     0
 72
     0
 73
     0
 74
     0
 75
     0
 76
     0
 77
     1
 78
     8
170
     0
171
     3
172
     1
173
     0
174
     0
175
     0
176
     0
177
     0
178
     0
  0
DIMSTYLE
  2
STANDARD
 70
     0
  3

  4

  5

  6

  7

 40
1.0
 41
0.18
 42
0.0625
 43
0.38
 44
0.18
 45
0.0
 46
0.0
 47
0.0
 48
0.0
140
0.18
141
0.09
142
0.0
143
25.399999999999999
144
1.0
145
0.0
146
1.0
147
0.09
 71
     0
 72
     0
 73
     1
 74
     1
 75
     0
 76
     0
 77
     0
 78
     0
170
     0
171
     2
172
     0
173
     0
174
     0
175
     0
176
     0
177
     0
178
     0
  0
ENDTAB
  0
ENDSEC
  0
SECTION
  2
BLOCKS
  0
BLOCK
  8
0
  2
$MODEL_SPACE
 70
     0
 10
0.0
 20
0.0
 30
0.0
  3
$MODEL_SPACE
  1

  0
ENDBLK
  5
21
  8
0
  0
BLOCK
 67
     1
  8
0
  2
$PAPER_SPACE
 70
     0
 10
0.0
 20
0.0
 30
0.0
  3
$PAPER_SPACE
  1

  0
ENDBLK
  5
1D
 67
     1
  8
0
  0
BLOCK
  8
0
  2
*D1
 70
     1
 10
0.0
 20
0.0
 30
0.0
  3
*D1
  1

  0
LINE
  5
421
  8
2
 62
     0
 10
60.867818603270422
 20
52.619250100265099
 30
0.0
 11
70.455103035606015
 21
52.619250100265099
 31
0.0
  0
LINE
  5
422
  8
2
 62
     0
 10
61.954528603270418
 20
49.619250100265099
 30
0.0
 11
70.455103035606015
 21
49.619250100265099
 31
0.0
  0
LINE
  5
423
  8
2
 62
     0
 10
69.830103035606015
 20
53.869250100265099
 30
0.0
 11
69.830103035606015
 21
55.119250100265099
 31
0.0
  0
LINE
  5
424
  8
2
 62
     0
 10
69.830103035606015
 20
48.369250100265099
 30
0.0
 11
69.830103035606015
 21
47.119250100265099
 31
0.0
  0
LINE
  5
425
  8
2
 62
     0
 10
69.830103035606015
 20
52.619250100265099
 30
0.0
 11
69.830103035606015
 21
49.619250100265099
 31
0.0
  0
SOLID
  5
426
  8
2
 62
     0
 10
69.621769702272687
 20
53.869250100265099
 30
0.0
 11
70.038436368939344
 21
53.869250100265099
 31
0.0
 12
69.830103035606015
 22
52.619250100265099
 32
0.0
 13
69.830103035606015
 23
52.619250100265099
 33
0.0
  0
SOLID
  5
427
  8
2
 62
     0
 10
69.621769702272687
 20
48.369250100265099
 30
0.0
 11
70.038436368939344
 21
48.369250100265099
 31
0.0
 12
69.830103035606015
 22
49.619250100265099
 32
0.0
 13
69.830103035606015
 23
49.619250100265099
 33
0.0
  0
TEXT
  5
428
  8
2
 62
     0
 10
69.517603035606001
 20
50.702583433598448
 30
0.0
 40
1.25
  1
3
 50
90.0
  0
POINT
  5
429
  8
DEFPOINTS
 62
     0
 10
60.555318603270422
 20
52.619250100265099
 30
0.0
  0
POINT
  5
42A
  8
DEFPOINTS
 62
     0
 10
61.642028603270418
 20
49.619250100265099
 30
0.0
  0
POINT
  5
42B
  8
DEFPOINTS
 62
     0
 10
69.830103035606015
 20
49.619250100265099
 30
0.0
  0
ENDBLK
  5
42D
  8
0
  0
BLOCK
  8
0
  2
*D2
 70
     1
 10
0.0
 20
0.0
 30
0.0
  3
*D2
  1

  0
LINE
  5
430
  8
2
 62
     0
 10
70.142603035606015
 20
52.619250100265099
 30
0.0
 11
73.183868375436234
 21
52.619250100265099
 31
0.0
  0
LINE
  5
431
  8
2
 62
     0
 10
61.877584882340159
 20
47.619250100265099
 30
0.0
 11
73.183868375436234
 21
47.619250100265099
 31
0.0
  0
LINE
  5
432
  8
2
 62
     0
 10
72.558868375436234
 20
51.369250100265099
 30
0.0
 11
72.558868375436234
 21
48.869250100265099
 31
0.0
  0
SOLID
  5
433
  8
2
 62
     0
 10
72.350535042102905
 20
51.369250100265099
 30
0.0
 11
72.767201708769576
 21
51.369250100265099
 31
0.0
 12
72.558868375436234
 22
52.619250100265099
 32
0.0
 13
72.558868375436234
 23
52.619250100265099
 33
0.0
  0
SOLID
  5
434
  8
2
 62
     0
 10
72.350535042102905
 20
48.869250100265099
 30
0.0
 11
72.767201708769576
 21
48.869250100265099
 31
0.0
 12
72.558868375436234
 22
47.619250100265099
 32
0.0
 13
72.558868375436234
 23
47.619250100265099
 33
0.0
  0
TEXT
  5
435
  8
2
 62
     0
 10
72.246368375436234
 20
49.702583433598441
 30
0.0
 40
1.25
  1
5
 50
90.0
  0
POINT
  5
436
  8
DEFPOINTS
 62
     0
 10
69.830103035606015
 20
52.619250100265099
 30
0.0
  0
POINT
  5
437
  8
DEFPOINTS
 62
     0
 10
61.565084882340159
 20
47.619250100265099
 30
0.0
  0
POINT
  5
438
  8
DEFPOINTS
 62
     0
 10
72.558868375436234
 20
47.619250100265099
 30
0.0
  0
ENDBLK
  5
43A
  8
0
  0
BLOCK
  8
0
  2
*D3
 70
     1
 10
0.0
 20
0.0
 30
0.0
  3
*D3
  1

  0
LINE
  5
43D
  8
2
 62
     0
 10
72.871368375436234
 20
52.619250100265099
 30
0.0
 11
75.634188134995952
 21
52.619250100265099
 31
0.0
  0
LINE
  5
43E
  8
2
 62
     0
 10
60.417818603270412
 20
45.619250100265099
 30
0.0
 11
75.634188134995952
 21
45.619250100265099
 31
0.0
  0
LINE
  5
43F
  8
2
 62
     0
 10
75.009188134995952
 20
51.369250100265099
 30
0.0
 11
75.009188134995952
 21
46.869250100265099
 31
0.0
  0
SOLID
  5
440
  8
2
 62
     0
 10
74.800854801662624
 20
51.369250100265099
 30
0.0
 11
75.217521468329281
 21
51.369250100265099
 31
0.0
 12
75.009188134995952
 22
52.619250100265099
 32
0.0
 13
75.009188134995952
 23
52.619250100265099
 33
0.0
  0
SOLID
  5
441
  8
2
 62
     0
 10
74.800854801662624
 20
46.869250100265099
 30
0.0
 11
75.217521468329281
 21
46.869250100265099
 31
0.0
 12
75.009188134995952
 22
45.619250100265099
 32
0.0
 13
75.009188134995952
 23
45.619250100265099
 33
0.0
  0
TEXT
  5
442
  8
2
 62
     0
 10
74.696688134995938
 20
48.702583433598448
 30
0.0
 40
1.25
  1
7
 50
90.0
  0
POINT
  5
443
  8
DEFPOINTS
 62
     0
 10
72.558868375436234
 20
52.619250100265099
 30
0.0
  0
POINT
  5
444
  8
DEFPOINTS
 62
     0
 10
60.105318603270412
 20
45.619250100265099
 30
0.0
  0
POINT
  5
445
  8
DEFPOINTS
 62
     0
 10
75.009188134995952
 20
45.619250100265099
 30
0.0
  0
ENDBLK
  5
447
  8
0
  0
BLOCK
  8
0
  2
*D4
 70
     1
 10
0.0
 20
0.0
 30
0.0
  3
*D4
  1

  0
LINE
  5
4A1
  8
2
 62
     0
 10
58.855318603270412
 20
52.931750100265099
 30
0.0
 11
58.855318603270412
 21
57.225951067694211
 31
0.0
  0
LINE
  5
4A2
  8
2
 62
     0
 10
59.855318603270419
 20
52.631750100265108
 30
0.0
 11
59.855318603270419
 21
57.225951067694211
 31
0.0
  0
LINE
  5
4A3
  8
2
 62
     0
 10
57.605318603270412
 20
56.600951067694211
 30
0.0
 11
56.355318603270412
 21
56.600951067694211
 31
0.0
  0
LINE
  5
4A4
  8
2
 62
     0
 10
61.105318603270419
 20
56.600951067694211
 30
0.0
 11
64.64698526993709
 21
56.600951067694211
 31
0.0
  0
LINE
  5
4A5
  8
2
 62
     0
 10
58.855318603270412
 20
56.600951067694211
 30
0.0
 11
59.855318603270419
 21
56.600951067694211
 31
0.0
  0
SOLID
  5
4A6
  8
2
 62
     0
 10
57.605318603270412
 20
56.80928440102754
 30
0.0
 11
57.605318603270412
 21
56.392617734360869
 31
0.0
 12
58.855318603270412
 22
56.600951067694211
 32
0.0
 13
58.855318603270412
 23
56.600951067694211
 33
0.0
  0
SOLID
  5
4A7
  8
2
 62
     0
 10
61.105318603270419
 20
56.80928440102754
 30
0.0
 11
61.105318603270419
 21
56.392617734360869
 31
0.0
 12
59.855318603270419
 22
56.600951067694211
 32
0.0
 13
59.855318603270419
 23
56.600951067694211
 33
0.0
  0
INSERT
  5
4A8
  8
2
  2
*U6
 10
0.0
 20
0.0
 30
0.0
  0
POINT
  5
4A9
  8
DEFPOINTS
 62
     0
 10
58.855318603270412
 20
52.619250100265099
 30
0.0
  0
POINT
  5
4AA
  8
DEFPOINTS
 62
     0
 10
59.855318603270419
 20
52.319250100265108
 30
0.0
  0
POINT
  5
4AB
  8
DEFPOINTS
 62
     0
 10
59.855318603270419
 20
56.600951067694211
 30
0.0
  0
ENDBLK
  5
491
  8
0
  0
BLOCK
  8
0
  2
*D5
 70
     1
 10
0.0
 20
0.0
 30
0.0
  3
*D5
  1

  0
LINE
  5
4AC
  8
2
 62
     0
 10
58.355318603270419
 20
45.306750100265099
 30
0.0
 11
58.355318603270419
 21
40.338739261839279
 31
0.0
  0
LINE
  5
4AD
  8
2
 62
     0
 10
60.355318603270419
 20
45.306750100265099
 30
0.0
 11
60.355318603270419
 21
40.338739261839279
 31
0.0
  0
LINE
  5
4AE
  8
2
 62
     0
 10
57.105318603270419
 20
40.963739261839279
 30
0.0
 11
55.855318603270419
 21
40.963739261839279
 31
0.0
  0
LINE
  5
4AF
  8
2
 62
     0
 10
61.605318603270419
 20
40.963739261839279
 30
0.0
 11
65.563651936603762
 21
40.963739261839279
 31
0.0
  0
LINE
  5
4B0
  8
2
 62
     0
 10
58.355318603270419
 20
40.963739261839279
 30
0.0
 11
60.355318603270419
 21
40.963739261839279
 31
0.0
  0
SOLID
  5
4B1
  8
2
 62
     0
 10
57.105318603270419
 20
41.172072595172608
 30
0.0
 11
57.105318603270419
 21
40.755405928505937
 31
0.0
 12
58.355318603270419
 22
40.963739261839279
 32
0.0
 13
58.355318603270419
 23
40.963739261839279
 33
0.0
  0
SOLID
  5
4B2
  8
2
 62
     0
 10
61.605318603270419
 20
41.172072595172608
 30
0.0
 11
61.605318603270419
 21
40.755405928505937
 31
0.0
 12
60.355318603270419
 22
40.963739261839279
 32
0.0
 13
60.355318603270419
 23
40.963739261839279
 33
0.0
  0
INSERT
  5
4B3
  8
2
  2
*U7
 10
0.0
 20
0.0
 30
0.0
  0
POINT
  5
4B4
  8
DEFPOINTS
 62
     0
 10
58.355318603270419
 20
45.619250100265099
 30
0.0
  0
POINT
  5
4B5
  8
DEFPOINTS
 62
     0
 10
60.355318603270419
 20
45.619250100265099
 30
0.0
  0
POINT
  5
4B6
  8
DEFPOINTS
 62
     0
 10
60.355318603270419
 20
40.963739261839279
 30
0.0
  0
ENDBLK
  5
4A0
  8
0
  0
BLOCK
  8
0
  2
*U6
 70
     1
 10
0.0
 20
0.0
 30
0.0
  3
*U6
  1

  0
TEXT
  5
4CB
  8
2
 62
     0
 10
62.667818603270419
 20
56.913451067694211
 30
0.0
 40
1.25
  1
\U+2205
  0
TEXT
  5
4CC
  8
2
 62
     0
 10
63.917818603270419
 20
56.913451067694211
 30
0.0
 40
1.25
  1
1
  0
ENDBLK
  5
4CE
  8
0
  0
BLOCK
  8
0
  2
*U7
 70
     1
 10
0.0
 20
0.0
 30
0.0
  3
*U7
  1

  0
TEXT
  5
4D0
  8
2
 62
     0
 10
63.167818603270433
 20
41.276239261839279
 30
0.0
 40
1.25
  1
\U+2205
  0
TEXT
  5
4D1
  8
2
 62
     0
 10
64.417818603270433
 20
41.276239261839279
 30
0.0
 40
1.25
  1
2
  0
ENDBLK
  5
4D3
  8
0
  0
ENDSEC
  0
SECTION
  2
ENTITIES
  0
TEXT
  5
1D4
  8
2
 10
54.723931981491731
 20
34.535793168398413
 30
0.0
 40
1.2699720000000001
  1
No. 270.025
 51
-0.0000015352344868
  7
\U+00C9L\U+00C9R_\U+00C2S\U+00C2V\U+00C2B\U+00C2N
  0
LINE
  5
240
  8
0
 39
3.5
 10
58.055318603270422
 20
49.619250100265099
 30
0.0
 11
56.906192537696818
 21
49.619250100265099
 31
0.0
  0
LINE
  5
241
  8
0
 39
3.5
 10
57.068608603270413
 20
49.619250100265099
 30
0.0
 11
57.068608603270413
 21
49.619250100265099
 31
0.0
  0
LINE
  5
244
  8
0
 39
3.5
 10
56.906192537696711
 20
49.619250100265099
 30
0.0
 11
56.883388603270411
 21
49.617570100265091
 31
0.0
  0
LINE
  5
245
  8
0
 39
3.5
 10
56.883388603270411
 20
49.617570100265091
 30
0.0
 11
56.82927860327041
 21
49.609240100265097
 31
0.0
  0
LINE
  5
246
  8
0
 39
3.5
 10
56.82927860327041
 20
49.609240100265097
 30
0.0
 11
56.779018603270409
 21
49.596430100265103
 31
0.0
  0
LINE
  5
247
  8
0
 39
3.5
 10
56.779018603270409
 20
49.596430100265103
 30
0.0
 11
56.732748603270409
 21
49.579140100265093
 31
0.0
  0
LINE
  5
248
  8
0
 39
3.5
 10
56.732748603270409
 20
49.579140100265093
 30
0.0
 11
56.690468603270411
 21
49.55688010026509
 31
0.0
  0
LINE
  5
249
  8
0
 39
3.5
 10
56.690468603270411
 20
49.55688010026509
 30
0.0
 11
56.652458603270411
 21
49.529650100265108
 31
0.0
  0
LINE
  5
24A
  8
0
 39
3.5
 10
56.652458603270411
 20
49.529650100265108
 30
0.0
 11
56.618508603270399
 21
49.496820100265097
 31
0.0
  0
LINE
  5
24B
  8
0
 39
3.5
 10
56.618508603270399
 20
49.496820100265097
 30
0.0
 11
56.588898603270408
 21
49.458390100265099
 31
0.0
  0
LINE
  5
24C
  8
0
 39
3.5
 10
56.588898603270408
 20
49.458390100265099
 30
0.0
 11
56.563628603270409
 21
49.414010100265102
 31
0.0
  0
LINE
  5
24D
  8
0
 39
3.5
 10
56.563628603270409
 20
49.414010100265102
 30
0.0
 11
56.542838603270411
 21
49.363610100265099
 31
0.0
  0
LINE
  5
24E
  8
0
 39
3.5
 10
56.542838603270411
 20
49.363610100265099
 30
0.0
 11
56.526458603270413
 21
49.306560100265102
 31
0.0
  0
LINE
  5
24F
  8
0
 39
3.5
 10
56.526458603270413
 20
49.306560100265102
 30
0.0
 11
56.514768603270397
 21
49.242860100265091
 31
0.0
  0
LINE
  5
250
  8
0
 39
3.5
 10
56.514768603270397
 20
49.242860100265091
 30
0.0
 11
56.507628603270412
 21
49.172160100265103
 31
0.0
  0
LINE
  5
251
  8
0
 39
3.5
 10
56.507628603270412
 20
49.172160100265103
 30
0.0
 11
56.505318603270418
 21
49.094390100265102
 31
0.0
  0
LINE
  5
252
  8
0
 39
3.5
 10
56.505318603270418
 20
49.094390100265102
 30
0.0
 11
56.505318603270418
 21
48.121460100265097
 31
0.0
  0
LINE
  5
253
  8
0
 39
3.5
 10
56.505318603270418
 20
48.121460100265097
 30
0.0
 11
56.505318603270418
 21
48.121460100265097
 31
0.0
  0
LINE
  5
254
  8
0
 39
3.5
 10
56.505318603270418
 20
48.121460100265097
 30
0.0
 11
56.508818603270399
 21
48.046210100265107
 31
0.0
  0
LINE
  5
255
  8
0
 39
3.5
 10
56.508818603270399
 20
48.046210100265107
 30
0.0
 11
56.515188603270403
 21
47.979150100265102
 31
0.0
  0
LINE
  5
256
  8
0
 39
3.5
 10
56.515188603270403
 20
47.979150100265102
 30
0.0
 11
56.524568603270403
 21
47.919440100265099
 31
0.0
  0
LINE
  5
257
  8
0
 39
3.5
 10
56.524568603270403
 20
47.919440100265099
 30
0.0
 11
56.537448603270413
 21
47.866940100265097
 31
0.0
  0
LINE
  5
258
  8
0
 39
3.5
 10
56.537448603270413
 20
47.866940100265097
 30
0.0
 11
56.553828603270411
 21
47.8208801002651
 31
0.0
  0
LINE
  5
259
  8
0
 39
3.5
 10
56.553828603270411
 20
47.8208801002651
 30
0.0
 11
56.574338603270412
 21
47.781120100265099
 31
0.0
  0
LINE
  5
25A
  8
0
 39
3.5
 10
56.574338603270412
 20
47.781120100265099
 30
0.0
 11
56.599048603270411
 21
47.746960100265099
 31
0.0
  0
LINE
  5
25B
  8
0
 39
3.5
 10
56.599048603270411
 20
47.746960100265099
 30
0.0
 11
56.628518603270408
 21
47.718190100265097
 31
0.0
  0
LINE
  5
25C
  8
0
 39
3.5
 10
56.628518603270408
 20
47.718190100265097
 30
0.0
 11
56.662818603270424
 21
47.694040100265099
 31
0.0
  0
LINE
  5
25D
  8
0
 39
3.5
 10
56.662818603270424
 20
47.694040100265099
 30
0.0
 11
56.702438603270409
 21
47.6743001002651
 31
0.0
  0
LINE
  5
25E
  8
0
 39
3.5
 10
56.702438603270409
 20
47.6743001002651
 30
0.0
 11
56.747588603270408
 21
47.658480100265102
 31
0.0
  0
LINE
  5
25F
  8
0
 39
3.5
 10
56.747588603270408
 20
47.658480100265102
 30
0.0
 11
56.798688603270413
 21
47.646160100265099
 31
0.0
  0
LINE
  5
260
  8
0
 39
3.5
 10
56.798688603270413
 20
47.646160100265099
 30
0.0
 11
56.855948603270413
 21
47.636710100265098
 31
0.0
  0
LINE
  5
261
  8
0
 39
3.5
 10
56.855948603270413
 20
47.636710100265098
 30
0.0
 11
56.919858603270399
 21
47.629920100265089
 31
0.0
  0
LINE
  5
262
  8
0
 39
3.5
 10
56.919858603270399
 20
47.629920100265089
 30
0.0
 11
56.990628603270423
 21
47.6252301002651
 31
0.0
  0
LINE
  5
263
  8
0
 39
3.5
 10
56.990628603270423
 20
47.6252301002651
 30
0.0
 11
57.145552324200672
 21
47.619250100265099
 31
0.0
  0
LINE
  5
2A8
  8
1
 10
59.355318603270419
 20
52.819250100265108
 30
0.0
 11
59.355318603270419
 21
45.419250100265103
 31
0.0
  0
LINE
  5
2AC
  8
0
 10
57.855318603270419
 20
52.319250100265108
 30
0.0
 11
57.855318603270419
 21
49.619250100265099
 31
0.0
  0
LINE
  5
2AD
  8
2
 10
58.055318603270422
 20
52.519250100265118
 30
0.0
 11
58.055318603270422
 21
49.619250100265099
 31
0.0
  0
LINE
  5
2B6
  8
0
 10
58.155318603270409
 20
52.619250100265099
 30
0.0
 11
57.855318603270419
 21
52.319250100265108
 31
0.0
  0
LINE
  5
2B7
  8
0
 10
58.155318603270409
 20
52.619250100265099
 30
0.0
 11
59.355318603270419
 21
52.619250100265099
 31
0.0
  0
LINE
  5
2BF
  8
0
 10
56.906192537696711
 20
49.619250100265099
 30
0.0
 11
58.055318603270422
 21
49.619250100265099
 31
0.0
  0
LINE
  5
32E
  8
0
 39
3.5
 10
61.642028603270418
 20
49.619250100265099
 30
0.0
 11
61.642028603270418
 21
49.619250100265099
 31
0.0
  0
LINE
  5
32F
  8
0
 39
3.5
 10
61.827248603270419
 20
49.617570100265091
 30
0.0
 11
61.881358603270421
 21
49.609240100265097
 31
0.0
  0
LINE
  5
330
  8
0
 39
3.5
 10
61.881358603270421
 20
49.609240100265097
 30
0.0
 11
61.931618603270429
 21
49.596430100265103
 31
0.0
  0
LINE
  5
331
  8
0
 39
3.5
 10
61.931618603270429
 20
49.596430100265103
 30
0.0
 11
61.977888603270422
 21
49.579140100265093
 31
0.0
  0
LINE
  5
332
  8
0
 39
3.5
 10
61.977888603270422
 20
49.579140100265093
 30
0.0
 11
62.02016860327042
 21
49.55688010026509
 31
0.0
  0
LINE
  5
333
  8
0
 39
3.5
 10
62.02016860327042
 20
49.55688010026509
 30
0.0
 11
62.058178603270427
 21
49.529650100265108
 31
0.0
  0
LINE
  5
334
  8
0
 39
3.5
 10
62.058178603270427
 20
49.529650100265108
 30
0.0
 11
62.092128603270432
 21
49.496820100265097
 31
0.0
  0
LINE
  5
335
  8
0
 39
3.5
 10
62.092128603270432
 20
49.496820100265097
 30
0.0
 11
62.121738603270423
 21
49.458390100265099
 31
0.0
  0
LINE
  5
336
  8
0
 39
3.5
 10
62.121738603270423
 20
49.458390100265099
 30
0.0
 11
62.147008603270429
 21
49.414010100265102
 31
0.0
  0
LINE
  5
337
  8
0
 39
3.5
 10
62.147008603270429
 20
49.414010100265102
 30
0.0
 11
62.167798603270441
 21
49.363610100265099
 31
0.0
  0
LINE
  5
338
  8
0
 39
3.5
 10
62.167798603270441
 20
49.363610100265099
 30
0.0
 11
62.184178603270432
 21
49.306560100265102
 31
0.0
  0
LINE
  5
339
  8
0
 39
3.5
 10
62.184178603270432
 20
49.306560100265102
 30
0.0
 11
62.195868603270434
 21
49.242860100265091
 31
0.0
  0
LINE
  5
33A
  8
0
 39
3.5
 10
62.195868603270434
 20
49.242860100265091
 30
0.0
 11
62.203008603270433
 21
49.172160100265103
 31
0.0
  0
LINE
  5
33B
  8
0
 39
3.5
 10
62.203008603270433
 20
49.172160100265103
 30
0.0
 11
62.20531860327042
 21
49.094390100265102
 31
0.0
  0
LINE
  5
33C
  8
0
 39
3.5
 10
62.20531860327042
 20
49.094390100265102
 30
0.0
 11
62.20531860327042
 21
48.121460100265097
 31
0.0
  0
LINE
  5
33D
  8
0
 39
3.5
 10
62.20531860327042
 20
48.121460100265097
 30
0.0
 11
62.20531860327042
 21
48.121460100265097
 31
0.0
  0
LINE
  5
33E
  8
0
 39
3.5
 10
62.20531860327042
 20
48.121460100265097
 30
0.0
 11
62.201818603270432
 21
48.046210100265107
 31
0.0
  0
LINE
  5
33F
  8
0
 39
3.5
 10
62.201818603270432
 20
48.046210100265107
 30
0.0
 11
62.195448603270428
 21
47.979150100265102
 31
0.0
  0
LINE
  5
340
  8
0
 39
3.5
 10
62.195448603270428
 20
47.979150100265102
 30
0.0
 11
62.186068603270428
 21
47.919440100265099
 31
0.0
  0
LINE
  5
341
  8
0
 39
3.5
 10
62.186068603270428
 20
47.919440100265099
 30
0.0
 11
62.173188603270432
 21
47.866940100265097
 31
0.0
  0
LINE
  5
342
  8
0
 39
3.5
 10
62.173188603270432
 20
47.866940100265097
 30
0.0
 11
62.156808603270427
 21
47.8208801002651
 31
0.0
  0
LINE
  5
343
  8
0
 39
3.5
 10
62.156808603270427
 20
47.8208801002651
 30
0.0
 11
62.136298603270419
 21
47.781120100265099
 31
0.0
  0
LINE
  5
344
  8
0
 39
3.5
 10
62.136298603270419
 20
47.781120100265099
 30
0.0
 11
62.11158860327042
 21
47.746960100265099
 31
0.0
  0
LINE
  5
345
  8
0
 39
3.5
 10
62.11158860327042
 20
47.746960100265099
 30
0.0
 11
62.082118603270423
 21
47.718190100265097
 31
0.0
  0
LINE
  5
346
  8
0
 39
3.5
 10
62.082118603270423
 20
47.718190100265097
 30
0.0
 11
62.047818603270422
 21
47.694040100265099
 31
0.0
  0
LINE
  5
347
  8
0
 39
3.5
 10
62.047818603270422
 20
47.694040100265099
 30
0.0
 11
62.008198603270422
 21
47.6743001002651
 31
0.0
  0
LINE
  5
348
  8
0
 39
3.5
 10
62.008198603270422
 20
47.6743001002651
 30
0.0
 11
61.963048603270423
 21
47.658480100265102
 31
0.0
  0
LINE
  5
349
  8
0
 39
3.5
 10
61.963048603270423
 20
47.658480100265102
 30
0.0
 11
61.911948603270417
 21
47.646160100265099
 31
0.0
  0
LINE
  5
34A
  8
0
 39
3.5
 10
61.911948603270417
 20
47.646160100265099
 30
0.0
 11
61.854688603270418
 21
47.636710100265098
 31
0.0
  0
LINE
  5
34B
  8
0
 39
3.5
 10
61.854688603270418
 20
47.636710100265098
 30
0.0
 11
61.790778603270432
 21
47.629920100265089
 31
0.0
  0
LINE
  5
34C
  8
0
 39
3.5
 10
61.790778603270432
 20
47.629920100265089
 30
0.0
 11
61.720008603270422
 21
47.6252301002651
 31
0.0
  0
LINE
  5
34D
  8
0
 39
3.5
 10
61.720008603270152
 20
47.625230100265071
 30
0.0
 11
61.565084882340379
 21
47.619250100265099
 31
0.0
  0
LINE
  5
34F
  8
0
 39
3.5
 10
61.804444668844127
 20
49.619250100265099
 30
0.0
 11
61.827248603270419
 21
49.617570100265091
 31
0.0
  0
LINE
  5
351
  8
0
 10
61.804444668844127
 20
49.619250100265099
 30
0.0
 11
59.355318603270419
 21
49.619250100265099
 31
0.0
  0
LINE
  5
354
  8
0
 10
59.355318603270419
 20
47.619250100265099
 30
0.0
 11
61.565084882340159
 21
47.619250100265099
 31
0.0
  0
LINE
  5
356
  8
0
 10
58.355318603270419
 20
47.619250100265099
 30
0.0
 11
57.145552324200672
 21
47.619250100265099
 31
0.0
  0
LINE
  5
39F
  8
0
 39
3.5
 10
60.10370860327015
 20
47.625230100265071
 30
0.0
 11
59.948784882340391
 21
47.619250100265099
 31
0.0
  0
LINE
  5
3A0
  8
0
 39
3.5
 10
60.188144668844132
 20
49.619250100265099
 30
0.0
 11
60.210948603270431
 21
49.617570100265091
 31
0.0
  0
LINE
  5
3A1
  8
0
 39
3.5
 10
60.174478603270437
 20
47.629920100265089
 30
0.0
 11
60.103708603270427
 21
47.6252301002651
 31
0.0
  0
LINE
  5
3A2
  8
0
 39
3.5
 10
60.238388603270423
 20
47.636710100265098
 30
0.0
 11
60.174478603270437
 21
47.629920100265089
 31
0.0
  0
LINE
  5
3A3
  8
0
 39
3.5
 10
60.295648603270429
 20
47.646160100265099
 30
0.0
 11
60.238388603270423
 21
47.636710100265098
 31
0.0
  0
LINE
  5
3A4
  8
0
 39
3.5
 10
60.346748603270441
 20
47.658480100265102
 30
0.0
 11
60.295648603270429
 21
47.646160100265099
 31
0.0
  0
LINE
  5
3A5
  8
0
 39
3.5
 10
60.39189860327042
 20
47.6743001002651
 30
0.0
 11
60.346748603270441
 21
47.658480100265102
 31
0.0
  0
LINE
  5
3A6
  8
0
 39
3.5
 10
60.431518603270433
 20
47.694040100265099
 30
0.0
 11
60.39189860327042
 21
47.6743001002651
 31
0.0
  0
LINE
  5
3A7
  8
0
 39
3.5
 10
60.465818603270428
 20
47.718190100265097
 30
0.0
 11
60.431518603270433
 21
47.694040100265099
 31
0.0
  0
LINE
  5
3A8
  8
0
 39
3.5
 10
60.495288603270431
 20
47.746960100265099
 30
0.0
 11
60.465818603270428
 21
47.718190100265097
 31
0.0
  0
LINE
  5
3A9
  8
0
 39
3.5
 10
60.51999860327043
 20
47.781120100265099
 30
0.0
 11
60.495288603270431
 21
47.746960100265099
 31
0.0
  0
LINE
  5
3AA
  8
0
 39
3.5
 10
60.540508603270432
 20
47.8208801002651
 30
0.0
 11
60.51999860327043
 21
47.781120100265099
 31
0.0
  0
LINE
  5
3AB
  8
0
 39
3.5
 10
60.55688860327043
 20
47.866940100265097
 30
0.0
 11
60.540508603270432
 21
47.8208801002651
 31
0.0
  0
LINE
  5
3AC
  8
0
 39
3.5
 10
60.569768603270433
 20
47.919440100265099
 30
0.0
 11
60.55688860327043
 21
47.866940100265097
 31
0.0
  0
LINE
  5
3AD
  8
0
 39
3.5
 10
60.579148603270433
 20
47.979150100265102
 30
0.0
 11
60.569768603270433
 21
47.919440100265099
 31
0.0
  0
LINE
  5
3AE
  8
0
 39
3.5
 10
60.58551860327043
 20
48.046210100265107
 30
0.0
 11
60.579148603270433
 21
47.979150100265102
 31
0.0
  0
LINE
  5
3AF
  8
0
 39
3.5
 10
60.589018603270432
 20
48.121460100265097
 30
0.0
 11
60.58551860327043
 21
48.046210100265107
 31
0.0
  0
LINE
  5
3B0
  8
0
 39
3.5
 10
60.589018603270432
 20
48.121460100265097
 30
0.0
 11
60.589018603270432
 21
48.121460100265097
 31
0.0
  0
LINE
  5
3B1
  8
0
 39
3.5
 10
60.589018603270432
 20
49.094390100265102
 30
0.0
 11
60.589018603270432
 21
48.121460100265097
 31
0.0
  0
LINE
  5
3B2
  8
0
 39
3.5
 10
60.586708603270431
 20
49.172160100265103
 30
0.0
 11
60.589018603270432
 21
49.094390100265102
 31
0.0
  0
LINE
  5
3B3
  8
0
 39
3.5
 10
60.579568603270438
 20
49.242860100265091
 30
0.0
 11
60.586708603270431
 21
49.172160100265103
 31
0.0
  0
LINE
  5
3B4
  8
0
 39
3.5
 10
60.567878603270437
 20
49.306560100265102
 30
0.0
 11
60.579568603270438
 21
49.242860100265091
 31
0.0
  0
LINE
  5
3B5
  8
0
 39
3.5
 10
60.551498603270439
 20
49.363610100265099
 30
0.0
 11
60.567878603270437
 21
49.306560100265102
 31
0.0
  0
LINE
  5
3B6
  8
0
 39
3.5
 10
60.530708603270433
 20
49.414010100265102
 30
0.0
 11
60.551498603270439
 21
49.363610100265099
 31
0.0
  0
LINE
  5
3B7
  8
0
 39
3.5
 10
60.50543860327042
 20
49.458390100265099
 30
0.0
 11
60.530708603270433
 21
49.414010100265102
 31
0.0
  0
LINE
  5
3B8
  8
0
 39
3.5
 10
60.475828603270429
 20
49.496820100265097
 30
0.0
 11
60.50543860327042
 21
49.458390100265099
 31
0.0
  0
LINE
  5
3B9
  8
0
 39
3.5
 10
60.441878603270432
 20
49.529650100265108
 30
0.0
 11
60.475828603270429
 21
49.496820100265097
 31
0.0
  0
LINE
  5
3BA
  8
0
 39
3.5
 10
60.403868603270432
 20
49.55688010026509
 30
0.0
 11
60.441878603270432
 21
49.529650100265108
 31
0.0
  0
LINE
  5
3BB
  8
0
 39
3.5
 10
60.36158860327042
 20
49.579140100265093
 30
0.0
 11
60.403868603270432
 21
49.55688010026509
 31
0.0
  0
LINE
  5
3BC
  8
0
 39
3.5
 10
60.315318603270427
 20
49.596430100265103
 30
0.0
 11
60.36158860327042
 21
49.579140100265093
 31
0.0
  0
LINE
  5
3BD
  8
0
 39
3.5
 10
60.265058603270418
 20
49.609240100265097
 30
0.0
 11
60.315318603270427
 21
49.596430100265103
 31
0.0
  0
LINE
  5
3BE
  8
0
 39
3.5
 10
60.210948603270431
 20
49.617570100265091
 30
0.0
 11
60.265058603270418
 21
49.609240100265097
 31
0.0
  0
LINE
  5
3BF
  8
0
 39
3.5
 10
60.02572860327043
 20
49.619250100265099
 30
0.0
 11
60.02572860327043
 21
49.619250100265099
 31
0.0
  0
LINE
  5
3C1
  8
0
 39
3.5
 10
61.152308603270413
 20
49.619250100265099
 30
0.0
 11
61.152308603270413
 21
49.619250100265099
 31
0.0
  0
LINE
  5
3C2
  8
0
 39
3.5
 10
60.967088603270419
 20
49.617570100265091
 30
0.0
 11
60.912978603270417
 21
49.609240100265097
 31
0.0
  0
LINE
  5
3C3
  8
0
 39
3.5
 10
60.912978603270417
 20
49.609240100265097
 30
0.0
 11
60.862718603270409
 21
49.596430100265103
 31
0.0
  0
LINE
  5
3C4
  8
0
 39
3.5
 10
60.862718603270409
 20
49.596430100265103
 30
0.0
 11
60.816448603270423
 21
49.579140100265093
 31
0.0
  0
LINE
  5
3C5
  8
0
 39
3.5
 10
60.816448603270423
 20
49.579140100265093
 30
0.0
 11
60.774168603270411
 21
49.55688010026509
 31
0.0
  0
LINE
  5
3C6
  8
0
 39
3.5
 10
60.774168603270411
 20
49.55688010026509
 30
0.0
 11
60.736158603270411
 21
49.529650100265108
 31
0.0
  0
LINE
  5
3C7
  8
0
 39
3.5
 10
60.736158603270411
 20
49.529650100265108
 30
0.0
 11
60.702208603270407
 21
49.496820100265097
 31
0.0
  0
LINE
  5
3C8
  8
0
 39
3.5
 10
60.702208603270407
 20
49.496820100265097
 30
0.0
 11
60.672598603270423
 21
49.458390100265099
 31
0.0
  0
LINE
  5
3C9
  8
0
 39
3.5
 10
60.672598603270423
 20
49.458390100265099
 30
0.0
 11
60.64732860327041
 21
49.414010100265102
 31
0.0
  0
LINE
  5
3CA
  8
0
 39
3.5
 10
60.64732860327041
 20
49.414010100265102
 30
0.0
 11
60.626538603270411
 21
49.363610100265099
 31
0.0
  0
LINE
  5
3CB
  8
0
 39
3.5
 10
60.626538603270411
 20
49.363610100265099
 30
0.0
 11
60.610158603270413
 21
49.306560100265102
 31
0.0
  0
LINE
  5
3CC
  8
0
 39
3.5
 10
60.610158603270413
 20
49.306560100265102
 30
0.0
 11
60.598468603270412
 21
49.242860100265091
 31
0.0
  0
LINE
  5
3CD
  8
0
 39
3.5
 10
60.598468603270412
 20
49.242860100265091
 30
0.0
 11
60.591328603270419
 21
49.172160100265103
 31
0.0
  0
LINE
  5
3CE
  8
0
 39
3.5
 10
60.591328603270419
 20
49.172160100265103
 30
0.0
 11
60.589018603270432
 21
49.094390100265102
 31
0.0
  0
LINE
  5
3CF
  8
0
 39
3.5
 10
60.589018603270432
 20
49.094390100265102
 30
0.0
 11
60.589018603270432
 21
48.121460100265097
 31
0.0
  0
LINE
  5
3D0
  8
0
 39
3.5
 10
60.589018603270432
 20
48.121460100265097
 30
0.0
 11
60.589018603270432
 21
48.121460100265097
 31
0.0
  0
LINE
  5
3D1
  8
0
 39
3.5
 10
60.589018603270432
 20
48.121460100265097
 30
0.0
 11
60.592518603270413
 21
48.046210100265107
 31
0.0
  0
LINE
  5
3D2
  8
0
 39
3.5
 10
60.592518603270413
 20
48.046210100265107
 30
0.0
 11
60.598888603270417
 21
47.979150100265102
 31
0.0
  0
LINE
  5
3D3
  8
0
 39
3.5
 10
60.598888603270417
 20
47.979150100265102
 30
0.0
 11
60.60826860327041
 21
47.919440100265099
 31
0.0
  0
LINE
  5
3D4
  8
0
 39
3.5
 10
60.60826860327041
 20
47.919440100265099
 30
0.0
 11
60.62114860327042
 21
47.866940100265097
 31
0.0
  0
LINE
  5
3D5
  8
0
 39
3.5
 10
60.62114860327042
 20
47.866940100265097
 30
0.0
 11
60.637528603270418
 21
47.8208801002651
 31
0.0
  0
LINE
  5
3D6
  8
0
 39
3.5
 10
60.637528603270418
 20
47.8208801002651
 30
0.0
 11
60.65803860327042
 21
47.781120100265099
 31
0.0
  0
LINE
  5
3D7
  8
0
 39
3.5
 10
60.65803860327042
 20
47.781120100265099
 30
0.0
 11
60.682748603270419
 21
47.746960100265099
 31
0.0
  0
LINE
  5
3D8
  8
0
 39
3.5
 10
60.682748603270419
 20
47.746960100265099
 30
0.0
 11
60.712218603270422
 21
47.718190100265097
 31
0.0
  0
LINE
  5
3D9
  8
0
 39
3.5
 10
60.712218603270422
 20
47.718190100265097
 30
0.0
 11
60.746518603270417
 21
47.694040100265099
 31
0.0
  0
LINE
  5
3DA
  8
0
 39
3.5
 10
60.746518603270417
 20
47.694040100265099
 30
0.0
 11
60.786138603270423
 21
47.6743001002651
 31
0.0
  0
LINE
  5
3DB
  8
0
 39
3.5
 10
60.786138603270423
 20
47.6743001002651
 30
0.0
 11
60.831288603270409
 21
47.658480100265102
 31
0.0
  0
LINE
  5
3DC
  8
0
 39
3.5
 10
60.831288603270409
 20
47.658480100265102
 30
0.0
 11
60.882388603270421
 21
47.646160100265099
 31
0.0
  0
LINE
  5
3DD
  8
0
 39
3.5
 10
60.882388603270421
 20
47.646160100265099
 30
0.0
 11
60.93964860327042
 21
47.636710100265098
 31
0.0
  0
LINE
  5
3DE
  8
0
 39
3.5
 10
60.93964860327042
 20
47.636710100265098
 30
0.0
 11
61.00355860327042
 21
47.629920100265089
 31
0.0
  0
LINE
  5
3DF
  8
0
 39
3.5
 10
61.00355860327042
 20
47.629920100265089
 30
0.0
 11
61.074328603270423
 21
47.6252301002651
 31
0.0
  0
LINE
  5
3E0
  8
0
 39
3.5
 10
60.989892537696718
 20
49.619250100265099
 30
0.0
 11
60.967088603270419
 21
49.617570100265091
 31
0.0
  0
LINE
  5
3E1
  8
0
 39
3.5
 10
61.074328603270693
 20
47.625230100265071
 30
0.0
 11
61.229252324200459
 21
47.619250100265099
 31
0.0
  0
LINE
  5
3EC
  8
0
 10
58.355318603270419
 20
45.619250100265099
 30
0.0
 11
59.355318603270419
 21
45.619250100265099
 31
0.0
  0
LINE
  5
3EF
  8
2
 10
60.655318603270409
 20
52.519250100265118
 30
0.0
 11
60.655318603270409
 21
49.619250100265099
 31
0.0
  0
LINE
  5
3F0
  8
0
 10
60.855318603270419
 20
52.319250100265108
 30
0.0
 11
60.855318603270419
 21
49.619250100265099
 31
0.0
  0
LINE
  5
3F2
  8
0
 10
60.355318603270419
 20
45.619250100265099
 30
0.0
 11
59.355318603270419
 21
45.619250100265099
 31
0.0
  0
LINE
  5
3F4
  8
0
 10
60.555318603270422
 20
52.619250100265099
 30
0.0
 11
59.355318603270419
 21
52.619250100265099
 31
0.0
  0
LINE
  5
3F5
  8
0
 10
60.555318603270422
 20
52.619250100265099
 30
0.0
 11
60.855318603270419
 21
52.319250100265108
 31
0.0
  0
LINE
  5
3F7
  8
0
 10
60.855318603270419
 20
52.319250100265108
 30
0.0
 11
59.355318603270419
 21
52.319250100265108
 31
0.0
  0
DIMENSION
  5
41F
  8
2
  2
*D1
 10
69.830103035606015
 20
49.619250100265099
 30
0.0
 11
68.892603035606001
 21
51.119250100265113
 31
0.0
 70
     0
 13
60.555318603270422
 23
52.619250100265099
 33
0.0
 14
61.642028603270418
 24
49.619250100265099
 34
0.0
 50
90.0
  0
DIMENSION
  5
42E
  8
2
  2
*D2
 10
72.558868375436234
 20
47.619250100265099
 30
0.0
 11
71.621368375436234
 21
50.119250100265113
 31
0.0
 70
     0
 13
69.830103035606015
 23
52.619250100265099
 33
0.0
 14
61.565084882340159
 24
47.619250100265099
 34
0.0
 50
90.0
  0
DIMENSION
  5
43B
  8
2
  2
*D3
 10
75.009188134995952
 20
45.619250100265099
 30
0.0
 11
74.071688134995938
 21
49.119250100265113
 31
0.0
 70
     0
 13
72.558868375436234
 23
52.619250100265099
 33
0.0
 14
60.105318603270412
 24
45.619250100265099
 34
0.0
 50
90.0
  0
TEXT
  5
461
  8
2
 10
49.921253751296398
 20
54.154359556810903
 30
0.0
 40
1.25
  1
M3
  0
TEXT
  5
468
  8
2
 10
49.837720136633799
 20
50.37134256776131
 30
0.0
 40
1.25
  1
H5
  0
POLYLINE
  8
2
  5
4D4
  66
     1
 10
0.000000
 20
0.000000
 30
0.000000
  70
     8
  0
VERTEX
  8
2
  5
4D5
 10
57.8553
 20
50.9693
 30
0.000000
  70
    32
  0
VERTEX
  8
2
  5
4D6
 10
52.2324
 20
53.9862
 30
0.000000
  70
    32
  0
VERTEX
  8
2
  5
4D7
 10
49.5593
 20
53.9862
 30
0.000000
  70
    32
  0
SEQEND
  8
2
  5
4D8
  0
POLYLINE
  8
2
  5
4D9
  66
     1
 10
0.000000
 20
0.000000
 30
0.000000
  70
     8
  0
VERTEX
  8
2
  5
4DA
 10
56.5053
 20
48.6079
 30
0.000000
  70
    32
  0
VERTEX
  8
2
  5
4DB
 10
52.1767
 20
50.2045
 30
0.000000
  70
    32
  0
VERTEX
  8
2
  5
4DC
 10
49.6707
 20
50.2045
 30
0.000000
  70
    32
  0
SEQEND
  8
2
  5
4DD
  0
LINE
  5
479
  8
2
 10
58.855318603270412
 20
52.619250100265099
 30
0.0
 11
58.855318603270412
 21
45.619250100265099
 31
0.0
  0
LINE
  5
47A
  8
3
 10
59.855318603270419
 20
52.619250100265099
 30
0.0
 11
59.855318603270419
 21
45.619250100265099
 31
0.0
  0
LINE
  5
47D
  8
2
 10
58.355318603270419
 20
45.619250100265099
 30
0.0
 11
58.355318603270419
 21
47.619250100265099
 31
0.0
  0
LINE
  5
480
  8
2
 10
60.355318603270419
 20
47.619250100265099
 30
0.0
 11
60.355318603270419
 21
45.619250100265099
 31
0.0
  0
DIMENSION
  5
483
  8
2
  2
*D4
 10
59.855318603270419
 20
56.600951067694211
 30
0.0
 11
63.501151936603748
 21
57.538451067694211
 31
0.0
 70
     0
  1
%%c<>
 13
58.855318603270412
 23
52.619250100265099
 33
0.0
 14
59.855318603270419
 24
52.319250100265108
 34
0.0
  0
DIMENSION
  5
492
  8
2
  2
*D5
 10
60.355318603270419
 20
40.963739261839279
 30
0.0
 11
64.20948526993709
 21
41.901239261839279
 31
0.0
 70
     0
  1
%%c<>
 13
58.355318603270419
 23
45.619250100265099
 33
0.0
 14
60.355318603270419
 24
45.619250100265099
 34
0.0
  0
ENDSEC
  0
EOF
