  0
SECTION
  2
HEADER
  9
$ACADVER
  1
AC1009
  9
$INSBASE
 10
0.0
 20
0.0
 30
0.0
  9
$EXTMIN
 10
64.970658764685524
 20
31.30397689167064
 30
0.0
  9
$EXTMAX
 10
120.3572250946431
 20
86.51152642422403
 30
5.0
  9
$LIMMIN
 10
0.0
 20
0.0
  9
$LIMMAX
 10
420.0
 20
297.0
  9
$ORTHOMODE
 70
     0
  9
$REGENMODE
 70
     1
  9
$FILLMODE
 70
     1
  9
$QTEXTMODE
 70
     0
  9
$MIRRTEXT
 70
     1
  9
$DRAGMODE
 70
     2
  9
$LTSCALE
 40
0.3
  9
$OSMODE
 70
    37
  9
$ATTMODE
 70
     1
  9
$TEXTSIZE
 40
2.5
  9
$TRACEWID
 40
1.0
  9
$TEXTSTYLE
  7
STANDARD
  9
$CLAYER
  8
3
  9
$CELTYPE
  6
BYLAYER
  9
$CECOLOR
 62
   256
  9
$DIMSCALE
 40
1.0
  9
$DIMASZ
 40
2.5
  9
$DIMEXO
 40
0.625
  9
$DIMDLI
 40
3.75
  9
$DIMRND
 40
0.0
  9
$DIMDLE
 40
0.0
  9
$DIMEXE
 40
1.25
  9
$DIMTP
 40
0.0
  9
$DIMTM
 40
0.0
  9
$DIMTXT
 40
2.5
  9
$DIMCEN
 40
2.5
  9
$DIMTSZ
 40
0.0
  9
$DIMTOL
 70
     0
  9
$DIMLIM
 70
     0
  9
$DIMTIH
 70
     0
  9
$DIMTOH
 70
     0
  9
$DIMSE1
 70
     0
  9
$DIMSE2
 70
     0
  9
$DIMTAD
 70
     1
  9
$DIMZIN
 70
     8
  9
$DIMBLK
  1

  9
$DIMASO
 70
     1
  9
$DIMSHO
 70
     1
  9
$DIMPOST
  1

  9
$DIMAPOST
  1

  9
$DIMALT
 70
     0
  9
$DIMALTD
 70
     3
  9
$DIMALTF
 40
0.03937007874016
  9
$DIMLFAC
 40
1.0
  9
$DIMTOFL
 70
     1
  9
$DIMTVP
 40
0.0
  9
$DIMTIX
 70
     0
  9
$DIMSOXD
 70
     0
  9
$DIMSAH
 70
     0
  9
$DIMBLK1
  1

  9
$DIMBLK2
  1

  9
$DIMSTYLE
  2
ISO-25
  9
$DIMCLRD
 70
     0
  9
$DIMCLRE
 70
     0
  9
$DIMCLRT
 70
     0
  9
$DIMTFAC
 40
1.0
  9
$DIMGAP
 40
0.625
  9
$LUNITS
 70
     2
  9
$LUPREC
 70
     4
  9
$SKETCHINC
 40
1.0
  9
$FILLETRAD
 40
10.0
  9
$AUNITS
 70
     0
  9
$AUPREC
 70
     0
  9
$MENU
  1
.
  9
$ELEVATION
 40
0.0
  9
$PELEVATION
 40
0.0
  9
$THICKNESS
 40
0.0
  9
$LIMCHECK
 70
     0
  9
$BLIPMODE
 70
     0
  9
$CHAMFERA
 40
10.0
  9
$CHAMFERB
 40
10.0
  9
$SKPOLY
 70
     0
  9
$TDCREATE
 40
2453447.4331617011
  9
$TDUPDATE
 40
2453551.925416308
  9
$TDINDWG
 40
0.0411259028
  9
$TDUSRTIMER
 40
0.0411259028
  9
$USRTIMER
 70
     1
  9
$ANGBASE
 50
0.0
  9
$ANGDIR
 70
     0
  9
$PDMODE
 70
     0
  9
$PDSIZE
 40
0.0
  9
$PLINEWID
 40
0.0
  9
$COORDS
 70
     1
  9
$SPLFRAME
 70
     0
  9
$SPLINETYPE
 70
     6
  9
$SPLINESEGS
 70
     8
  9
$ATTDIA
 70
     0
  9
$ATTREQ
 70
     1
  9
$HANDLING
 70
-16383
  9
$HANDSEED
  5
69E
  9
$SURFTAB1
 70
     6
  9
$SURFTAB2
 70
     6
  9
$SURFTYPE
 70
     6
  9
$SURFU
 70
     6
  9
$SURFV
 70
     6
  9
$UCSNAME
  2

  9
$UCSORG
 10
0.0
 20
0.0
 30
0.0
  9
$UCSXDIR
 10
1.0
 20
0.0
 30
0.0
  9
$UCSYDIR
 10
0.0
 20
1.0
 30
0.0
  9
$PUCSNAME
  2

  9
$PUCSORG
 10
0.0
 20
0.0
 30
0.0
  9
$PUCSXDIR
 10
1.0
 20
0.0
 30
0.0
  9
$PUCSYDIR
 10
0.0
 20
1.0
 30
0.0
  9
$USERI1
 70
     0
  9
$USERI2
 70
     0
  9
$USERI3
 70
     0
  9
$USERI4
 70
     0
  9
$USERI5
 70
     0
  9
$USERR1
 40
0.0
  9
$USERR2
 40
0.0
  9
$USERR3
 40
0.0
  9
$USERR4
 40
0.0
  9
$USERR5
 40
0.0
  9
$WORLDVIEW
 70
     1
  9
$SHADEDGE
 70
     3
  9
$SHADEDIF
 70
    70
  9
$TILEMODE
 70
     1
  9
$MAXACTVP
 70
    64
  9
$PLIMCHECK
 70
     0
  9
$PEXTMIN
 10
1.0000000000000000E+020
 20
1.0000000000000000E+020
 30
1.0000000000000000E+020
  9
$PEXTMAX
 10
-1.0000000000000000E+020
 20
-1.0000000000000000E+020
 30
-1.0000000000000000E+020
  9
$PLIMMIN
 10
0.0
 20
0.0
  9
$PLIMMAX
 10
420.0
 20
297.0
  9
$UNITMODE
 70
     0
  9
$VISRETAIN
 70
     1
  9
$PLINEGEN
 70
     0
  9
$PSLTSCALE
 70
     1
  0
ENDSEC
  0
SECTION
  2
TABLES
  0
TABLE
  2
VPORT
 70
     2
  0
VPORT
  2
*ACTIVE
 70
     0
 10
0.0
 20
0.0
 11
1.0
 21
1.0
 12
89.469194478906374
 22
54.758060539985138
 13
0.0
 23
0.0
 14
10.0
 24
10.0
 15
10.0
 25
10.0
 16
0.0
 26
0.0
 36
1.0
 17
0.0
 27
0.0
 37
0.0
 40
71.378604415049438
 41
2.5392405063291141
 42
50.0
 43
0.0
 44
0.0
 50
0.0
 51
0.0
 71
     0
 72
   100
 73
     1
 74
     3
 75
     0
 76
     0
 77
     0
 78
     0
  0
ENDTAB
  0
TABLE
  2
LTYPE
 70
     3
  0
LTYPE
  2
CONTINUOUS
 70
     0
  3
Solid line
 72
    65
 73
     0
 40
0.0
  0
LTYPE
  2
CENTER
 70
     0
  3
Center ____ _ ____ _ ____ _ ____ _ ____ _ ____
 72
    65
 73
     4
 40
50.799999999999997
 49
31.75
 49
-6.3499999999999988
 49
6.3499999999999988
 49
-6.3499999999999988
  0
LTYPE
  2
DASHED2
 70
     0
  3
Dashed (.5x) _ _ _ _ _ _ _ _ _ _ _ _ _ _ _ _ _
 72
    65
 73
     2
 40
9.5249999999999986
 49
6.3499999999999988
 49
-3.1749999999999989
  0
ENDTAB
  0
TABLE
  2
LAYER
 70
     5
  0
LAYER
  2
0
 70
     0
 62
     7
  6
CONTINUOUS
  0
LAYER
  2
1
 70
     0
 62
     7
  6
CENTER
  0
LAYER
  2
2
 70
     0
 62
     7
  6
CONTINUOUS
  0
LAYER
  2
3
 70
     0
 62
     7
  6
DASHED2
  0
LAYER
  2
DEFPOINTS
 70
     0
 62
     7
  6
CONTINUOUS
  0
ENDTAB
  0
TABLE
  2
STYLE
 70
     3
  0
STYLE
  2
STANDARD
 70
     0
 40
0.0
 41
1.0
 50
0.0
 71
     0
 42
2.5
  3
txt
  4

  0
STYLE
  2
\U+00C9L\U+00C9R_\U+00C2S\U+00C2V\U+00C2B\U+00C2N
 70
     0
 40
1.0
 41
1.0
 50
0.0
 71
     0
 42
1.0
  3
\U+00E9l\U+00E9r \U+00E2S\U+00E2V\U+00E2b\U+00E2N
  4

  0
STYLE
  2

 70
     1
 40
0.0
 41
1.0
 50
0.0
 71
     0
 42
2.5
  3
ltypeshp.shx
  4

  0
ENDTAB
  0
TABLE
  2
VIEW
 70
     0
  0
ENDTAB
  0
TABLE
  2
UCS
 70
     0
  0
ENDTAB
  0
TABLE
  2
APPID
 70
     1
  0
APPID
  2
ACAD
 70
     0
  0
ENDTAB
  0
TABLE
  2
DIMSTYLE
 70
     2
  0
DIMSTYLE
  2
ISO-25
 70
     0
  3

  4

  5

  6

  7

 40
1.0
 41
2.5
 42
0.625
 43
3.75
 44
1.25
 45
0.0
 46
0.0
 47
0.0
 48
0.0
140
2.5
141
2.5
142
0.0
143
0.03937007874016
144
1.0
145
0.0
146
1.0
147
0.625
 71
     0
 72
     0
 73
     0
 74
     0
 75
     0
 76
     0
 77
     1
 78
     8
170
     0
171
     3
172
     1
173
     0
174
     0
175
     0
176
     0
177
     0
178
     0
  0
DIMSTYLE
  2
STANDARD
 70
     0
  3

  4

  5

  6

  7

 40
1.0
 41
0.18
 42
0.0625
 43
0.38
 44
0.18
 45
0.0
 46
0.0
 47
0.0
 48
0.0
140
0.18
141
0.09
142
0.0
143
25.399999999999999
144
1.0
145
0.0
146
1.0
147
0.09
 71
     0
 72
     0
 73
     1
 74
     1
 75
     0
 76
     0
 77
     0
 78
     0
170
     0
171
     2
172
     0
173
     0
174
     0
175
     0
176
     0
177
     0
178
     0
  0
ENDTAB
  0
ENDSEC
  0
SECTION
  2
BLOCKS
  0
BLOCK
  8
0
  2
$MODEL_SPACE
 70
     0
 10
0.0
 20
0.0
 30
0.0
  3
$MODEL_SPACE
  1

  0
ENDBLK
  5
21
  8
0
  0
BLOCK
 67
     1
  8
0
  2
$PAPER_SPACE
 70
     0
 10
0.0
 20
0.0
 30
0.0
  3
$PAPER_SPACE
  1

  0
ENDBLK
  5
1D
 67
     1
  8
0
  0
BLOCK
  8
0
  2
*D1
 70
     1
 10
0.0
 20
0.0
 30
0.0
  3
*D1
  1

  0
LINE
  5
4B1
  8
2
 62
     0
 10
96.436646412653175
 20
79.405825879427454
 30
0.0
 11
110.5827503640771
 21
79.405825879427454
 31
0.0
  0
LINE
  5
4B2
  8
2
 62
     0
 10
94.904046412653187
 20
68.405825879427482
 30
0.0
 11
110.5827503640771
 21
68.405825879427468
 31
0.0
  0
LINE
  5
4B3
  8
2
 62
     0
 10
109.3327503640771
 20
76.905825879427454
 30
0.0
 11
109.3327503640771
 21
70.905825879427468
 31
0.0
  0
SOLID
  5
4B4
  8
2
 62
     0
 10
108.9160836974104
 20
76.905825879427454
 30
0.0
 11
109.7494170307438
 21
76.905825879427454
 31
0.0
 12
109.3327503640771
 22
79.405825879427454
 32
0.0
 13
109.3327503640771
 23
79.405825879427454
 33
0.0
  0
SOLID
  5
4B5
  8
2
 62
     0
 10
108.9160836974104
 20
70.905825879427468
 30
0.0
 11
109.7494170307438
 21
70.905825879427468
 31
0.0
 12
109.3327503640771
 22
68.405825879427468
 32
0.0
 13
109.3327503640771
 23
68.405825879427468
 33
0.0
  0
TEXT
  5
4B6
  8
3
 62
     0
 10
108.7077503640771
 20
72.655825879427496
 30
0.0
 40
2.5
  1
11
 50
90.0
  0
POINT
  5
4B7
  8
DEFPOINTS
 62
     0
 10
95.811646412653175
 20
79.405825879427482
 30
0.0
  0
POINT
  5
4B8
  8
DEFPOINTS
 62
     0
 10
94.279046412653187
 20
68.405825879427482
 30
0.0
  0
POINT
  5
4B9
  8
DEFPOINTS
 62
     0
 10
109.3327503640771
 20
68.405825879427468
 30
0.0
  0
ENDBLK
  5
2EB
  8
0
  0
BLOCK
  8
0
  2
*D2
 70
     1
 10
0.0
 20
0.0
 30
0.0
  3
*D2
  1

  0
LINE
  5
4FC
  8
2
 62
     0
 10
109.9577503640771
 20
79.405825879427454
 30
0.0
 11
115.13467131988919
 21
79.405825879427454
 31
0.0
  0
LINE
  5
4FD
  8
2
 62
     0
 10
93.604723877441856
 20
65.405825879427482
 30
0.0
 11
115.13467131988919
 21
65.405825879427468
 31
0.0
  0
LINE
  5
4FE
  8
2
 62
     0
 10
113.88467131988919
 20
76.905825879427454
 30
0.0
 11
113.88467131988919
 21
67.905825879427468
 31
0.0
  0
SOLID
  5
4FF
  8
2
 62
     0
 10
113.46800465322249
 20
76.905825879427454
 30
0.0
 11
114.30133798655589
 21
76.905825879427454
 31
0.0
 12
113.88467131988919
 22
79.405825879427454
 32
0.0
 13
113.88467131988919
 23
79.405825879427454
 33
0.0
  0
SOLID
  5
500
  8
2
 62
     0
 10
113.46800465322249
 20
67.905825879427468
 30
0.0
 11
114.30133798655589
 21
67.905825879427468
 31
0.0
 12
113.88467131988919
 22
65.405825879427468
 32
0.0
 13
113.88467131988919
 23
65.405825879427468
 33
0.0
  0
TEXT
  5
501
  8
3
 62
     0
 10
113.25967131988919
 20
70.739159212760825
 30
0.0
 40
2.5
  1
14
 50
90.0
  0
POINT
  5
502
  8
DEFPOINTS
 62
     0
 10
109.3327503640771
 20
79.405825879427454
 30
0.0
  0
POINT
  5
503
  8
DEFPOINTS
 62
     0
 10
92.979723877441856
 20
65.405825879427482
 30
0.0
  0
POINT
  5
504
  8
DEFPOINTS
 62
     0
 10
113.88467131988919
 20
65.405825879427468
 30
0.0
  0
ENDBLK
  5
301
  8
0
  0
BLOCK
  8
0
  2
*D3
 70
     1
 10
0.0
 20
0.0
 30
0.0
  3
*D3
  1

  0
LINE
  5
663
  8
2
 62
     0
 10
114.50967131988919
 20
79.405825879427454
 30
0.0
 11
120.3572250946431
 21
79.405825879427454
 31
0.0
  0
LINE
  5
664
  8
2
 62
     0
 10
92.35404641265319
 20
59.405825879427489
 30
0.0
 11
120.3572250946431
 21
59.405825879427489
 31
0.0
  0
LINE
  5
665
  8
2
 62
     0
 10
119.1072250946431
 20
76.905825879427454
 30
0.0
 11
119.1072250946431
 21
61.905825879427489
 31
0.0
  0
SOLID
  5
666
  8
2
 62
     0
 10
118.6905584279764
 20
76.905825879427454
 30
0.0
 11
119.5238917613097
 21
76.905825879427454
 31
0.0
 12
119.1072250946431
 22
79.405825879427454
 32
0.0
 13
119.1072250946431
 23
79.405825879427454
 33
0.0
  0
SOLID
  5
667
  8
2
 62
     0
 10
118.6905584279764
 20
61.905825879427489
 30
0.0
 11
119.5238917613097
 21
61.905825879427489
 31
0.0
 12
119.1072250946431
 22
59.405825879427489
 32
0.0
 13
119.1072250946431
 23
59.405825879427489
 33
0.0
  0
TEXT
  5
668
  8
3
 62
     0
 10
118.4822250946431
 20
67.530825879427496
 30
0.0
 40
2.5
  1
20
 50
90.0
  0
POINT
  5
669
  8
DEFPOINTS
 62
     0
 10
113.88467131988919
 20
79.405825879427454
 30
0.0
  0
POINT
  5
66A
  8
DEFPOINTS
 62
     0
 10
91.72904641265319
 20
59.405825879427489
 30
0.0
  0
POINT
  5
66B
  8
DEFPOINTS
 62
     0
 10
119.1072250946431
 20
59.405825879427489
 30
0.0
  0
ENDBLK
  5
426
  8
0
  0
BLOCK
  8
0
  2
*D4
 70
     1
 10
0.0
 20
0.0
 30
0.0
  3
*D4
  1

  0
LINE
  5
639
  8
2
 62
     0
 10
85.854046412653176
 20
59.405825879427489
 30
0.0
 11
71.417737709128687
 21
59.405825879427503
 31
0.0
  0
LINE
  5
63A
  8
2
 62
     0
 10
83.85404641265319
 20
60.905825879427489
 30
0.0
 11
71.417737709128687
 21
60.905825879427503
 31
0.0
  0
LINE
  5
63B
  8
2
 62
     0
 10
72.667737709128687
 20
56.905825879427503
 30
0.0
 11
72.667737709128687
 21
54.405825879427503
 31
0.0
  0
LINE
  5
63C
  8
2
 62
     0
 10
72.667737709128687
 20
63.405825879427503
 30
0.0
 11
72.667737709128687
 21
71.322492546094182
 31
0.0
  0
LINE
  5
63D
  8
2
 62
     0
 10
72.667737709128687
 20
59.405825879427503
 30
0.0
 11
72.667737709128687
 21
60.905825879427503
 31
0.0
  0
SOLID
  5
63E
  8
2
 62
     0
 10
72.251071042462016
 20
56.905825879427503
 30
0.0
 11
73.084404375795359
 21
56.905825879427503
 31
0.0
 12
72.667737709128687
 22
59.405825879427503
 32
0.0
 13
72.667737709128687
 23
59.405825879427503
 33
0.0
  0
SOLID
  5
63F
  8
2
 62
     0
 10
72.251071042462016
 20
63.405825879427503
 30
0.0
 11
73.084404375795359
 21
63.405825879427503
 31
0.0
 12
72.667737709128687
 22
60.905825879427503
 32
0.0
 13
72.667737709128687
 23
60.905825879427503
 33
0.0
  0
TEXT
  5
640
  8
3
 62
     0
 10
72.042737709128673
 20
66.530825879427525
 30
0.0
 40
2.5
  1
1.5
 50
90.0
  0
POINT
  5
641
  8
DEFPOINTS
 62
     0
 10
86.479046412653176
 20
59.405825879427489
 30
0.0
  0
POINT
  5
642
  8
DEFPOINTS
 62
     0
 10
84.47904641265319
 20
60.905825879427489
 30
0.0
  0
POINT
  5
643
  8
DEFPOINTS
 62
     0
 10
72.667737709128687
 20
60.905825879427503
 30
0.0
  0
ENDBLK
  5
5AF
  8
0
  0
BLOCK
  8
0
  2
*D5
 70
     1
 10
0.0
 20
0.0
 30
0.0
  3
*D5
  1

  0
LINE
  5
658
  8
2
 62
     0
 10
87.479046412653204
 20
58.780825879427489
 30
0.0
 11
87.479046412653204
 21
49.906813209080703
 31
0.0
  0
LINE
  5
659
  8
2
 62
     0
 10
90.47904641265319
 20
58.780825879427489
 30
0.0
 11
90.47904641265319
 21
49.906813209080703
 31
0.0
  0
LINE
  5
65A
  8
2
 62
     0
 10
84.979046412653204
 20
51.156813209080703
 30
0.0
 11
82.479046412653204
 21
51.156813209080703
 31
0.0
  0
LINE
  5
65B
  8
2
 62
     0
 10
92.97904641265319
 20
51.156813209080703
 30
0.0
 11
100.8957130793198
 21
51.156813209080703
 31
0.0
  0
LINE
  5
65C
  8
2
 62
     0
 10
87.479046412653204
 20
51.156813209080703
 30
0.0
 11
90.47904641265319
 21
51.156813209080703
 31
0.0
  0
SOLID
  5
65D
  8
2
 62
     0
 10
84.979046412653204
 20
51.57347987574736
 30
0.0
 11
84.979046412653204
 21
50.740146542414031
 31
0.0
 12
87.479046412653204
 22
51.156813209080703
 32
0.0
 13
87.479046412653204
 23
51.156813209080703
 33
0.0
  0
SOLID
  5
65E
  8
2
 62
     0
 10
92.97904641265319
 20
51.57347987574736
 30
0.0
 11
92.97904641265319
 21
50.740146542414031
 31
0.0
 12
90.47904641265319
 22
51.156813209080703
 32
0.0
 13
90.47904641265319
 23
51.156813209080703
 33
0.0
  0
INSERT
  5
65F
  8
3
  2
*U10
 10
0.0
 20
0.0
 30
0.0
  0
POINT
  5
660
  8
DEFPOINTS
 62
     0
 10
87.479046412653204
 20
59.405825879427489
 30
0.0
  0
POINT
  5
661
  8
DEFPOINTS
 62
     0
 10
90.47904641265319
 20
59.405825879427489
 30
0.0
  0
POINT
  5
662
  8
DEFPOINTS
 62
     0
 10
90.47904641265319
 20
51.156813209080703
 30
0.0
  0
ENDBLK
  5
5DB
  8
0
  0
BLOCK
  8
0
  2
*D6
 70
     1
 10
0.0
 20
0.0
 30
0.0
  3
*D6
  1

  0
LINE
  5
64D
  8
2
 62
     0
 10
86.479046412653176
 20
60.280825879427489
 30
0.0
 11
86.479046412653176
 21
44.55931204261401
 31
0.0
  0
LINE
  5
64E
  8
2
 62
     0
 10
91.479046412653176
 20
60.280825879427489
 30
0.0
 11
91.479046412653176
 21
44.55931204261401
 31
0.0
  0
LINE
  5
64F
  8
2
 62
     0
 10
83.979046412653176
 20
45.80931204261401
 30
0.0
 11
81.479046412653176
 21
45.80931204261401
 31
0.0
  0
LINE
  5
650
  8
2
 62
     0
 10
93.979046412653176
 20
45.80931204261401
 30
0.0
 11
101.8957130793198
 21
45.80931204261401
 31
0.0
  0
LINE
  5
651
  8
2
 62
     0
 10
86.479046412653176
 20
45.80931204261401
 30
0.0
 11
91.479046412653176
 21
45.80931204261401
 31
0.0
  0
SOLID
  5
652
  8
2
 62
     0
 10
83.979046412653176
 20
46.225978709280668
 30
0.0
 11
83.979046412653176
 21
45.392645375947353
 31
0.0
 12
86.479046412653176
 22
45.80931204261401
 32
0.0
 13
86.479046412653176
 23
45.80931204261401
 33
0.0
  0
SOLID
  5
653
  8
2
 62
     0
 10
93.979046412653176
 20
46.225978709280668
 30
0.0
 11
93.979046412653176
 21
45.392645375947353
 31
0.0
 12
91.479046412653176
 22
45.80931204261401
 32
0.0
 13
91.479046412653176
 23
45.80931204261401
 33
0.0
  0
INSERT
  5
654
  8
3
  2
*U9
 10
0.0
 20
0.0
 30
0.0
  0
POINT
  5
655
  8
DEFPOINTS
 62
     0
 10
86.479046412653176
 20
60.905825879427489
 30
0.0
  0
POINT
  5
656
  8
DEFPOINTS
 62
     0
 10
91.479046412653176
 20
60.905825879427489
 30
0.0
  0
POINT
  5
657
  8
DEFPOINTS
 62
     0
 10
91.479046412653176
 20
45.80931204261401
 30
0.0
  0
ENDBLK
  5
5EA
  8
0
  0
BLOCK
  8
0
  2
*D7
 70
     1
 10
0.0
 20
0.0
 30
0.0
  3
*D7
  1

  0
LINE
  5
644
  8
2
 62
     0
 10
84.47904641265319
 20
59.280825879427503
 30
0.0
 11
84.47904641265319
 21
39.221615959121571
 31
0.0
  0
LINE
  5
645
  8
2
 62
     0
 10
93.47904641265319
 20
59.280825879427503
 30
0.0
 11
93.47904641265319
 21
39.221615959121571
 31
0.0
  0
LINE
  5
646
  8
2
 62
     0
 10
86.97904641265319
 20
40.471615959121571
 30
0.0
 11
90.97904641265319
 21
40.471615959121571
 31
0.0
  0
SOLID
  5
647
  8
2
 62
     0
 10
86.97904641265319
 20
40.888282625788243
 30
0.0
 11
86.97904641265319
 21
40.054949292454907
 31
0.0
 12
84.47904641265319
 22
40.471615959121571
 32
0.0
 13
84.47904641265319
 23
40.471615959121571
 33
0.0
  0
SOLID
  5
648
  8
2
 62
     0
 10
90.97904641265319
 20
40.888282625788243
 30
0.0
 11
90.97904641265319
 21
40.054949292454907
 31
0.0
 12
93.47904641265319
 22
40.471615959121571
 32
0.0
 13
93.47904641265319
 23
40.471615959121571
 33
0.0
  0
INSERT
  5
649
  8
3
  2
*U8
 10
0.0
 20
0.0
 30
0.0
  0
POINT
  5
64A
  8
DEFPOINTS
 62
     0
 10
84.47904641265319
 20
59.905825879427503
 30
0.0
  0
POINT
  5
64B
  8
DEFPOINTS
 62
     0
 10
93.47904641265319
 20
59.905825879427503
 30
0.0
  0
POINT
  5
64C
  8
DEFPOINTS
 62
     0
 10
93.47904641265319
 20
40.471615959121571
 30
0.0
  0
ENDBLK
  5
5F7
  8
0
  0
BLOCK
  8
0
  2
*U8
 70
     1
 10
0.0
 20
0.0
 30
0.0
  3
*U8
  1

  0
TEXT
  5
686
  8
3
 62
     0
 10
86.895713079319862
 20
41.096615959121571
 30
0.0
 40
2.5
  1
\U+2205
  0
TEXT
  5
687
  8
3
 62
     0
 10
89.395713079319862
 20
41.096615959121571
 30
0.0
 40
2.5
  1
9
  0
ENDBLK
  5
689
  8
0
  0
BLOCK
  8
0
  2
*U9
 70
     1
 10
0.0
 20
0.0
 30
0.0
  3
*U9
  1

  0
TEXT
  5
68B
  8
3
 62
     0
 10
97.104046412653204
 20
46.43431204261401
 30
0.0
 40
2.5
  1
\U+2205
  0
TEXT
  5
68C
  8
3
 62
     0
 10
99.604046412653204
 20
46.43431204261401
 30
0.0
 40
2.5
  1
5
  0
ENDBLK
  5
68E
  8
0
  0
BLOCK
  8
0
  2
*U10
 70
     1
 10
0.0
 20
0.0
 30
0.0
  3
*U10
  1

  0
TEXT
  5
690
  8
3
 62
     0
 10
96.10404641265319
 20
51.781813209080703
 30
0.0
 40
2.5
  1
\U+2205
  0
TEXT
  5
691
  8
3
 62
     0
 10
98.60404641265319
 20
51.781813209080703
 30
0.0
 40
2.5
  1
3
  0
ENDBLK
  5
693
  8
0
  0
ENDSEC
  0
SECTION
  2
ENTITIES
  0
TEXT
  5
F2
  8
2
 10
77.565596410987879
 20
31.303976891670651
 30
0.0
 40
2.5399440000000002
  1
No. 270.061
 51
-0.0000015352344868
  7
\U+00C9L\U+00C9R_\U+00C2S\U+00C2V\U+00C2B\U+00C2N
  0
LINE
  5
1BC
  8
0
 39
5.0
 10
89.895446412653186
 20
79.405825879427482
 30
0.0
 11
93.066446412653207
 21
79.405825879427482
 31
0.0
  0
LINE
  5
1BD
  8
0
 39
5.0
 10
92.566446412653193
 20
79.405825879427482
 30
0.0
 11
92.566446412653193
 21
79.405825879427482
 31
0.0
  0
LINE
  5
1BE
  8
0
 39
5.0
 10
92.566446412653193
 20
79.405825879427482
 30
0.0
 11
92.657346412653183
 21
79.4012258794275
 31
0.0
  0
LINE
  5
1BF
  8
0
 39
5.0
 10
92.657346412653183
 20
79.4012258794275
 30
0.0
 11
92.745546412653184
 21
79.388125879427491
 31
0.0
  0
LINE
  5
1C0
  8
0
 39
5.0
 10
92.745546412653184
 20
79.388125879427491
 30
0.0
 11
92.830946412653205
 21
79.366625879427474
 31
0.0
  0
LINE
  5
1C1
  8
0
 39
5.0
 10
92.830946412653205
 20
79.366625879427474
 30
0.0
 11
92.912546412653185
 21
79.337625879427492
 31
0.0
  0
LINE
  5
1C2
  8
0
 39
5.0
 10
92.912546412653185
 20
79.337625879427492
 30
0.0
 11
92.990546412653188
 21
79.301025879427499
 31
0.0
  0
LINE
  5
1C3
  8
0
 39
5.0
 10
92.990546412653188
 20
79.301025879427499
 30
0.0
 11
93.063946412653195
 21
79.257725879427483
 31
0.0
  0
LINE
  5
1C4
  8
0
 39
5.0
 10
93.063946412653195
 20
79.257725879427483
 30
0.0
 11
93.132646412653173
 21
79.207825879427489
 31
0.0
  0
LINE
  5
1C5
  8
0
 39
5.0
 10
93.132646412653173
 20
79.207825879427489
 30
0.0
 11
93.195846412653182
 21
79.152125879427501
 31
0.0
  0
LINE
  5
1C6
  8
0
 39
5.0
 10
93.195846412653182
 20
79.152125879427501
 30
0.0
 11
93.253546412653179
 21
79.090525879427489
 31
0.0
  0
LINE
  5
1C7
  8
0
 39
5.0
 10
93.253546412653179
 20
79.090525879427489
 30
0.0
 11
93.304846412653177
 21
79.024025879427484
 31
0.0
  0
LINE
  5
1C8
  8
0
 39
5.0
 10
93.304846412653177
 20
79.024025879427484
 30
0.0
 11
93.349746412653175
 21
78.952725879427476
 31
0.0
  0
LINE
  5
1C9
  8
0
 39
5.0
 10
93.349746412653175
 20
78.952725879427476
 30
0.0
 11
93.387246412653184
 21
78.877425879427491
 31
0.0
  0
LINE
  5
1CA
  8
0
 39
5.0
 10
93.387246412653184
 20
78.877425879427491
 30
0.0
 11
93.417346412653174
 21
78.798125879427474
 31
0.0
  0
LINE
  5
1CB
  8
0
 39
5.0
 10
93.417346412653174
 20
78.798125879427474
 30
0.0
 11
93.439346412653194
 21
78.715525879427489
 31
0.0
  0
LINE
  5
1CC
  8
0
 39
5.0
 10
93.439346412653194
 20
78.715525879427489
 30
0.0
 11
93.452946412653176
 21
78.630025879427492
 31
0.0
  0
LINE
  5
1CD
  8
0
 39
5.0
 10
93.452946412653176
 20
78.630025879427492
 30
0.0
 11
93.457446412653184
 21
78.542225879427491
 31
0.0
  0
LINE
  5
1CE
  8
0
 39
5.0
 10
93.457446412653184
 20
78.542225879427491
 30
0.0
 11
93.457446412653184
 21
66.318225879427473
 31
0.0
  0
LINE
  5
1CF
  8
0
 39
5.0
 10
93.457446412653184
 20
66.318225879427473
 30
0.0
 11
93.457446412653184
 21
66.318225879427473
 31
0.0
  0
LINE
  5
1D0
  8
0
 39
5.0
 10
93.457446412653184
 20
66.318225879427473
 30
0.0
 11
93.452946412653176
 21
66.230125879427476
 31
0.0
  0
LINE
  5
1D1
  8
0
 39
5.0
 10
93.452946412653176
 20
66.230125879427476
 30
0.0
 11
93.439346412653194
 21
66.14462587942748
 31
0.0
  0
LINE
  5
1D2
  8
0
 39
5.0
 10
93.439346412653194
 20
66.14462587942748
 30
0.0
 11
93.417346412653174
 21
66.061925879427491
 31
0.0
  0
LINE
  5
1D3
  8
0
 39
5.0
 10
93.417346412653174
 20
66.061925879427491
 30
0.0
 11
93.387246412653184
 21
65.98282587942748
 31
0.0
  0
LINE
  5
1D4
  8
0
 39
5.0
 10
93.387246412653184
 20
65.98282587942748
 30
0.0
 11
93.349746412653175
 21
65.907325879427475
 31
0.0
  0
LINE
  5
1D5
  8
0
 39
5.0
 10
93.349746412653175
 20
65.907325879427475
 30
0.0
 11
93.304846412653177
 21
65.836125879427485
 31
0.0
  0
LINE
  5
1D6
  8
0
 39
5.0
 10
93.304846412653177
 20
65.836125879427485
 30
0.0
 11
93.253546412653179
 21
65.769525879427476
 31
0.0
  0
LINE
  5
1D7
  8
0
 39
5.0
 10
93.253546412653179
 20
65.769525879427476
 30
0.0
 11
93.195846412653182
 21
65.708225879427488
 31
0.0
  0
LINE
  5
1D8
  8
0
 39
5.0
 10
93.195846412653182
 20
65.708225879427488
 30
0.0
 11
93.132646412653173
 21
65.652225879427476
 31
0.0
  0
LINE
  5
1D9
  8
0
 39
5.0
 10
93.132646412653173
 20
65.652225879427476
 30
0.0
 11
93.063946412653195
 21
65.602425879427472
 31
0.0
  0
LINE
  5
1DA
  8
0
 39
5.0
 10
93.063946412653195
 20
65.602425879427472
 30
0.0
 11
92.990546412653188
 21
65.55902587942748
 31
0.0
  0
LINE
  5
1DB
  8
0
 39
5.0
 10
92.990546412653188
 20
65.55902587942748
 30
0.0
 11
92.912546412653185
 21
65.522625879427494
 31
0.0
  0
LINE
  5
1DC
  8
0
 39
5.0
 10
92.912546412653185
 20
65.522625879427494
 30
0.0
 11
92.830946412653205
 21
65.493425879427491
 31
0.0
  0
LINE
  5
1DD
  8
0
 39
5.0
 10
92.830946412653205
 20
65.493425879427491
 30
0.0
 11
92.47972387744187
 21
65.405825879427482
 31
0.0
  0
LINE
  5
20E
  8
0
 39
5.0
 10
88.953646412653185
 20
79.405825879427482
 30
0.0
 11
82.621046412653101
 21
79.405825879427496
 31
0.0
  0
LINE
  5
20F
  8
0
 39
5.0
 10
82.621046412653186
 20
79.405825879427482
 30
0.0
 11
82.621046412653186
 21
79.405825879427482
 31
0.0
  0
LINE
  5
210
  8
0
 39
5.0
 10
82.621046412653186
 20
79.405825879427482
 30
0.0
 11
82.517046412653187
 21
79.399625879427489
 31
0.0
  0
LINE
  5
211
  8
0
 39
5.0
 10
82.517046412653187
 20
79.399625879427489
 30
0.0
 11
82.414846412653191
 21
79.382025879427488
 31
0.0
  0
LINE
  5
212
  8
0
 39
5.0
 10
82.414846412653191
 20
79.382025879427488
 30
0.0
 11
82.315246412653181
 21
79.353725879427486
 31
0.0
  0
LINE
  5
213
  8
0
 39
5.0
 10
82.315246412653181
 20
79.353725879427486
 30
0.0
 11
82.218646412653186
 21
79.316025879427485
 31
0.0
  0
LINE
  5
214
  8
0
 39
5.0
 10
82.218646412653186
 20
79.316025879427485
 30
0.0
 11
82.126146412653185
 21
79.269525879427491
 31
0.0
  0
LINE
  5
215
  8
0
 39
5.0
 10
82.126146412653185
 20
79.269525879427491
 30
0.0
 11
82.038046412653188
 21
79.215525879427474
 31
0.0
  0
LINE
  5
216
  8
0
 39
5.0
 10
82.038046412653188
 20
79.215525879427474
 30
0.0
 11
81.955146412653193
 21
79.154625879427499
 31
0.0
  0
LINE
  5
217
  8
0
 39
5.0
 10
81.955146412653193
 20
79.154625879427499
 30
0.0
 11
81.878146412653194
 21
79.088225879427483
 31
0.0
  0
LINE
  5
218
  8
0
 39
5.0
 10
81.878146412653194
 20
79.088225879427483
 30
0.0
 11
81.807746412653188
 21
79.0168258794275
 31
0.0
  0
LINE
  5
219
  8
0
 39
5.0
 10
81.807746412653188
 20
79.0168258794275
 30
0.0
 11
81.744546412653179
 21
78.941825879427483
 31
0.0
  0
LINE
  5
21A
  8
0
 39
5.0
 10
81.744546412653179
 20
78.941825879427483
 30
0.0
 11
81.68934641265318
 21
78.863825879427495
 31
0.0
  0
LINE
  5
21B
  8
0
 39
5.0
 10
81.68934641265318
 20
78.863825879427495
 30
0.0
 11
81.642446412653186
 21
78.784225879427481
 31
0.0
  0
LINE
  5
21C
  8
0
 39
5.0
 10
81.642446412653186
 20
78.784225879427481
 30
0.0
 11
81.604946412653192
 21
78.703425879427499
 31
0.0
  0
LINE
  5
21D
  8
0
 39
5.0
 10
81.604946412653192
 20
78.703425879427499
 30
0.0
 11
81.577246412653182
 21
78.622925879427498
 31
0.0
  0
LINE
  5
21E
  8
0
 39
5.0
 10
81.577246412653182
 20
78.622925879427498
 30
0.0
 11
81.560146412653182
 21
78.543425879427488
 31
0.0
  0
LINE
  5
21F
  8
0
 39
5.0
 10
81.560146412653182
 20
78.543425879427488
 30
0.0
 11
81.554246412653185
 21
78.466025879427491
 31
0.0
  0
LINE
  5
220
  8
0
 39
5.0
 10
81.554246412653185
 20
78.466025879427491
 30
0.0
 11
81.554246412653185
 21
66.394425879427473
 31
0.0
  0
LINE
  5
221
  8
0
 39
5.0
 10
81.554246412653185
 20
66.394425879427473
 30
0.0
 11
81.554246412653185
 21
66.394425879427473
 31
0.0
  0
LINE
  5
222
  8
0
 39
5.0
 10
81.554246412653185
 20
66.394425879427473
 30
0.0
 11
81.558746412653178
 21
66.383225879427499
 31
0.0
  0
LINE
  5
223
  8
0
 39
5.0
 10
81.558746412653178
 20
66.383225879427499
 30
0.0
 11
81.572046412653179
 21
66.35182587942748
 31
0.0
  0
LINE
  5
224
  8
0
 39
5.0
 10
81.572046412653179
 20
66.35182587942748
 30
0.0
 11
81.594146412653174
 21
66.303125879427483
 31
0.0
  0
LINE
  5
225
  8
0
 39
5.0
 10
81.594146412653174
 20
66.303125879427483
 30
0.0
 11
81.624646412653192
 21
66.240325879427473
 31
0.0
  0
LINE
  5
226
  8
0
 39
5.0
 10
81.624646412653192
 20
66.240325879427473
 30
0.0
 11
81.663746412653197
 21
66.16602587942748
 31
0.0
  0
LINE
  5
227
  8
0
 39
5.0
 10
81.663746412653197
 20
66.16602587942748
 30
0.0
 11
81.711146412653193
 21
66.083525879427498
 31
0.0
  0
LINE
  5
228
  8
0
 39
5.0
 10
81.711146412653193
 20
66.083525879427498
 30
0.0
 11
81.766846412653194
 21
65.995525879427476
 31
0.0
  0
LINE
  5
229
  8
0
 39
5.0
 10
81.766846412653194
 20
65.995525879427476
 30
0.0
 11
81.830546412653177
 21
65.905425879427483
 31
0.0
  0
LINE
  5
22A
  8
0
 39
5.0
 10
81.830546412653177
 20
65.905425879427483
 30
0.0
 11
81.902546412653166
 21
65.815625879427472
 31
0.0
  0
LINE
  5
22B
  8
0
 39
5.0
 10
81.902546412653166
 20
65.815625879427472
 30
0.0
 11
81.982246412653168
 21
65.729425879427481
 31
0.0
  0
LINE
  5
22C
  8
0
 39
5.0
 10
81.982246412653168
 20
65.729425879427481
 30
0.0
 11
82.069846412653206
 21
65.649825879427482
 31
0.0
  0
LINE
  5
22D
  8
0
 39
5.0
 10
82.069846412653206
 20
65.649825879427482
 30
0.0
 11
82.165146412653186
 21
65.579925879427492
 31
0.0
  0
LINE
  5
22E
  8
0
 39
5.0
 10
82.165146412653186
 20
65.579925879427492
 30
0.0
 11
82.268146412653195
 21
65.522225879427481
 31
0.0
  0
LINE
  5
22F
  8
0
 39
5.0
 10
82.268146412653195
 20
65.522225879427481
 30
0.0
 11
82.378446412653176
 21
65.480325879427483
 31
0.0
  0
LINE
  5
230
  8
0
 39
5.0
 10
82.378446412653176
 20
65.480325879427483
 30
0.0
 11
82.748745990712365
 21
65.405825879427482
 31
0.0
  0
LINE
  5
23E
  8
0
 39
5.0
 10
88.979046412653176
 20
79.405825879427482
 30
0.0
 11
95.311646412653033
 21
79.405825879427482
 31
0.0
  0
LINE
  5
23F
  8
0
 39
5.0
 10
95.311646412653175
 20
79.405825879427482
 30
0.0
 11
95.311646412653175
 21
79.405825879427482
 31
0.0
  0
LINE
  5
240
  8
0
 39
5.0
 10
95.311646412653175
 20
79.405825879427482
 30
0.0
 11
95.415846412653195
 21
79.399625879427489
 31
0.0
  0
LINE
  5
241
  8
0
 39
5.0
 10
95.415846412653195
 20
79.399625879427489
 30
0.0
 11
95.518046412653177
 21
79.382025879427488
 31
0.0
  0
LINE
  5
242
  8
0
 39
5.0
 10
95.518046412653177
 20
79.382025879427488
 30
0.0
 11
95.61774641265319
 21
79.353725879427486
 31
0.0
  0
LINE
  5
243
  8
0
 39
5.0
 10
95.61774641265319
 20
79.353725879427486
 30
0.0
 11
95.714146412653179
 21
79.316025879427485
 31
0.0
  0
LINE
  5
244
  8
0
 39
5.0
 10
95.714146412653179
 20
79.316025879427485
 30
0.0
 11
95.806846412653186
 21
79.269525879427491
 31
0.0
  0
LINE
  5
245
  8
0
 39
5.0
 10
95.806846412653186
 20
79.269525879427491
 30
0.0
 11
95.894946412653184
 21
79.215525879427474
 31
0.0
  0
LINE
  5
246
  8
0
 39
5.0
 10
95.894946412653184
 20
79.215525879427474
 30
0.0
 11
95.977846412653179
 21
79.154625879427499
 31
0.0
  0
LINE
  5
247
  8
0
 39
5.0
 10
95.977846412653179
 20
79.154625879427499
 30
0.0
 11
96.054646412653184
 21
79.088225879427483
 31
0.0
  0
LINE
  5
248
  8
0
 39
5.0
 10
96.054646412653184
 20
79.088225879427483
 30
0.0
 11
96.125146412653194
 21
79.0168258794275
 31
0.0
  0
LINE
  5
249
  8
0
 39
5.0
 10
96.125146412653194
 20
79.0168258794275
 30
0.0
 11
96.188346412653175
 21
78.941825879427483
 31
0.0
  0
LINE
  5
24A
  8
0
 39
5.0
 10
96.188346412653175
 20
78.941825879427483
 30
0.0
 11
96.243746412653195
 21
78.863825879427495
 31
0.0
  0
LINE
  5
24B
  8
0
 39
5.0
 10
96.243746412653195
 20
78.863825879427495
 30
0.0
 11
96.290446412653182
 21
78.784225879427481
 31
0.0
  0
LINE
  5
24C
  8
0
 39
5.0
 10
96.290446412653182
 20
78.784225879427481
 30
0.0
 11
96.32804641265318
 21
78.703425879427499
 31
0.0
  0
LINE
  5
24D
  8
0
 39
5.0
 10
96.32804641265318
 20
78.703425879427499
 30
0.0
 11
96.355646412653186
 21
78.622925879427498
 31
0.0
  0
LINE
  5
24E
  8
0
 39
5.0
 10
96.355646412653186
 20
78.622925879427498
 30
0.0
 11
96.372746412653186
 21
78.543425879427488
 31
0.0
  0
LINE
  5
24F
  8
0
 39
5.0
 10
96.372746412653186
 20
78.543425879427488
 30
0.0
 11
96.378446412653176
 21
78.466025879427491
 31
0.0
  0
LINE
  5
250
  8
0
 39
5.0
 10
96.378446412653176
 20
78.466025879427491
 30
0.0
 11
96.378446412653176
 21
66.394425879427473
 31
0.0
  0
LINE
  5
251
  8
0
 39
5.0
 10
96.378446412653176
 20
66.394425879427473
 30
0.0
 11
96.378446412653176
 21
66.394425879427473
 31
0.0
  0
LINE
  5
252
  8
0
 39
5.0
 10
96.378446412653176
 20
66.394425879427473
 30
0.0
 11
96.374146412653175
 21
66.383225879427499
 31
0.0
  0
LINE
  5
253
  8
0
 39
5.0
 10
96.374146412653175
 20
66.383225879427499
 30
0.0
 11
96.360846412653203
 21
66.35182587942748
 31
0.0
  0
LINE
  5
254
  8
0
 39
5.0
 10
96.360846412653203
 20
66.35182587942748
 30
0.0
 11
96.338846412653183
 21
66.303125879427483
 31
0.0
  0
LINE
  5
255
  8
0
 39
5.0
 10
96.338846412653183
 20
66.303125879427483
 30
0.0
 11
96.308246412653176
 21
66.240325879427473
 31
0.0
  0
LINE
  5
256
  8
0
 39
5.0
 10
96.308246412653176
 20
66.240325879427473
 30
0.0
 11
96.269246412653175
 21
66.16602587942748
 31
0.0
  0
LINE
  5
257
  8
0
 39
5.0
 10
96.269246412653175
 20
66.16602587942748
 30
0.0
 11
96.221846412653179
 21
66.083525879427498
 31
0.0
  0
LINE
  5
258
  8
0
 39
5.0
 10
96.221846412653179
 20
66.083525879427498
 30
0.0
 11
96.16624641265318
 21
65.995525879427476
 31
0.0
  0
LINE
  5
259
  8
0
 39
5.0
 10
96.16624641265318
 20
65.995525879427476
 30
0.0
 11
96.102246412653173
 21
65.905425879427483
 31
0.0
  0
LINE
  5
25A
  8
0
 39
5.0
 10
96.102246412653173
 20
65.905425879427483
 30
0.0
 11
96.030446412653205
 21
65.815625879427472
 31
0.0
  0
LINE
  5
25B
  8
0
 39
5.0
 10
96.030446412653205
 20
65.815625879427472
 30
0.0
 11
95.950646412653185
 21
65.729425879427481
 31
0.0
  0
LINE
  5
25C
  8
0
 39
5.0
 10
95.950646412653185
 20
65.729425879427481
 30
0.0
 11
95.863146412653165
 21
65.649825879427482
 31
0.0
  0
LINE
  5
25D
  8
0
 39
5.0
 10
95.863146412653165
 20
65.649825879427482
 30
0.0
 11
95.767746412653182
 21
65.579925879427492
 31
0.0
  0
LINE
  5
25E
  8
0
 39
5.0
 10
95.767746412653182
 20
65.579925879427492
 30
0.0
 11
95.664946412653194
 21
65.522225879427481
 31
0.0
  0
LINE
  5
25F
  8
0
 39
5.0
 10
95.664946412653194
 20
65.522225879427481
 30
0.0
 11
95.554546412653195
 21
65.480325879427483
 31
0.0
  0
LINE
  5
260
  8
0
 39
5.0
 10
95.554546412653195
 20
65.480325879427483
 30
0.0
 11
95.184246834594006
 21
65.405825879427482
 31
0.0
  0
LINE
  5
26A
  8
1
 10
88.979046412653176
 20
79.705825879427479
 30
0.0
 11
88.979046412653176
 21
57.405825879427503
 31
0.0
  0
LINE
  5
272
  8
0
 10
83.679046412653193
 20
68.405825879427482
 30
0.0
 11
88.979046412653176
 21
68.405825879427482
 31
0.0
  0
LINE
  5
273
  8
0
 10
83.979046412653176
 20
68.405825879427482
 30
0.0
 11
83.979046412653176
 21
79.405825879427482
 31
0.0
  0
LINE
  5
27F
  8
2
 10
83.679046412653193
 20
68.405825879427482
 30
0.0
 11
83.679046412653193
 21
79.405825879427482
 31
0.0
  0
LINE
  5
285
  8
0
 10
95.684246834594006
 20
65.405825879427482
 30
0.0
 11
88.979046412653176
 21
65.405825879427482
 31
0.0
  0
LINE
  5
288
  8
0
 10
86.479046412653176
 20
65.405825879427496
 30
0.0
 11
82.748745990712436
 21
65.405825879427496
 31
0.0
  0
LINE
  5
29D
  8
0
 39
5.0
 10
94.083946412653177
 20
65.493425879427491
 30
0.0
 11
94.435168947864497
 21
65.405825879427482
 31
0.0
  0
LINE
  5
29E
  8
0
 39
5.0
 10
94.002346412653196
 20
65.522625879427494
 30
0.0
 11
94.083946412653177
 21
65.493425879427491
 31
0.0
  0
LINE
  5
29F
  8
0
 39
5.0
 10
93.924346412653165
 20
65.55902587942748
 30
0.0
 11
94.002346412653196
 21
65.522625879427494
 31
0.0
  0
LINE
  5
2A0
  8
0
 39
5.0
 10
93.850946412653158
 20
65.602425879427472
 30
0.0
 11
93.924346412653165
 21
65.55902587942748
 31
0.0
  0
LINE
  5
2A1
  8
0
 39
5.0
 10
93.782246412653166
 20
65.652225879427476
 30
0.0
 11
93.850946412653158
 21
65.602425879427472
 31
0.0
  0
LINE
  5
2A2
  8
0
 39
5.0
 10
93.719046412653185
 20
65.708225879427488
 30
0.0
 11
93.782246412653166
 21
65.652225879427476
 31
0.0
  0
LINE
  5
2A3
  8
0
 39
5.0
 10
93.661346412653174
 20
65.769525879427476
 30
0.0
 11
93.719046412653185
 21
65.708225879427488
 31
0.0
  0
LINE
  5
2A4
  8
0
 39
5.0
 10
93.61004641265319
 20
65.836125879427485
 30
0.0
 11
93.661346412653174
 21
65.769525879427476
 31
0.0
  0
LINE
  5
2A5
  8
0
 39
5.0
 10
93.565146412653178
 20
65.907325879427475
 30
0.0
 11
93.61004641265319
 21
65.836125879427485
 31
0.0
  0
LINE
  5
2A6
  8
0
 39
5.0
 10
93.527646412653183
 20
65.98282587942748
 30
0.0
 11
93.565146412653178
 21
65.907325879427475
 31
0.0
  0
LINE
  5
2A7
  8
0
 39
5.0
 10
93.497546412653179
 20
66.061925879427491
 30
0.0
 11
93.527646412653183
 21
65.98282587942748
 31
0.0
  0
LINE
  5
2A8
  8
0
 39
5.0
 10
93.475546412653173
 20
66.14462587942748
 30
0.0
 11
93.497546412653179
 21
66.061925879427491
 31
0.0
  0
LINE
  5
2A9
  8
0
 39
5.0
 10
93.461946412653177
 20
66.230125879427476
 30
0.0
 11
93.475546412653173
 21
66.14462587942748
 31
0.0
  0
LINE
  5
2AA
  8
0
 39
5.0
 10
93.457446412653184
 20
66.318225879427473
 30
0.0
 11
93.461946412653177
 21
66.230125879427476
 31
0.0
  0
LINE
  5
2AB
  8
0
 39
5.0
 10
93.457446412653184
 20
66.318225879427473
 30
0.0
 11
93.457446412653184
 21
66.318225879427473
 31
0.0
  0
LINE
  5
2AC
  8
0
 39
5.0
 10
93.457446412653184
 20
78.542225879427491
 30
0.0
 11
93.457446412653184
 21
66.318225879427473
 31
0.0
  0
LINE
  5
2AD
  8
0
 39
5.0
 10
93.461946412653177
 20
78.630025879427492
 30
0.0
 11
93.457446412653184
 21
78.542225879427491
 31
0.0
  0
LINE
  5
2AE
  8
0
 39
5.0
 10
93.475546412653173
 20
78.715525879427489
 30
0.0
 11
93.461946412653177
 21
78.630025879427492
 31
0.0
  0
LINE
  5
2AF
  8
0
 39
5.0
 10
93.497546412653179
 20
78.798125879427474
 30
0.0
 11
93.475546412653173
 21
78.715525879427489
 31
0.0
  0
LINE
  5
2B0
  8
0
 39
5.0
 10
93.527646412653183
 20
78.877425879427491
 30
0.0
 11
93.497546412653179
 21
78.798125879427474
 31
0.0
  0
LINE
  5
2B1
  8
0
 39
5.0
 10
93.565146412653178
 20
78.952725879427476
 30
0.0
 11
93.527646412653183
 21
78.877425879427491
 31
0.0
  0
LINE
  5
2B2
  8
0
 39
5.0
 10
93.61004641265319
 20
79.024025879427484
 30
0.0
 11
93.565146412653178
 21
78.952725879427476
 31
0.0
  0
LINE
  5
2B3
  8
0
 39
5.0
 10
93.661346412653174
 20
79.090525879427489
 30
0.0
 11
93.61004641265319
 21
79.024025879427484
 31
0.0
  0
LINE
  5
2B4
  8
0
 39
5.0
 10
93.719046412653185
 20
79.152125879427501
 30
0.0
 11
93.661346412653174
 21
79.090525879427489
 31
0.0
  0
LINE
  5
2B5
  8
0
 39
5.0
 10
93.782246412653166
 20
79.207825879427489
 30
0.0
 11
93.719046412653185
 21
79.152125879427501
 31
0.0
  0
LINE
  5
2B6
  8
0
 39
5.0
 10
93.850946412653158
 20
79.257725879427483
 30
0.0
 11
93.782246412653166
 21
79.207825879427489
 31
0.0
  0
LINE
  5
2B7
  8
0
 39
5.0
 10
93.924346412653165
 20
79.301025879427499
 30
0.0
 11
93.850946412653158
 21
79.257725879427483
 31
0.0
  0
LINE
  5
2B8
  8
0
 39
5.0
 10
94.002346412653196
 20
79.337625879427492
 30
0.0
 11
93.924346412653165
 21
79.301025879427499
 31
0.0
  0
LINE
  5
2B9
  8
0
 39
5.0
 10
94.083946412653177
 20
79.366625879427474
 30
0.0
 11
94.002346412653196
 21
79.337625879427492
 31
0.0
  0
LINE
  5
2BA
  8
0
 39
5.0
 10
94.169346412653184
 20
79.388125879427491
 30
0.0
 11
94.083946412653177
 21
79.366625879427474
 31
0.0
  0
LINE
  5
2BB
  8
0
 39
5.0
 10
94.257546412653184
 20
79.4012258794275
 30
0.0
 11
94.169346412653184
 21
79.388125879427491
 31
0.0
  0
LINE
  5
2BC
  8
0
 39
5.0
 10
94.348446412653175
 20
79.405825879427482
 30
0.0
 11
94.257546412653184
 21
79.4012258794275
 31
0.0
  0
LINE
  5
2BD
  8
0
 39
5.0
 10
94.348446412653175
 20
79.405825879427482
 30
0.0
 11
94.348446412653175
 21
79.405825879427482
 31
0.0
  0
LINE
  5
2CE
  8
3
 10
94.279046412653187
 20
68.405825879427482
 30
0.0
 11
88.979046412653176
 21
68.405825879427482
 31
0.0
  0
LINE
  5
2D4
  8
3
 10
89.979046412653204
 20
65.405825879427482
 30
0.0
 11
88.979046412653176
 21
65.405825879427482
 31
0.0
  0
DIMENSION
  5
2DE
  8
2
  2
*D1
 10
109.3327503640771
 20
68.405825879427468
 30
0.0
 11
107.4577503640771
 21
73.905825879427496
 31
0.0
 70
     0
 13
95.811646412653175
 23
79.405825879427482
 33
0.0
 14
94.279046412653187
 24
68.405825879427482
 34
0.0
 50
90.0
  0
DIMENSION
  5
2F5
  8
2
  2
*D2
 10
113.88467131988919
 20
65.405825879427468
 30
0.0
 11
112.00967131988919
 21
72.405825879427496
 31
0.0
 70
     0
 13
109.3327503640771
 23
79.405825879427454
 33
0.0
 14
92.979723877441856
 24
65.405825879427482
 34
0.0
 50
90.0
  0
TEXT
  5
388
  8
3
 10
65.623051582948563
 20
84.011526424223987
 30
0.0
 40
2.5
  1
G1/8
  0
TEXT
  5
389
  8
3
 10
65.527105349372334
 20
79.840751579537354
 30
0.0
 40
2.5
  1
H13
  0
LINE
  5
3FF
  8
0
 10
87.479046412653204
 20
66.655825879427482
 30
0.0
 11
87.479046412653204
 21
59.405825879427489
 31
0.0
  0
LINE
  5
400
  8
3
 10
90.47904641265319
 20
66.655825879427482
 30
0.0
 11
90.47904641265319
 21
59.405825879427489
 31
0.0
  0
LINE
  5
409
  8
0
 10
86.479046412653219
 20
59.405825879427489
 30
0.0
 11
88.979046412653176
 21
59.405825879427482
 31
0.0
  0
DIMENSION
  5
41A
  8
2
  2
*D3
 10
119.1072250946431
 20
59.405825879427489
 30
0.0
 11
117.2322250946431
 21
69.405825879427496
 31
0.0
 70
     0
 13
113.88467131988919
 23
79.405825879427454
 33
0.0
 14
91.72904641265319
 24
59.405825879427489
 34
0.0
 50
90.0
  0
LINE
  5
526
  8
0
 10
86.479046412653176
 20
59.405825879427489
 30
0.0
 11
88.979046412653176
 21
59.405825879427489
 31
0.0
  0
LINE
  5
55E
  8
0
 10
84.47904641265319
 20
60.905825879427489
 30
0.0
 11
86.479046412653176
 21
60.905825879427489
 31
0.0
  0
LINE
  5
566
  8
0
 10
86.479046412653176
 20
59.405825879427489
 30
0.0
 11
84.47904641265319
 21
59.905825879427503
 31
0.0
  0
LINE
  5
567
  8
0
 10
84.47904641265319
 20
60.905825879427489
 30
0.0
 11
84.47904641265319
 21
59.905825879427503
 31
0.0
  0
LINE
  5
569
  8
0
 10
86.479046412653176
 20
65.405825879427496
 30
0.0
 11
86.479046412653176
 21
60.905825879427489
 31
0.0
  0
LINE
  5
588
  8
0
 10
91.479046412653176
 20
65.405825879427496
 30
0.0
 11
95.709346834594015
 21
65.405825879427482
 31
0.0
  0
LINE
  5
589
  8
0
 10
91.479046412653176
 20
65.405825879427496
 30
0.0
 11
91.479046412653176
 21
60.905825879427489
 31
0.0
  0
LINE
  5
58A
  8
0
 10
93.47904641265319
 20
60.905825879427489
 30
0.0
 11
91.479046412653176
 21
60.905825879427489
 31
0.0
  0
LINE
  5
58B
  8
0
 10
93.47904641265319
 20
60.905825879427489
 30
0.0
 11
93.47904641265319
 21
59.905825879427503
 31
0.0
  0
LINE
  5
58C
  8
0
 10
91.479046412653176
 20
59.405825879427489
 30
0.0
 11
93.47904641265319
 21
59.905825879427503
 31
0.0
  0
LINE
  5
58D
  8
0
 10
91.479046412653176
 20
59.405825879427489
 30
0.0
 11
88.979046412653176
 21
59.405825879427489
 31
0.0
  0
LINE
  5
59D
  8
3
 10
93.979046412653176
 20
68.405825879427482
 30
0.0
 11
93.979046412653176
 21
79.405825879427482
 31
0.0
  0
LINE
  5
59E
  8
3
 10
94.279046412653187
 20
68.405825879427482
 30
0.0
 11
94.279046412653187
 21
79.405825879427482
 31
0.0
  0
DIMENSION
  5
5A1
  8
2
  2
*D4
 10
72.667737709128687
 20
60.905825879427503
 30
0.0
 11
70.792737709128673
 21
68.614159212760853
 31
0.0
 70
     0
 13
86.479046412653176
 23
59.405825879427489
 33
0.0
 14
84.47904641265319
 24
60.905825879427489
 34
0.0
 50
90.0
  0
POLYLINE
  8
2
  5
694
  66
     1
 10
0.000000
 20
0.000000
 30
0.000000
  70
     8
  0
VERTEX
  8
2
  5
695
 10
83.6790
 20
73.9058
 30
0.000000
  70
    32
  0
VERTEX
  8
2
  5
696
 10
74.7551
 20
83.4212
 30
0.000000
  70
    32
  0
VERTEX
  8
2
  5
697
 10
65.3620
 20
83.4212
 30
0.000000
  70
    32
  0
SEQEND
  8
2
  5
698
  0
POLYLINE
  8
2
  5
699
  66
     1
 10
0.000000
 20
0.000000
 30
0.000000
  70
     8
  0
VERTEX
  8
2
  5
69A
 10
81.5542
 20
72.4302
 30
0.000000
  70
    32
  0
VERTEX
  8
2
  5
69B
 10
71.8850
 20
79.2529
 30
0.000000
  70
    32
  0
VERTEX
  8
2
  5
69C
 10
64.9707
 20
79.2529
 30
0.000000
  70
    32
  0
SEQEND
  8
2
  5
69D
  0
LINE
  5
5C3
  8
2
 10
87.479046412653204
 20
66.655825879427482
 30
0.0
 11
83.979046412653176
 21
68.405825879427482
 31
0.0
  0
LINE
  5
5C4
  8
3
 10
90.47904641265319
 20
66.655825879427482
 30
0.0
 11
93.979046412653176
 21
68.405825879427482
 31
0.0
  0
LINE
  5
5C5
  8
2
 10
87.479046412653204
 20
66.655825879427482
 30
0.0
 11
88.979046412653176
 21
66.655825879427482
 31
0.0
  0
LINE
  5
5C9
  8
3
 10
90.47904641265319
 20
66.655825879427482
 30
0.0
 11
88.979046412653176
 21
66.655825879427482
 31
0.0
  0
DIMENSION
  5
5CD
  8
2
  2
*D5
 10
90.47904641265319
 20
51.156813209080703
 30
0.0
 11
98.187379745986519
 21
53.031813209080703
 31
0.0
 70
     0
  1
%%c<>
 13
87.479046412653204
 23
59.405825879427489
 33
0.0
 14
90.47904641265319
 24
59.405825879427489
 34
0.0
  0
DIMENSION
  5
5DC
  8
2
  2
*D6
 10
91.479046412653176
 20
45.80931204261401
 30
0.0
 11
99.187379745986519
 21
47.68431204261401
 31
0.0
 70
     0
  1
%%c<>
 13
86.479046412653176
 23
60.905825879427489
 33
0.0
 14
91.479046412653176
 24
60.905825879427489
 34
0.0
  0
DIMENSION
  5
5EB
  8
2
  2
*D7
 10
93.47904641265319
 20
40.471615959121571
 30
0.0
 11
88.979046412653176
 21
42.346615959121571
 31
0.0
 70
     0
  1
%%c<>
 13
84.47904641265319
 23
59.905825879427503
 33
0.0
 14
93.47904641265319
 24
59.905825879427503
 34
0.0
  0
ENDSEC
  0
EOF
