  0
SECTION
  2
HEADER
  9
$ACADVER
  1
AC1009
  9
$INSBASE
 10
0.0
 20
0.0
 30
0.0
  9
$EXTMIN
 10
33.885833358174118
 20
40.715193753301783
 30
0.0
  9
$EXTMAX
 10
81.357246827254514
 20
88.712461494495045
 30
5.0
  9
$LIMMIN
 10
0.0
 20
0.0
  9
$LIMMAX
 10
420.0
 20
297.0
  9
$ORTHOMODE
 70
     0
  9
$REGENMODE
 70
     1
  9
$FILLMODE
 70
     1
  9
$QTEXTMODE
 70
     0
  9
$MIRRTEXT
 70
     1
  9
$DRAGMODE
 70
     2
  9
$LTSCALE
 40
0.3
  9
$OSMODE
 70
    37
  9
$ATTMODE
 70
     1
  9
$TEXTSIZE
 40
2.5
  9
$TRACEWID
 40
1.0
  9
$TEXTSTYLE
  7
STANDARD
  9
$CLAYER
  8
2
  9
$CELTYPE
  6
BYLAYER
  9
$CECOLOR
 62
   256
  9
$DIMSCALE
 40
1.0
  9
$DIMASZ
 40
2.5
  9
$DIMEXO
 40
0.625
  9
$DIMDLI
 40
3.75
  9
$DIMRND
 40
0.0
  9
$DIMDLE
 40
0.0
  9
$DIMEXE
 40
1.25
  9
$DIMTP
 40
0.0
  9
$DIMTM
 40
0.0
  9
$DIMTXT
 40
2.5
  9
$DIMCEN
 40
2.5
  9
$DIMTSZ
 40
0.0
  9
$DIMTOL
 70
     0
  9
$DIMLIM
 70
     0
  9
$DIMTIH
 70
     0
  9
$DIMTOH
 70
     0
  9
$DIMSE1
 70
     0
  9
$DIMSE2
 70
     0
  9
$DIMTAD
 70
     1
  9
$DIMZIN
 70
     8
  9
$DIMBLK
  1

  9
$DIMASO
 70
     1
  9
$DIMSHO
 70
     1
  9
$DIMPOST
  1

  9
$DIMAPOST
  1

  9
$DIMALT
 70
     0
  9
$DIMALTD
 70
     3
  9
$DIMALTF
 40
0.03937007874016
  9
$DIMLFAC
 40
1.0
  9
$DIMTOFL
 70
     1
  9
$DIMTVP
 40
0.0
  9
$DIMTIX
 70
     0
  9
$DIMSOXD
 70
     0
  9
$DIMSAH
 70
     0
  9
$DIMBLK1
  1

  9
$DIMBLK2
  1

  9
$DIMSTYLE
  2
ISO-25
  9
$DIMCLRD
 70
     0
  9
$DIMCLRE
 70
     0
  9
$DIMCLRT
 70
     0
  9
$DIMTFAC
 40
1.0
  9
$DIMGAP
 40
0.625
  9
$LUNITS
 70
     2
  9
$LUPREC
 70
     4
  9
$SKETCHINC
 40
1.0
  9
$FILLETRAD
 40
10.0
  9
$AUNITS
 70
     0
  9
$AUPREC
 70
     0
  9
$MENU
  1
.
  9
$ELEVATION
 40
0.0
  9
$PELEVATION
 40
0.0
  9
$THICKNESS
 40
0.0
  9
$LIMCHECK
 70
     0
  9
$BLIPMODE
 70
     0
  9
$CHAMFERA
 40
10.0
  9
$CHAMFERB
 40
10.0
  9
$SKPOLY
 70
     0
  9
$TDCREATE
 40
2453447.3925616429
  9
$TDUPDATE
 40
2453551.9225689229
  9
$TDINDWG
 40
0.0180717014
  9
$TDUSRTIMER
 40
0.0180715856
  9
$USRTIMER
 70
     1
  9
$ANGBASE
 50
0.0
  9
$ANGDIR
 70
     0
  9
$PDMODE
 70
     0
  9
$PDSIZE
 40
0.0
  9
$PLINEWID
 40
0.0
  9
$COORDS
 70
     1
  9
$SPLFRAME
 70
     0
  9
$SPLINETYPE
 70
     6
  9
$SPLINESEGS
 70
     8
  9
$ATTDIA
 70
     0
  9
$ATTREQ
 70
     1
  9
$HANDLING
 70
-16383
  9
$HANDSEED
  5
3DF
  9
$SURFTAB1
 70
     6
  9
$SURFTAB2
 70
     6
  9
$SURFTYPE
 70
     6
  9
$SURFU
 70
     6
  9
$SURFV
 70
     6
  9
$UCSNAME
  2

  9
$UCSORG
 10
0.0
 20
0.0
 30
0.0
  9
$UCSXDIR
 10
1.0
 20
0.0
 30
0.0
  9
$UCSYDIR
 10
0.0
 20
1.0
 30
0.0
  9
$PUCSNAME
  2

  9
$PUCSORG
 10
0.0
 20
0.0
 30
0.0
  9
$PUCSXDIR
 10
1.0
 20
0.0
 30
0.0
  9
$PUCSYDIR
 10
0.0
 20
1.0
 30
0.0
  9
$USERI1
 70
     0
  9
$USERI2
 70
     0
  9
$USERI3
 70
     0
  9
$USERI4
 70
     0
  9
$USERI5
 70
     0
  9
$USERR1
 40
0.0
  9
$USERR2
 40
0.0
  9
$USERR3
 40
0.0
  9
$USERR4
 40
0.0
  9
$USERR5
 40
0.0
  9
$WORLDVIEW
 70
     1
  9
$SHADEDGE
 70
     3
  9
$SHADEDIF
 70
    70
  9
$TILEMODE
 70
     1
  9
$MAXACTVP
 70
    64
  9
$PLIMCHECK
 70
     0
  9
$PEXTMIN
 10
1.0000000000000000E+020
 20
1.0000000000000000E+020
 30
1.0000000000000000E+020
  9
$PEXTMAX
 10
-1.0000000000000000E+020
 20
-1.0000000000000000E+020
 30
-1.0000000000000000E+020
  9
$PLIMMIN
 10
0.0
 20
0.0
  9
$PLIMMAX
 10
420.0
 20
297.0
  9
$UNITMODE
 70
     0
  9
$VISRETAIN
 70
     1
  9
$PLINEGEN
 70
     0
  9
$PSLTSCALE
 70
     1
  0
ENDSEC
  0
SECTION
  2
TABLES
  0
TABLE
  2
VPORT
 70
     2
  0
VPORT
  2
*ACTIVE
 70
     0
 10
0.0
 20
0.0
 11
1.0
 21
1.0
 12
56.809858883142581
 22
62.711142724930937
 13
0.0
 23
0.0
 14
10.0
 24
10.0
 15
10.0
 25
10.0
 16
0.0
 26
0.0
 36
1.0
 17
0.0
 27
0.0
 37
0.0
 40
56.76237579273252
 41
2.5392405063291141
 42
50.0
 43
0.0
 44
0.0
 50
0.0
 51
0.0
 71
     0
 72
   100
 73
     1
 74
     3
 75
     0
 76
     0
 77
     0
 78
     0
  0
ENDTAB
  0
TABLE
  2
LTYPE
 70
     3
  0
LTYPE
  2
CONTINUOUS
 70
     0
  3
Solid line
 72
    65
 73
     0
 40
0.0
  0
LTYPE
  2
CENTER
 70
     0
  3
Center ____ _ ____ _ ____ _ ____ _ ____ _ ____
 72
    65
 73
     4
 40
50.799999999999997
 49
31.75
 49
-6.3499999999999988
 49
6.3499999999999988
 49
-6.3499999999999988
  0
LTYPE
  2
DASHED2
 70
     0
  3
Dashed (.5x) _ _ _ _ _ _ _ _ _ _ _ _ _ _ _ _ _
 72
    65
 73
     2
 40
9.5249999999999986
 49
6.3499999999999988
 49
-3.1749999999999989
  0
ENDTAB
  0
TABLE
  2
LAYER
 70
     5
  0
LAYER
  2
0
 70
     0
 62
     7
  6
CONTINUOUS
  0
LAYER
  2
1
 70
     0
 62
     7
  6
CENTER
  0
LAYER
  2
2
 70
     0
 62
     7
  6
CONTINUOUS
  0
LAYER
  2
3
 70
     0
 62
     7
  6
DASHED2
  0
LAYER
  2
DEFPOINTS
 70
     0
 62
     7
  6
CONTINUOUS
  0
ENDTAB
  0
TABLE
  2
STYLE
 70
     3
  0
STYLE
  2
STANDARD
 70
     0
 40
0.0
 41
1.0
 50
0.0
 71
     0
 42
2.5
  3
txt
  4

  0
STYLE
  2
\U+00C9L\U+00C9R_\U+00C2S\U+00C2V\U+00C2B\U+00C2N
 70
     0
 40
1.0
 41
1.0
 50
0.0
 71
     0
 42
1.0
  3
\U+00E9l\U+00E9r \U+00E2S\U+00E2V\U+00E2b\U+00E2N
  4

  0
STYLE
  2

 70
     1
 40
0.0
 41
1.0
 50
0.0
 71
     0
 42
2.5
  3
ltypeshp.shx
  4

  0
ENDTAB
  0
TABLE
  2
VIEW
 70
     0
  0
ENDTAB
  0
TABLE
  2
UCS
 70
     0
  0
ENDTAB
  0
TABLE
  2
APPID
 70
     1
  0
APPID
  2
ACAD
 70
     0
  0
ENDTAB
  0
TABLE
  2
DIMSTYLE
 70
     2
  0
DIMSTYLE
  2
ISO-25
 70
     0
  3

  4

  5

  6

  7

 40
1.0
 41
2.5
 42
0.625
 43
3.75
 44
1.25
 45
0.0
 46
0.0
 47
0.0
 48
0.0
140
2.5
141
2.5
142
0.0
143
0.03937007874016
144
1.0
145
0.0
146
1.0
147
0.625
 71
     0
 72
     0
 73
     0
 74
     0
 75
     0
 76
     0
 77
     1
 78
     8
170
     0
171
     3
172
     1
173
     0
174
     0
175
     0
176
     0
177
     0
178
     0
  0
DIMSTYLE
  2
STANDARD
 70
     0
  3

  4

  5

  6

  7

 40
1.0
 41
0.18
 42
0.0625
 43
0.38
 44
0.18
 45
0.0
 46
0.0
 47
0.0
 48
0.0
140
0.18
141
0.09
142
0.0
143
25.399999999999999
144
1.0
145
0.0
146
1.0
147
0.09
 71
     0
 72
     0
 73
     1
 74
     1
 75
     0
 76
     0
 77
     0
 78
     0
170
     0
171
     2
172
     0
173
     0
174
     0
175
     0
176
     0
177
     0
178
     0
  0
ENDTAB
  0
ENDSEC
  0
SECTION
  2
BLOCKS
  0
BLOCK
  8
0
  2
$MODEL_SPACE
 70
     0
 10
0.0
 20
0.0
 30
0.0
  3
$MODEL_SPACE
  1

  0
ENDBLK
  5
21
  8
0
  0
BLOCK
 67
     1
  8
0
  2
$PAPER_SPACE
 70
     0
 10
0.0
 20
0.0
 30
0.0
  3
$PAPER_SPACE
  1

  0
ENDBLK
  5
1D
 67
     1
  8
0
  0
BLOCK
  8
0
  2
*D1
 70
     1
 10
0.0
 20
0.0
 30
0.0
  3
*D1
  1

  0
LINE
  5
38D
  8
2
 62
     0
 10
51.464404794353527
 20
78.524251111240531
 30
0.0
 11
51.464404794353527
 21
86.837461494495045
 31
0.0
  0
LINE
  5
38E
  8
2
 62
     0
 10
54.464404794353527
 20
78.524251111240531
 30
0.0
 11
54.464404794353527
 21
86.837461494495045
 31
0.0
  0
LINE
  5
38F
  8
2
 62
     0
 10
48.964404794353527
 20
85.587461494495045
 30
0.0
 11
46.464404794353527
 21
85.587461494495045
 31
0.0
  0
LINE
  5
390
  8
2
 62
     0
 10
56.964404794353527
 20
85.587461494495045
 30
0.0
 11
64.881071461020198
 21
85.587461494495045
 31
0.0
  0
LINE
  5
391
  8
2
 62
     0
 10
51.464404794353527
 20
85.587461494495045
 30
0.0
 11
54.464404794353527
 21
85.587461494495045
 31
0.0
  0
SOLID
  5
392
  8
2
 62
     0
 10
48.964404794353527
 20
86.004128161161717
 30
0.0
 11
48.964404794353527
 21
85.170794827828374
 31
0.0
 12
51.464404794353527
 22
85.587461494495045
 32
0.0
 13
51.464404794353527
 23
85.587461494495045
 33
0.0
  0
SOLID
  5
393
  8
2
 62
     0
 10
56.964404794353527
 20
86.004128161161717
 30
0.0
 11
56.964404794353527
 21
85.170794827828374
 31
0.0
 12
54.464404794353527
 22
85.587461494495045
 32
0.0
 13
54.464404794353527
 23
85.587461494495045
 33
0.0
  0
INSERT
  5
394
  8
2
  2
*U8
 10
0.0
 20
0.0
 30
0.0
  0
POINT
  5
395
  8
DEFPOINTS
 62
     0
 10
51.464404794353527
 20
77.899251111240531
 30
0.0
  0
POINT
  5
396
  8
DEFPOINTS
 62
     0
 10
54.464404794353527
 20
77.899251111240531
 30
0.0
  0
POINT
  5
397
  8
DEFPOINTS
 62
     0
 10
54.464404794353527
 20
85.587461494495045
 30
0.0
  0
ENDBLK
  5
335
  8
0
  0
BLOCK
  8
0
  2
*D2
 70
     1
 10
0.0
 20
0.0
 30
0.0
  3
*D2
  1

  0
LINE
  5
338
  8
2
 62
     0
 10
55.92520479435354
 20
77.899251111240531
 30
0.0
 11
70.504899314070229
 21
77.899251111240531
 31
0.0
  0
LINE
  5
339
  8
2
 62
     0
 10
60.208938127687063
 20
71.899251111240531
 30
0.0
 11
70.504899314070229
 21
71.899251111240531
 31
0.0
  0
LINE
  5
33A
  8
2
 62
     0
 10
69.254899314070229
 20
80.399251111240545
 30
0.0
 11
69.254899314070229
 21
82.899251111240545
 31
0.0
  0
LINE
  5
33B
  8
2
 62
     0
 10
69.254899314070229
 20
69.399251111240531
 30
0.0
 11
69.254899314070229
 21
66.899251111240531
 31
0.0
  0
LINE
  5
33C
  8
2
 62
     0
 10
69.254899314070229
 20
77.899251111240531
 30
0.0
 11
69.254899314070229
 21
71.899251111240531
 31
0.0
  0
SOLID
  5
33D
  8
2
 62
     0
 10
68.838232647403558
 20
80.399251111240545
 30
0.0
 11
69.671565980736901
 21
80.399251111240545
 31
0.0
 12
69.254899314070229
 22
77.899251111240531
 32
0.0
 13
69.254899314070229
 23
77.899251111240531
 33
0.0
  0
SOLID
  5
33E
  8
2
 62
     0
 10
68.838232647403558
 20
69.399251111240531
 30
0.0
 11
69.671565980736901
 21
69.399251111240531
 31
0.0
 12
69.254899314070229
 22
71.899251111240531
 32
0.0
 13
69.254899314070229
 23
71.899251111240531
 33
0.0
  0
TEXT
  5
33F
  8
2
 62
     0
 10
68.629899314070215
 20
74.065917777907217
 30
0.0
 40
2.5
  1
6
 50
90.0
  0
POINT
  5
340
  8
DEFPOINTS
 62
     0
 10
55.30020479435354
 20
77.899251111240531
 30
0.0
  0
POINT
  5
341
  8
DEFPOINTS
 62
     0
 10
59.583938127687063
 20
71.899251111240531
 30
0.0
  0
POINT
  5
342
  8
DEFPOINTS
 62
     0
 10
69.254899314070229
 20
71.899251111240531
 30
0.0
  0
ENDBLK
  5
344
  8
0
  0
BLOCK
  8
0
  2
*D3
 70
     1
 10
0.0
 20
0.0
 30
0.0
  3
*D3
  1

  0
LINE
  5
347
  8
2
 62
     0
 10
69.879899314070229
 20
77.899251111240531
 30
0.0
 11
75.960356874377254
 21
77.899251111240531
 31
0.0
  0
LINE
  5
348
  8
2
 62
     0
 10
60.446978580761311
 20
67.399251111240531
 30
0.0
 11
75.960356874377254
 21
67.399251111240531
 31
0.0
  0
LINE
  5
349
  8
2
 62
     0
 10
74.710356874377254
 20
75.399251111240531
 30
0.0
 11
74.710356874377254
 21
69.899251111240531
 31
0.0
  0
SOLID
  5
34A
  8
2
 62
     0
 10
74.293690207710583
 20
75.399251111240531
 30
0.0
 11
75.127023541043926
 21
75.399251111240531
 31
0.0
 12
74.710356874377254
 22
77.899251111240531
 32
0.0
 13
74.710356874377254
 23
77.899251111240531
 33
0.0
  0
SOLID
  5
34B
  8
2
 62
     0
 10
74.293690207710583
 20
69.899251111240531
 30
0.0
 11
75.127023541043926
 21
69.899251111240531
 31
0.0
 12
74.710356874377254
 22
67.399251111240531
 32
0.0
 13
74.710356874377254
 23
67.399251111240531
 33
0.0
  0
TEXT
  5
34C
  8
2
 62
     0
 10
74.08535687437724
 20
69.524251111240545
 30
0.0
 40
2.5
  1
10.5
 50
90.0
  0
POINT
  5
34D
  8
DEFPOINTS
 62
     0
 10
69.254899314070229
 20
77.899251111240531
 30
0.0
  0
POINT
  5
34E
  8
DEFPOINTS
 62
     0
 10
59.821978580761311
 20
67.399251111240531
 30
0.0
  0
POINT
  5
34F
  8
DEFPOINTS
 62
     0
 10
74.710356874377254
 20
67.399251111240531
 30
0.0
  0
ENDBLK
  5
351
  8
0
  0
BLOCK
  8
0
  2
*D4
 70
     1
 10
0.0
 20
0.0
 30
0.0
  3
*D4
  1

  0
LINE
  5
354
  8
2
 62
     0
 10
75.335356874377254
 20
77.899251111240531
 30
0.0
 11
81.357246827254514
 21
77.899251111240531
 31
0.0
  0
LINE
  5
355
  8
2
 62
     0
 10
56.589404794353527
 20
60.899251111240531
 30
0.0
 11
81.357246827254514
 21
60.899251111240531
 31
0.0
  0
LINE
  5
356
  8
2
 62
     0
 10
80.107246827254514
 20
75.399251111240531
 30
0.0
 11
80.107246827254514
 21
63.399251111240531
 31
0.0
  0
SOLID
  5
357
  8
2
 62
     0
 10
79.690580160587828
 20
75.399251111240531
 30
0.0
 11
80.523913493921171
 21
75.399251111240531
 31
0.0
 12
80.107246827254514
 22
77.899251111240531
 32
0.0
 13
80.107246827254514
 23
77.899251111240531
 33
0.0
  0
SOLID
  5
358
  8
2
 62
     0
 10
79.690580160587828
 20
63.399251111240531
 30
0.0
 11
80.523913493921171
 21
63.399251111240531
 31
0.0
 12
80.107246827254514
 22
60.899251111240531
 32
0.0
 13
80.107246827254514
 23
60.899251111240531
 33
0.0
  0
TEXT
  5
359
  8
2
 62
     0
 10
79.482246827254485
 20
67.732584444573874
 30
0.0
 40
2.5
  1
17
 50
90.0
  0
POINT
  5
35A
  8
DEFPOINTS
 62
     0
 10
74.710356874377254
 20
77.899251111240531
 30
0.0
  0
POINT
  5
35B
  8
DEFPOINTS
 62
     0
 10
55.964404794353527
 20
60.899251111240531
 30
0.0
  0
POINT
  5
35C
  8
DEFPOINTS
 62
     0
 10
80.107246827254514
 20
60.899251111240531
 30
0.0
  0
ENDBLK
  5
35E
  8
0
  0
BLOCK
  8
0
  2
*D5
 70
     1
 10
0.0
 20
0.0
 30
0.0
  3
*D5
  1

  0
LINE
  5
362
  8
2
 62
     0
 10
49.339404794353527
 20
60.899251111240531
 30
0.0
 11
37.021684931816019
 21
60.899251111240531
 31
0.0
  0
LINE
  5
363
  8
2
 62
     0
 10
49.039404794353537
 20
63.899251111240531
 30
0.0
 11
37.021684931816019
 21
63.899251111240531
 31
0.0
  0
LINE
  5
364
  8
2
 62
     0
 10
38.271684931816019
 20
58.399251111240531
 30
0.0
 11
38.271684931816019
 21
55.899251111240531
 31
0.0
  0
LINE
  5
365
  8
2
 62
     0
 10
38.271684931816019
 20
66.399251111240531
 30
0.0
 11
38.271684931816019
 21
68.899251111240531
 31
0.0
  0
LINE
  5
366
  8
2
 62
     0
 10
38.271684931816019
 20
60.899251111240531
 30
0.0
 11
38.271684931816019
 21
63.899251111240531
 31
0.0
  0
SOLID
  5
367
  8
2
 62
     0
 10
37.855018265149361
 20
58.399251111240531
 30
0.0
 11
38.68835159848269
 21
58.399251111240531
 31
0.0
 12
38.271684931816019
 22
60.899251111240531
 32
0.0
 13
38.271684931816019
 23
60.899251111240531
 33
0.0
  0
SOLID
  5
368
  8
2
 62
     0
 10
37.855018265149361
 20
66.399251111240531
 30
0.0
 11
38.68835159848269
 21
66.399251111240531
 31
0.0
 12
38.271684931816019
 22
63.899251111240531
 32
0.0
 13
38.271684931816019
 23
63.899251111240531
 33
0.0
  0
TEXT
  5
369
  8
2
 62
     0
 10
37.646684931816019
 20
61.56591777790721
 30
0.0
 40
2.5
  1
3
 50
90.0
  0
POINT
  5
36A
  8
DEFPOINTS
 62
     0
 10
49.964404794353527
 20
60.899251111240531
 30
0.0
  0
POINT
  5
36B
  8
DEFPOINTS
 62
     0
 10
49.664404794353537
 20
63.899251111240531
 30
0.0
  0
POINT
  5
36C
  8
DEFPOINTS
 62
     0
 10
38.271684931816019
 20
63.899251111240531
 30
0.0
  0
ENDBLK
  5
36E
  8
0
  0
BLOCK
  8
0
  2
*D6
 70
     1
 10
0.0
 20
0.0
 30
0.0
  3
*D6
  1

  0
LINE
  5
398
  8
2
 62
     0
 10
49.964404794353527
 20
60.274251111240531
 30
0.0
 11
49.964404794353527
 21
50.185378370845172
 31
0.0
  0
LINE
  5
399
  8
2
 62
     0
 10
55.964404794353527
 20
60.274251111240531
 30
0.0
 11
55.964404794353527
 21
50.185378370845172
 31
0.0
  0
LINE
  5
39A
  8
2
 62
     0
 10
47.464404794353527
 20
51.435378370845172
 30
0.0
 11
44.964404794353527
 21
51.435378370845172
 31
0.0
  0
LINE
  5
39B
  8
2
 62
     0
 10
58.464404794353527
 20
51.435378370845172
 30
0.0
 11
60.964404794353527
 21
51.435378370845172
 31
0.0
  0
LINE
  5
39C
  8
2
 62
     0
 10
49.964404794353527
 20
51.435378370845172
 30
0.0
 11
55.964404794353527
 21
51.435378370845172
 31
0.0
  0
SOLID
  5
39D
  8
2
 62
     0
 10
47.464404794353527
 20
51.852045037511829
 30
0.0
 11
47.464404794353527
 21
51.018711704178507
 31
0.0
 12
49.964404794353527
 22
51.435378370845172
 32
0.0
 13
49.964404794353527
 23
51.435378370845172
 33
0.0
  0
SOLID
  5
39E
  8
2
 62
     0
 10
58.464404794353527
 20
51.852045037511829
 30
0.0
 11
58.464404794353527
 21
51.018711704178507
 31
0.0
 12
55.964404794353527
 22
51.435378370845172
 32
0.0
 13
55.964404794353527
 23
51.435378370845172
 33
0.0
  0
INSERT
  5
39F
  8
2
  2
*U9
 10
0.0
 20
0.0
 30
0.0
  0
POINT
  5
3A0
  8
DEFPOINTS
 62
     0
 10
49.964404794353527
 20
60.899251111240531
 30
0.0
  0
POINT
  5
3A1
  8
DEFPOINTS
 62
     0
 10
55.964404794353527
 20
60.899251111240531
 30
0.0
  0
POINT
  5
3A2
  8
DEFPOINTS
 62
     0
 10
55.964404794353527
 20
51.435378370845172
 30
0.0
  0
ENDBLK
  5
37E
  8
0
  0
BLOCK
  8
0
  2
*D7
 70
     1
 10
0.0
 20
0.0
 30
0.0
  3
*D7
  1

  0
LINE
  5
3A3
  8
2
 62
     0
 10
49.664404794353537
 20
63.274251111240531
 30
0.0
 11
49.664404794353537
 21
44.946793221538961
 31
0.0
  0
LINE
  5
3A4
  8
2
 62
     0
 10
56.264404794353531
 20
63.274251111240531
 30
0.0
 11
56.264404794353531
 21
44.946793221538961
 31
0.0
  0
LINE
  5
3A5
  8
2
 62
     0
 10
52.164404794353537
 20
46.196793221538961
 30
0.0
 11
53.764404794353531
 21
46.196793221538961
 31
0.0
  0
LINE
  5
3A6
  8
2
 62
     0
 10
56.264404794353531
 20
46.196793221538961
 30
0.0
 11
67.514404794353524
 21
46.196793221538961
 31
0.0
  0
SOLID
  5
3A7
  8
2
 62
     0
 10
52.164404794353537
 20
46.613459888205632
 30
0.0
 11
52.164404794353537
 21
45.780126554872297
 31
0.0
 12
49.664404794353537
 22
46.196793221538961
 32
0.0
 13
49.664404794353537
 23
46.196793221538961
 33
0.0
  0
SOLID
  5
3A8
  8
2
 62
     0
 10
53.764404794353531
 20
46.613459888205632
 30
0.0
 11
53.764404794353531
 21
45.780126554872297
 31
0.0
 12
56.264404794353531
 22
46.196793221538961
 32
0.0
 13
56.264404794353531
 23
46.196793221538961
 33
0.0
  0
INSERT
  5
3A9
  8
2
  2
*U10
 10
0.0
 20
0.0
 30
0.0
  0
POINT
  5
3AA
  8
DEFPOINTS
 62
     0
 10
49.664404794353537
 20
63.899251111240531
 30
0.0
  0
POINT
  5
3AB
  8
DEFPOINTS
 62
     0
 10
56.264404794353531
 20
63.899251111240531
 30
0.0
  0
POINT
  5
3AC
  8
DEFPOINTS
 62
     0
 10
56.264404794353531
 20
46.196793221538961
 30
0.0
  0
ENDBLK
  5
38B
  8
0
  0
BLOCK
  8
0
  2
*U8
 70
     1
 10
0.0
 20
0.0
 30
0.0
  3
*U8
  1

  0
TEXT
  5
3C7
  8
2
 62
     0
 10
60.089404794353527
 20
86.212461494495045
 30
0.0
 40
2.5
  1
\U+2205
  0
TEXT
  5
3C8
  8
2
 62
     0
 10
62.589404794353527
 20
86.212461494495045
 30
0.0
 40
2.5
  1
3
  0
ENDBLK
  5
3CA
  8
0
  0
BLOCK
  8
0
  2
*U9
 70
     1
 10
0.0
 20
0.0
 30
0.0
  3
*U9
  1

  0
TEXT
  5
3CC
  8
2
 62
     0
 10
50.881071461020198
 20
52.060378370845172
 30
0.0
 40
2.5
  1
\U+2205
  0
TEXT
  5
3CD
  8
2
 62
     0
 10
53.381071461020198
 20
52.060378370845172
 30
0.0
 40
2.5
  1
6
  0
ENDBLK
  5
3CF
  8
0
  0
BLOCK
  8
0
  2
*U10
 70
     1
 10
0.0
 20
0.0
 30
0.0
  3
*U10
  1

  0
TEXT
  5
3D1
  8
2
 62
     0
 10
59.389404794353531
 20
46.821793221538961
 30
0.0
 40
2.5
  1
\U+2205
  0
TEXT
  5
3D2
  8
2
 62
     0
 10
61.889404794353531
 20
46.821793221538961
 30
0.0
 40
2.5
  1
6.6
  0
ENDBLK
  5
3D4
  8
0
  0
ENDSEC
  0
SECTION
  2
ENTITIES
  0
TEXT
  5
122
  8
2
 10
42.266959393220091
 20
40.715193753301783
 30
0.0
 40
2.5400160000000001
  1
No. 270.103
 51
-0.0000015352344868
  7
\U+00C9L\U+00C9R_\U+00C2S\U+00C2V\U+00C2B\U+00C2N
  0
LINE
  5
246
  8
0
 39
5.0
 10
56.485504794353531
 20
71.864551111240544
 30
0.0
 11
56.485504794353531
 21
71.864551111240544
 31
0.0
  0
LINE
  5
247
  8
0
 39
5.0
 10
56.485504794353531
 20
71.864551111240544
 30
0.0
 11
56.567604794353528
 21
71.841751111240541
 31
0.0
  0
LINE
  5
248
  8
0
 39
5.0
 10
56.407362546291559
 20
71.899251111240531
 30
0.0
 11
56.639504794353527
 21
71.815951111240537
 31
0.0
  0
LINE
  5
249
  8
0
 39
5.0
 10
56.639504794353527
 20
71.815951111240537
 30
0.0
 11
56.702104794353538
 21
71.786851111240523
 31
0.0
  0
LINE
  5
24A
  8
0
 39
5.0
 10
56.702104794353538
 20
71.786851111240523
 30
0.0
 11
56.75580479435353
 21
71.754051111240543
 31
0.0
  0
LINE
  5
24B
  8
0
 39
5.0
 10
56.75580479435353
 20
71.754051111240543
 30
0.0
 11
56.801804794353529
 21
71.717451111240536
 31
0.0
  0
LINE
  5
24C
  8
0
 39
5.0
 10
56.801804794353529
 20
71.717451111240536
 30
0.0
 11
56.840304794353528
 21
71.676351111240535
 31
0.0
  0
LINE
  5
24D
  8
0
 39
5.0
 10
56.840304794353528
 20
71.676351111240535
 30
0.0
 11
56.872504794353539
 21
71.630651111240539
 31
0.0
  0
LINE
  5
24E
  8
0
 39
5.0
 10
56.872504794353539
 20
71.630651111240539
 30
0.0
 11
56.898604794353538
 21
71.57975111124054
 31
0.0
  0
LINE
  5
24F
  8
0
 39
5.0
 10
56.898604794353538
 20
71.57975111124054
 30
0.0
 11
56.919904794353542
 21
71.52365111124054
 31
0.0
  0
LINE
  5
250
  8
0
 39
5.0
 10
56.919904794353542
 20
71.52365111124054
 30
0.0
 11
56.936704794353538
 21
71.461651111240542
 31
0.0
  0
LINE
  5
251
  8
0
 39
5.0
 10
56.936704794353538
 20
71.461651111240542
 30
0.0
 11
56.949904794353543
 21
71.393551111240541
 31
0.0
  0
LINE
  5
252
  8
0
 39
5.0
 10
56.949904794353543
 20
71.393551111240541
 30
0.0
 11
56.959904794353527
 21
71.318851111240534
 31
0.0
  0
LINE
  5
253
  8
0
 39
5.0
 10
56.959904794353527
 20
71.318851111240534
 30
0.0
 11
56.968004794353533
 21
71.237451111240532
 31
0.0
  0
LINE
  5
258
  8
0
 39
5.0
 10
56.985504794353538
 20
68.275851111240542
 30
0.0
 11
56.985504794353538
 21
68.275851111240542
 31
0.0
  0
LINE
  5
259
  8
0
 39
5.0
 10
56.968004794353533
 20
68.208939346534635
 30
0.0
 11
56.963404794353529
 21
68.191351111240536
 31
0.0
  0
LINE
  5
25A
  8
0
 39
5.0
 10
56.963404794353529
 20
68.191351111240536
 30
0.0
 11
56.942904794353538
 21
68.112451111240532
 31
0.0
  0
LINE
  5
25B
  8
0
 39
5.0
 10
56.942904794353538
 20
68.112451111240532
 30
0.0
 11
56.923504794353533
 21
68.038951111240536
 31
0.0
  0
LINE
  5
25C
  8
0
 39
5.0
 10
56.923504794353533
 20
68.038951111240536
 30
0.0
 11
56.904204794353539
 21
67.970551111240539
 31
0.0
  0
LINE
  5
25D
  8
0
 39
5.0
 10
56.904204794353539
 20
67.970551111240539
 30
0.0
 11
56.884604794353528
 21
67.907251111240541
 31
0.0
  0
LINE
  5
25E
  8
0
 39
5.0
 10
56.884604794353528
 20
67.907251111240541
 30
0.0
 11
56.863504794353538
 21
67.848451111240536
 31
0.0
  0
LINE
  5
25F
  8
0
 39
5.0
 10
56.863504794353538
 20
67.848451111240536
 30
0.0
 11
56.840504794353528
 21
67.794151111240538
 31
0.0
  0
LINE
  5
260
  8
0
 39
5.0
 10
56.840504794353528
 20
67.794151111240538
 30
0.0
 11
56.814504794353539
 21
67.743751111240542
 31
0.0
  0
LINE
  5
261
  8
0
 39
5.0
 10
56.814504794353539
 20
67.743751111240542
 30
0.0
 11
56.785204794353533
 21
67.697551111240543
 31
0.0
  0
LINE
  5
262
  8
0
 39
5.0
 10
56.785204794353533
 20
67.697551111240543
 30
0.0
 11
56.751404794353533
 21
67.654851111240532
 31
0.0
  0
LINE
  5
263
  8
0
 39
5.0
 10
56.751404794353533
 20
67.654851111240532
 30
0.0
 11
56.712604794353531
 21
67.615651111240538
 31
0.0
  0
LINE
  5
264
  8
0
 39
5.0
 10
56.712604794353531
 20
67.615651111240538
 30
0.0
 11
56.667804794353529
 21
67.579351111240541
 31
0.0
  0
LINE
  5
265
  8
0
 39
5.0
 10
56.667804794353529
 20
67.579351111240541
 30
0.0
 11
56.616504794353538
 21
67.546151111240533
 31
0.0
  0
LINE
  5
266
  8
0
 39
5.0
 10
56.616504794353538
 20
67.546151111240533
 30
0.0
 11
56.55770479435354
 21
67.515451111240537
 31
0.0
  0
LINE
  5
267
  8
0
 39
5.0
 10
56.55770479435354
 20
67.515451111240537
 30
0.0
 11
56.490904794353533
 21
67.487151111240536
 31
0.0
  0
LINE
  5
268
  8
0
 39
5.0
 10
56.490904794353632
 20
67.487151111240593
 30
0.0
 11
56.237231410323041
 21
67.399251111240531
 31
0.0
  0
LINE
  5
26D
  8
0
 39
5.0
 10
50.628604794353542
 20
77.899251111240531
 30
0.0
 11
49.964404794353527
 21
77.282541411240544
 31
0.0
  0
LINE
  5
26F
  8
0
 39
5.0
 10
50.028604794353527
 20
72.659651111240535
 30
0.0
 11
50.028604794353527
 21
72.659651111240535
 31
0.0
  0
LINE
  5
270
  8
0
 39
5.0
 10
49.964404794353527
 20
72.692858007792253
 30
0.0
 11
50.124304794353527
 21
72.61015111124054
 31
0.0
  0
LINE
  5
271
  8
0
 39
5.0
 10
50.124304794353527
 20
72.61015111124054
 30
0.0
 11
50.207104794353533
 21
72.560351111240536
 31
0.0
  0
LINE
  5
272
  8
0
 39
5.0
 10
50.207104794353533
 20
72.560351111240536
 30
0.0
 11
50.277104794353527
 21
72.510851111240541
 31
0.0
  0
LINE
  5
273
  8
0
 39
5.0
 10
50.277104794353527
 20
72.510851111240541
 30
0.0
 11
50.334404794353539
 21
72.461051111240536
 31
0.0
  0
LINE
  5
274
  8
0
 39
5.0
 10
50.334404794353539
 20
72.461051111240536
 30
0.0
 11
50.37910479435353
 21
72.411551111240541
 31
0.0
  0
LINE
  5
275
  8
0
 39
5.0
 10
50.37910479435353
 20
72.411551111240541
 30
0.0
 11
50.410904794353542
 21
72.361751111240537
 31
0.0
  0
LINE
  5
276
  8
0
 39
5.0
 10
50.410904794353542
 20
72.361751111240537
 30
0.0
 11
50.429904794353533
 21
72.312051111240535
 31
0.0
  0
LINE
  5
277
  8
0
 39
5.0
 10
50.429904794353533
 20
72.312051111240535
 30
0.0
 11
50.436204794353543
 21
72.262251111240545
 31
0.0
  0
LINE
  5
278
  8
0
 39
5.0
 10
50.436204794353543
 20
72.262251111240545
 30
0.0
 11
50.429904794353533
 21
72.212751111240536
 31
0.0
  0
LINE
  5
279
  8
0
 39
5.0
 10
50.429904794353533
 20
72.212751111240536
 30
0.0
 11
50.410904794353542
 21
72.162951111240531
 31
0.0
  0
LINE
  5
27A
  8
0
 39
5.0
 10
50.410904794353542
 20
72.162951111240531
 30
0.0
 11
50.37910479435353
 21
72.113251111240544
 31
0.0
  0
LINE
  5
27B
  8
0
 39
5.0
 10
50.37910479435353
 20
72.113251111240544
 30
0.0
 11
50.334404794353539
 21
72.063451111240539
 31
0.0
  0
LINE
  5
27C
  8
0
 39
5.0
 10
50.334404794353539
 20
72.063451111240539
 30
0.0
 11
50.277104794353527
 21
72.013951111240544
 31
0.0
  0
LINE
  5
27D
  8
0
 39
5.0
 10
50.277104794353527
 20
72.013951111240544
 30
0.0
 11
50.207104794353533
 21
71.964151111240525
 31
0.0
  0
LINE
  5
27E
  8
0
 39
5.0
 10
50.207104794353533
 20
71.964151111240525
 30
0.0
 11
50.124304794353527
 21
71.914351111240535
 31
0.0
  0
LINE
  5
27F
  8
0
 39
5.0
 10
50.124304794353527
 20
71.914351111240535
 30
0.0
 11
50.095287324474
 21
71.899251111240531
 31
0.0
  0
LINE
  5
28F
  8
1
 10
52.964404794353541
 20
78.199251111240528
 30
0.0
 11
52.964404794353541
 21
60.599251111240527
 31
0.0
  0
LINE
  5
293
  8
0
 10
51.464404794353527
 20
60.899251111240531
 30
0.0
 11
51.464404794353527
 21
77.899251111240531
 31
0.0
  0
LINE
  5
294
  8
0
 10
49.964404794353527
 20
60.899251111240531
 30
0.0
 11
52.964404794353541
 21
60.899251111240531
 31
0.0
  0
LINE
  5
298
  8
2
 10
50.264404794353531
 20
77.56109141124054
 30
0.0
 11
50.264404794353531
 21
72.519831825526254
 31
0.0
  0
LINE
  5
299
  8
0
 10
49.964404794353527
 20
72.692858007792253
 30
0.0
 11
49.964404794353527
 21
77.282541411240544
 31
0.0
  0
LINE
  5
29B
  8
0
 10
50.628604794353542
 20
77.899251111240531
 30
0.0
 11
52.964404794353541
 21
77.899251111240531
 31
0.0
  0
LINE
  5
2A1
  8
0
 10
45.464404794353527
 20
71.899251111240531
 30
0.0
 11
45.464404794353527
 21
67.399251111240531
 31
0.0
  0
LINE
  5
2A4
  8
0
 10
45.464404794353527
 20
71.899251111240531
 30
0.0
 11
50.095287324474
 21
71.899251111240531
 31
0.0
  0
LINE
  5
2A5
  8
0
 10
45.464404794353527
 20
67.399251111240531
 30
0.0
 11
49.964404794353527
 21
67.399251111240531
 31
0.0
  0
LINE
  5
2A6
  8
0
 10
52.964404794353541
 20
71.899251111240531
 30
0.0
 11
59.583938127687091
 21
71.899251111240531
 31
0.0
  0
LINE
  5
2A7
  8
0
 10
52.964404794353541
 20
67.399251111240531
 30
0.0
 11
59.821978580761311
 21
67.399251111240531
 31
0.0
  0
LINE
  5
2AC
  8
0
 39
5.0
 10
59.583938127687063
 20
71.899251111240531
 30
0.0
 11
59.916204794353533
 21
71.88325111124054
 31
0.0
  0
LINE
  5
2AD
  8
0
 39
5.0
 10
59.916204794353533
 20
71.88325111124054
 30
0.0
 11
59.97670479435353
 21
71.873951111240544
 31
0.0
  0
LINE
  5
2AE
  8
0
 39
5.0
 10
59.97670479435353
 20
71.873951111240544
 30
0.0
 11
60.035104794353529
 21
71.85885111124054
 31
0.0
  0
LINE
  5
2AF
  8
0
 39
5.0
 10
60.035104794353529
 20
71.85885111124054
 30
0.0
 11
60.091104794353527
 21
71.838151111240535
 31
0.0
  0
LINE
  5
2B0
  8
0
 39
5.0
 10
60.091104794353527
 20
71.838151111240535
 30
0.0
 11
60.14450479435353
 21
71.812451111240534
 31
0.0
  0
LINE
  5
2B1
  8
0
 39
5.0
 10
60.14450479435353
 20
71.812451111240534
 30
0.0
 11
60.19480479435353
 21
71.781751111240538
 31
0.0
  0
LINE
  5
2B2
  8
0
 39
5.0
 10
60.19480479435353
 20
71.781751111240538
 30
0.0
 11
60.24190479435353
 21
71.746651111240539
 31
0.0
  0
LINE
  5
2B3
  8
0
 39
5.0
 10
60.24190479435353
 20
71.746651111240539
 30
0.0
 11
60.285204794353533
 21
71.707051111240531
 31
0.0
  0
LINE
  5
2B4
  8
0
 39
5.0
 10
60.285204794353533
 20
71.707051111240531
 30
0.0
 11
60.324804794353533
 21
71.663751111240543
 31
0.0
  0
LINE
  5
2B5
  8
0
 39
5.0
 10
60.324804794353533
 20
71.663751111240543
 30
0.0
 11
60.359904794353533
 21
71.616651111240543
 31
0.0
  0
LINE
  5
2B6
  8
0
 39
5.0
 10
60.359904794353533
 20
71.616651111240543
 30
0.0
 11
60.390604794353528
 21
71.566351111240536
 31
0.0
  0
LINE
  5
2B7
  8
0
 39
5.0
 10
60.390604794353528
 20
71.566351111240536
 30
0.0
 11
60.416304794353543
 21
71.51295111124054
 31
0.0
  0
LINE
  5
2B8
  8
0
 39
5.0
 10
60.416304794353543
 20
71.51295111124054
 30
0.0
 11
60.437004794353527
 21
71.456951111240542
 31
0.0
  0
LINE
  5
2B9
  8
0
 39
5.0
 10
60.437004794353527
 20
71.456951111240542
 30
0.0
 11
60.452104794353531
 21
71.398551111240536
 31
0.0
  0
LINE
  5
2BA
  8
0
 39
5.0
 10
60.452104794353531
 20
71.398551111240536
 30
0.0
 11
60.461404794353527
 21
71.338051111240532
 31
0.0
  0
LINE
  5
2BB
  8
0
 39
5.0
 10
60.461404794353527
 20
71.338051111240532
 30
0.0
 11
60.464404794353541
 21
71.275751111240538
 31
0.0
  0
LINE
  5
2BC
  8
0
 39
5.0
 10
60.464404794353541
 20
71.275751111240538
 30
0.0
 11
60.464404794353541
 21
68.060451111240539
 31
0.0
  0
LINE
  5
2BD
  8
0
 39
5.0
 10
60.464404794353541
 20
68.060451111240539
 30
0.0
 11
60.464404794353541
 21
68.060451111240539
 31
0.0
  0
LINE
  5
2BE
  8
0
 39
5.0
 10
60.464404794353541
 20
68.060451111240539
 30
0.0
 11
60.461404794353527
 21
67.998451111240541
 31
0.0
  0
LINE
  5
2BF
  8
0
 39
5.0
 10
60.461404794353527
 20
67.998451111240541
 30
0.0
 11
60.452104794353531
 21
67.937951111240537
 31
0.0
  0
LINE
  5
2C0
  8
0
 39
5.0
 10
60.452104794353531
 20
67.937951111240537
 30
0.0
 11
60.437004794353527
 21
67.879551111240531
 31
0.0
  0
LINE
  5
2C1
  8
0
 39
5.0
 10
60.437004794353527
 20
67.879551111240531
 30
0.0
 11
60.416304794353543
 21
67.823451111240544
 31
0.0
  0
LINE
  5
2C2
  8
0
 39
5.0
 10
60.416304794353543
 20
67.823451111240544
 30
0.0
 11
60.390604794353528
 21
67.770151111240537
 31
0.0
  0
LINE
  5
2C3
  8
0
 39
5.0
 10
60.390604794353528
 20
67.770151111240537
 30
0.0
 11
60.359904794353533
 21
67.719851111240544
 31
0.0
  0
LINE
  5
2C4
  8
0
 39
5.0
 10
60.359904794353533
 20
67.719851111240544
 30
0.0
 11
60.324804794353533
 21
67.672851111240533
 31
0.0
  0
LINE
  5
2C5
  8
0
 39
5.0
 10
60.324804794353533
 20
67.672851111240533
 30
0.0
 11
60.285204794353533
 21
67.629351111240538
 31
0.0
  0
LINE
  5
2C6
  8
0
 39
5.0
 10
60.285204794353533
 20
67.629351111240538
 30
0.0
 11
60.24190479435353
 21
67.590051111240541
 31
0.0
  0
LINE
  5
2C7
  8
0
 39
5.0
 10
60.24190479435353
 20
67.590051111240541
 30
0.0
 11
60.19480479435353
 21
67.554751111240535
 31
0.0
  0
LINE
  5
2C8
  8
0
 39
5.0
 10
60.19480479435353
 20
67.554751111240535
 30
0.0
 11
60.14450479435353
 21
67.524151111240542
 31
0.0
  0
LINE
  5
2C9
  8
0
 39
5.0
 10
60.14450479435353
 20
67.524151111240542
 30
0.0
 11
60.091104794353527
 21
67.498251111240535
 31
0.0
  0
LINE
  5
2CA
  8
0
 39
5.0
 10
60.091104794353527
 20
67.498251111240535
 30
0.0
 11
59.821978580761332
 21
67.399251111240531
 31
0.0
  0
LINE
  5
2CF
  8
0
 39
5.0
 10
57.605604794353539
 20
67.449951111240537
 30
0.0
 11
57.605604794353539
 21
67.449951111240537
 31
0.0
  0
LINE
  5
2D0
  8
0
 39
5.0
 10
57.605604794353539
 20
67.449951111240537
 30
0.0
 11
57.543604794353527
 21
67.453151111240544
 31
0.0
  0
LINE
  5
2D1
  8
0
 39
5.0
 10
57.894244579299993
 20
67.399251111240531
 30
0.0
 11
57.48310479435353
 21
67.46245111124054
 31
0.0
  0
LINE
  5
2D2
  8
0
 39
5.0
 10
57.48310479435353
 20
67.46245111124054
 30
0.0
 11
57.424704794353538
 21
67.477651111240533
 31
0.0
  0
LINE
  5
2D3
  8
0
 39
5.0
 10
57.424704794353538
 20
67.477651111240533
 30
0.0
 11
57.36860479435353
 21
67.498251111240535
 31
0.0
  0
LINE
  5
2D4
  8
0
 39
5.0
 10
57.36860479435353
 20
67.498251111240535
 30
0.0
 11
57.31530479435353
 21
67.524151111240542
 31
0.0
  0
LINE
  5
2D5
  8
0
 39
5.0
 10
57.31530479435353
 20
67.524151111240542
 30
0.0
 11
57.265004794353537
 21
67.554751111240535
 31
0.0
  0
LINE
  5
2D6
  8
0
 39
5.0
 10
57.265004794353537
 20
67.554751111240535
 30
0.0
 11
57.218004794353533
 21
67.590051111240541
 31
0.0
  0
LINE
  5
2D7
  8
0
 39
5.0
 10
57.218004794353533
 20
67.590051111240541
 30
0.0
 11
57.174504794353538
 21
67.629351111240538
 31
0.0
  0
LINE
  5
2D8
  8
0
 39
5.0
 10
57.174504794353538
 20
67.629351111240538
 30
0.0
 11
57.135204794353527
 21
67.672851111240533
 31
0.0
  0
LINE
  5
2D9
  8
0
 39
5.0
 10
57.135204794353527
 20
67.672851111240533
 30
0.0
 11
57.099904794353527
 21
67.719851111240544
 31
0.0
  0
LINE
  5
2DA
  8
0
 39
5.0
 10
57.099904794353527
 20
67.719851111240544
 30
0.0
 11
57.069304794353528
 21
67.770151111240537
 31
0.0
  0
LINE
  5
2DB
  8
0
 39
5.0
 10
57.069304794353528
 20
67.770151111240537
 30
0.0
 11
57.043404794353528
 21
67.823451111240544
 31
0.0
  0
LINE
  5
2DC
  8
0
 39
5.0
 10
57.043404794353528
 20
67.823451111240544
 30
0.0
 11
57.022804794353533
 21
67.879551111240531
 31
0.0
  0
LINE
  5
2DD
  8
0
 39
5.0
 10
57.022804794353533
 20
67.879551111240531
 30
0.0
 11
57.007604794353533
 21
67.937951111240537
 31
0.0
  0
LINE
  5
2DE
  8
0
 39
5.0
 10
57.007604794353533
 20
67.937951111240537
 30
0.0
 11
56.966709852528673
 21
68.203988098380776
 31
0.0
  0
LINE
  5
2E4
  8
0
 39
5.0
 10
56.967360325482197
 20
71.243927625576987
 30
0.0
 11
57.022804794353533
 21
71.456951111240542
 31
0.0
  0
LINE
  5
2E5
  8
0
 39
5.0
 10
57.022804794353533
 20
71.456951111240542
 30
0.0
 11
57.043404794353528
 21
71.51295111124054
 31
0.0
  0
LINE
  5
2E6
  8
0
 39
5.0
 10
57.043404794353528
 20
71.51295111124054
 30
0.0
 11
57.069304794353528
 21
71.566351111240536
 31
0.0
  0
LINE
  5
2E7
  8
0
 39
5.0
 10
57.069304794353528
 20
71.566351111240536
 30
0.0
 11
57.099904794353527
 21
71.616651111240543
 31
0.0
  0
LINE
  5
2E8
  8
0
 39
5.0
 10
57.099904794353527
 20
71.616651111240543
 30
0.0
 11
57.135204794353527
 21
71.663751111240543
 31
0.0
  0
LINE
  5
2E9
  8
0
 39
5.0
 10
57.135204794353527
 20
71.663751111240543
 30
0.0
 11
57.174504794353538
 21
71.707051111240531
 31
0.0
  0
LINE
  5
2EA
  8
0
 39
5.0
 10
57.174504794353538
 20
71.707051111240531
 30
0.0
 11
57.218004794353533
 21
71.746651111240539
 31
0.0
  0
LINE
  5
2EB
  8
0
 39
5.0
 10
57.218004794353533
 20
71.746651111240539
 30
0.0
 11
57.265004794353537
 21
71.781751111240538
 31
0.0
  0
LINE
  5
2EC
  8
0
 39
5.0
 10
57.265004794353537
 20
71.781751111240538
 30
0.0
 11
57.31530479435353
 21
71.812451111240534
 31
0.0
  0
LINE
  5
2ED
  8
0
 39
5.0
 10
57.31530479435353
 20
71.812451111240534
 30
0.0
 11
57.36860479435353
 21
71.838151111240535
 31
0.0
  0
LINE
  5
2EE
  8
0
 39
5.0
 10
57.36860479435353
 20
71.838151111240535
 30
0.0
 11
57.424704794353538
 21
71.85885111124054
 31
0.0
  0
LINE
  5
2EF
  8
0
 39
5.0
 10
57.424704794353538
 20
71.85885111124054
 30
0.0
 11
57.48310479435353
 21
71.873951111240544
 31
0.0
  0
LINE
  5
2F0
  8
0
 39
5.0
 10
57.483104794353281
 20
71.873951111240501
 30
0.0
 11
57.64769081585888
 21
71.899251111240531
 31
0.0
  0
LINE
  5
2F5
  8
0
 10
56.968004794353533
 20
68.19556401446637
 30
0.0
 11
56.968004794353533
 21
71.246403742819467
 31
0.0
  0
LINE
  5
2FE
  8
0
 10
49.964404794353527
 20
63.899251111240531
 30
0.0
 11
49.964404794353527
 21
67.399251111240531
 31
0.0
  0
LINE
  5
301
  8
0
 10
49.664404794353537
 20
63.899251111240531
 30
0.0
 11
49.964404794353527
 21
63.899251111240531
 31
0.0
  0
LINE
  5
302
  8
0
 10
49.964404794353527
 20
60.899251111240531
 30
0.0
 11
49.664404794353537
 21
63.899251111240531
 31
0.0
  0
LINE
  5
308
  8
0
 39
5.0
 10
55.804504794353527
 20
71.914351111240535
 30
0.0
 11
55.833522264233068
 21
71.899251111240531
 31
0.0
  0
LINE
  5
309
  8
0
 39
5.0
 10
55.721704794353528
 20
71.964151111240525
 30
0.0
 11
55.804504794353527
 21
71.914351111240535
 31
0.0
  0
LINE
  5
30A
  8
0
 39
5.0
 10
55.651704794353527
 20
72.013951111240544
 30
0.0
 11
55.721704794353528
 21
71.964151111240525
 31
0.0
  0
LINE
  5
30B
  8
0
 39
5.0
 10
55.59440479435353
 20
72.063451111240539
 30
0.0
 11
55.651704794353527
 21
72.013951111240544
 31
0.0
  0
LINE
  5
30C
  8
0
 39
5.0
 10
55.549704794353531
 20
72.113251111240544
 30
0.0
 11
55.59440479435353
 21
72.063451111240539
 31
0.0
  0
LINE
  5
30D
  8
0
 39
5.0
 10
55.517904794353541
 20
72.162951111240531
 30
0.0
 11
55.549704794353531
 21
72.113251111240544
 31
0.0
  0
LINE
  5
30E
  8
0
 39
5.0
 10
55.498904794353543
 20
72.212751111240536
 30
0.0
 11
55.517904794353541
 21
72.162951111240531
 31
0.0
  0
LINE
  5
30F
  8
0
 39
5.0
 10
55.492604794353532
 20
72.262251111240545
 30
0.0
 11
55.498904794353543
 21
72.212751111240536
 31
0.0
  0
LINE
  5
310
  8
0
 39
5.0
 10
55.498904794353543
 20
72.312051111240535
 30
0.0
 11
55.492604794353532
 21
72.262251111240545
 31
0.0
  0
LINE
  5
311
  8
0
 39
5.0
 10
55.517904794353541
 20
72.361751111240537
 30
0.0
 11
55.498904794353543
 21
72.312051111240535
 31
0.0
  0
LINE
  5
312
  8
0
 39
5.0
 10
55.549704794353531
 20
72.411551111240541
 30
0.0
 11
55.517904794353541
 21
72.361751111240537
 31
0.0
  0
LINE
  5
313
  8
0
 39
5.0
 10
55.59440479435353
 20
72.461051111240536
 30
0.0
 11
55.549704794353531
 21
72.411551111240541
 31
0.0
  0
LINE
  5
314
  8
0
 39
5.0
 10
55.651704794353527
 20
72.510851111240541
 30
0.0
 11
55.59440479435353
 21
72.461051111240536
 31
0.0
  0
LINE
  5
315
  8
0
 39
5.0
 10
55.721704794353528
 20
72.560351111240536
 30
0.0
 11
55.651704794353527
 21
72.510851111240541
 31
0.0
  0
LINE
  5
316
  8
0
 39
5.0
 10
55.804504794353527
 20
72.61015111124054
 30
0.0
 11
55.721704794353528
 21
72.560351111240536
 31
0.0
  0
LINE
  5
317
  8
0
 39
5.0
 10
55.964404794353527
 20
72.692858007792253
 30
0.0
 11
55.804504794353527
 21
72.61015111124054
 31
0.0
  0
LINE
  5
318
  8
0
 39
5.0
 10
55.900204794353527
 20
72.659651111240535
 30
0.0
 11
55.900204794353527
 21
72.659651111240535
 31
0.0
  0
LINE
  5
319
  8
0
 39
5.0
 10
55.30020479435354
 20
77.899251111240531
 30
0.0
 11
55.964404794353527
 21
77.282541411240544
 31
0.0
  0
LINE
  5
31A
  8
0
 10
55.964404794353527
 20
63.899251111240531
 30
0.0
 11
55.964404794353527
 21
67.399251111240531
 31
0.0
  0
LINE
  5
31B
  8
3
 10
54.464404794353527
 20
60.899251111240531
 30
0.0
 11
54.464404794353527
 21
77.899251111240531
 31
0.0
  0
LINE
  5
31C
  8
0
 10
55.964404794353527
 20
60.899251111240531
 30
0.0
 11
56.264404794353531
 21
63.899251111240531
 31
0.0
  0
LINE
  5
31D
  8
0
 10
55.964404794353527
 20
60.899251111240531
 30
0.0
 11
52.964404794353541
 21
60.899251111240531
 31
0.0
  0
LINE
  5
31E
  8
0
 10
56.264404794353531
 20
63.899251111240531
 30
0.0
 11
52.964404794353541
 21
63.899251111240531
 31
0.0
  0
LINE
  5
31F
  8
2
 10
55.66440479435353
 20
77.56109141124054
 30
0.0
 11
55.66440479435353
 21
72.519831825526254
 31
0.0
  0
LINE
  5
320
  8
0
 10
55.964404794353527
 20
72.692858007792253
 30
0.0
 11
55.964404794353527
 21
77.282541411240544
 31
0.0
  0
LINE
  5
321
  8
0
 10
55.30020479435354
 20
77.899251111240531
 30
0.0
 11
52.964404794353541
 21
77.899251111240531
 31
0.0
  0
DIMENSION
  5
326
  8
2
  2
*D1
 10
54.464404794353527
 20
85.587461494495045
 30
0.0
 11
62.17273812768687
 21
87.462461494495045
 31
0.0
 70
     0
  1
%%c<>
 13
51.464404794353527
 23
77.899251111240531
 33
0.0
 14
54.464404794353527
 24
77.899251111240531
 34
0.0
  0
DIMENSION
  5
336
  8
2
  2
*D2
 10
69.254899314070229
 20
71.899251111240531
 30
0.0
 11
67.379899314070215
 21
74.899251111240545
 31
0.0
 70
     0
 13
55.30020479435354
 23
77.899251111240531
 33
0.0
 14
59.583938127687063
 24
71.899251111240531
 34
0.0
 50
90.0
  0
DIMENSION
  5
345
  8
2
  2
*D3
 10
74.710356874377254
 20
67.399251111240531
 30
0.0
 11
72.83535687437724
 21
72.649251111240545
 31
0.0
 70
     0
 13
69.254899314070229
 23
77.899251111240531
 33
0.0
 14
59.821978580761311
 24
67.399251111240531
 34
0.0
 50
90.0
  0
DIMENSION
  5
352
  8
2
  2
*D4
 10
80.107246827254514
 20
60.899251111240531
 30
0.0
 11
78.232246827254485
 21
69.399251111240545
 31
0.0
 70
     0
 13
74.710356874377254
 23
77.899251111240531
 33
0.0
 14
55.964404794353527
 24
60.899251111240531
 34
0.0
 50
90.0
  0
DIMENSION
  5
360
  8
2
  2
*D5
 10
38.271684931816019
 20
63.899251111240531
 30
0.0
 11
36.396684931816019
 21
62.399251111240552
 31
0.0
 70
     0
 13
49.964404794353527
 23
60.899251111240531
 33
0.0
 14
49.664404794353537
 24
63.899251111240531
 34
0.0
 50
90.0
  0
DIMENSION
  5
370
  8
2
  2
*D6
 10
55.964404794353527
 20
51.435378370845172
 30
0.0
 11
52.964404794353541
 21
53.310378370845172
 31
0.0
 70
     0
  1
%%c<>
 13
49.964404794353527
 23
60.899251111240531
 33
0.0
 14
55.964404794353527
 24
60.899251111240531
 34
0.0
  0
DIMENSION
  5
37F
  8
2
  2
*D7
 10
56.264404794353531
 20
46.196793221538961
 30
0.0
 11
63.139404794353531
 21
48.071793221538961
 31
0.0
 70
     0
  1
%%c<>
 13
49.664404794353537
 23
63.899251111240531
 33
0.0
 14
56.264404794353531
 24
63.899251111240531
 34
0.0
  0
TEXT
  5
3AE
  8
2
 10
34.29192618453294
 20
79.500002390249861
 30
0.0
 40
2.5
  1
M6
  0
TEXT
  5
3AF
  8
2
 10
34.117631768290401
 20
73.583064732713183
 30
0.0
 40
2.5
  1
H13
  0
POLYLINE
  8
2
  5
3D5
  66
     1
 10
0.000000
 20
0.000000
 30
0.000000
  70
     8
  0
VERTEX
  8
2
  5
3D6
 10
49.9644
 20
74.9877
 30
0.000000
  70
    32
  0
VERTEX
  8
2
  5
3D7
 10
38.7286
 20
79.2572
 30
0.000000
  70
    32
  0
VERTEX
  8
2
  5
3D8
 10
33.8858
 20
79.2572
 30
0.000000
  70
    32
  0
SEQEND
  8
2
  5
3D9
  0
POLYLINE
  8
2
  5
3DA
  66
     1
 10
0.000000
 20
0.000000
 30
0.000000
  70
     8
  0
VERTEX
  8
2
  5
3DB
 10
45.4644
 20
69.6493
 30
0.000000
  70
    32
  0
VERTEX
  8
2
  5
3DC
 10
40.3583
 20
73.1201
 30
0.000000
  70
    32
  0
VERTEX
  8
2
  5
3DD
 10
33.8858
 20
73.1201
 30
0.000000
  70
    32
  0
SEQEND
  8
2
  5
3DE
  0
ENDSEC
  0
EOF
