  0
SECTION
  2
HEADER
  9
$ACADVER
  1
AC1009
  9
$INSBASE
 10
0.0
 20
0.0
 30
0.0
  9
$EXTMIN
 10
60.269833385706363
 20
25.191394252583621
 30
0.0
  9
$EXTMAX
 10
113.8017012277528
 20
87.931098612991306
 30
5.0
  9
$LIMMIN
 10
0.0
 20
0.0
  9
$LIMMAX
 10
420.0
 20
297.0
  9
$ORTHOMODE
 70
     0
  9
$REGENMODE
 70
     1
  9
$FILLMODE
 70
     1
  9
$QTEXTMODE
 70
     0
  9
$MIRRTEXT
 70
     1
  9
$DRAGMODE
 70
     2
  9
$LTSCALE
 40
0.3
  9
$OSMODE
 70
    37
  9
$ATTMODE
 70
     1
  9
$TEXTSIZE
 40
2.5
  9
$TRACEWID
 40
1.0
  9
$TEXTSTYLE
  7
STANDARD
  9
$CLAYER
  8
2
  9
$CELTYPE
  6
BYLAYER
  9
$CECOLOR
 62
   256
  9
$DIMSCALE
 40
1.0
  9
$DIMASZ
 40
2.5
  9
$DIMEXO
 40
0.625
  9
$DIMDLI
 40
3.75
  9
$DIMRND
 40
0.0
  9
$DIMDLE
 40
0.0
  9
$DIMEXE
 40
1.25
  9
$DIMTP
 40
0.0
  9
$DIMTM
 40
0.0
  9
$DIMTXT
 40
2.5
  9
$DIMCEN
 40
2.5
  9
$DIMTSZ
 40
0.0
  9
$DIMTOL
 70
     0
  9
$DIMLIM
 70
     0
  9
$DIMTIH
 70
     0
  9
$DIMTOH
 70
     0
  9
$DIMSE1
 70
     0
  9
$DIMSE2
 70
     0
  9
$DIMTAD
 70
     1
  9
$DIMZIN
 70
     8
  9
$DIMBLK
  1

  9
$DIMASO
 70
     1
  9
$DIMSHO
 70
     1
  9
$DIMPOST
  1

  9
$DIMAPOST
  1

  9
$DIMALT
 70
     0
  9
$DIMALTD
 70
     3
  9
$DIMALTF
 40
0.03937007874016
  9
$DIMLFAC
 40
1.0
  9
$DIMTOFL
 70
     1
  9
$DIMTVP
 40
0.0
  9
$DIMTIX
 70
     0
  9
$DIMSOXD
 70
     0
  9
$DIMSAH
 70
     0
  9
$DIMBLK1
  1

  9
$DIMBLK2
  1

  9
$DIMSTYLE
  2
ISO-25
  9
$DIMCLRD
 70
     0
  9
$DIMCLRE
 70
     0
  9
$DIMCLRT
 70
     0
  9
$DIMTFAC
 40
1.0
  9
$DIMGAP
 40
0.625
  9
$LUNITS
 70
     2
  9
$LUPREC
 70
     4
  9
$SKETCHINC
 40
1.0
  9
$FILLETRAD
 40
10.0
  9
$AUNITS
 70
     0
  9
$AUPREC
 70
     0
  9
$MENU
  1
.
  9
$ELEVATION
 40
0.0
  9
$PELEVATION
 40
0.0
  9
$THICKNESS
 40
0.0
  9
$LIMCHECK
 70
     0
  9
$BLIPMODE
 70
     0
  9
$CHAMFERA
 40
10.0
  9
$CHAMFERB
 40
10.0
  9
$SKPOLY
 70
     0
  9
$TDCREATE
 40
2453447.615504676
  9
$TDUPDATE
 40
2453551.927337708
  9
$TDINDWG
 40
0.0229782986
  9
$TDUSRTIMER
 40
0.0229782986
  9
$USRTIMER
 70
     1
  9
$ANGBASE
 50
0.0
  9
$ANGDIR
 70
     0
  9
$PDMODE
 70
     0
  9
$PDSIZE
 40
0.0
  9
$PLINEWID
 40
0.0
  9
$COORDS
 70
     1
  9
$SPLFRAME
 70
     0
  9
$SPLINETYPE
 70
     6
  9
$SPLINESEGS
 70
     8
  9
$ATTDIA
 70
     0
  9
$ATTREQ
 70
     1
  9
$HANDLING
 70
-16383
  9
$HANDSEED
  5
3B2
  9
$SURFTAB1
 70
     6
  9
$SURFTAB2
 70
     6
  9
$SURFTYPE
 70
     6
  9
$SURFU
 70
     6
  9
$SURFV
 70
     6
  9
$UCSNAME
  2

  9
$UCSORG
 10
0.0
 20
0.0
 30
0.0
  9
$UCSXDIR
 10
1.0
 20
0.0
 30
0.0
  9
$UCSYDIR
 10
0.0
 20
1.0
 30
0.0
  9
$PUCSNAME
  2

  9
$PUCSORG
 10
0.0
 20
0.0
 30
0.0
  9
$PUCSXDIR
 10
1.0
 20
0.0
 30
0.0
  9
$PUCSYDIR
 10
0.0
 20
1.0
 30
0.0
  9
$USERI1
 70
     0
  9
$USERI2
 70
     0
  9
$USERI3
 70
     0
  9
$USERI4
 70
     0
  9
$USERI5
 70
     0
  9
$USERR1
 40
0.0
  9
$USERR2
 40
0.0
  9
$USERR3
 40
0.0
  9
$USERR4
 40
0.0
  9
$USERR5
 40
0.0
  9
$WORLDVIEW
 70
     1
  9
$SHADEDGE
 70
     3
  9
$SHADEDIF
 70
    70
  9
$TILEMODE
 70
     1
  9
$MAXACTVP
 70
    64
  9
$PLIMCHECK
 70
     0
  9
$PEXTMIN
 10
1.0000000000000000E+020
 20
1.0000000000000000E+020
 30
1.0000000000000000E+020
  9
$PEXTMAX
 10
-1.0000000000000000E+020
 20
-1.0000000000000000E+020
 30
-1.0000000000000000E+020
  9
$PLIMMIN
 10
0.0
 20
0.0
  9
$PLIMMAX
 10
420.0
 20
297.0
  9
$UNITMODE
 70
     0
  9
$VISRETAIN
 70
     1
  9
$PLINEGEN
 70
     0
  9
$PSLTSCALE
 70
     1
  0
ENDSEC
  0
SECTION
  2
TABLES
  0
TABLE
  2
VPORT
 70
     2
  0
VPORT
  2
*ACTIVE
 70
     0
 10
0.0
 20
0.0
 11
1.0
 21
1.0
 12
103.9357334164069
 22
61.435514378674412
 13
0.0
 23
0.0
 14
10.0
 24
10.0
 15
10.0
 25
10.0
 16
0.0
 26
0.0
 36
1.0
 17
0.0
 27
0.0
 37
0.0
 40
82.305140291047962
 41
2.5392405063291141
 42
50.0
 43
0.0
 44
0.0
 50
0.0
 51
0.0
 71
     0
 72
   100
 73
     1
 74
     3
 75
     0
 76
     0
 77
     0
 78
     0
  0
ENDTAB
  0
TABLE
  2
LTYPE
 70
     3
  0
LTYPE
  2
CONTINUOUS
 70
     0
  3
Solid line
 72
    65
 73
     0
 40
0.0
  0
LTYPE
  2
CENTER
 70
     0
  3
Center ____ _ ____ _ ____ _ ____ _ ____ _ ____
 72
    65
 73
     4
 40
50.799999999999997
 49
31.75
 49
-6.3499999999999988
 49
6.3499999999999988
 49
-6.3499999999999988
  0
LTYPE
  2
DASHED2
 70
     0
  3
Dashed (.5x) _ _ _ _ _ _ _ _ _ _ _ _ _ _ _ _ _
 72
    65
 73
     2
 40
9.5249999999999986
 49
6.3499999999999988
 49
-3.1749999999999989
  0
ENDTAB
  0
TABLE
  2
LAYER
 70
     5
  0
LAYER
  2
0
 70
     0
 62
     7
  6
CONTINUOUS
  0
LAYER
  2
1
 70
     0
 62
     7
  6
CENTER
  0
LAYER
  2
2
 70
     0
 62
     7
  6
CONTINUOUS
  0
LAYER
  2
3
 70
     0
 62
     7
  6
DASHED2
  0
LAYER
  2
DEFPOINTS
 70
     0
 62
     7
  6
CONTINUOUS
  0
ENDTAB
  0
TABLE
  2
STYLE
 70
     3
  0
STYLE
  2
STANDARD
 70
     0
 40
0.0
 41
1.0
 50
0.0
 71
     0
 42
2.5
  3
txt
  4

  0
STYLE
  2
\U+00C9L\U+00C9R_\U+00C2S\U+00C2V\U+00C2B\U+00C2N
 70
     0
 40
1.0
 41
1.0
 50
0.0
 71
     0
 42
1.0
  3
\U+00E9l\U+00E9r \U+00E2S\U+00E2V\U+00E2b\U+00E2N
  4

  0
STYLE
  2

 70
     1
 40
0.0
 41
1.0
 50
0.0
 71
     0
 42
2.5
  3
ltypeshp.shx
  4

  0
ENDTAB
  0
TABLE
  2
VIEW
 70
     0
  0
ENDTAB
  0
TABLE
  2
UCS
 70
     0
  0
ENDTAB
  0
TABLE
  2
APPID
 70
     1
  0
APPID
  2
ACAD
 70
     0
  0
ENDTAB
  0
TABLE
  2
DIMSTYLE
 70
     2
  0
DIMSTYLE
  2
ISO-25
 70
     0
  3

  4

  5

  6

  7

 40
1.0
 41
2.5
 42
0.625
 43
3.75
 44
1.25
 45
0.0
 46
0.0
 47
0.0
 48
0.0
140
2.5
141
2.5
142
0.0
143
0.03937007874016
144
1.0
145
0.0
146
1.0
147
0.625
 71
     0
 72
     0
 73
     0
 74
     0
 75
     0
 76
     0
 77
     1
 78
     8
170
     0
171
     3
172
     1
173
     0
174
     0
175
     0
176
     0
177
     0
178
     0
  0
DIMSTYLE
  2
STANDARD
 70
     0
  3

  4

  5

  6

  7

 40
1.0
 41
0.18
 42
0.0625
 43
0.38
 44
0.18
 45
0.0
 46
0.0
 47
0.0
 48
0.0
140
0.18
141
0.09
142
0.0
143
25.399999999999999
144
1.0
145
0.0
146
1.0
147
0.09
 71
     0
 72
     0
 73
     1
 74
     1
 75
     0
 76
     0
 77
     0
 78
     0
170
     0
171
     2
172
     0
173
     0
174
     0
175
     0
176
     0
177
     0
178
     0
  0
ENDTAB
  0
ENDSEC
  0
SECTION
  2
BLOCKS
  0
BLOCK
  8
0
  2
$MODEL_SPACE
 70
     0
 10
0.0
 20
0.0
 30
0.0
  3
$MODEL_SPACE
  1

  0
ENDBLK
  5
21
  8
0
  0
BLOCK
 67
     1
  8
0
  2
$PAPER_SPACE
 70
     0
 10
0.0
 20
0.0
 30
0.0
  3
$PAPER_SPACE
  1

  0
ENDBLK
  5
1D
 67
     1
  8
0
  0
BLOCK
  8
0
  2
*D1
 70
     1
 10
0.0
 20
0.0
 30
0.0
  3
*D1
  1

  0
LINE
  5
2E2
  8
2
 62
     0
 10
91.152228401987443
 20
77.966575739918511
 30
0.0
 11
103.67417743674
 21
77.966575739918497
 31
0.0
  0
LINE
  5
2E3
  8
2
 62
     0
 10
91.152228401987443
 20
70.966575739918511
 30
0.0
 11
103.67417743674
 21
70.966575739918497
 31
0.0
  0
LINE
  5
2E4
  8
2
 62
     0
 10
102.42417743674
 20
75.466575739918497
 30
0.0
 11
102.42417743674
 21
73.466575739918497
 31
0.0
  0
SOLID
  5
2E5
  8
2
 62
     0
 10
102.0075107700733
 20
75.466575739918497
 30
0.0
 11
102.8408441034067
 21
75.466575739918497
 31
0.0
 12
102.42417743674
 22
77.966575739918497
 32
0.0
 13
102.42417743674
 23
77.966575739918497
 33
0.0
  0
SOLID
  5
2E6
  8
2
 62
     0
 10
102.0075107700733
 20
73.466575739918497
 30
0.0
 11
102.8408441034067
 21
73.466575739918497
 31
0.0
 12
102.42417743674
 22
70.966575739918497
 32
0.0
 13
102.42417743674
 23
70.966575739918497
 33
0.0
  0
TEXT
  5
2E7
  8
2
 62
     0
 10
101.79917743674
 20
73.633242406585197
 30
0.0
 40
2.5
  1
7
 50
90.0
  0
POINT
  5
2E8
  8
DEFPOINTS
 62
     0
 10
90.527228401987443
 20
77.966575739918511
 30
0.0
  0
POINT
  5
2E9
  8
DEFPOINTS
 62
     0
 10
90.527228401987443
 20
70.966575739918511
 30
0.0
  0
POINT
  5
2EA
  8
DEFPOINTS
 62
     0
 10
102.42417743674
 20
70.966575739918497
 30
0.0
  0
ENDBLK
  5
2EC
  8
0
  0
BLOCK
  8
0
  2
*D2
 70
     1
 10
0.0
 20
0.0
 30
0.0
  3
*D2
  1

  0
LINE
  5
2EF
  8
2
 62
     0
 10
103.04917743674
 20
77.966575739918497
 30
0.0
 11
108.5312552830069
 21
77.966575739918497
 31
0.0
  0
LINE
  5
2F0
  8
2
 62
     0
 10
90.959428401987466
 20
65.966575739918511
 30
0.0
 11
108.5312552830069
 21
65.966575739918497
 31
0.0
  0
LINE
  5
2F1
  8
2
 62
     0
 10
107.2812552830069
 20
75.466575739918497
 30
0.0
 11
107.2812552830069
 21
68.466575739918497
 31
0.0
  0
SOLID
  5
2F2
  8
2
 62
     0
 10
106.8645886163402
 20
75.466575739918497
 30
0.0
 11
107.6979219496735
 21
75.466575739918497
 31
0.0
 12
107.2812552830069
 22
77.966575739918497
 32
0.0
 13
107.2812552830069
 23
77.966575739918497
 33
0.0
  0
SOLID
  5
2F3
  8
2
 62
     0
 10
106.8645886163402
 20
68.466575739918497
 30
0.0
 11
107.6979219496735
 21
68.466575739918497
 31
0.0
 12
107.2812552830069
 22
65.966575739918497
 32
0.0
 13
107.2812552830069
 23
65.966575739918497
 33
0.0
  0
TEXT
  5
2F4
  8
2
 62
     0
 10
106.6562552830069
 20
70.299909073251854
 30
0.0
 40
2.5
  1
12
 50
90.0
  0
POINT
  5
2F5
  8
DEFPOINTS
 62
     0
 10
102.42417743674
 20
77.966575739918497
 30
0.0
  0
POINT
  5
2F6
  8
DEFPOINTS
 62
     0
 10
90.334428401987466
 20
65.966575739918511
 30
0.0
  0
POINT
  5
2F7
  8
DEFPOINTS
 62
     0
 10
107.2812552830069
 20
65.966575739918497
 30
0.0
  0
ENDBLK
  5
2F9
  8
0
  0
BLOCK
  8
0
  2
*D3
 70
     1
 10
0.0
 20
0.0
 30
0.0
  3
*D3
  1

  0
LINE
  5
2FC
  8
2
 62
     0
 10
107.9062552830069
 20
77.966575739918497
 30
0.0
 11
113.8017012277528
 21
77.966575739918497
 31
0.0
  0
LINE
  5
2FD
  8
2
 62
     0
 10
89.152228401987458
 20
53.966575739918511
 30
0.0
 11
113.8017012277528
 21
53.966575739918497
 31
0.0
  0
LINE
  5
2FE
  8
2
 62
     0
 10
112.5517012277528
 20
75.466575739918497
 30
0.0
 11
112.5517012277528
 21
56.466575739918497
 31
0.0
  0
SOLID
  5
2FF
  8
2
 62
     0
 10
112.1350345610861
 20
75.466575739918497
 30
0.0
 11
112.9683678944195
 21
75.466575739918497
 31
0.0
 12
112.5517012277528
 22
77.966575739918497
 32
0.0
 13
112.5517012277528
 23
77.966575739918497
 33
0.0
  0
SOLID
  5
300
  8
2
 62
     0
 10
112.1350345610861
 20
56.466575739918497
 30
0.0
 11
112.9683678944195
 21
56.466575739918497
 31
0.0
 12
112.5517012277528
 22
53.966575739918497
 32
0.0
 13
112.5517012277528
 23
53.966575739918497
 33
0.0
  0
TEXT
  5
301
  8
2
 62
     0
 10
111.9267012277528
 20
63.88324240658519
 30
0.0
 40
2.5
  1
24
 50
90.0
  0
POINT
  5
302
  8
DEFPOINTS
 62
     0
 10
107.2812552830069
 20
77.966575739918497
 30
0.0
  0
POINT
  5
303
  8
DEFPOINTS
 62
     0
 10
88.527228401987458
 20
53.966575739918511
 30
0.0
  0
POINT
  5
304
  8
DEFPOINTS
 62
     0
 10
112.5517012277528
 20
53.966575739918497
 30
0.0
  0
ENDBLK
  5
306
  8
0
  0
BLOCK
  8
0
  2
*D4
 70
     1
 10
0.0
 20
0.0
 30
0.0
  3
*D4
  1

  0
LINE
  5
30A
  8
2
 62
     0
 10
77.902228401987458
 20
53.966575739918511
 30
0.0
 11
66.864606789769908
 21
53.966575739918511
 31
0.0
  0
LINE
  5
30B
  8
2
 62
     0
 10
77.902228401987458
 20
54.966575739918511
 30
0.0
 11
66.864606789769908
 21
54.966575739918511
 31
0.0
  0
LINE
  5
30C
  8
2
 62
     0
 10
68.114606789769908
 20
51.466575739918511
 30
0.0
 11
68.114606789769908
 21
48.966575739918511
 31
0.0
  0
LINE
  5
30D
  8
2
 62
     0
 10
68.114606789769908
 20
57.466575739918511
 30
0.0
 11
68.114606789769908
 21
62.049909073251847
 31
0.0
  0
LINE
  5
30E
  8
2
 62
     0
 10
68.114606789769908
 20
53.966575739918511
 30
0.0
 11
68.114606789769908
 21
54.966575739918511
 31
0.0
  0
SOLID
  5
30F
  8
2
 62
     0
 10
67.697940123103237
 20
51.466575739918511
 30
0.0
 11
68.53127345643658
 21
51.466575739918511
 31
0.0
 12
68.114606789769908
 22
53.966575739918511
 32
0.0
 13
68.114606789769908
 23
53.966575739918511
 33
0.0
  0
SOLID
  5
310
  8
2
 62
     0
 10
67.697940123103237
 20
57.466575739918511
 30
0.0
 11
68.53127345643658
 21
57.466575739918511
 31
0.0
 12
68.114606789769908
 22
54.966575739918511
 32
0.0
 13
68.114606789769908
 23
54.966575739918511
 33
0.0
  0
TEXT
  5
311
  8
2
 62
     0
 10
67.489606789769894
 20
60.591575739918518
 30
0.0
 40
2.5
  1
1
 50
90.0
  0
POINT
  5
312
  8
DEFPOINTS
 62
     0
 10
78.527228401987458
 20
53.966575739918511
 30
0.0
  0
POINT
  5
313
  8
DEFPOINTS
 62
     0
 10
78.527228401987458
 20
54.966575739918511
 30
0.0
  0
POINT
  5
314
  8
DEFPOINTS
 62
     0
 10
68.114606789769908
 20
54.966575739918511
 30
0.0
  0
ENDBLK
  5
316
  8
0
  0
BLOCK
  8
0
  2
*D5
 70
     1
 10
0.0
 20
0.0
 30
0.0
  3
*D5
  1

  0
LINE
  5
325
  8
2
 62
     0
 10
78.202228401987455
 20
67.966575739918511
 30
0.0
 11
66.570986440766603
 21
67.966575739918511
 31
0.0
  0
LINE
  5
326
  8
2
 62
     0
 10
75.902228401987443
 20
77.966575739918511
 30
0.0
 11
66.570986440766603
 21
77.966575739918511
 31
0.0
  0
LINE
  5
327
  8
2
 62
     0
 10
67.820986440766603
 20
70.466575739918511
 30
0.0
 11
67.820986440766603
 21
75.466575739918511
 31
0.0
  0
SOLID
  5
328
  8
2
 62
     0
 10
67.404319774099932
 20
70.466575739918511
 30
0.0
 11
68.237653107433275
 21
70.466575739918511
 31
0.0
 12
67.820986440766603
 22
67.966575739918511
 32
0.0
 13
67.820986440766603
 23
67.966575739918511
 33
0.0
  0
SOLID
  5
329
  8
2
 62
     0
 10
67.404319774099932
 20
75.466575739918511
 30
0.0
 11
68.237653107433275
 21
75.466575739918511
 31
0.0
 12
67.820986440766603
 22
77.966575739918511
 32
0.0
 13
67.820986440766603
 23
77.966575739918511
 33
0.0
  0
TEXT
  5
32A
  8
2
 62
     0
 10
67.195986440766589
 20
71.508242406585197
 30
0.0
 40
2.5
  1
10
 50
90.0
  0
POINT
  5
32B
  8
DEFPOINTS
 62
     0
 10
78.827228401987455
 20
67.966575739918511
 30
0.0
  0
POINT
  5
32C
  8
DEFPOINTS
 62
     0
 10
76.527228401987443
 20
77.966575739918511
 30
0.0
  0
POINT
  5
32D
  8
DEFPOINTS
 62
     0
 10
67.820986440766603
 20
77.966575739918511
 30
0.0
  0
ENDBLK
  5
32F
  8
0
  0
BLOCK
  8
0
  2
*D6
 70
     1
 10
0.0
 20
0.0
 30
0.0
  3
*D6
  1

  0
LINE
  5
35B
  8
2
 62
     0
 10
80.527228401987443
 20
53.341575739918511
 30
0.0
 11
80.527228401987443
 21
42.679580163944102
 31
0.0
  0
LINE
  5
35C
  8
2
 62
     0
 10
86.527228401987458
 20
53.341575739918511
 30
0.0
 11
86.527228401987458
 21
42.679580163944102
 31
0.0
  0
LINE
  5
35D
  8
2
 62
     0
 10
78.027228401987458
 20
43.929580163944102
 30
0.0
 11
75.527228401987458
 21
43.929580163944102
 31
0.0
  0
LINE
  5
35E
  8
2
 62
     0
 10
89.027228401987458
 20
43.929580163944102
 30
0.0
 11
91.527228401987458
 21
43.929580163944102
 31
0.0
  0
LINE
  5
35F
  8
2
 62
     0
 10
80.527228401987443
 20
43.929580163944102
 30
0.0
 11
86.527228401987458
 21
43.929580163944102
 31
0.0
  0
SOLID
  5
360
  8
2
 62
     0
 10
78.027228401987458
 20
44.34624683061076
 30
0.0
 11
78.027228401987458
 21
43.512913497277438
 31
0.0
 12
80.527228401987443
 22
43.929580163944102
 32
0.0
 13
80.527228401987443
 23
43.929580163944102
 33
0.0
  0
SOLID
  5
361
  8
2
 62
     0
 10
89.027228401987458
 20
44.34624683061076
 30
0.0
 11
89.027228401987458
 21
43.512913497277438
 31
0.0
 12
86.527228401987458
 22
43.929580163944102
 32
0.0
 13
86.527228401987458
 23
43.929580163944102
 33
0.0
  0
INSERT
  5
362
  8
2
  2
*U9
 10
0.0
 20
0.0
 30
0.0
  0
POINT
  5
363
  8
DEFPOINTS
 62
     0
 10
80.527228401987443
 20
53.966575739918511
 30
0.0
  0
POINT
  5
364
  8
DEFPOINTS
 62
     0
 10
86.527228401987458
 20
53.966575739918511
 30
0.0
  0
POINT
  5
365
  8
DEFPOINTS
 62
     0
 10
86.527228401987458
 20
43.929580163944102
 30
0.0
  0
ENDBLK
  5
33F
  8
0
  0
BLOCK
  8
0
  2
*D7
 70
     1
 10
0.0
 20
0.0
 30
0.0
  3
*D7
  1

  0
LINE
  5
366
  8
2
 62
     0
 10
79.027228401987443
 20
54.341575739918511
 30
0.0
 11
79.027228401987443
 21
37.746689321456309
 31
0.0
  0
LINE
  5
367
  8
2
 62
     0
 10
88.027228401987443
 20
54.341575739918511
 30
0.0
 11
88.027228401987443
 21
37.746689321456309
 31
0.0
  0
LINE
  5
368
  8
2
 62
     0
 10
81.527228401987458
 20
38.996689321456309
 30
0.0
 11
85.527228401987443
 21
38.996689321456309
 31
0.0
  0
SOLID
  5
369
  8
2
 62
     0
 10
81.527228401987458
 20
39.413355988122973
 30
0.0
 11
81.527228401987458
 21
38.580022654789637
 31
0.0
 12
79.027228401987443
 22
38.996689321456309
 32
0.0
 13
79.027228401987443
 23
38.996689321456309
 33
0.0
  0
SOLID
  5
36A
  8
2
 62
     0
 10
85.527228401987443
 20
39.413355988122973
 30
0.0
 11
85.527228401987443
 21
38.580022654789637
 31
0.0
 12
88.027228401987443
 22
38.996689321456309
 32
0.0
 13
88.027228401987443
 23
38.996689321456309
 33
0.0
  0
INSERT
  5
36B
  8
2
  2
*U10
 10
0.0
 20
0.0
 30
0.0
  0
POINT
  5
36C
  8
DEFPOINTS
 62
     0
 10
79.027228401987443
 20
54.966575739918511
 30
0.0
  0
POINT
  5
36D
  8
DEFPOINTS
 62
     0
 10
88.027228401987443
 20
54.966575739918511
 30
0.0
  0
POINT
  5
36E
  8
DEFPOINTS
 62
     0
 10
88.027228401987443
 20
38.996689321456309
 30
0.0
  0
ENDBLK
  5
34C
  8
0
  0
BLOCK
  8
0
  2
*D8
 70
     1
 10
0.0
 20
0.0
 30
0.0
  3
*D8
  1

  0
LINE
  5
36F
  8
2
 62
     0
 10
78.527228401987458
 20
53.341575739918511
 30
0.0
 11
78.527228401987458
 21
32.954738248898941
 31
0.0
  0
LINE
  5
370
  8
2
 62
     0
 10
88.527228401987458
 20
53.341575739918511
 30
0.0
 11
88.527228401987458
 21
32.954738248898941
 31
0.0
  0
LINE
  5
371
  8
2
 62
     0
 10
81.027228401987458
 20
34.204738248898941
 30
0.0
 11
86.027228401987458
 21
34.204738248898941
 31
0.0
  0
SOLID
  5
372
  8
2
 62
     0
 10
81.027228401987458
 20
34.621404915565599
 30
0.0
 11
81.027228401987458
 21
33.78807158223227
 31
0.0
 12
78.527228401987458
 22
34.204738248898941
 32
0.0
 13
78.527228401987458
 23
34.204738248898941
 33
0.0
  0
SOLID
  5
373
  8
2
 62
     0
 10
86.027228401987458
 20
34.621404915565599
 30
0.0
 11
86.027228401987458
 21
33.78807158223227
 31
0.0
 12
88.527228401987458
 22
34.204738248898941
 32
0.0
 13
88.527228401987458
 23
34.204738248898941
 33
0.0
  0
INSERT
  5
374
  8
2
  2
*U11
 10
0.0
 20
0.0
 30
0.0
  0
POINT
  5
375
  8
DEFPOINTS
 62
     0
 10
78.527228401987458
 20
53.966575739918511
 30
0.0
  0
POINT
  5
376
  8
DEFPOINTS
 62
     0
 10
88.527228401987458
 20
53.966575739918511
 30
0.0
  0
POINT
  5
377
  8
DEFPOINTS
 62
     0
 10
88.527228401987458
 20
34.204738248898941
 30
0.0
  0
ENDBLK
  5
359
  8
0
  0
BLOCK
  8
0
  2
*U9
 70
     1
 10
0.0
 20
0.0
 30
0.0
  3
*U9
  1

  0
TEXT
  5
39A
  8
2
 62
     0
 10
81.443895068654129
 20
44.554580163944102
 30
0.0
 40
2.5
  1
\U+2205
  0
TEXT
  5
39B
  8
2
 62
     0
 10
83.943895068654129
 20
44.554580163944102
 30
0.0
 40
2.5
  1
6
  0
ENDBLK
  5
39D
  8
0
  0
BLOCK
  8
0
  2
*U10
 70
     1
 10
0.0
 20
0.0
 30
0.0
  3
*U10
  1

  0
TEXT
  5
39F
  8
2
 62
     0
 10
81.443895068654129
 20
39.621689321456309
 30
0.0
 40
2.5
  1
\U+2205
  0
TEXT
  5
3A0
  8
2
 62
     0
 10
83.943895068654129
 20
39.621689321456309
 30
0.0
 40
2.5
  1
9
  0
ENDBLK
  5
3A2
  8
0
  0
BLOCK
  8
0
  2
*U11
 70
     1
 10
0.0
 20
0.0
 30
0.0
  3
*U11
  1

  0
TEXT
  5
3A4
  8
2
 62
     0
 10
80.818895068654129
 20
34.829738248898941
 30
0.0
 40
2.5
  1
\U+2205
  0
TEXT
  5
3A5
  8
2
 62
     0
 10
83.318895068654129
 20
34.829738248898941
 30
0.0
 40
2.5
  1
10
  0
ENDBLK
  5
3A7
  8
0
  0
ENDSEC
  0
SECTION
  2
ENTITIES
  0
TEXT
  5
C9
  8
2
 10
71.987043780566182
 20
25.191394252583621
 30
0.0
 40
2.5399440000000002
  1
No. 270.114
 51
-0.0000015352344868
  7
\U+00C9L\U+00C9R_\U+00C2S\U+00C2V\U+00C2B\U+00C2N
  0
POLYLINE
  5
F2
  8
0
 66
     1
 10
0.0
 20
0.0
 30
0.0
 39
5.0
  0
VERTEX
  5
393
  8
0
 10
83.527228401987458
 20
65.966575739918511
 30
0.0
  0
VERTEX
  5
394
  8
0
 10
90.334428401987466
 20
65.966575739918511
 30
0.0
  0
SEQEND
  5
395
  8
0
  0
POLYLINE
  5
F3
  8
0
 66
     1
 10
0.0
 20
0.0
 30
0.0
 39
5.0
  0
VERTEX
  5
396
  8
0
 10
83.527228401987458
 20
70.966575739918511
 30
0.0
  0
VERTEX
  5
397
  8
0
 10
90.664628401987471
 20
70.966575739918511
 30
0.0
  0
SEQEND
  5
398
  8
0
  0
LINE
  5
16D
  8
0
 39
5.0
 10
90.433828401987455
 20
65.969075739918509
 30
0.0
 11
90.334428401987466
 21
65.966575739918511
 31
0.0
  0
LINE
  5
16E
  8
0
 39
5.0
 10
90.334428401987466
 20
65.966575739918511
 30
0.0
 11
88.353228401987465
 21
65.966575739918511
 31
0.0
  0
LINE
  5
183
  8
1
 10
83.527228401987458
 20
78.266575739918508
 30
0.0
 11
83.527228401987458
 21
53.666575739918507
 31
0.0
  0
LINE
  5
186
  8
0
 39
5.0
 10
83.527228401987458
 20
67.171575739918524
 30
0.0
 11
80.527228401987443
 21
67.171575739918524
 31
0.0
  0
LINE
  5
192
  8
0
 39
5.0
 10
76.527228401987443
 20
70.955524494938601
 30
0.0
 11
76.519328401987465
 21
70.954775739918517
 31
0.0
  0
LINE
  5
193
  8
0
 39
5.0
 10
76.519328401987465
 20
70.954775739918517
 30
0.0
 11
76.403228401987462
 21
70.937975739918514
 31
0.0
  0
LINE
  5
194
  8
0
 39
5.0
 10
76.403228401987462
 20
70.937975739918514
 30
0.0
 11
76.295528401987468
 21
70.916375739918493
 31
0.0
  0
LINE
  5
195
  8
0
 39
5.0
 10
76.295528401987468
 20
70.916375739918493
 30
0.0
 11
76.196528401987464
 21
70.889675739918516
 31
0.0
  0
LINE
  5
196
  8
0
 39
5.0
 10
76.196528401987464
 20
70.889675739918516
 30
0.0
 11
76.105728401987463
 21
70.858075739918519
 31
0.0
  0
LINE
  5
197
  8
0
 39
5.0
 10
76.105728401987463
 20
70.858075739918519
 30
0.0
 11
76.023528401987463
 21
70.821175739918516
 31
0.0
  0
LINE
  5
198
  8
0
 39
5.0
 10
76.023528401987463
 20
70.821175739918516
 30
0.0
 11
75.949928401987464
 21
70.779175739918514
 31
0.0
  0
LINE
  5
199
  8
0
 39
5.0
 10
75.949928401987464
 20
70.779175739918514
 30
0.0
 11
75.884928401987466
 21
70.731675739918515
 31
0.0
  0
LINE
  5
19A
  8
0
 39
5.0
 10
75.884928401987466
 20
70.731675739918515
 30
0.0
 11
75.828428401987466
 21
70.679175739918506
 31
0.0
  0
LINE
  5
19B
  8
0
 39
5.0
 10
75.828428401987466
 20
70.679175739918506
 30
0.0
 11
75.78072840198746
 21
70.620975739918507
 31
0.0
  0
LINE
  5
19C
  8
0
 39
5.0
 10
75.78072840198746
 20
70.620975739918507
 30
0.0
 11
75.741628401987469
 21
70.557375739918513
 31
0.0
  0
LINE
  5
19D
  8
0
 39
5.0
 10
75.741628401987469
 20
70.557375739918513
 30
0.0
 11
75.711528401987465
 21
70.488075739918514
 31
0.0
  0
LINE
  5
19E
  8
0
 39
5.0
 10
75.711528401987465
 20
70.488075739918514
 30
0.0
 11
75.689928401987444
 21
70.413275739918504
 31
0.0
  0
LINE
  5
19F
  8
0
 39
5.0
 10
75.689928401987444
 20
70.413275739918504
 30
0.0
 11
75.677328401987467
 21
70.332575739918511
 31
0.0
  0
LINE
  5
1A0
  8
0
 39
5.0
 10
75.677328401987467
 20
70.332575739918511
 30
0.0
 11
75.673428401987465
 21
70.246175739918513
 31
0.0
  0
LINE
  5
1A1
  8
0
 39
5.0
 10
75.673428401987465
 20
70.246175739918513
 30
0.0
 11
75.678628401987453
 21
70.153775739918515
 31
0.0
  0
LINE
  5
1A2
  8
0
 39
5.0
 10
75.678628401987453
 20
70.153775739918515
 30
0.0
 11
75.678628401987453
 21
66.790575739918523
 31
0.0
  0
LINE
  5
1A3
  8
0
 39
5.0
 10
75.678628401987453
 20
66.790575739918523
 30
0.0
 11
75.678628401987453
 21
66.790575739918523
 31
0.0
  0
LINE
  5
1A4
  8
0
 39
5.0
 10
75.678628401987453
 20
66.790575739918523
 30
0.0
 11
75.683528401987473
 21
66.645275739918503
 31
0.0
  0
LINE
  5
1A5
  8
0
 39
5.0
 10
75.683528401987473
 20
66.645275739918503
 30
0.0
 11
75.698128401987461
 21
66.547375739918508
 31
0.0
  0
LINE
  5
1A6
  8
0
 39
5.0
 10
75.698128401987461
 20
66.547375739918508
 30
0.0
 11
75.721828401987466
 21
66.459775739918513
 31
0.0
  0
LINE
  5
1A7
  8
0
 39
5.0
 10
75.721828401987466
 20
66.459775739918513
 30
0.0
 11
75.754328401987465
 21
66.38177573991851
 31
0.0
  0
LINE
  5
1A8
  8
0
 39
5.0
 10
75.754328401987465
 20
66.38177573991851
 30
0.0
 11
75.794828401987473
 21
66.313175739918506
 31
0.0
  0
LINE
  5
1A9
  8
0
 39
5.0
 10
75.794828401987473
 20
66.313175739918506
 30
0.0
 11
75.84322840198746
 21
66.253175739918504
 31
0.0
  0
LINE
  5
1AA
  8
0
 39
5.0
 10
75.84322840198746
 20
66.253175739918504
 30
0.0
 11
75.898728401987455
 21
66.201375739918504
 31
0.0
  0
LINE
  5
1AB
  8
0
 39
5.0
 10
75.898728401987455
 20
66.201375739918504
 30
0.0
 11
75.961128401987466
 21
66.157175739918515
 31
0.0
  0
LINE
  5
1AC
  8
0
 39
5.0
 10
75.961128401987466
 20
66.157175739918515
 30
0.0
 11
76.029528401987463
 21
66.120275739918512
 31
0.0
  0
LINE
  5
1AD
  8
0
 39
5.0
 10
76.029528401987463
 20
66.120275739918512
 30
0.0
 11
76.103828401987471
 21
66.089875739918511
 31
0.0
  0
LINE
  5
1AE
  8
0
 39
5.0
 10
76.103828401987471
 20
66.089875739918511
 30
0.0
 11
76.18342840198747
 21
66.065675739918504
 31
0.0
  0
LINE
  5
1AF
  8
0
 39
5.0
 10
76.18342840198747
 20
66.065675739918504
 30
0.0
 11
76.267928401987461
 21
66.046875739918505
 31
0.0
  0
LINE
  5
1B0
  8
0
 39
5.0
 10
76.267928401987461
 20
66.046875739918505
 30
0.0
 11
76.356528401987461
 21
66.033275739918508
 31
0.0
  0
LINE
  5
1B1
  8
0
 39
5.0
 10
76.356528401987461
 20
66.033275739918508
 30
0.0
 11
76.449128401987466
 21
66.024075739918501
 31
0.0
  0
LINE
  5
1B2
  8
0
 39
5.0
 10
76.449128401987466
 20
66.024075739918501
 30
0.0
 11
77.529226441203193
 21
65.966575739918511
 31
0.0
  0
LINE
  5
1B3
  8
0
 39
5.0
 10
76.544928401987463
 20
66.018975739918503
 30
0.0
 11
76.643828401987463
 21
66.017375739918506
 31
0.0
  0
LINE
  5
1BD
  8
0
 10
76.527228401987443
 20
77.966575739918511
 30
0.0
 11
83.527228401987458
 21
77.966575739918511
 31
0.0
  0
LINE
  5
1C0
  8
0
 10
78.527228401987458
 20
53.966575739918511
 30
0.0
 11
83.527228401987458
 21
53.966575739918511
 31
0.0
  0
LINE
  5
1C4
  8
0
 39
5.0
 10
84.263828401987453
 20
70.966575739918511
 30
0.0
 11
87.94682840198746
 21
70.966575739918511
 31
0.0
  0
LINE
  5
1C5
  8
0
 39
5.0
 10
87.94682840198746
 20
70.966575739918511
 30
0.0
 11
87.94682840198746
 21
70.966575739918511
 31
0.0
  0
LINE
  5
1C6
  8
0
 39
5.0
 10
87.94682840198746
 20
70.966575739918511
 30
0.0
 11
88.021728401987474
 21
70.962875739918502
 31
0.0
  0
LINE
  5
1C7
  8
0
 39
5.0
 10
88.021728401987474
 20
70.962875739918502
 30
0.0
 11
88.094728401987467
 21
70.951675739918514
 31
0.0
  0
LINE
  5
1C8
  8
0
 39
5.0
 10
88.094728401987467
 20
70.951675739918514
 30
0.0
 11
88.165128401987445
 21
70.933475739918507
 31
0.0
  0
LINE
  5
1C9
  8
0
 39
5.0
 10
88.165128401987445
 20
70.933475739918507
 30
0.0
 11
88.232728401987444
 21
70.908575739918518
 31
0.0
  0
LINE
  5
1CA
  8
0
 39
5.0
 10
88.232728401987444
 20
70.908575739918518
 30
0.0
 11
88.297028401987475
 21
70.877575739918512
 31
0.0
  0
LINE
  5
1CB
  8
0
 39
5.0
 10
88.297028401987475
 20
70.877575739918512
 30
0.0
 11
88.357828401987462
 21
70.840575739918506
 31
0.0
  0
LINE
  5
1CC
  8
0
 39
5.0
 10
88.357828401987462
 20
70.840575739918506
 30
0.0
 11
88.414528401987454
 21
70.798075739918517
 31
0.0
  0
LINE
  5
1CD
  8
0
 39
5.0
 10
88.414528401987454
 20
70.798075739918517
 30
0.0
 11
88.467028401987463
 21
70.750275739918493
 31
0.0
  0
LINE
  5
1CE
  8
0
 39
5.0
 10
88.467028401987463
 20
70.750275739918493
 30
0.0
 11
88.514528401987462
 21
70.698075739918508
 31
0.0
  0
LINE
  5
1CF
  8
0
 39
5.0
 10
88.514528401987462
 20
70.698075739918508
 30
0.0
 11
88.557028401987466
 21
70.641275739918512
 31
0.0
  0
LINE
  5
1D0
  8
0
 39
5.0
 10
88.557028401987466
 20
70.641275739918512
 30
0.0
 11
88.594028401987444
 21
70.580575739918515
 31
0.0
  0
LINE
  5
1D1
  8
0
 39
5.0
 10
88.594028401987444
 20
70.580575739918515
 30
0.0
 11
88.625228401987485
 21
70.516075739918506
 31
0.0
  0
LINE
  5
1D2
  8
0
 39
5.0
 10
88.625228401987485
 20
70.516075739918506
 30
0.0
 11
88.650028401987456
 21
70.44857573991851
 31
0.0
  0
LINE
  5
1D3
  8
0
 39
5.0
 10
88.650028401987456
 20
70.44857573991851
 30
0.0
 11
88.668328401987466
 21
70.378075739918515
 31
0.0
  0
LINE
  5
1D4
  8
0
 39
5.0
 10
88.668328401987466
 20
70.378075739918515
 30
0.0
 11
88.679528401987454
 21
70.305175739918511
 31
0.0
  0
LINE
  5
1D5
  8
0
 39
5.0
 10
88.679528401987454
 20
70.305175739918511
 30
0.0
 11
88.683428401987484
 21
70.229975739918515
 31
0.0
  0
LINE
  5
1D6
  8
0
 39
5.0
 10
88.683428401987484
 20
70.229975739918515
 30
0.0
 11
88.683428401987484
 21
66.703175739918507
 31
0.0
  0
LINE
  5
1D7
  8
0
 39
5.0
 10
88.683428401987484
 20
66.703175739918507
 30
0.0
 11
88.683428401987484
 21
66.703175739918507
 31
0.0
  0
LINE
  5
1D8
  8
0
 39
5.0
 10
88.683428401987484
 20
66.703175739918507
 30
0.0
 11
88.679528401987454
 21
66.628275739918507
 31
0.0
  0
LINE
  5
1D9
  8
0
 39
5.0
 10
88.679528401987454
 20
66.628275739918507
 30
0.0
 11
88.668328401987466
 21
66.555275739918514
 31
0.0
  0
LINE
  5
1DA
  8
0
 39
5.0
 10
88.668328401987466
 20
66.555275739918514
 30
0.0
 11
88.650028401987456
 21
66.484875739918493
 31
0.0
  0
LINE
  5
1DB
  8
0
 39
5.0
 10
88.650028401987456
 20
66.484875739918493
 30
0.0
 11
88.625228401987485
 21
66.417275739918495
 31
0.0
  0
LINE
  5
1DC
  8
0
 39
5.0
 10
88.625228401987485
 20
66.417275739918495
 30
0.0
 11
88.594028401987444
 21
66.352975739918506
 31
0.0
  0
LINE
  5
1DD
  8
0
 39
5.0
 10
88.594028401987444
 20
66.352975739918506
 30
0.0
 11
88.557028401987466
 21
66.292175739918505
 31
0.0
  0
LINE
  5
1DE
  8
0
 39
5.0
 10
88.557028401987466
 20
66.292175739918505
 30
0.0
 11
88.514528401987462
 21
66.235475739918513
 31
0.0
  0
LINE
  5
1DF
  8
0
 39
5.0
 10
88.514528401987462
 20
66.235475739918513
 30
0.0
 11
88.467028401987463
 21
66.182975739918504
 31
0.0
  0
LINE
  5
1E0
  8
0
 39
5.0
 10
88.467028401987463
 20
66.182975739918504
 30
0.0
 11
88.414528401987454
 21
66.135475739918505
 31
0.0
  0
LINE
  5
1E1
  8
0
 39
5.0
 10
88.414528401987454
 20
66.135475739918505
 30
0.0
 11
88.357828401987462
 21
66.092975739918515
 31
0.0
  0
LINE
  5
1E2
  8
0
 39
5.0
 10
88.357828401987462
 20
66.092975739918515
 30
0.0
 11
88.297028401987475
 21
66.055975739918495
 31
0.0
  0
LINE
  5
1E3
  8
0
 39
5.0
 10
88.297028401987475
 20
66.055975739918495
 30
0.0
 11
88.232728401987444
 21
66.02477573991851
 31
0.0
  0
LINE
  5
1E4
  8
0
 39
5.0
 10
88.232728401987444
 20
66.02477573991851
 30
0.0
 11
88.165128401987445
 21
65.999975739918511
 31
0.0
  0
LINE
  5
1E5
  8
0
 39
5.0
 10
88.165128401987445
 20
65.999975739918511
 30
0.0
 11
88.094728401987467
 21
65.981675739918515
 31
0.0
  0
LINE
  5
1E6
  8
0
 39
5.0
 10
88.094728401987467
 20
65.981675739918515
 30
0.0
 11
88.021728401987474
 21
65.970475739918513
 31
0.0
  0
LINE
  5
1E7
  8
0
 39
5.0
 10
88.021728401987474
 20
65.970475739918513
 30
0.0
 11
87.94682840198746
 21
65.966575739918511
 31
0.0
  0
LINE
  5
1E8
  8
0
 39
5.0
 10
87.94682840198746
 20
65.966575739918511
 30
0.0
 11
84.263828401987453
 21
65.966575739918511
 31
0.0
  0
LINE
  5
20D
  8
0
 39
5.0
 10
90.664628401987471
 20
70.966575739918511
 30
0.0
 11
90.664628401987471
 21
70.966575739918511
 31
0.0
  0
LINE
  5
20E
  8
0
 39
5.0
 10
90.664628401987471
 20
70.966575739918511
 30
0.0
 11
90.739528401987457
 21
70.962875739918502
 31
0.0
  0
LINE
  5
20F
  8
0
 39
5.0
 10
90.739528401987457
 20
70.962875739918502
 30
0.0
 11
90.812528401987464
 21
70.951675739918514
 31
0.0
  0
LINE
  5
210
  8
0
 39
5.0
 10
90.812528401987464
 20
70.951675739918514
 30
0.0
 11
90.882928401987471
 21
70.933475739918507
 31
0.0
  0
LINE
  5
211
  8
0
 39
5.0
 10
90.882928401987471
 20
70.933475739918507
 30
0.0
 11
90.950528401987455
 21
70.908575739918518
 31
0.0
  0
LINE
  5
212
  8
0
 39
5.0
 10
90.950528401987455
 20
70.908575739918518
 30
0.0
 11
91.014828401987458
 21
70.877575739918512
 31
0.0
  0
LINE
  5
213
  8
0
 39
5.0
 10
91.014828401987458
 20
70.877575739918512
 30
0.0
 11
91.075628401987473
 21
70.840575739918506
 31
0.0
  0
LINE
  5
214
  8
0
 39
5.0
 10
91.075628401987473
 20
70.840575739918506
 30
0.0
 11
91.132328401987465
 21
70.798075739918517
 31
0.0
  0
LINE
  5
215
  8
0
 39
5.0
 10
91.132328401987465
 20
70.798075739918517
 30
0.0
 11
91.18482840198746
 21
70.750275739918493
 31
0.0
  0
LINE
  5
216
  8
0
 39
5.0
 10
91.18482840198746
 20
70.750275739918493
 30
0.0
 11
91.232328401987473
 21
70.698075739918508
 31
0.0
  0
LINE
  5
217
  8
0
 39
5.0
 10
91.232328401987473
 20
70.698075739918508
 30
0.0
 11
91.274828401987463
 21
70.641275739918512
 31
0.0
  0
LINE
  5
218
  8
0
 39
5.0
 10
91.274828401987463
 20
70.641275739918512
 30
0.0
 11
91.311828401987455
 21
70.580575739918515
 31
0.0
  0
LINE
  5
219
  8
0
 39
5.0
 10
91.311828401987455
 20
70.580575739918515
 30
0.0
 11
91.343028401987453
 21
70.516075739918506
 31
0.0
  0
LINE
  5
21A
  8
0
 39
5.0
 10
91.343028401987453
 20
70.516075739918506
 30
0.0
 11
91.367828401987467
 21
70.44857573991851
 31
0.0
  0
LINE
  5
21B
  8
0
 39
5.0
 10
91.367828401987467
 20
70.44857573991851
 30
0.0
 11
91.386128401987463
 21
70.378075739918515
 31
0.0
  0
LINE
  5
21C
  8
0
 39
5.0
 10
91.386128401987463
 20
70.378075739918515
 30
0.0
 11
91.397328401987465
 21
70.305175739918511
 31
0.0
  0
LINE
  5
21D
  8
0
 39
5.0
 10
91.397328401987465
 20
70.305175739918511
 30
0.0
 11
91.401228401987467
 21
70.229975739918515
 31
0.0
  0
LINE
  5
21E
  8
0
 39
5.0
 10
91.401228401987467
 20
70.229975739918515
 30
0.0
 11
91.401228401987467
 21
66.703175739918507
 31
0.0
  0
LINE
  5
21F
  8
0
 39
5.0
 10
91.401228401987467
 20
66.703175739918507
 30
0.0
 11
91.401228401987467
 21
66.703175739918507
 31
0.0
  0
LINE
  5
220
  8
0
 39
5.0
 10
91.401228401987467
 20
66.703175739918507
 30
0.0
 11
91.397328401987465
 21
66.628275739918507
 31
0.0
  0
LINE
  5
221
  8
0
 39
5.0
 10
91.397328401987465
 20
66.628275739918507
 30
0.0
 11
91.386128401987463
 21
66.555275739918514
 31
0.0
  0
LINE
  5
222
  8
0
 39
5.0
 10
91.386128401987463
 20
66.555275739918514
 30
0.0
 11
91.367828401987467
 21
66.484875739918493
 31
0.0
  0
LINE
  5
223
  8
0
 39
5.0
 10
91.367828401987467
 20
66.484875739918493
 30
0.0
 11
91.343028401987453
 21
66.417275739918495
 31
0.0
  0
LINE
  5
224
  8
0
 39
5.0
 10
91.343028401987453
 20
66.417275739918495
 30
0.0
 11
91.311828401987455
 21
66.352975739918506
 31
0.0
  0
LINE
  5
225
  8
0
 39
5.0
 10
91.311828401987455
 20
66.352975739918506
 30
0.0
 11
91.274828401987463
 21
66.292175739918505
 31
0.0
  0
LINE
  5
226
  8
0
 39
5.0
 10
91.274828401987463
 20
66.292175739918505
 30
0.0
 11
91.232328401987473
 21
66.235475739918513
 31
0.0
  0
LINE
  5
227
  8
0
 39
5.0
 10
91.232328401987473
 20
66.235475739918513
 30
0.0
 11
91.18482840198746
 21
66.182975739918504
 31
0.0
  0
LINE
  5
228
  8
0
 39
5.0
 10
91.18482840198746
 20
66.182975739918504
 30
0.0
 11
91.132328401987465
 21
66.135475739918505
 31
0.0
  0
LINE
  5
229
  8
0
 39
5.0
 10
91.132328401987465
 20
66.135475739918505
 30
0.0
 11
91.075628401987473
 21
66.092975739918515
 31
0.0
  0
LINE
  5
22A
  8
0
 39
5.0
 10
91.075628401987473
 20
66.092975739918515
 30
0.0
 11
91.014828401987458
 21
66.055975739918495
 31
0.0
  0
LINE
  5
22B
  8
0
 39
5.0
 10
91.014828401987458
 20
66.055975739918495
 30
0.0
 11
90.950528401987455
 21
66.02477573991851
 31
0.0
  0
LINE
  5
22C
  8
0
 39
5.0
 10
90.950528401987455
 20
66.02477573991851
 30
0.0
 11
90.882928401987471
 21
65.999975739918511
 31
0.0
  0
LINE
  5
22D
  8
0
 39
5.0
 10
90.882928401987471
 20
65.999975739918511
 30
0.0
 11
90.812528401987464
 21
65.981675739918515
 31
0.0
  0
LINE
  5
22E
  8
0
 39
5.0
 10
90.812528401987464
 20
65.981675739918515
 30
0.0
 11
90.739528401987457
 21
65.970475739918513
 31
0.0
  0
LINE
  5
22F
  8
0
 39
5.0
 10
90.739528401987457
 20
65.970475739918513
 30
0.0
 11
90.664628401987471
 21
65.966575739918511
 31
0.0
  0
LINE
  5
230
  8
0
 39
5.0
 10
90.664628401987471
 20
65.966575739918511
 30
0.0
 11
89.420028401987466
 21
65.966575739918511
 31
0.0
  0
LINE
  5
231
  8
0
 39
5.0
 10
89.420028401987466
 20
65.966575739918511
 30
0.0
 11
89.420028401987466
 21
65.966575739918511
 31
0.0
  0
LINE
  5
232
  8
0
 39
5.0
 10
89.420028401987466
 20
65.966575739918511
 30
0.0
 11
89.344828401987456
 21
65.970475739918513
 31
0.0
  0
LINE
  5
233
  8
0
 39
5.0
 10
89.344828401987456
 20
65.970475739918513
 30
0.0
 11
89.271928401987466
 21
65.981675739918515
 31
0.0
  0
LINE
  5
234
  8
0
 39
5.0
 10
89.271928401987466
 20
65.981675739918515
 30
0.0
 11
89.201428401987485
 21
65.999975739918511
 31
0.0
  0
LINE
  5
235
  8
0
 39
5.0
 10
89.201428401987485
 20
65.999975739918511
 30
0.0
 11
89.133928401987461
 21
66.02477573991851
 31
0.0
  0
LINE
  5
236
  8
0
 39
5.0
 10
89.133928401987461
 20
66.02477573991851
 30
0.0
 11
89.069428401987466
 21
66.055975739918495
 31
0.0
  0
LINE
  5
237
  8
0
 39
5.0
 10
89.069428401987466
 20
66.055975739918495
 30
0.0
 11
89.008728401987469
 21
66.092975739918515
 31
0.0
  0
LINE
  5
238
  8
0
 39
5.0
 10
89.008728401987469
 20
66.092975739918515
 30
0.0
 11
88.951928401987445
 21
66.135475739918505
 31
0.0
  0
LINE
  5
239
  8
0
 39
5.0
 10
88.951928401987445
 20
66.135475739918505
 30
0.0
 11
88.89972840198746
 21
66.182975739918504
 31
0.0
  0
LINE
  5
23A
  8
0
 39
5.0
 10
88.89972840198746
 20
66.182975739918504
 30
0.0
 11
88.851928401987465
 21
66.235475739918513
 31
0.0
  0
LINE
  5
23B
  8
0
 39
5.0
 10
88.851928401987465
 20
66.235475739918513
 30
0.0
 11
88.809428401987475
 21
66.292175739918505
 31
0.0
  0
LINE
  5
23C
  8
0
 39
5.0
 10
88.809428401987475
 20
66.292175739918505
 30
0.0
 11
88.772428401987455
 21
66.352975739918506
 31
0.0
  0
LINE
  5
23D
  8
0
 39
5.0
 10
88.772428401987455
 20
66.352975739918506
 30
0.0
 11
88.741428401987463
 21
66.417275739918495
 31
0.0
  0
LINE
  5
23E
  8
0
 39
5.0
 10
88.741428401987463
 20
66.417275739918495
 30
0.0
 11
88.716528401987475
 21
66.484875739918493
 31
0.0
  0
LINE
  5
23F
  8
0
 39
5.0
 10
88.716528401987475
 20
66.484875739918493
 30
0.0
 11
88.698328401987439
 21
66.555275739918514
 31
0.0
  0
LINE
  5
240
  8
0
 39
5.0
 10
88.698328401987439
 20
66.555275739918514
 30
0.0
 11
88.687128401987465
 21
66.628275739918507
 31
0.0
  0
LINE
  5
241
  8
0
 39
5.0
 10
88.687128401987465
 20
66.628275739918507
 30
0.0
 11
88.683428401987484
 21
66.703175739918507
 31
0.0
  0
LINE
  5
242
  8
0
 39
5.0
 10
88.683428401987484
 20
66.703175739918507
 30
0.0
 11
88.683428401987484
 21
70.229975739918515
 31
0.0
  0
LINE
  5
243
  8
0
 39
5.0
 10
88.683428401987484
 20
70.229975739918515
 30
0.0
 11
88.683428401987484
 21
70.229975739918515
 31
0.0
  0
LINE
  5
244
  8
0
 39
5.0
 10
88.683428401987484
 20
70.229975739918515
 30
0.0
 11
88.687128401987465
 21
70.305175739918511
 31
0.0
  0
LINE
  5
245
  8
0
 39
5.0
 10
88.687128401987465
 20
70.305175739918511
 30
0.0
 11
88.698328401987439
 21
70.378075739918515
 31
0.0
  0
LINE
  5
246
  8
0
 39
5.0
 10
88.698328401987439
 20
70.378075739918515
 30
0.0
 11
88.716528401987475
 21
70.44857573991851
 31
0.0
  0
LINE
  5
247
  8
0
 39
5.0
 10
88.716528401987475
 20
70.44857573991851
 30
0.0
 11
88.741428401987463
 21
70.516075739918506
 31
0.0
  0
LINE
  5
248
  8
0
 39
5.0
 10
88.741428401987463
 20
70.516075739918506
 30
0.0
 11
88.772428401987455
 21
70.580575739918515
 31
0.0
  0
LINE
  5
249
  8
0
 39
5.0
 10
88.772428401987455
 20
70.580575739918515
 30
0.0
 11
88.809428401987475
 21
70.641275739918512
 31
0.0
  0
LINE
  5
24A
  8
0
 39
5.0
 10
88.809428401987475
 20
70.641275739918512
 30
0.0
 11
88.851928401987465
 21
70.698075739918508
 31
0.0
  0
LINE
  5
24B
  8
0
 39
5.0
 10
88.851928401987465
 20
70.698075739918508
 30
0.0
 11
88.89972840198746
 21
70.750275739918493
 31
0.0
  0
LINE
  5
24C
  8
0
 39
5.0
 10
88.89972840198746
 20
70.750275739918493
 30
0.0
 11
88.951928401987445
 21
70.798075739918517
 31
0.0
  0
LINE
  5
24D
  8
0
 39
5.0
 10
88.951928401987445
 20
70.798075739918517
 30
0.0
 11
89.008728401987469
 21
70.840575739918506
 31
0.0
  0
LINE
  5
24E
  8
0
 39
5.0
 10
89.008728401987469
 20
70.840575739918506
 30
0.0
 11
89.069428401987466
 21
70.877575739918512
 31
0.0
  0
LINE
  5
24F
  8
0
 39
5.0
 10
89.069428401987466
 20
70.877575739918512
 30
0.0
 11
89.133928401987461
 21
70.908575739918518
 31
0.0
  0
LINE
  5
250
  8
0
 39
5.0
 10
89.133928401987461
 20
70.908575739918518
 30
0.0
 11
89.201428401987485
 21
70.933475739918507
 31
0.0
  0
LINE
  5
251
  8
0
 39
5.0
 10
89.201428401987485
 20
70.933475739918507
 30
0.0
 11
89.271928401987466
 21
70.951675739918514
 31
0.0
  0
LINE
  5
252
  8
0
 39
5.0
 10
89.271928401987466
 20
70.951675739918514
 30
0.0
 11
89.344828401987456
 21
70.962875739918502
 31
0.0
  0
LINE
  5
253
  8
0
 39
5.0
 10
89.344828401987456
 20
70.962875739918502
 30
0.0
 11
89.420028401987466
 21
70.966575739918511
 31
0.0
  0
LINE
  5
257
  8
0
 10
77.529226441203193
 20
65.966575739918511
 30
0.0
 11
78.527228401987458
 21
65.966575739918511
 31
0.0
  0
LINE
  5
2A7
  8
2
 10
78.527228401987458
 20
77.966575739918511
 30
0.0
 11
78.527228401987458
 21
67.966575739918511
 31
0.0
  0
LINE
  5
2A8
  8
0
 10
78.827228401987455
 20
77.966575739918511
 30
0.0
 11
78.827228401987455
 21
67.966575739918511
 31
0.0
  0
LINE
  5
2AE
  8
0
 10
80.527228401987443
 20
53.966575739918511
 30
0.0
 11
80.527228401987443
 21
67.171575739918524
 31
0.0
  0
LINE
  5
2B5
  8
0
 10
76.527228401987443
 20
70.955524494938601
 30
0.0
 11
76.527228401987443
 21
77.966575739918511
 31
0.0
  0
LINE
  5
2B8
  8
0
 10
78.527228401987458
 20
65.966575739918511
 30
0.0
 11
78.527228401987458
 21
55.966575739918511
 31
0.0
  0
LINE
  5
2BC
  8
0
 10
79.027228401987443
 20
54.966575739918511
 30
0.0
 11
78.527228401987458
 21
54.966575739918511
 31
0.0
  0
LINE
  5
2BD
  8
0
 10
79.027228401987443
 20
55.966575739918511
 30
0.0
 11
79.027228401987443
 21
54.966575739918511
 31
0.0
  0
LINE
  5
2BF
  8
0
 10
78.527228401987458
 20
55.966575739918511
 30
0.0
 11
79.027228401987443
 21
55.966575739918511
 31
0.0
  0
LINE
  5
2C0
  8
0
 10
78.527228401987458
 20
54.966575739918511
 30
0.0
 11
78.527228401987458
 21
53.966575739918511
 31
0.0
  0
LINE
  5
2C5
  8
0
 10
90.527228401987443
 20
77.966575739918511
 30
0.0
 11
83.527228401987458
 21
77.966575739918511
 31
0.0
  0
LINE
  5
2C6
  8
0
 10
90.527228401987443
 20
70.966575739918511
 30
0.0
 11
90.527228401987443
 21
77.966575739918511
 31
0.0
  0
LINE
  5
2C7
  8
3
 10
88.527228401987458
 20
77.966575739918511
 30
0.0
 11
88.527228401987458
 21
67.966575739918511
 31
0.0
  0
LINE
  5
2C8
  8
3
 10
88.22722840198746
 20
77.966575739918511
 30
0.0
 11
88.22722840198746
 21
67.966575739918511
 31
0.0
  0
LINE
  5
2CC
  8
3
 10
86.527228401987458
 20
53.966575739918511
 30
0.0
 11
86.527228401987458
 21
67.171575739918524
 31
0.0
  0
LINE
  5
2CD
  8
0
 10
88.527228401987458
 20
65.966575739918511
 30
0.0
 11
88.527228401987458
 21
55.966575739918511
 31
0.0
  0
LINE
  5
2CE
  8
0
 10
88.027228401987443
 20
55.966575739918511
 30
0.0
 11
88.027228401987443
 21
54.966575739918511
 31
0.0
  0
LINE
  5
2CF
  8
0
 10
88.527228401987458
 20
55.966575739918511
 30
0.0
 11
88.027228401987443
 21
55.966575739918511
 31
0.0
  0
LINE
  5
2D0
  8
0
 10
88.027228401987443
 20
54.966575739918511
 30
0.0
 11
88.527228401987458
 21
54.966575739918511
 31
0.0
  0
LINE
  5
2D1
  8
0
 10
88.527228401987458
 20
53.966575739918511
 30
0.0
 11
83.527228401987458
 21
53.966575739918511
 31
0.0
  0
LINE
  5
2D2
  8
0
 10
88.527228401987458
 20
54.966575739918511
 30
0.0
 11
88.527228401987458
 21
53.966575739918511
 31
0.0
  0
LINE
  5
2D7
  8
3
 10
86.527228401987458
 20
67.171575739918524
 30
0.0
 11
83.527228401987458
 21
67.171575739918524
 31
0.0
  0
DIMENSION
  5
2E0
  8
2
  2
*D1
 10
102.42417743674
 20
70.966575739918497
 30
0.0
 11
100.54917743674
 21
74.466575739918525
 31
0.0
 70
     0
 13
90.527228401987443
 23
77.966575739918511
 33
0.0
 14
90.527228401987443
 24
70.966575739918511
 34
0.0
 50
90.0
  0
DIMENSION
  5
2ED
  8
2
  2
*D2
 10
107.2812552830069
 20
65.966575739918497
 30
0.0
 11
105.4062552830069
 21
71.966575739918525
 31
0.0
 70
     0
 13
102.42417743674
 23
77.966575739918497
 33
0.0
 14
90.334428401987466
 24
65.966575739918511
 34
0.0
 50
90.0
  0
DIMENSION
  5
2FA
  8
2
  2
*D3
 10
112.5517012277528
 20
53.966575739918497
 30
0.0
 11
110.6767012277528
 21
65.966575739918525
 31
0.0
 70
     0
 13
107.2812552830069
 23
77.966575739918497
 33
0.0
 14
88.527228401987458
 24
53.966575739918511
 34
0.0
 50
90.0
  0
DIMENSION
  5
308
  8
2
  2
*D4
 10
68.114606789769908
 20
54.966575739918511
 30
0.0
 11
66.239606789769894
 21
61.008242406585182
 31
0.0
 70
     0
 13
78.527228401987458
 23
53.966575739918511
 33
0.0
 14
78.527228401987458
 24
54.966575739918511
 34
0.0
 50
90.0
  0
LINE
  5
31B
  8
2
 10
83.527228401987472
 20
67.966575739918525
 30
0.0
 11
78.527228401987458
 21
67.966575739918511
 31
0.0
  0
LINE
  5
31E
  8
3
 10
83.527228401987458
 20
67.966575739918525
 30
0.0
 11
88.527228401987458
 21
67.966575739918525
 31
0.0
  0
LINE
  5
321
  8
2
 10
80.527228401987443
 20
67.171575739918524
 30
0.0
 11
78.827228401987455
 21
67.966575739918511
 31
0.0
  0
LINE
  5
322
  8
3
 10
86.527228401987458
 20
67.171575739918524
 30
0.0
 11
88.22722840198746
 21
67.966575739918511
 31
0.0
  0
DIMENSION
  5
323
  8
2
  2
*D5
 10
67.820986440766603
 20
77.966575739918511
 30
0.0
 11
65.945986440766589
 21
72.966575739918525
 31
0.0
 70
     0
 13
78.827228401987455
 23
67.966575739918511
 33
0.0
 14
76.527228401987443
 24
77.966575739918511
 34
0.0
 50
90.0
  0
DIMENSION
  5
331
  8
2
  2
*D6
 10
86.527228401987458
 20
43.929580163944102
 30
0.0
 11
83.527228401987458
 21
45.804580163944102
 31
0.0
 70
     0
  1
%%c<>
 13
80.527228401987443
 23
53.966575739918511
 33
0.0
 14
86.527228401987458
 24
53.966575739918511
 34
0.0
  0
DIMENSION
  5
340
  8
2
  2
*D7
 10
88.027228401987443
 20
38.996689321456309
 30
0.0
 11
83.527228401987458
 21
40.871689321456309
 31
0.0
 70
     0
  1
%%c<>
 13
79.027228401987443
 23
54.966575739918511
 33
0.0
 14
88.027228401987443
 24
54.966575739918511
 34
0.0
  0
DIMENSION
  5
34D
  8
2
  2
*D8
 10
88.527228401987458
 20
34.204738248898941
 30
0.0
 11
83.527228401987458
 21
36.079738248898941
 31
0.0
 70
     0
  1
%%c<>
 13
78.527228401987458
 23
53.966575739918511
 33
0.0
 14
88.527228401987458
 24
53.966575739918511
 34
0.0
  0
TEXT
  5
379
  8
2
 10
60.778942486986011
 20
85.431098612991264
 30
0.0
 40
2.5
  1
G1/8
  0
TEXT
  5
37A
  8
2
 10
93.743777547965536
 20
59.125016428869543
 30
0.0
 40
2.5
  1
H14
  0
POLYLINE
  8
2
  5
3A8
  66
     1
 10
0.000000
 20
0.000000
 30
0.000000
  70
     8
  0
VERTEX
  8
2
  5
3A9
 10
78.5272
 20
72.9666
 30
0.000000
  70
    32
  0
VERTEX
  8
2
  5
3AA
 10
69.5611
 20
84.6270
 30
0.000000
  70
    32
  0
VERTEX
  8
2
  5
3AB
 10
60.2698
 20
84.6270
 30
0.000000
  70
    32
  0
SEQEND
  8
2
  5
3AC
  0
POLYLINE
  8
2
  5
3AD
  66
     1
 10
0.000000
 20
0.000000
 30
0.000000
  70
     8
  0
VERTEX
  8
2
  5
3AE
 10
90.9594
 20
65.9666
 30
0.000000
  70
    32
  0
VERTEX
  8
2
  5
3AF
 10
93.3619
 20
58.4480
 30
0.000000
  70
    32
  0
VERTEX
  8
2
  5
3B0
 10
100.362
 20
58.4480
 30
0.000000
  70
    32
  0
SEQEND
  8
2
  5
3B1
  0
ENDSEC
  0
EOF
