  0
SECTION
  2
HEADER
  9
$ACADVER
  1
AC1009
  9
$INSBASE
 10
0.0
 20
0.0
 30
0.0
  9
$EXTMIN
 10
60.653727511196898
 20
24.790879498269831
 30
0.0
  9
$EXTMAX
 10
104.85758639090849
 20
75.108502630913037
 30
5.0
  9
$LIMMIN
 10
0.0
 20
0.0
  9
$LIMMAX
 10
420.0
 20
297.0
  9
$ORTHOMODE
 70
     0
  9
$REGENMODE
 70
     1
  9
$FILLMODE
 70
     1
  9
$QTEXTMODE
 70
     0
  9
$MIRRTEXT
 70
     1
  9
$DRAGMODE
 70
     2
  9
$LTSCALE
 40
0.3
  9
$OSMODE
 70
    37
  9
$ATTMODE
 70
     1
  9
$TEXTSIZE
 40
2.5
  9
$TRACEWID
 40
1.0
  9
$TEXTSTYLE
  7
STANDARD
  9
$CLAYER
  8
3
  9
$CELTYPE
  6
BYLAYER
  9
$CECOLOR
 62
   256
  9
$DIMSCALE
 40
1.0
  9
$DIMASZ
 40
2.5
  9
$DIMEXO
 40
0.625
  9
$DIMDLI
 40
3.75
  9
$DIMRND
 40
0.0
  9
$DIMDLE
 40
0.0
  9
$DIMEXE
 40
1.25
  9
$DIMTP
 40
0.0
  9
$DIMTM
 40
0.0
  9
$DIMTXT
 40
2.5
  9
$DIMCEN
 40
2.5
  9
$DIMTSZ
 40
0.0
  9
$DIMTOL
 70
     0
  9
$DIMLIM
 70
     0
  9
$DIMTIH
 70
     0
  9
$DIMTOH
 70
     0
  9
$DIMSE1
 70
     0
  9
$DIMSE2
 70
     0
  9
$DIMTAD
 70
     1
  9
$DIMZIN
 70
     8
  9
$DIMBLK
  1

  9
$DIMASO
 70
     1
  9
$DIMSHO
 70
     1
  9
$DIMPOST
  1

  9
$DIMAPOST
  1

  9
$DIMALT
 70
     0
  9
$DIMALTD
 70
     3
  9
$DIMALTF
 40
0.03937007874016
  9
$DIMLFAC
 40
1.0
  9
$DIMTOFL
 70
     1
  9
$DIMTVP
 40
0.0
  9
$DIMTIX
 70
     0
  9
$DIMSOXD
 70
     0
  9
$DIMSAH
 70
     0
  9
$DIMBLK1
  1

  9
$DIMBLK2
  1

  9
$DIMSTYLE
  2
ISO-25
  9
$DIMCLRD
 70
     0
  9
$DIMCLRE
 70
     0
  9
$DIMCLRT
 70
     0
  9
$DIMTFAC
 40
1.0
  9
$DIMGAP
 40
0.625
  9
$LUNITS
 70
     2
  9
$LUPREC
 70
     4
  9
$SKETCHINC
 40
1.0
  9
$FILLETRAD
 40
10.0
  9
$AUNITS
 70
     0
  9
$AUPREC
 70
     0
  9
$MENU
  1
.
  9
$ELEVATION
 40
0.0
  9
$PELEVATION
 40
0.0
  9
$THICKNESS
 40
0.0
  9
$LIMCHECK
 70
     0
  9
$BLIPMODE
 70
     0
  9
$CHAMFERA
 40
10.0
  9
$CHAMFERB
 40
10.0
  9
$SKPOLY
 70
     0
  9
$TDCREATE
 40
2453447.3799036341
  9
$TDUPDATE
 40
2453551.9206753471
  9
$TDINDWG
 40
0.0174101042
  9
$TDUSRTIMER
 40
0.0174101042
  9
$USRTIMER
 70
     1
  9
$ANGBASE
 50
0.0
  9
$ANGDIR
 70
     0
  9
$PDMODE
 70
     0
  9
$PDSIZE
 40
0.0
  9
$PLINEWID
 40
0.0
  9
$COORDS
 70
     1
  9
$SPLFRAME
 70
     0
  9
$SPLINETYPE
 70
     6
  9
$SPLINESEGS
 70
     8
  9
$ATTDIA
 70
     0
  9
$ATTREQ
 70
     1
  9
$HANDLING
 70
-16383
  9
$HANDSEED
  5
418
  9
$SURFTAB1
 70
     6
  9
$SURFTAB2
 70
     6
  9
$SURFTYPE
 70
     6
  9
$SURFU
 70
     6
  9
$SURFV
 70
     6
  9
$UCSNAME
  2

  9
$UCSORG
 10
0.0
 20
0.0
 30
0.0
  9
$UCSXDIR
 10
1.0
 20
0.0
 30
0.0
  9
$UCSYDIR
 10
0.0
 20
1.0
 30
0.0
  9
$PUCSNAME
  2

  9
$PUCSORG
 10
0.0
 20
0.0
 30
0.0
  9
$PUCSXDIR
 10
1.0
 20
0.0
 30
0.0
  9
$PUCSYDIR
 10
0.0
 20
1.0
 30
0.0
  9
$USERI1
 70
     0
  9
$USERI2
 70
     0
  9
$USERI3
 70
     0
  9
$USERI4
 70
     0
  9
$USERI5
 70
     0
  9
$USERR1
 40
0.0
  9
$USERR2
 40
0.0
  9
$USERR3
 40
0.0
  9
$USERR4
 40
0.0
  9
$USERR5
 40
0.0
  9
$WORLDVIEW
 70
     1
  9
$SHADEDGE
 70
     3
  9
$SHADEDIF
 70
    70
  9
$TILEMODE
 70
     1
  9
$MAXACTVP
 70
    64
  9
$PLIMCHECK
 70
     0
  9
$PEXTMIN
 10
1.0000000000000000E+020
 20
1.0000000000000000E+020
 30
1.0000000000000000E+020
  9
$PEXTMAX
 10
-1.0000000000000000E+020
 20
-1.0000000000000000E+020
 30
-1.0000000000000000E+020
  9
$PLIMMIN
 10
0.0
 20
0.0
  9
$PLIMMAX
 10
420.0
 20
297.0
  9
$UNITMODE
 70
     0
  9
$VISRETAIN
 70
     1
  9
$PLINEGEN
 70
     0
  9
$PSLTSCALE
 70
     1
  0
ENDSEC
  0
SECTION
  2
TABLES
  0
TABLE
  2
VPORT
 70
     2
  0
VPORT
  2
*ACTIVE
 70
     0
 10
0.0
 20
0.0
 11
1.0
 21
1.0
 12
98.586895796491021
 22
49.342805006785618
 13
0.0
 23
0.0
 14
10.0
 24
10.0
 15
10.0
 25
10.0
 16
0.0
 26
0.0
 36
1.0
 17
0.0
 27
0.0
 37
0.0
 40
67.111587915788647
 41
2.5392405063291141
 42
50.0
 43
0.0
 44
0.0
 50
0.0
 51
0.0
 71
     0
 72
   100
 73
     1
 74
     3
 75
     0
 76
     0
 77
     0
 78
     0
  0
ENDTAB
  0
TABLE
  2
LTYPE
 70
     3
  0
LTYPE
  2
CONTINUOUS
 70
     0
  3
Solid line
 72
    65
 73
     0
 40
0.0
  0
LTYPE
  2
CENTER
 70
     0
  3
Center ____ _ ____ _ ____ _ ____ _ ____ _ ____
 72
    65
 73
     4
 40
50.799999999999997
 49
31.75
 49
-6.3499999999999988
 49
6.3499999999999988
 49
-6.3499999999999988
  0
LTYPE
  2
DASHED2
 70
     0
  3
Dashed (.5x) _ _ _ _ _ _ _ _ _ _ _ _ _ _ _ _ _
 72
    65
 73
     2
 40
9.5249999999999986
 49
6.3499999999999988
 49
-3.1749999999999989
  0
ENDTAB
  0
TABLE
  2
LAYER
 70
     5
  0
LAYER
  2
0
 70
     0
 62
     7
  6
CONTINUOUS
  0
LAYER
  2
1
 70
     0
 62
     7
  6
CENTER
  0
LAYER
  2
2
 70
     0
 62
     7
  6
CONTINUOUS
  0
LAYER
  2
3
 70
     0
 62
     7
  6
DASHED2
  0
LAYER
  2
DEFPOINTS
 70
     0
 62
     7
  6
CONTINUOUS
  0
ENDTAB
  0
TABLE
  2
STYLE
 70
     3
  0
STYLE
  2
STANDARD
 70
     0
 40
0.0
 41
1.0
 50
0.0
 71
     0
 42
2.5
  3
txt
  4

  0
STYLE
  2
\U+00C9L\U+00C9R_\U+00C2S\U+00C2V\U+00C2B\U+00C2N
 70
     0
 40
1.0
 41
1.0
 50
0.0
 71
     0
 42
1.0
  3
\U+00E9l\U+00E9r \U+00E2S\U+00E2V\U+00E2b\U+00E2N
  4

  0
STYLE
  2

 70
     1
 40
0.0
 41
1.0
 50
0.0
 71
     0
 42
2.5
  3
ltypeshp.shx
  4

  0
ENDTAB
  0
TABLE
  2
VIEW
 70
     0
  0
ENDTAB
  0
TABLE
  2
UCS
 70
     0
  0
ENDTAB
  0
TABLE
  2
APPID
 70
     1
  0
APPID
  2
ACAD
 70
     0
  0
ENDTAB
  0
TABLE
  2
DIMSTYLE
 70
     2
  0
DIMSTYLE
  2
ISO-25
 70
     0
  3

  4

  5

  6

  7

 40
1.0
 41
2.5
 42
0.625
 43
3.75
 44
1.25
 45
0.0
 46
0.0
 47
0.0
 48
0.0
140
2.5
141
2.5
142
0.0
143
0.03937007874016
144
1.0
145
0.0
146
1.0
147
0.625
 71
     0
 72
     0
 73
     0
 74
     0
 75
     0
 76
     0
 77
     1
 78
     8
170
     0
171
     3
172
     1
173
     0
174
     0
175
     0
176
     0
177
     0
178
     0
  0
DIMSTYLE
  2
STANDARD
 70
     0
  3

  4

  5

  6

  7

 40
1.0
 41
0.18
 42
0.0625
 43
0.38
 44
0.18
 45
0.0
 46
0.0
 47
0.0
 48
0.0
140
0.18
141
0.09
142
0.0
143
25.399999999999999
144
1.0
145
0.0
146
1.0
147
0.09
 71
     0
 72
     0
 73
     1
 74
     1
 75
     0
 76
     0
 77
     0
 78
     0
170
     0
171
     2
172
     0
173
     0
174
     0
175
     0
176
     0
177
     0
178
     0
  0
ENDTAB
  0
ENDSEC
  0
SECTION
  2
BLOCKS
  0
BLOCK
  8
0
  2
$MODEL_SPACE
 70
     0
 10
0.0
 20
0.0
 30
0.0
  3
$MODEL_SPACE
  1

  0
ENDBLK
  5
21
  8
0
  0
BLOCK
 67
     1
  8
0
  2
$PAPER_SPACE
 70
     0
 10
0.0
 20
0.0
 30
0.0
  3
$PAPER_SPACE
  1

  0
ENDBLK
  5
1D
 67
     1
  8
0
  0
BLOCK
  8
0
  2
*D1
 70
     1
 10
0.0
 20
0.0
 30
0.0
  3
*D1
  1

  0
LINE
  5
3A0
  8
2
 62
     0
 10
77.8455832461173
 20
63.858502630913023
 30
0.0
 11
95.530931075928194
 21
63.858502630913023
 31
0.0
  0
LINE
  5
3A1
  8
2
 62
     0
 10
79.945583246117295
 20
60.258502630913028
 30
0.0
 11
95.530931075928194
 21
60.258502630913021
 31
0.0
  0
LINE
  5
3A2
  8
2
 62
     0
 10
94.280931075928194
 20
57.758502630913021
 30
0.0
 11
94.280931075928194
 21
55.258502630913021
 31
0.0
  0
LINE
  5
3A3
  8
2
 62
     0
 10
94.280931075928194
 20
66.358502630913037
 30
0.0
 11
94.280931075928194
 21
75.108502630913037
 31
0.0
  0
LINE
  5
3A4
  8
2
 62
     0
 10
94.280931075928194
 20
60.258502630913021
 30
0.0
 11
94.280931075928194
 21
63.858502630913023
 31
0.0
  0
SOLID
  5
3A5
  8
2
 62
     0
 10
93.864264409261523
 20
57.758502630913021
 30
0.0
 11
94.697597742594866
 21
57.758502630913021
 31
0.0
 12
94.280931075928194
 22
60.258502630913021
 32
0.0
 13
94.280931075928194
 23
60.258502630913021
 33
0.0
  0
SOLID
  5
3A6
  8
2
 62
     0
 10
93.864264409261523
 20
66.358502630913037
 30
0.0
 11
94.697597742594866
 21
66.358502630913037
 31
0.0
 12
94.280931075928194
 22
63.858502630913023
 32
0.0
 13
94.280931075928194
 23
63.858502630913023
 33
0.0
  0
TEXT
  5
3A7
  8
3
 62
     0
 10
93.65593107592818
 20
69.483502630913051
 30
0.0
 40
2.5
  1
3.6
 50
90.0
  0
POINT
  5
3A8
  8
DEFPOINTS
 62
     0
 10
77.2205832461173
 20
63.858502630913023
 30
0.0
  0
POINT
  5
3A9
  8
DEFPOINTS
 62
     0
 10
79.320583246117295
 20
60.258502630913028
 30
0.0
  0
POINT
  5
3AA
  8
DEFPOINTS
 62
     0
 10
94.280931075928194
 20
60.258502630913021
 30
0.0
  0
ENDBLK
  5
337
  8
0
  0
BLOCK
  8
0
  2
*D2
 70
     1
 10
0.0
 20
0.0
 30
0.0
  3
*D2
  1

  0
LINE
  5
3D2
  8
2
 62
     0
 10
73.170583246117303
 20
52.333502630913031
 30
0.0
 11
73.170583246117303
 21
41.172552720736299
 31
0.0
  0
LINE
  5
3D3
  8
2
 62
     0
 10
76.270583246117297
 20
52.333502630913031
 30
0.0
 11
76.270583246117297
 21
41.172552720736299
 31
0.0
  0
LINE
  5
3D4
  8
2
 62
     0
 10
70.670583246117303
 20
42.422552720736299
 30
0.0
 11
68.170583246117303
 21
42.422552720736299
 31
0.0
  0
LINE
  5
3D5
  8
2
 62
     0
 10
78.770583246117297
 20
42.422552720736299
 30
0.0
 11
89.187249912783969
 21
42.422552720736299
 31
0.0
  0
LINE
  5
3D6
  8
2
 62
     0
 10
73.170583246117303
 20
42.422552720736299
 30
0.0
 11
76.270583246117297
 21
42.422552720736299
 31
0.0
  0
SOLID
  5
3D7
  8
2
 62
     0
 10
70.670583246117303
 20
42.83921938740297
 30
0.0
 11
70.670583246117303
 21
42.005886054069641
 31
0.0
 12
73.170583246117303
 22
42.422552720736299
 32
0.0
 13
73.170583246117303
 23
42.422552720736299
 33
0.0
  0
SOLID
  5
3D8
  8
2
 62
     0
 10
78.770583246117297
 20
42.83921938740297
 30
0.0
 11
78.770583246117297
 21
42.005886054069641
 31
0.0
 12
76.270583246117297
 22
42.422552720736299
 32
0.0
 13
76.270583246117297
 23
42.422552720736299
 33
0.0
  0
INSERT
  5
3D9
  8
3
  2
*U8
 10
0.0
 20
0.0
 30
0.0
  0
POINT
  5
3DA
  8
DEFPOINTS
 62
     0
 10
73.170583246117303
 20
52.958502630913031
 30
0.0
  0
POINT
  5
3DB
  8
DEFPOINTS
 62
     0
 10
76.270583246117297
 20
52.958502630913031
 30
0.0
  0
POINT
  5
3DC
  8
DEFPOINTS
 62
     0
 10
76.270583246117297
 20
42.422552720736299
 30
0.0
  0
ENDBLK
  5
353
  8
0
  0
BLOCK
  8
0
  2
*D3
 70
     1
 10
0.0
 20
0.0
 30
0.0
  3
*D3
  1

  0
LINE
  5
3C7
  8
2
 62
     0
 10
73.9705832461173
 20
64.483502630913023
 30
0.0
 11
73.9705832461173
 21
73.008948772576602
 31
0.0
  0
LINE
  5
3C8
  8
2
 62
     0
 10
75.4705832461173
 20
64.483502630913023
 30
0.0
 11
75.4705832461173
 21
73.008948772576602
 31
0.0
  0
LINE
  5
3C9
  8
2
 62
     0
 10
71.4705832461173
 20
71.758948772576602
 30
0.0
 11
68.9705832461173
 21
71.758948772576602
 31
0.0
  0
LINE
  5
3CA
  8
2
 62
     0
 10
77.9705832461173
 20
71.758948772576602
 30
0.0
 11
88.387249912783972
 21
71.758948772576602
 31
0.0
  0
LINE
  5
3CB
  8
2
 62
     0
 10
73.9705832461173
 20
71.758948772576602
 30
0.0
 11
75.4705832461173
 21
71.758948772576602
 31
0.0
  0
SOLID
  5
3CC
  8
2
 62
     0
 10
71.4705832461173
 20
72.175615439243273
 30
0.0
 11
71.4705832461173
 21
71.342282105909931
 31
0.0
 12
73.9705832461173
 22
71.758948772576602
 32
0.0
 13
73.9705832461173
 23
71.758948772576602
 33
0.0
  0
SOLID
  5
3CD
  8
2
 62
     0
 10
77.9705832461173
 20
72.175615439243273
 30
0.0
 11
77.9705832461173
 21
71.342282105909931
 31
0.0
 12
75.4705832461173
 22
71.758948772576602
 32
0.0
 13
75.4705832461173
 23
71.758948772576602
 33
0.0
  0
INSERT
  5
3CE
  8
3
  2
*U7
 10
0.0
 20
0.0
 30
0.0
  0
POINT
  5
3CF
  8
DEFPOINTS
 62
     0
 10
73.9705832461173
 20
63.858502630913023
 30
0.0
  0
POINT
  5
3D0
  8
DEFPOINTS
 62
     0
 10
75.4705832461173
 20
63.858502630913023
 30
0.0
  0
POINT
  5
3D1
  8
DEFPOINTS
 62
     0
 10
75.4705832461173
 20
71.758948772576602
 30
0.0
  0
ENDBLK
  5
362
  8
0
  0
BLOCK
  8
0
  2
*D4
 70
     1
 10
0.0
 20
0.0
 30
0.0
  3
*D4
  1

  0
LINE
  5
365
  8
2
 62
     0
 10
94.489264409261494
 20
63.858502630913023
 30
0.0
 11
100.147131372518
 21
63.858502630913023
 31
0.0
  0
LINE
  5
366
  8
2
 62
     0
 10
76.0955832461173
 20
56.358502630913009
 30
0.0
 11
100.147131372518
 21
56.358502630913001
 31
0.0
  0
LINE
  5
367
  8
2
 62
     0
 10
98.897131372518103
 20
61.358502630913023
 30
0.0
 11
98.897131372518103
 21
58.858502630913001
 31
0.0
  0
SOLID
  5
368
  8
2
 62
     0
 10
98.480464705851418
 20
61.358502630913023
 30
0.0
 11
99.313798039184761
 21
61.358502630913023
 31
0.0
 12
98.897131372518103
 22
63.858502630913023
 32
0.0
 13
98.897131372518103
 23
63.858502630913023
 33
0.0
  0
SOLID
  5
369
  8
2
 62
     0
 10
98.480464705851418
 20
58.858502630913001
 30
0.0
 11
99.313798039184761
 21
58.858502630913001
 31
0.0
 12
98.897131372518103
 22
56.358502630913001
 32
0.0
 13
98.897131372518103
 23
56.358502630913001
 33
0.0
  0
TEXT
  5
36A
  8
3
 62
     0
 10
98.272131372518075
 20
57.608502630913023
 30
0.0
 40
2.5
  1
7.5
 50
90.0
  0
POINT
  5
36B
  8
DEFPOINTS
 62
     0
 10
93.864264409261494
 20
63.858502630913023
 30
0.0
  0
POINT
  5
36C
  8
DEFPOINTS
 62
     0
 10
75.4705832461173
 20
56.358502630913009
 30
0.0
  0
POINT
  5
36D
  8
DEFPOINTS
 62
     0
 10
98.897131372518103
 20
56.358502630913001
 30
0.0
  0
ENDBLK
  5
36F
  8
0
  0
BLOCK
  8
0
  2
*D5
 70
     1
 10
0.0
 20
0.0
 30
0.0
  3
*D5
  1

  0
LINE
  5
372
  8
2
 62
     0
 10
99.522131372518103
 20
63.858502630913023
 30
0.0
 11
104.85758639090849
 21
63.858502630913023
 31
0.0
  0
LINE
  5
373
  8
2
 62
     0
 10
76.0955832461173
 20
50.65850263091302
 30
0.0
 11
104.85758639090849
 21
50.65850263091302
 31
0.0
  0
LINE
  5
374
  8
2
 62
     0
 10
103.60758639090849
 20
61.358502630913023
 30
0.0
 11
103.60758639090849
 21
53.15850263091302
 31
0.0
  0
SOLID
  5
375
  8
2
 62
     0
 10
103.19091972424179
 20
61.358502630913023
 30
0.0
 11
104.02425305757519
 21
61.358502630913023
 31
0.0
 12
103.60758639090849
 22
63.858502630913023
 32
0.0
 13
103.60758639090849
 23
63.858502630913023
 33
0.0
  0
SOLID
  5
376
  8
2
 62
     0
 10
103.19091972424179
 20
53.15850263091302
 30
0.0
 11
104.02425305757519
 21
53.15850263091302
 31
0.0
 12
103.60758639090849
 22
50.65850263091302
 32
0.0
 13
103.60758639090849
 23
50.65850263091302
 33
0.0
  0
TEXT
  5
377
  8
3
 62
     0
 10
102.98258639090849
 20
53.9251692975797
 30
0.0
 40
2.5
  1
13.2
 50
90.0
  0
POINT
  5
378
  8
DEFPOINTS
 62
     0
 10
98.897131372518103
 20
63.858502630913023
 30
0.0
  0
POINT
  5
379
  8
DEFPOINTS
 62
     0
 10
75.4705832461173
 20
50.65850263091302
 30
0.0
  0
POINT
  5
37A
  8
DEFPOINTS
 62
     0
 10
103.60758639090849
 20
50.65850263091302
 30
0.0
  0
ENDBLK
  5
37C
  8
0
  0
BLOCK
  8
0
  2
*D6
 70
     1
 10
0.0
 20
0.0
 30
0.0
  3
*D6
  1

  0
LINE
  5
3BB
  8
2
 62
     0
 10
76.447383246117283
 20
50.65850263091302
 30
0.0
 11
95.530931075928194
 21
50.65850263091302
 31
0.0
  0
LINE
  5
3BC
  8
2
 62
     0
 10
76.895583246117297
 20
52.958502630913031
 30
0.0
 11
95.530931075928194
 21
52.958502630913017
 31
0.0
  0
LINE
  5
3BD
  8
2
 62
     0
 10
94.280931075928194
 20
55.458502630913017
 30
0.0
 11
94.280931075928194
 21
57.958502630913017
 31
0.0
  0
LINE
  5
3BE
  8
2
 62
     0
 10
94.280931075928194
 20
48.15850263091302
 30
0.0
 11
94.280931075928194
 21
39.40850263091302
 31
0.0
  0
LINE
  5
3BF
  8
2
 62
     0
 10
94.280931075928194
 20
52.958502630913017
 30
0.0
 11
94.280931075928194
 21
50.65850263091302
 31
0.0
  0
SOLID
  5
3C0
  8
2
 62
     0
 10
93.864264409261537
 20
55.458502630913017
 30
0.0
 11
94.69759774259488
 21
55.458502630913017
 31
0.0
 12
94.280931075928194
 22
52.958502630913017
 32
0.0
 13
94.280931075928194
 23
52.958502630913017
 33
0.0
  0
SOLID
  5
3C1
  8
2
 62
     0
 10
93.864264409261537
 20
48.15850263091302
 30
0.0
 11
94.69759774259488
 21
48.15850263091302
 31
0.0
 12
94.280931075928194
 22
50.65850263091302
 32
0.0
 13
94.280931075928194
 23
50.65850263091302
 33
0.0
  0
TEXT
  5
3C2
  8
3
 62
     0
 10
93.655931075928194
 20
40.033502630913027
 30
0.0
 40
2.5
  1
2.3
 50
90.0
  0
POINT
  5
3C3
  8
DEFPOINTS
 62
     0
 10
75.822383246117283
 20
50.65850263091302
 30
0.0
  0
POINT
  5
3C4
  8
DEFPOINTS
 62
     0
 10
76.270583246117297
 20
52.958502630913031
 30
0.0
  0
POINT
  5
3C5
  8
DEFPOINTS
 62
     0
 10
94.280931075928194
 20
52.958502630913017
 30
0.0
  0
ENDBLK
  5
3BA
  8
0
  0
BLOCK
  8
0
  2
*U7
 70
     1
 10
0.0
 20
0.0
 30
0.0
  3
*U7
  1

  0
TEXT
  5
405
  8
3
 62
     0
 10
81.095583246117315
 20
72.383948772576602
 30
0.0
 40
2.5
  1
\U+2205
  0
TEXT
  5
406
  8
3
 62
     0
 10
83.595583246117315
 20
72.383948772576602
 30
0.0
 40
2.5
  1
1.5
  0
ENDBLK
  5
408
  8
0
  0
BLOCK
  8
0
  2
*U8
 70
     1
 10
0.0
 20
0.0
 30
0.0
  3
*U8
  1

  0
TEXT
  5
40A
  8
3
 62
     0
 10
81.895583246117283
 20
43.047552720736299
 30
0.0
 40
2.5
  1
\U+2205
  0
TEXT
  5
40B
  8
3
 62
     0
 10
84.395583246117283
 20
43.047552720736299
 30
0.0
 40
2.5
  1
3.1
  0
ENDBLK
  5
40D
  8
0
  0
ENDSEC
  0
SECTION
  2
ENTITIES
  0
TEXT
  5
176
  8
2
 10
64.488866932045852
 20
24.790879498269842
 30
0.0
 40
2.5399440000000002
  1
No. 270.153
 51
-0.0000015352344868
  7
\U+00C9L\U+00C9R_\U+00C2S\U+00C2V\U+00C2B\U+00C2N
  0
LINE
  5
267
  8
0
 39
5.0
 10
70.120583246117306
 20
57.247502630913033
 30
0.0
 11
70.120583246117306
 21
57.247502630913033
 31
0.0
  0
LINE
  5
268
  8
0
 39
5.0
 10
70.120583246117306
 20
57.247502630913033
 30
0.0
 11
70.120783246117313
 21
57.159502630913018
 31
0.0
  0
LINE
  5
269
  8
0
 39
5.0
 10
70.120783246117313
 20
57.159502630913018
 30
0.0
 11
70.121683246117314
 21
57.076102630913027
 31
0.0
  0
LINE
  5
26A
  8
0
 39
5.0
 10
70.121683246117314
 20
57.076102630913027
 30
0.0
 11
70.124183246117312
 21
56.997302630913033
 31
0.0
  0
LINE
  5
26B
  8
0
 39
5.0
 10
70.124183246117312
 20
56.997302630913033
 30
0.0
 11
70.128983246117301
 21
56.923002630913032
 31
0.0
  0
LINE
  5
26C
  8
0
 39
5.0
 10
70.128983246117301
 20
56.923002630913032
 30
0.0
 11
70.137083246117314
 21
56.853302630913028
 31
0.0
  0
LINE
  5
26D
  8
0
 39
5.0
 10
70.137083246117314
 20
56.853302630913028
 30
0.0
 11
70.148883246117308
 21
56.787702630913031
 31
0.0
  0
LINE
  5
26E
  8
0
 39
5.0
 10
70.148883246117308
 20
56.787702630913031
 30
0.0
 11
70.165483246117304
 21
56.726702630913032
 31
0.0
  0
LINE
  5
26F
  8
0
 39
5.0
 10
70.165483246117304
 20
56.726702630913032
 30
0.0
 11
70.187283246117303
 21
56.669702630913029
 31
0.0
  0
LINE
  5
270
  8
0
 39
5.0
 10
70.187283246117303
 20
56.669702630913029
 30
0.0
 11
70.215683246117308
 21
56.617102630913031
 31
0.0
  0
LINE
  5
271
  8
0
 39
5.0
 10
70.215683246117308
 20
56.617102630913031
 30
0.0
 11
70.250983246117315
 21
56.568502630913031
 31
0.0
  0
LINE
  5
272
  8
0
 39
5.0
 10
70.250983246117315
 20
56.568502630913031
 30
0.0
 11
70.29408324611731
 21
56.523902630913021
 31
0.0
  0
LINE
  5
273
  8
0
 39
5.0
 10
70.29408324611731
 20
56.523902630913021
 30
0.0
 11
70.345683246117304
 21
56.483202630913027
 31
0.0
  0
LINE
  5
274
  8
0
 39
5.0
 10
70.345683246117304
 20
56.483202630913027
 30
0.0
 11
70.406883246117317
 21
56.446502630913031
 31
0.0
  0
LINE
  5
275
  8
0
 39
5.0
 10
70.406883246117317
 20
56.446502630913031
 30
0.0
 11
70.478083246117308
 21
56.41350263091303
 31
0.0
  0
LINE
  5
276
  8
0
 39
5.0
 10
70.478083246117308
 20
56.41350263091303
 30
0.0
 11
70.560283246117294
 21
56.384302630913027
 31
0.0
  0
LINE
  5
277
  8
0
 39
5.0
 10
70.560283246117294
 20
56.384302630913027
 30
0.0
 11
70.653983246117306
 21
56.358502630913023
 31
0.0
  0
LINE
  5
279
  8
0
 39
5.0
 10
72.998849879257861
 20
56.358502630913023
 30
0.0
 11
73.746901174203813
 21
52.958502630913031
 31
0.0
  0
LINE
  5
289
  8
1
 10
74.7205832461173
 20
64.05850263091304
 30
0.0
 11
74.7205832461173
 21
50.458502630913031
 31
0.0
  0
LINE
  5
28D
  8
0
 10
72.2205832461173
 20
63.858502630913023
 30
0.0
 11
74.7205832461173
 21
63.858502630913023
 31
0.0
  0
LINE
  5
28F
  8
0
 10
72.2205832461173
 20
63.858502630913023
 30
0.0
 11
72.2205832461173
 21
60.258502630913028
 31
0.0
  0
LINE
  5
290
  8
2
 10
72.520583246117297
 20
63.858502630913023
 30
0.0
 11
72.520583246117297
 21
60.258502630913028
 31
0.0
  0
LINE
  5
292
  8
0
 10
70.120583246117306
 20
60.258502630913028
 30
0.0
 11
72.520583246117297
 21
60.258502630913028
 31
0.0
  0
LINE
  5
296
  8
0
 10
70.120583246117306
 20
60.258502630913028
 30
0.0
 11
70.120583246117306
 21
57.247502630913033
 31
0.0
  0
LINE
  5
29B
  8
0
 10
70.653983246117306
 20
56.358502630913023
 30
0.0
 11
72.998849879257861
 21
56.358502630913023
 31
0.0
  0
LINE
  5
2A5
  8
0
 10
74.7205832461173
 20
50.65850263091302
 30
0.0
 11
73.618783246117303
 21
50.65850263091302
 31
0.0
  0
LINE
  5
2A7
  8
0
 10
73.9705832461173
 20
63.858502630913023
 30
0.0
 11
73.9705832461173
 21
50.65850263091302
 31
0.0
  0
LINE
  5
2AE
  8
0
 10
73.170583246117303
 20
52.958502630913031
 30
0.0
 11
73.618783246117303
 21
50.65850263091302
 31
0.0
  0
LINE
  5
2AF
  8
0
 10
73.746901174203813
 20
52.958502630913031
 30
0.0
 11
73.170583246117303
 21
52.958502630913031
 31
0.0
  0
LINE
  5
2B3
  8
0
 39
5.0
 10
76.442316612976725
 20
56.358502630913023
 30
0.0
 11
75.694265318030773
 21
52.958502630913031
 31
0.0
  0
LINE
  5
2B4
  8
0
 39
5.0
 10
78.880883246117293
 20
56.384302630913027
 30
0.0
 11
78.787183246117294
 21
56.358502630913023
 31
0.0
  0
LINE
  5
2B5
  8
0
 39
5.0
 10
78.963083246117293
 20
56.41350263091303
 30
0.0
 11
78.880883246117293
 21
56.384302630913027
 31
0.0
  0
LINE
  5
2B6
  8
0
 39
5.0
 10
79.034283246117283
 20
56.446502630913031
 30
0.0
 11
78.963083246117293
 21
56.41350263091303
 31
0.0
  0
LINE
  5
2B7
  8
0
 39
5.0
 10
79.095483246117297
 20
56.483202630913027
 30
0.0
 11
79.034283246117283
 21
56.446502630913031
 31
0.0
  0
LINE
  5
2B8
  8
0
 39
5.0
 10
79.14708324611729
 20
56.523902630913021
 30
0.0
 11
79.095483246117297
 21
56.483202630913027
 31
0.0
  0
LINE
  5
2B9
  8
0
 39
5.0
 10
79.190183246117286
 20
56.568502630913031
 30
0.0
 11
79.14708324611729
 21
56.523902630913021
 31
0.0
  0
LINE
  5
2BA
  8
0
 39
5.0
 10
79.225483246117292
 20
56.617102630913031
 30
0.0
 11
79.190183246117286
 21
56.568502630913031
 31
0.0
  0
LINE
  5
2BB
  8
0
 39
5.0
 10
79.253883246117297
 20
56.669702630913029
 30
0.0
 11
79.225483246117292
 21
56.617102630913031
 31
0.0
  0
LINE
  5
2BC
  8
0
 39
5.0
 10
79.275683246117296
 20
56.726702630913032
 30
0.0
 11
79.253883246117297
 21
56.669702630913029
 31
0.0
  0
LINE
  5
2BD
  8
0
 39
5.0
 10
79.292283246117293
 20
56.787702630913031
 30
0.0
 11
79.275683246117296
 21
56.726702630913032
 31
0.0
  0
LINE
  5
2BE
  8
0
 39
5.0
 10
79.304083246117287
 20
56.853302630913028
 30
0.0
 11
79.292283246117293
 21
56.787702630913031
 31
0.0
  0
LINE
  5
2BF
  8
0
 39
5.0
 10
79.3121832461173
 20
56.923002630913032
 30
0.0
 11
79.304083246117287
 21
56.853302630913028
 31
0.0
  0
LINE
  5
2C0
  8
0
 39
5.0
 10
79.316983246117289
 20
56.997302630913033
 30
0.0
 11
79.3121832461173
 21
56.923002630913032
 31
0.0
  0
LINE
  5
2C1
  8
0
 39
5.0
 10
79.319483246117287
 20
57.076102630913027
 30
0.0
 11
79.316983246117289
 21
56.997302630913033
 31
0.0
  0
LINE
  5
2C2
  8
0
 39
5.0
 10
79.320383246117274
 20
57.159502630913018
 30
0.0
 11
79.319483246117287
 21
57.076102630913027
 31
0.0
  0
LINE
  5
2C3
  8
0
 39
5.0
 10
79.320583246117295
 20
57.247502630913033
 30
0.0
 11
79.320383246117274
 21
57.159502630913018
 31
0.0
  0
LINE
  5
2C4
  8
0
 39
5.0
 10
79.320583246117295
 20
57.247502630913033
 30
0.0
 11
79.320583246117295
 21
57.247502630913033
 31
0.0
  0
LINE
  5
2C5
  8
3
 10
75.4705832461173
 20
63.858502630913023
 30
0.0
 11
75.4705832461173
 21
50.65850263091302
 31
0.0
  0
LINE
  5
2C6
  8
0
 10
74.7205832461173
 20
50.65850263091302
 30
0.0
 11
75.822383246117283
 21
50.65850263091302
 31
0.0
  0
LINE
  5
2C7
  8
0
 10
75.694265318030773
 20
52.958502630913031
 30
0.0
 11
76.270583246117297
 21
52.958502630913031
 31
0.0
  0
LINE
  5
2C8
  8
0
 10
76.270583246117297
 20
52.958502630913031
 30
0.0
 11
75.822383246117283
 21
50.65850263091302
 31
0.0
  0
LINE
  5
2C9
  8
0
 10
79.320583246117295
 20
60.258502630913028
 30
0.0
 11
74.7205832461173
 21
60.258502630913028
 31
0.0
  0
LINE
  5
2CA
  8
0
 10
79.320583246117295
 20
60.258502630913028
 30
0.0
 11
79.320583246117295
 21
57.247502630913033
 31
0.0
  0
LINE
  5
2CB
  8
2
 10
76.920583246117303
 20
63.858502630913023
 30
0.0
 11
76.920583246117303
 21
60.258502630913028
 31
0.0
  0
LINE
  5
2CC
  8
0
 10
77.2205832461173
 20
63.858502630913023
 30
0.0
 11
77.2205832461173
 21
60.258502630913028
 31
0.0
  0
LINE
  5
2CD
  8
0
 10
78.787183246117294
 20
56.358502630913023
 30
0.0
 11
74.7205832461173
 21
56.358502630913001
 31
0.0
  0
LINE
  5
2CE
  8
0
 10
77.2205832461173
 20
63.858502630913023
 30
0.0
 11
74.7205832461173
 21
63.858502630913023
 31
0.0
  0
LINE
  5
2EA
  8
0
 39
5.0
 10
77.444509389417505
 20
57.247502630913033
 30
0.0
 11
77.444509389417505
 21
57.247502630913033
 31
0.0
  0
LINE
  5
2EB
  8
0
 39
5.0
 10
77.444509389417505
 20
57.247502630913033
 30
0.0
 11
77.444309389417498
 21
57.159502630913018
 31
0.0
  0
LINE
  5
2EC
  8
0
 39
5.0
 10
77.444309389417498
 20
57.159502630913018
 30
0.0
 11
77.443409389417496
 21
57.076102630913027
 31
0.0
  0
LINE
  5
2ED
  8
0
 39
5.0
 10
77.443409389417496
 20
57.076102630913027
 30
0.0
 11
77.440909389417499
 21
56.997302630913033
 31
0.0
  0
LINE
  5
2EE
  8
0
 39
5.0
 10
77.440909389417499
 20
56.997302630913033
 30
0.0
 11
77.43610938941751
 21
56.923002630913032
 31
0.0
  0
LINE
  5
2EF
  8
0
 39
5.0
 10
77.43610938941751
 20
56.923002630913032
 30
0.0
 11
77.428009389417497
 21
56.853302630913028
 31
0.0
  0
LINE
  5
2F0
  8
0
 39
5.0
 10
77.428009389417497
 20
56.853302630913028
 30
0.0
 11
77.416209389417503
 21
56.787702630913031
 31
0.0
  0
LINE
  5
2F1
  8
0
 39
5.0
 10
77.416209389417503
 20
56.787702630913031
 30
0.0
 11
77.399609389417506
 21
56.726702630913032
 31
0.0
  0
LINE
  5
2F2
  8
0
 39
5.0
 10
77.399609389417506
 20
56.726702630913032
 30
0.0
 11
77.377809389417493
 21
56.669702630913029
 31
0.0
  0
LINE
  5
2F3
  8
0
 39
5.0
 10
77.377809389417493
 20
56.669702630913029
 30
0.0
 11
77.349409389417502
 21
56.617102630913031
 31
0.0
  0
LINE
  5
2F4
  8
0
 39
5.0
 10
77.349409389417502
 20
56.617102630913031
 30
0.0
 11
77.314109389417496
 21
56.568502630913031
 31
0.0
  0
LINE
  5
2F5
  8
0
 39
5.0
 10
77.314109389417496
 20
56.568502630913031
 30
0.0
 11
77.2710093894175
 21
56.523902630913021
 31
0.0
  0
LINE
  5
2F6
  8
0
 39
5.0
 10
77.2710093894175
 20
56.523902630913021
 30
0.0
 11
77.219409389417507
 21
56.483202630913027
 31
0.0
  0
LINE
  5
2F7
  8
0
 39
5.0
 10
77.219409389417507
 20
56.483202630913027
 30
0.0
 11
77.158209389417493
 21
56.446502630913031
 31
0.0
  0
LINE
  5
2F8
  8
0
 39
5.0
 10
77.158209389417493
 20
56.446502630913031
 30
0.0
 11
77.087009389417503
 21
56.41350263091303
 31
0.0
  0
LINE
  5
2F9
  8
0
 39
5.0
 10
77.087009389417503
 20
56.41350263091303
 30
0.0
 11
77.004809389417503
 21
56.384302630913027
 31
0.0
  0
LINE
  5
2FA
  8
0
 39
5.0
 10
77.004809389417503
 20
56.384302630913027
 30
0.0
 11
76.911109389417504
 21
56.358502630913023
 31
0.0
  0
LINE
  5
2FB
  8
0
 10
77.444509389417505
 20
60.258502630913028
 30
0.0
 11
77.444509389417505
 21
57.247502630913033
 31
0.0
  0
LINE
  5
2FD
  8
0
 39
5.0
 10
77.884209389417506
 20
56.384302630913027
 30
0.0
 11
77.977909389417505
 21
56.358502630913023
 31
0.0
  0
LINE
  5
2FE
  8
0
 39
5.0
 10
77.802009389417506
 20
56.41350263091303
 30
0.0
 11
77.884209389417506
 21
56.384302630913027
 31
0.0
  0
LINE
  5
2FF
  8
0
 39
5.0
 10
77.730809389417516
 20
56.446502630913031
 30
0.0
 11
77.802009389417506
 21
56.41350263091303
 31
0.0
  0
LINE
  5
300
  8
0
 39
5.0
 10
77.669609389417502
 20
56.483202630913027
 30
0.0
 11
77.730809389417516
 21
56.446502630913031
 31
0.0
  0
LINE
  5
301
  8
0
 39
5.0
 10
77.618009389417509
 20
56.523902630913021
 30
0.0
 11
77.669609389417502
 21
56.483202630913027
 31
0.0
  0
LINE
  5
302
  8
0
 39
5.0
 10
77.574909389417513
 20
56.568502630913031
 30
0.0
 11
77.618009389417509
 21
56.523902630913021
 31
0.0
  0
LINE
  5
303
  8
0
 39
5.0
 10
77.539609389417507
 20
56.617102630913031
 30
0.0
 11
77.574909389417513
 21
56.568502630913031
 31
0.0
  0
LINE
  5
304
  8
0
 39
5.0
 10
77.511209389417502
 20
56.669702630913029
 30
0.0
 11
77.539609389417507
 21
56.617102630913031
 31
0.0
  0
LINE
  5
305
  8
0
 39
5.0
 10
77.489409389417503
 20
56.726702630913032
 30
0.0
 11
77.511209389417502
 21
56.669702630913029
 31
0.0
  0
LINE
  5
306
  8
0
 39
5.0
 10
77.472809389417506
 20
56.787702630913031
 30
0.0
 11
77.489409389417503
 21
56.726702630913032
 31
0.0
  0
LINE
  5
307
  8
0
 39
5.0
 10
77.461009389417512
 20
56.853302630913028
 30
0.0
 11
77.472809389417506
 21
56.787702630913031
 31
0.0
  0
LINE
  5
308
  8
0
 39
5.0
 10
77.452909389417485
 20
56.923002630913032
 30
0.0
 11
77.461009389417512
 21
56.853302630913028
 31
0.0
  0
LINE
  5
309
  8
0
 39
5.0
 10
77.44810938941751
 20
56.997302630913033
 30
0.0
 11
77.452909389417485
 21
56.923002630913032
 31
0.0
  0
LINE
  5
30A
  8
0
 39
5.0
 10
77.445609389417513
 20
57.076102630913027
 30
0.0
 11
77.44810938941751
 21
56.997302630913033
 31
0.0
  0
LINE
  5
30B
  8
0
 39
5.0
 10
77.444709389417511
 20
57.159502630913018
 30
0.0
 11
77.445609389417513
 21
57.076102630913027
 31
0.0
  0
LINE
  5
30C
  8
0
 39
5.0
 10
77.444509389417505
 20
57.247502630913033
 30
0.0
 11
77.444709389417511
 21
57.159502630913018
 31
0.0
  0
LINE
  5
30D
  8
0
 39
5.0
 10
77.444509389417505
 20
57.247502630913033
 30
0.0
 11
77.444509389417505
 21
57.247502630913033
 31
0.0
  0
DIMENSION
  5
329
  8
2
  2
*D1
 10
94.280931075928194
 20
60.258502630913021
 30
0.0
 11
94.28093107592818
 21
71.983502630913051
 31
0.0
 70
   128
 13
77.2205832461173
 23
63.858502630913023
 33
0.0
 14
79.320583246117295
 24
60.258502630913028
 34
0.0
 50
90.0
  0
DIMENSION
  5
345
  8
2
  2
*D2
 10
76.270583246117297
 20
42.422552720736299
 30
0.0
 11
85.228916579450626
 21
44.297552720736299
 31
0.0
 70
     0
  1
%%c<>
 13
73.170583246117303
 23
52.958502630913031
 33
0.0
 14
76.270583246117297
 24
52.958502630913031
 34
0.0
  0
DIMENSION
  5
354
  8
2
  2
*D3
 10
75.4705832461173
 20
71.758948772576602
 30
0.0
 11
84.428916579450629
 21
73.633948772576602
 31
0.0
 70
     0
  1
%%c<>
 13
73.9705832461173
 23
63.858502630913023
 33
0.0
 14
75.4705832461173
 24
63.858502630913023
 34
0.0
  0
DIMENSION
  5
363
  8
2
  2
*D4
 10
98.897131372518103
 20
56.358502630913001
 30
0.0
 11
97.022131372518075
 21
60.108502630913023
 31
0.0
 70
     0
 13
93.864264409261494
 23
63.858502630913023
 33
0.0
 14
75.4705832461173
 24
56.358502630913009
 34
0.0
 50
90.0
  0
DIMENSION
  5
370
  8
2
  2
*D5
 10
103.60758639090849
 20
50.65850263091302
 30
0.0
 11
101.73258639090849
 21
57.258502630913028
 31
0.0
 70
     0
 13
98.897131372518103
 23
63.858502630913023
 33
0.0
 14
75.4705832461173
 24
50.65850263091302
 34
0.0
 50
90.0
  0
DIMENSION
  5
3AC
  8
2
  2
*D6
 10
94.280931075928194
 20
52.958502630913017
 30
0.0
 11
94.280931075928194
 21
42.533502630913027
 31
0.0
 70
   128
 13
75.822383246117283
 23
50.65850263091302
 33
0.0
 14
76.270583246117297
 24
52.958502630913031
 34
0.0
 50
90.0
  0
TEXT
  5
3DE
  8
3
 10
61.016429076265041
 20
65.001102736910525
 30
0.0
 40
2.5
  1
M5
  0
TEXT
  5
3E0
  8
3
 10
61.232500361360252
 20
55.960609220099528
 30
0.0
 40
2.5
  1
H7
  0
POLYLINE
  8
2
  5
40E
  66
     1
 10
0.000000
 20
0.000000
 30
0.000000
  70
     8
  0
VERTEX
  8
2
  5
40F
 10
72.2206
 20
62.0585
 30
0.000000
  70
    32
  0
VERTEX
  8
2
  5
410
 10
65.5772
 20
64.7080
 30
0.000000
  70
    32
  0
VERTEX
  8
2
  5
411
 10
60.6537
 20
64.7080
 30
0.000000
  70
    32
  0
SEQEND
  8
2
  5
412
  0
POLYLINE
  8
2
  5
413
  66
     1
 10
0.000000
 20
0.000000
 30
0.000000
  70
     8
  0
VERTEX
  8
2
  5
414
 10
70.1206
 20
58.7530
 30
0.000000
  70
    32
  0
VERTEX
  8
2
  5
415
 10
66.1997
 20
55.4962
 30
0.000000
  70
    32
  0
VERTEX
  8
2
  5
416
 10
61.0499
 20
55.4962
 30
0.000000
  70
    32
  0
SEQEND
  8
2
  5
417
  0
ENDSEC
  0
EOF
