  0
SECTION
  2
HEADER
  9
$ACADVER
  1
AC1009
  9
$INSBASE
 10
0.0
 20
0.0
 30
0.0
  9
$EXTMIN
 10
71.498272110860043
 20
1.569592491612211
 30
0.0
  9
$EXTMAX
 10
130.1397033633898
 20
94.721730297338993
 30
5.0
  9
$LIMMIN
 10
0.0
 20
0.0
  9
$LIMMAX
 10
420.0
 20
297.0
  9
$ORTHOMODE
 70
     0
  9
$REGENMODE
 70
     1
  9
$FILLMODE
 70
     1
  9
$QTEXTMODE
 70
     0
  9
$MIRRTEXT
 70
     1
  9
$DRAGMODE
 70
     2
  9
$LTSCALE
 40
0.3
  9
$OSMODE
 70
    37
  9
$ATTMODE
 70
     1
  9
$TEXTSIZE
 40
2.5
  9
$TRACEWID
 40
1.0
  9
$TEXTSTYLE
  7
STANDARD
  9
$CLAYER
  8
2
  9
$CELTYPE
  6
BYLAYER
  9
$CECOLOR
 62
   256
  9
$DIMSCALE
 40
1.0
  9
$DIMASZ
 40
2.5
  9
$DIMEXO
 40
0.625
  9
$DIMDLI
 40
3.75
  9
$DIMRND
 40
0.0
  9
$DIMDLE
 40
0.0
  9
$DIMEXE
 40
1.25
  9
$DIMTP
 40
0.0
  9
$DIMTM
 40
0.0
  9
$DIMTXT
 40
2.5
  9
$DIMCEN
 40
2.5
  9
$DIMTSZ
 40
0.0
  9
$DIMTOL
 70
     0
  9
$DIMLIM
 70
     0
  9
$DIMTIH
 70
     0
  9
$DIMTOH
 70
     0
  9
$DIMSE1
 70
     0
  9
$DIMSE2
 70
     0
  9
$DIMTAD
 70
     1
  9
$DIMZIN
 70
     8
  9
$DIMBLK
  1

  9
$DIMASO
 70
     1
  9
$DIMSHO
 70
     1
  9
$DIMPOST
  1

  9
$DIMAPOST
  1

  9
$DIMALT
 70
     0
  9
$DIMALTD
 70
     3
  9
$DIMALTF
 40
0.03937007874016
  9
$DIMLFAC
 40
1.0
  9
$DIMTOFL
 70
     1
  9
$DIMTVP
 40
0.0
  9
$DIMTIX
 70
     0
  9
$DIMSOXD
 70
     0
  9
$DIMSAH
 70
     0
  9
$DIMBLK1
  1

  9
$DIMBLK2
  1

  9
$DIMSTYLE
  2
ISO-25
  9
$DIMCLRD
 70
     0
  9
$DIMCLRE
 70
     0
  9
$DIMCLRT
 70
     0
  9
$DIMTFAC
 40
1.0
  9
$DIMGAP
 40
0.625
  9
$LUNITS
 70
     2
  9
$LUPREC
 70
     4
  9
$SKETCHINC
 40
1.0
  9
$FILLETRAD
 40
10.0
  9
$AUNITS
 70
     0
  9
$AUPREC
 70
     0
  9
$MENU
  1
.
  9
$ELEVATION
 40
0.0
  9
$PELEVATION
 40
0.0
  9
$THICKNESS
 40
0.0
  9
$LIMCHECK
 70
     0
  9
$BLIPMODE
 70
     0
  9
$CHAMFERA
 40
10.0
  9
$CHAMFERB
 40
10.0
  9
$SKPOLY
 70
     0
  9
$TDCREATE
 40
2453447.639734074
  9
$TDUPDATE
 40
2453551.9289626158
  9
$TDINDWG
 40
0.0301666435
  9
$TDUSRTIMER
 40
0.0301666435
  9
$USRTIMER
 70
     1
  9
$ANGBASE
 50
0.0
  9
$ANGDIR
 70
     0
  9
$PDMODE
 70
     0
  9
$PDSIZE
 40
0.0
  9
$PLINEWID
 40
0.0
  9
$COORDS
 70
     1
  9
$SPLFRAME
 70
     0
  9
$SPLINETYPE
 70
     6
  9
$SPLINESEGS
 70
     8
  9
$ATTDIA
 70
     0
  9
$ATTREQ
 70
     1
  9
$HANDLING
 70
-16383
  9
$HANDSEED
  5
4D7
  9
$SURFTAB1
 70
     6
  9
$SURFTAB2
 70
     6
  9
$SURFTYPE
 70
     6
  9
$SURFU
 70
     6
  9
$SURFV
 70
     6
  9
$UCSNAME
  2

  9
$UCSORG
 10
0.0
 20
0.0
 30
0.0
  9
$UCSXDIR
 10
1.0
 20
0.0
 30
0.0
  9
$UCSYDIR
 10
0.0
 20
1.0
 30
0.0
  9
$PUCSNAME
  2

  9
$PUCSORG
 10
0.0
 20
0.0
 30
0.0
  9
$PUCSXDIR
 10
1.0
 20
0.0
 30
0.0
  9
$PUCSYDIR
 10
0.0
 20
1.0
 30
0.0
  9
$USERI1
 70
     0
  9
$USERI2
 70
     0
  9
$USERI3
 70
     0
  9
$USERI4
 70
     0
  9
$USERI5
 70
     0
  9
$USERR1
 40
0.0
  9
$USERR2
 40
0.0
  9
$USERR3
 40
0.0
  9
$USERR4
 40
0.0
  9
$USERR5
 40
0.0
  9
$WORLDVIEW
 70
     1
  9
$SHADEDGE
 70
     3
  9
$SHADEDIF
 70
    70
  9
$TILEMODE
 70
     1
  9
$MAXACTVP
 70
    64
  9
$PLIMCHECK
 70
     0
  9
$PEXTMIN
 10
1.0000000000000000E+020
 20
1.0000000000000000E+020
 30
1.0000000000000000E+020
  9
$PEXTMAX
 10
-1.0000000000000000E+020
 20
-1.0000000000000000E+020
 30
-1.0000000000000000E+020
  9
$PLIMMIN
 10
0.0
 20
0.0
  9
$PLIMMAX
 10
420.0
 20
297.0
  9
$UNITMODE
 70
     0
  9
$VISRETAIN
 70
     1
  9
$PLINEGEN
 70
     0
  9
$PSLTSCALE
 70
     1
  0
ENDSEC
  0
SECTION
  2
TABLES
  0
TABLE
  2
VPORT
 70
     2
  0
VPORT
  2
*ACTIVE
 70
     0
 10
0.0
 20
0.0
 11
1.0
 21
1.0
 12
73.295107226304594
 22
52.199994275513433
 13
0.0
 23
0.0
 14
10.0
 24
10.0
 15
10.0
 25
10.0
 16
0.0
 26
0.0
 36
1.0
 17
0.0
 27
0.0
 37
0.0
 40
158.1845949748332
 41
2.5392405063291141
 42
50.0
 43
0.0
 44
0.0
 50
0.0
 51
0.0
 71
     0
 72
   100
 73
     1
 74
     3
 75
     0
 76
     0
 77
     0
 78
     0
  0
ENDTAB
  0
TABLE
  2
LTYPE
 70
     3
  0
LTYPE
  2
CONTINUOUS
 70
     0
  3
Solid line
 72
    65
 73
     0
 40
0.0
  0
LTYPE
  2
CENTER
 70
     0
  3
Center ____ _ ____ _ ____ _ ____ _ ____ _ ____
 72
    65
 73
     4
 40
50.799999999999997
 49
31.75
 49
-6.3499999999999988
 49
6.3499999999999988
 49
-6.3499999999999988
  0
LTYPE
  2
DASHED2
 70
     0
  3
Dashed (.5x) _ _ _ _ _ _ _ _ _ _ _ _ _ _ _ _ _
 72
    65
 73
     2
 40
9.5249999999999986
 49
6.3499999999999988
 49
-3.1749999999999989
  0
ENDTAB
  0
TABLE
  2
LAYER
 70
     5
  0
LAYER
  2
0
 70
     0
 62
     7
  6
CONTINUOUS
  0
LAYER
  2
1
 70
     0
 62
     7
  6
CENTER
  0
LAYER
  2
2
 70
     0
 62
     7
  6
CONTINUOUS
  0
LAYER
  2
3
 70
     0
 62
     7
  6
DASHED2
  0
LAYER
  2
DEFPOINTS
 70
     0
 62
     7
  6
CONTINUOUS
  0
ENDTAB
  0
TABLE
  2
STYLE
 70
     4
  0
STYLE
  2
STANDARD
 70
     0
 40
0.0
 41
1.0
 50
0.0
 71
     0
 42
2.5
  3
txt
  4

  0
STYLE
  2
\U+00C9L\U+00C9R_\U+00C2S\U+00C2V\U+00C2B\U+00C2N
 70
     0
 40
1.0
 41
1.0
 50
0.0
 71
     0
 42
1.0
  3
\U+00E9l\U+00E9r \U+00E2S\U+00E2V\U+00E2b\U+00E2N
  4

  0
STYLE
  2
SWIS721_CN_BT
 70
     0
 40
1.0
 41
1.0
 50
0.0
 71
     0
 42
1.0
  3
Swis721 Cn BT
  4

  0
STYLE
  2

 70
     1
 40
0.0
 41
1.0
 50
0.0
 71
     0
 42
2.5
  3
ltypeshp.shx
  4

  0
ENDTAB
  0
TABLE
  2
VIEW
 70
     0
  0
ENDTAB
  0
TABLE
  2
UCS
 70
     0
  0
ENDTAB
  0
TABLE
  2
APPID
 70
     1
  0
APPID
  2
ACAD
 70
     0
  0
ENDTAB
  0
TABLE
  2
DIMSTYLE
 70
     2
  0
DIMSTYLE
  2
ISO-25
 70
     0
  3

  4

  5

  6

  7

 40
1.0
 41
2.5
 42
0.625
 43
3.75
 44
1.25
 45
0.0
 46
0.0
 47
0.0
 48
0.0
140
2.5
141
2.5
142
0.0
143
0.03937007874016
144
1.0
145
0.0
146
1.0
147
0.625
 71
     0
 72
     0
 73
     0
 74
     0
 75
     0
 76
     0
 77
     1
 78
     8
170
     0
171
     3
172
     1
173
     0
174
     0
175
     0
176
     0
177
     0
178
     0
  0
DIMSTYLE
  2
STANDARD
 70
     0
  3

  4

  5

  6

  7

 40
1.0
 41
0.18
 42
0.0625
 43
0.38
 44
0.18
 45
0.0
 46
0.0
 47
0.0
 48
0.0
140
0.18
141
0.09
142
0.0
143
25.399999999999999
144
1.0
145
0.0
146
1.0
147
0.09
 71
     0
 72
     0
 73
     1
 74
     1
 75
     0
 76
     0
 77
     0
 78
     0
170
     0
171
     2
172
     0
173
     0
174
     0
175
     0
176
     0
177
     0
178
     0
  0
ENDTAB
  0
ENDSEC
  0
SECTION
  2
BLOCKS
  0
BLOCK
  8
0
  2
$MODEL_SPACE
 70
     0
 10
0.0
 20
0.0
 30
0.0
  3
$MODEL_SPACE
  1

  0
ENDBLK
  5
21
  8
0
  0
BLOCK
 67
     1
  8
0
  2
$PAPER_SPACE
 70
     0
 10
0.0
 20
0.0
 30
0.0
  3
$PAPER_SPACE
  1

  0
ENDBLK
  5
1D
 67
     1
  8
0
  0
BLOCK
  8
0
  2
*D1
 70
     1
 10
0.0
 20
0.0
 30
0.0
  3
*D1
  1

  0
LINE
  5
3D5
  8
2
 62
     0
 10
108.6749733161857
 20
92.483561092470723
 30
0.0
 11
123.1506183857632
 21
92.483561092470723
 31
0.0
  0
LINE
  5
3D6
  8
2
 62
     0
 10
108.6749733161857
 20
72.483561092470723
 30
0.0
 11
123.1506183857632
 21
72.483561092470723
 31
0.0
  0
LINE
  5
3D7
  8
2
 62
     0
 10
121.9006183857632
 20
89.983561092470723
 30
0.0
 11
121.9006183857632
 21
74.983561092470723
 31
0.0
  0
SOLID
  5
3D8
  8
2
 62
     0
 10
121.4839517190965
 20
89.983561092470723
 30
0.0
 11
122.3172850524298
 21
89.983561092470723
 31
0.0
 12
121.9006183857632
 22
92.483561092470723
 32
0.0
 13
121.9006183857632
 23
92.483561092470723
 33
0.0
  0
SOLID
  5
3D9
  8
2
 62
     0
 10
121.4839517190965
 20
74.983561092470723
 30
0.0
 11
122.3172850524298
 21
74.983561092470723
 31
0.0
 12
121.9006183857632
 22
72.483561092470723
 32
0.0
 13
121.9006183857632
 23
72.483561092470723
 33
0.0
  0
TEXT
  5
3DA
  8
2
 62
     0
 10
121.2756183857631
 20
80.608561092470737
 30
0.0
 40
2.5
  1
20
 50
90.0
  0
POINT
  5
3DB
  8
DEFPOINTS
 62
     0
 10
108.0499733161857
 20
92.483561092470723
 30
0.0
  0
POINT
  5
3DC
  8
DEFPOINTS
 62
     0
 10
108.0499733161857
 20
72.483561092470723
 30
0.0
  0
POINT
  5
3DD
  8
DEFPOINTS
 62
     0
 10
121.9006183857632
 20
72.483561092470723
 30
0.0
  0
ENDBLK
  5
3D4
  8
0
  0
BLOCK
  8
0
  2
*D2
 70
     1
 10
0.0
 20
0.0
 30
0.0
  3
*D2
  1

  0
LINE
  5
416
  8
2
 62
     0
 10
110.8687733161857
 20
48.777761092470712
 30
0.0
 11
124.0242536116064
 21
48.777761092470698
 31
0.0
  0
LINE
  5
417
  8
2
 62
     0
 10
110.8687733161857
 20
50.277761092470712
 30
0.0
 11
124.0242536116064
 21
50.277761092470712
 31
0.0
  0
LINE
  5
418
  8
2
 62
     0
 10
122.7742536116064
 20
46.277761092470698
 30
0.0
 11
122.7742536116064
 21
43.777761092470698
 31
0.0
  0
LINE
  5
419
  8
2
 62
     0
 10
122.7742536116064
 20
52.777761092470712
 30
0.0
 11
122.7742536116064
 21
65.572487456519127
 31
0.0
  0
LINE
  5
41A
  8
2
 62
     0
 10
122.7742536116064
 20
48.777761092470698
 30
0.0
 11
122.7742536116064
 21
50.277761092470712
 31
0.0
  0
SOLID
  5
41B
  8
2
 62
     0
 10
122.3575869449398
 20
46.277761092470698
 30
0.0
 11
123.1909202782731
 21
46.277761092470698
 31
0.0
 12
122.7742536116064
 22
48.777761092470698
 32
0.0
 13
122.7742536116064
 23
48.777761092470698
 33
0.0
  0
SOLID
  5
41C
  8
2
 62
     0
 10
122.3575869449398
 20
52.777761092470712
 30
0.0
 11
123.1909202782731
 21
52.777761092470712
 31
0.0
 12
122.7742536116064
 22
50.277761092470712
 32
0.0
 13
122.7742536116064
 23
50.277761092470712
 33
0.0
  0
TEXT
  5
41D
  8
2
 62
     0
 10
122.1492536116064
 20
60.78082078985247
 30
0.0
 40
2.5
  1
1.5
 50
90.0
  0
POINT
  5
41E
  8
DEFPOINTS
 62
     0
 10
110.2437733161857
 20
48.777761092470712
 30
0.0
  0
POINT
  5
41F
  8
DEFPOINTS
 62
     0
 10
110.2437733161857
 20
50.277761092470712
 30
0.0
  0
POINT
  5
420
  8
DEFPOINTS
 62
     0
 10
122.7742536116064
 20
50.277761092470712
 30
0.0
  0
ENDBLK
  5
408
  8
0
  0
BLOCK
  8
0
  2
*D3
 70
     1
 10
0.0
 20
0.0
 30
0.0
  3
*D3
  1

  0
LINE
  5
40B
  8
2
 62
     0
 10
123.3992536116064
 20
48.777761092470698
 30
0.0
 11
130.1397033633898
 21
48.777761092470698
 31
0.0
  0
LINE
  5
40C
  8
2
 62
     0
 10
104.3687733161857
 20
58.777761092470712
 30
0.0
 11
130.1397033633898
 21
58.777761092470698
 31
0.0
  0
LINE
  5
40D
  8
2
 62
     0
 10
128.8897033633898
 20
51.277761092470698
 30
0.0
 11
128.8897033633898
 21
56.277761092470698
 31
0.0
  0
SOLID
  5
40E
  8
2
 62
     0
 10
128.47303669672311
 20
51.277761092470698
 30
0.0
 11
129.3063700300564
 21
51.277761092470698
 31
0.0
 12
128.8897033633898
 22
48.777761092470698
 32
0.0
 13
128.8897033633898
 23
48.777761092470698
 33
0.0
  0
SOLID
  5
40F
  8
2
 62
     0
 10
128.47303669672311
 20
56.277761092470698
 30
0.0
 11
129.3063700300564
 21
56.277761092470698
 31
0.0
 12
128.8897033633898
 22
58.777761092470698
 32
0.0
 13
128.8897033633898
 23
58.777761092470698
 33
0.0
  0
TEXT
  5
410
  8
2
 62
     0
 10
128.26470336338971
 20
52.31942775913739
 30
0.0
 40
2.5
  1
10
 50
90.0
  0
POINT
  5
411
  8
DEFPOINTS
 62
     0
 10
122.7742536116064
 20
48.777761092470698
 30
0.0
  0
POINT
  5
412
  8
DEFPOINTS
 62
     0
 10
103.7437733161857
 20
58.777761092470712
 30
0.0
  0
POINT
  5
413
  8
DEFPOINTS
 62
     0
 10
128.8897033633898
 20
58.777761092470698
 30
0.0
  0
ENDBLK
  5
415
  8
0
  0
BLOCK
  8
0
  2
*D4
 70
     1
 10
0.0
 20
0.0
 30
0.0
  3
*D4
  1

  0
LINE
  5
42F
  8
2
 62
     0
 10
85.243773316185752
 20
48.152761092470712
 30
0.0
 11
85.243773316185752
 21
42.946970730110642
 31
0.0
  0
LINE
  5
430
  8
2
 62
     0
 10
110.2437733161857
 20
48.152761092470712
 30
0.0
 11
110.2437733161857
 21
42.946970730110642
 31
0.0
  0
LINE
  5
431
  8
2
 62
     0
 10
87.743773316185752
 20
44.196970730110642
 30
0.0
 11
107.7437733161857
 21
44.196970730110642
 31
0.0
  0
SOLID
  5
432
  8
2
 62
     0
 10
87.743773316185752
 20
44.613637396777307
 30
0.0
 11
87.743773316185752
 21
43.780304063443978
 31
0.0
 12
85.243773316185752
 22
44.196970730110642
 32
0.0
 13
85.243773316185752
 23
44.196970730110642
 33
0.0
  0
SOLID
  5
433
  8
2
 62
     0
 10
107.7437733161857
 20
44.613637396777307
 30
0.0
 11
107.7437733161857
 21
43.780304063443978
 31
0.0
 12
110.2437733161857
 22
44.196970730110642
 32
0.0
 13
110.2437733161857
 23
44.196970730110642
 33
0.0
  0
INSERT
  5
434
  8
2
  2
*U6
 10
0.0
 20
0.0
 30
0.0
  0
POINT
  5
435
  8
DEFPOINTS
 62
     0
 10
85.243773316185752
 20
48.777761092470712
 30
0.0
  0
POINT
  5
436
  8
DEFPOINTS
 62
     0
 10
110.2437733161857
 20
48.777761092470712
 30
0.0
  0
POINT
  5
437
  8
DEFPOINTS
 62
     0
 10
110.2437733161857
 20
44.196970730110642
 30
0.0
  0
ENDBLK
  5
42E
  8
0
  0
BLOCK
  8
0
  2
*D5
 70
     1
 10
0.0
 20
0.0
 30
0.0
  3
*D5
  1

  0
LINE
  5
43B
  8
2
 62
     0
 10
95.243773316185752
 20
27.604101978221941
 30
0.0
 11
95.243773316185752
 21
11.348843150122059
 31
0.0
  0
LINE
  5
43C
  8
2
 62
     0
 10
100.2437733161857
 20
27.60410197822193
 30
0.0
 11
100.2437733161857
 21
11.348843150122059
 31
0.0
  0
LINE
  5
43D
  8
2
 62
     0
 10
92.743773316185752
 20
12.598843150122059
 30
0.0
 11
90.243773316185752
 21
12.598843150122059
 31
0.0
  0
LINE
  5
43E
  8
2
 62
     0
 10
102.7437733161857
 20
12.598843150122059
 30
0.0
 11
105.2437733161857
 21
12.598843150122059
 31
0.0
  0
LINE
  5
43F
  8
2
 62
     0
 10
95.243773316185752
 20
12.598843150122059
 30
0.0
 11
100.2437733161857
 21
12.598843150122059
 31
0.0
  0
SOLID
  5
440
  8
2
 62
     0
 10
92.743773316185752
 20
13.015509816788731
 30
0.0
 11
92.743773316185752
 21
12.1821764834554
 31
0.0
 12
95.243773316185752
 22
12.598843150122059
 32
0.0
 13
95.243773316185752
 23
12.598843150122059
 33
0.0
  0
SOLID
  5
441
  8
2
 62
     0
 10
102.7437733161857
 20
13.015509816788731
 30
0.0
 11
102.7437733161857
 21
12.1821764834554
 31
0.0
 12
100.2437733161857
 22
12.598843150122059
 32
0.0
 13
100.2437733161857
 23
12.598843150122059
 33
0.0
  0
TEXT
  5
442
  8
2
 62
     0
 10
96.910439982852424
 20
13.223843150122059
 30
0.0
 40
2.5
  1
5
  0
POINT
  5
443
  8
DEFPOINTS
 62
     0
 10
95.243773316185752
 20
28.229101978221941
 30
0.0
  0
POINT
  5
444
  8
DEFPOINTS
 62
     0
 10
100.2437733161857
 20
28.229101978221941
 30
0.0
  0
POINT
  5
445
  8
DEFPOINTS
 62
     0
 10
100.2437733161857
 20
12.598843150122059
 30
0.0
  0
ENDBLK
  5
447
  8
0
  0
BLOCK
  8
0
  2
*U6
 70
     1
 10
0.0
 20
0.0
 30
0.0
  3
*U6
  1

  0
TEXT
  5
4C4
  8
2
 62
     0
 10
94.410439982852424
 20
44.821970730110642
 30
0.0
 40
2.5
  1
\U+2205
  0
TEXT
  5
4C5
  8
2
 62
     0
 10
96.910439982852424
 20
44.821970730110642
 30
0.0
 40
2.5
  1
25
  0
ENDBLK
  5
4C7
  8
0
  0
ENDSEC
  0
SECTION
  2
ENTITIES
  0
POLYLINE
  5
1E3
  8
0
 66
     1
 10
0.0
 20
0.0
 30
0.0
 39
5.0
  0
VERTEX
  5
479
  8
0
 10
105.0273733161857
 20
92.483561092470723
 30
0.0
  0
VERTEX
  5
47A
  8
0
 10
108.0499733161857
 20
92.483561092470723
 30
0.0
  0
VERTEX
  5
47B
  8
0
 10
108.0499733161857
 20
92.483561092470723
 30
0.0
  0
VERTEX
  5
47C
  8
0
 10
108.17177331618571
 20
92.477361092470716
 30
0.0
  0
VERTEX
  5
47D
  8
0
 10
108.28997331618569
 20
92.459161092470723
 30
0.0
  0
VERTEX
  5
47E
  8
0
 10
108.40417331618571
 20
92.429561092470735
 30
0.0
  0
VERTEX
  5
47F
  8
0
 10
108.5135733161857
 20
92.389261092470718
 30
0.0
  0
VERTEX
  5
480
  8
0
 10
108.6180733161857
 20
92.338761092470719
 30
0.0
  0
VERTEX
  5
481
  8
0
 10
108.7163733161857
 20
92.278861092470706
 30
0.0
  0
VERTEX
  5
482
  8
0
 10
108.80837331618569
 20
92.209961092470735
 30
0.0
  0
VERTEX
  5
483
  8
0
 10
108.8931733161857
 20
92.132861092470705
 30
0.0
  0
VERTEX
  5
484
  8
0
 10
108.9704733161857
 20
92.047861092470725
 30
0.0
  0
VERTEX
  5
485
  8
0
 10
109.0393733161857
 20
91.955861092470727
 30
0.0
  0
VERTEX
  5
486
  8
0
 10
109.09937331618571
 20
91.857461092470714
 30
0.0
  0
VERTEX
  5
487
  8
0
 10
109.1496733161857
 20
91.753261092470709
 30
0.0
  0
VERTEX
  5
488
  8
0
 10
109.1900733161857
 20
91.643561092470705
 30
0.0
  0
VERTEX
  5
489
  8
0
 10
109.2195733161857
 20
91.529461092470711
 30
0.0
  0
VERTEX
  5
48A
  8
0
 10
109.2377733161857
 20
91.41126109247071
 30
0.0
  0
VERTEX
  5
48B
  8
0
 10
109.2437733161857
 20
91.289761092470712
 30
0.0
  0
VERTEX
  5
48C
  8
0
 10
109.2437733161857
 20
73.677361092470719
 30
0.0
  0
VERTEX
  5
48D
  8
0
 10
109.2437733161857
 20
73.677361092470719
 30
0.0
  0
VERTEX
  5
48E
  8
0
 10
109.2377733161857
 20
73.555561092470725
 30
0.0
  0
VERTEX
  5
48F
  8
0
 10
109.2195733161857
 20
73.437361092470724
 30
0.0
  0
VERTEX
  5
490
  8
0
 10
109.1900733161857
 20
73.323161092470713
 30
0.0
  0
VERTEX
  5
491
  8
0
 10
109.1496733161857
 20
73.213761092470719
 30
0.0
  0
VERTEX
  5
492
  8
0
 10
109.09937331618571
 20
73.109361092470721
 30
0.0
  0
VERTEX
  5
493
  8
0
 10
109.0393733161857
 20
73.011061092470726
 30
0.0
  0
VERTEX
  5
494
  8
0
 10
108.9704733161857
 20
72.919161092470716
 30
0.0
  0
VERTEX
  5
495
  8
0
 10
108.8931733161857
 20
72.834261092470712
 30
0.0
  0
VERTEX
  5
496
  8
0
 10
108.80837331618569
 20
72.75716109247071
 30
0.0
  0
VERTEX
  5
497
  8
0
 10
108.7163733161857
 20
72.688261092470725
 30
0.0
  0
VERTEX
  5
498
  8
0
 10
108.6180733161857
 20
72.628361092470726
 30
0.0
  0
VERTEX
  5
499
  8
0
 10
108.5135733161857
 20
72.577861092470727
 30
0.0
  0
VERTEX
  5
49A
  8
0
 10
108.40417331618571
 20
72.537561092470725
 30
0.0
  0
VERTEX
  5
49B
  8
0
 10
108.28997331618569
 20
72.507961092470723
 30
0.0
  0
VERTEX
  5
49C
  8
0
 10
108.17177331618571
 20
72.489761092470729
 30
0.0
  0
VERTEX
  5
49D
  8
0
 10
108.0499733161857
 20
72.483561092470723
 30
0.0
  0
VERTEX
  5
49E
  8
0
 10
105.0273733161857
 20
72.483561092470723
 30
0.0
  0
VERTEX
  5
49F
  8
0
 10
105.0273733161857
 20
72.483561092470723
 30
0.0
  0
VERTEX
  5
4A0
  8
0
 10
104.9058733161857
 20
72.489761092470729
 30
0.0
  0
VERTEX
  5
4A1
  8
0
 10
104.7876733161857
 20
72.507961092470723
 30
0.0
  0
VERTEX
  5
4A2
  8
0
 10
104.6735733161857
 20
72.537561092470725
 30
0.0
  0
VERTEX
  5
4A3
  8
0
 10
104.56387331618571
 20
72.577861092470727
 30
0.0
  0
VERTEX
  5
4A4
  8
0
 10
104.4596733161857
 20
72.628361092470726
 30
0.0
  0
VERTEX
  5
4A5
  8
0
 10
104.3612733161857
 20
72.688261092470725
 30
0.0
  0
VERTEX
  5
4A6
  8
0
 10
104.2692733161857
 20
72.75716109247071
 30
0.0
  0
VERTEX
  5
4A7
  8
0
 10
104.1842733161857
 20
72.834261092470712
 30
0.0
  0
VERTEX
  5
4A8
  8
0
 10
104.10717331618569
 20
72.919161092470716
 30
0.0
  0
VERTEX
  5
4A9
  8
0
 10
104.03827331618569
 20
73.011061092470726
 30
0.0
  0
VERTEX
  5
4AA
  8
0
 10
103.9783733161857
 20
73.109361092470721
 30
0.0
  0
VERTEX
  5
4AB
  8
0
 10
103.9278733161857
 20
73.213761092470719
 30
0.0
  0
VERTEX
  5
4AC
  8
0
 10
103.88757331618569
 20
73.323161092470713
 30
0.0
  0
VERTEX
  5
4AD
  8
0
 10
103.85797331618571
 20
73.437361092470724
 30
0.0
  0
VERTEX
  5
4AE
  8
0
 10
103.8397733161857
 20
73.555561092470725
 30
0.0
  0
VERTEX
  5
4AF
  8
0
 10
103.83357331618571
 20
73.677361092470719
 30
0.0
  0
VERTEX
  5
4B0
  8
0
 10
103.83357331618571
 20
91.289761092470712
 30
0.0
  0
VERTEX
  5
4B1
  8
0
 10
103.83357331618571
 20
91.289761092470712
 30
0.0
  0
VERTEX
  5
4B2
  8
0
 10
103.8397733161857
 20
91.41126109247071
 30
0.0
  0
VERTEX
  5
4B3
  8
0
 10
103.85797331618571
 20
91.529461092470711
 30
0.0
  0
VERTEX
  5
4B4
  8
0
 10
103.88757331618569
 20
91.643561092470705
 30
0.0
  0
VERTEX
  5
4B5
  8
0
 10
103.9278733161857
 20
91.753261092470709
 30
0.0
  0
VERTEX
  5
4B6
  8
0
 10
103.9783733161857
 20
91.857461092470714
 30
0.0
  0
VERTEX
  5
4B7
  8
0
 10
104.03827331618569
 20
91.955861092470727
 30
0.0
  0
VERTEX
  5
4B8
  8
0
 10
104.10717331618569
 20
92.047861092470725
 30
0.0
  0
VERTEX
  5
4B9
  8
0
 10
104.1842733161857
 20
92.132861092470705
 30
0.0
  0
VERTEX
  5
4BA
  8
0
 10
104.2692733161857
 20
92.209961092470735
 30
0.0
  0
VERTEX
  5
4BB
  8
0
 10
104.3612733161857
 20
92.278861092470706
 30
0.0
  0
VERTEX
  5
4BC
  8
0
 10
104.4596733161857
 20
92.338761092470719
 30
0.0
  0
VERTEX
  5
4BD
  8
0
 10
104.56387331618571
 20
92.389261092470718
 30
0.0
  0
VERTEX
  5
4BE
  8
0
 10
104.6735733161857
 20
92.429561092470735
 30
0.0
  0
VERTEX
  5
4BF
  8
0
 10
104.7876733161857
 20
92.459161092470723
 30
0.0
  0
VERTEX
  5
4C0
  8
0
 10
104.9058733161857
 20
92.477361092470716
 30
0.0
  0
VERTEX
  5
4C1
  8
0
 10
105.0273733161857
 20
92.483561092470723
 30
0.0
  0
SEQEND
  5
4C2
  8
0
  0
TEXT
  5
213
  8
2
 10
88.914203800026684
 20
1.5695924916122119
 30
0.0
 40
2.5399440000000002
  1
No. 270.182
 51
-0.0000015352344868
  7
\U+00C9L\U+00C9R_\U+00C2S\U+00C2V\U+00C2B\U+00C2N
  0
LINE
  5
2B8
  8
0
 39
5.0
 10
97.743773316185752
 20
92.483561092470723
 30
0.0
 11
105.0273733161857
 21
92.483561092470737
 31
0.0
  0
LINE
  5
2B9
  8
0
 39
5.0
 10
102.5889733161857
 20
92.483561092470723
 30
0.0
 11
102.5889733161857
 21
92.483561092470723
 31
0.0
  0
LINE
  5
2BA
  8
0
 39
5.0
 10
102.5889733161857
 20
92.483561092470723
 30
0.0
 11
102.7412733161857
 21
92.464961092470716
 31
0.0
  0
LINE
  5
2BB
  8
0
 39
5.0
 10
102.7412733161857
 20
92.464961092470716
 30
0.0
 11
102.88327331618569
 21
92.438061092470718
 31
0.0
  0
LINE
  5
2BC
  8
0
 39
5.0
 10
102.88327331618569
 20
92.438061092470718
 30
0.0
 11
103.0152733161857
 21
92.402461092470716
 31
0.0
  0
LINE
  5
2BD
  8
0
 39
5.0
 10
103.0152733161857
 20
92.402461092470716
 30
0.0
 11
103.1371733161857
 21
92.358461092470719
 31
0.0
  0
LINE
  5
2BE
  8
0
 39
5.0
 10
103.1371733161857
 20
92.358461092470719
 30
0.0
 11
103.24927331618569
 21
92.305461092470722
 31
0.0
  0
LINE
  5
2BF
  8
0
 39
5.0
 10
103.24927331618569
 20
92.305461092470722
 30
0.0
 11
103.3512733161857
 21
92.243661092470717
 31
0.0
  0
LINE
  5
2C0
  8
0
 39
5.0
 10
103.3512733161857
 20
92.243661092470717
 30
0.0
 11
103.4434733161857
 21
92.172761092470708
 31
0.0
  0
LINE
  5
2C1
  8
0
 39
5.0
 10
103.4434733161857
 20
92.172761092470708
 30
0.0
 11
103.5256733161857
 21
92.092961092470716
 31
0.0
  0
LINE
  5
2C2
  8
0
 39
5.0
 10
103.5256733161857
 20
92.092961092470716
 30
0.0
 11
103.5982733161857
 21
92.003661092470722
 31
0.0
  0
LINE
  5
2C3
  8
0
 39
5.0
 10
103.5982733161857
 20
92.003661092470722
 30
0.0
 11
103.6609733161857
 21
91.905261092470724
 31
0.0
  0
LINE
  5
2C4
  8
0
 39
5.0
 10
103.6609733161857
 20
91.905261092470724
 30
0.0
 11
103.7138733161857
 21
91.79726109247072
 31
0.0
  0
LINE
  5
2C5
  8
0
 39
5.0
 10
103.7138733161857
 20
91.79726109247072
 30
0.0
 11
103.7570733161857
 21
91.679861092470716
 31
0.0
  0
LINE
  5
2C6
  8
0
 39
5.0
 10
103.7570733161857
 20
91.679861092470716
 30
0.0
 11
103.7906733161857
 21
91.552561092470711
 31
0.0
  0
LINE
  5
2C7
  8
0
 39
5.0
 10
103.7906733161857
 20
91.552561092470711
 30
0.0
 11
103.8145733161857
 21
91.415661092470714
 31
0.0
  0
LINE
  5
2C8
  8
0
 39
5.0
 10
103.8145733161857
 20
91.415661092470714
 30
0.0
 11
103.8289733161857
 21
91.268761092470726
 31
0.0
  0
LINE
  5
2C9
  8
0
 39
5.0
 10
103.8289733161857
 20
91.268761092470726
 30
0.0
 11
103.83357331618571
 21
91.111961092470736
 31
0.0
  0
LINE
  5
2CA
  8
0
 39
5.0
 10
103.83357331618571
 20
91.111961092470736
 30
0.0
 11
103.83357331618571
 21
73.956761092470714
 31
0.0
  0
LINE
  5
2CB
  8
0
 39
5.0
 10
103.83357331618571
 20
73.956761092470714
 30
0.0
 11
103.83357331618571
 21
73.956761092470714
 31
0.0
  0
LINE
  5
2CC
  8
0
 39
5.0
 10
103.83357331618571
 20
73.956761092470714
 30
0.0
 11
103.83397331618571
 21
73.772661092470713
 31
0.0
  0
LINE
  5
2CD
  8
0
 39
5.0
 10
103.83397331618571
 20
73.772661092470713
 30
0.0
 11
103.8248733161857
 21
73.601661092470721
 31
0.0
  0
LINE
  5
2CE
  8
0
 39
5.0
 10
103.8248733161857
 20
73.601661092470721
 30
0.0
 11
103.80617331618571
 21
73.443361092470724
 31
0.0
  0
LINE
  5
2CF
  8
0
 39
5.0
 10
103.80617331618571
 20
73.443361092470724
 30
0.0
 11
103.7773733161857
 21
73.297861092470725
 31
0.0
  0
LINE
  5
2D0
  8
0
 39
5.0
 10
103.7773733161857
 20
73.297861092470725
 30
0.0
 11
103.7382733161857
 21
73.164661092470709
 31
0.0
  0
LINE
  5
2D1
  8
0
 39
5.0
 10
103.7382733161857
 20
73.164661092470709
 30
0.0
 11
103.6881733161857
 21
73.044061092470713
 31
0.0
  0
LINE
  5
2D2
  8
0
 39
5.0
 10
103.6881733161857
 20
73.044061092470713
 30
0.0
 11
103.6270733161857
 21
72.935761092470727
 31
0.0
  0
LINE
  5
2D3
  8
0
 39
5.0
 10
103.6270733161857
 20
72.935761092470727
 30
0.0
 11
103.5542733161857
 21
72.839161092470718
 31
0.0
  0
LINE
  5
2D4
  8
0
 39
5.0
 10
103.5542733161857
 20
72.839161092470718
 30
0.0
 11
103.46977331618569
 21
72.754761092470716
 31
0.0
  0
LINE
  5
2D5
  8
0
 39
5.0
 10
103.46977331618569
 20
72.754761092470716
 30
0.0
 11
103.3728733161857
 21
72.681961092470715
 31
0.0
  0
LINE
  5
2D6
  8
0
 39
5.0
 10
103.3728733161857
 20
72.681961092470715
 30
0.0
 11
103.26337331618571
 21
72.62076109247073
 31
0.0
  0
LINE
  5
2D7
  8
0
 39
5.0
 10
103.26337331618571
 20
72.62076109247073
 30
0.0
 11
103.1407733161857
 21
72.570961092470725
 31
0.0
  0
LINE
  5
2D8
  8
0
 39
5.0
 10
103.1407733161857
 20
72.570961092470725
 30
0.0
 11
103.00487331618569
 21
72.532561092470729
 31
0.0
  0
LINE
  5
2D9
  8
0
 39
5.0
 10
103.00487331618569
 20
72.532561092470729
 30
0.0
 11
102.8550733161857
 21
72.505261092470718
 31
0.0
  0
LINE
  5
2DA
  8
0
 39
5.0
 10
102.8550733161857
 20
72.505261092470718
 30
0.0
 11
102.6912733161857
 21
72.48906109247072
 31
0.0
  0
LINE
  5
2DB
  8
0
 39
5.0
 10
102.6912733161857
 20
72.48906109247072
 30
0.0
 11
102.5127733161857
 21
72.483561092470723
 31
0.0
  0
LINE
  5
2DC
  8
0
 39
5.0
 10
105.0273733161857
 20
72.483561092470723
 30
0.0
 11
97.743773316185752
 21
72.483561092470723
 31
0.0
  0
LINE
  5
2DE
  8
0
 39
5.0
 10
91.036873316185748
 20
92.483561092470723
 30
0.0
 11
97.996473316185742
 21
92.483561092470723
 31
0.0
  0
LINE
  5
2E0
  8
0
 39
5.0
 10
97.996473316185742
 20
72.483561092470723
 30
0.0
 11
91.036873316185748
 21
72.483561092470723
 31
0.0
  0
LINE
  5
2E4
  8
0
 39
5.0
 10
87.716973316185886
 20
92.483561092470723
 30
0.0
 11
96.270573316185747
 21
92.483561092470723
 31
0.0
  0
LINE
  5
308
  8
0
 39
5.0
 10
96.270573316185747
 20
72.483561092470723
 30
0.0
 11
87.716973316185886
 21
72.483561092470723
 31
0.0
  0
LINE
  5
309
  8
0
 39
5.0
 10
87.716973316185744
 20
72.483561092470723
 30
0.0
 11
87.716973316185744
 21
72.483561092470723
 31
0.0
  0
LINE
  5
30A
  8
0
 39
5.0
 10
87.716973316185744
 20
72.483561092470723
 30
0.0
 11
87.567073316185741
 21
72.491261092470722
 31
0.0
  0
LINE
  5
30B
  8
0
 39
5.0
 10
87.567073316185741
 20
72.491261092470722
 30
0.0
 11
87.421273316185761
 21
72.513761092470716
 31
0.0
  0
LINE
  5
30C
  8
0
 39
5.0
 10
87.421273316185761
 20
72.513761092470716
 30
0.0
 11
87.280373316185745
 21
72.55026109247072
 31
0.0
  0
LINE
  5
30D
  8
0
 39
5.0
 10
87.280373316185745
 20
72.55026109247072
 30
0.0
 11
87.145073316185744
 21
72.599861092470718
 31
0.0
  0
LINE
  5
30E
  8
0
 39
5.0
 10
87.145073316185744
 20
72.599861092470718
 30
0.0
 11
87.016473316185753
 21
72.662161092470711
 31
0.0
  0
LINE
  5
30F
  8
0
 39
5.0
 10
87.016473316185753
 20
72.662161092470711
 30
0.0
 11
86.894973316185755
 21
72.736161092470724
 31
0.0
  0
LINE
  5
310
  8
0
 39
5.0
 10
86.894973316185755
 20
72.736161092470724
 30
0.0
 11
86.781473316185753
 21
72.821261092470721
 31
0.0
  0
LINE
  5
311
  8
0
 39
5.0
 10
86.781473316185753
 20
72.821261092470721
 30
0.0
 11
86.676573316185767
 21
72.916361092470709
 31
0.0
  0
LINE
  5
312
  8
0
 39
5.0
 10
86.676573316185767
 20
72.916361092470709
 30
0.0
 11
86.58147331618575
 21
73.020961092470714
 31
0.0
  0
LINE
  5
313
  8
0
 39
5.0
 10
86.58147331618575
 20
73.020961092470714
 30
0.0
 11
86.496373316185753
 21
73.13446109247073
 31
0.0
  0
LINE
  5
314
  8
0
 39
5.0
 10
86.496373316185753
 20
73.13446109247073
 30
0.0
 11
86.422373316185741
 21
73.255861092470724
 31
0.0
  0
LINE
  5
315
  8
0
 39
5.0
 10
86.422373316185741
 20
73.255861092470724
 30
0.0
 11
86.360073316185748
 21
73.384661092470722
 31
0.0
  0
LINE
  5
316
  8
0
 39
5.0
 10
86.360073316185748
 20
73.384661092470722
 30
0.0
 11
86.310473316185735
 21
73.519761092470716
 31
0.0
  0
LINE
  5
317
  8
0
 39
5.0
 10
86.310473316185735
 20
73.519761092470716
 30
0.0
 11
86.27397331618576
 21
73.660761092470722
 31
0.0
  0
LINE
  5
318
  8
0
 39
5.0
 10
86.27397331618576
 20
73.660761092470722
 30
0.0
 11
86.251473316185766
 21
73.806561092470716
 31
0.0
  0
LINE
  5
319
  8
0
 39
5.0
 10
86.251473316185766
 20
73.806561092470716
 30
0.0
 11
86.243773316185752
 21
73.956761092470714
 31
0.0
  0
LINE
  5
31A
  8
0
 39
5.0
 10
86.243773316185752
 20
73.956761092470714
 30
0.0
 11
86.243773316185752
 21
91.010361092470717
 31
0.0
  0
LINE
  5
31B
  8
0
 39
5.0
 10
86.243773316185752
 20
91.010361092470717
 30
0.0
 11
86.243773316185752
 21
91.010361092470717
 31
0.0
  0
LINE
  5
31C
  8
0
 39
5.0
 10
86.243773316185752
 20
91.010361092470717
 30
0.0
 11
86.251473316185766
 21
91.160261092470705
 31
0.0
  0
LINE
  5
31D
  8
0
 39
5.0
 10
86.251473316185766
 20
91.160261092470705
 30
0.0
 11
86.27397331618576
 21
91.306061092470713
 31
0.0
  0
LINE
  5
31E
  8
0
 39
5.0
 10
86.27397331618576
 20
91.306061092470713
 30
0.0
 11
86.310473316185735
 21
91.446961092470715
 31
0.0
  0
LINE
  5
31F
  8
0
 39
5.0
 10
86.310473316185735
 20
91.446961092470715
 30
0.0
 11
86.360073316185748
 21
91.582261092470716
 31
0.0
  0
LINE
  5
320
  8
0
 39
5.0
 10
86.360073316185748
 20
91.582261092470716
 30
0.0
 11
86.422373316185741
 21
91.710861092470722
 31
0.0
  0
LINE
  5
321
  8
0
 39
5.0
 10
86.422373316185741
 20
91.710861092470722
 30
0.0
 11
86.496373316185753
 21
91.83236109247072
 31
0.0
  0
LINE
  5
322
  8
0
 39
5.0
 10
86.496373316185753
 20
91.83236109247072
 30
0.0
 11
86.58147331618575
 21
91.945861092470722
 31
0.0
  0
LINE
  5
323
  8
0
 39
5.0
 10
86.58147331618575
 20
91.945861092470722
 30
0.0
 11
86.676573316185767
 21
92.050761092470708
 31
0.0
  0
LINE
  5
324
  8
0
 39
5.0
 10
86.676573316185767
 20
92.050761092470708
 30
0.0
 11
86.781473316185753
 21
92.145861092470696
 31
0.0
  0
LINE
  5
325
  8
0
 39
5.0
 10
86.781473316185753
 20
92.145861092470696
 30
0.0
 11
86.894973316185755
 21
92.230961092470707
 31
0.0
  0
LINE
  5
326
  8
0
 39
5.0
 10
86.894973316185755
 20
92.230961092470707
 30
0.0
 11
87.016473316185753
 21
92.30496109247072
 31
0.0
  0
LINE
  5
327
  8
0
 39
5.0
 10
87.016473316185753
 20
92.30496109247072
 30
0.0
 11
87.145073316185744
 21
92.367261092470699
 31
0.0
  0
LINE
  5
328
  8
0
 39
5.0
 10
87.145073316185744
 20
92.367261092470699
 30
0.0
 11
87.280373316185745
 21
92.416861092470725
 31
0.0
  0
LINE
  5
329
  8
0
 39
5.0
 10
87.280373316185745
 20
92.416861092470725
 30
0.0
 11
87.421273316185761
 21
92.453361092470715
 31
0.0
  0
LINE
  5
32A
  8
0
 39
5.0
 10
87.421273316185761
 20
92.453361092470715
 30
0.0
 11
87.567073316185741
 21
92.475861092470709
 31
0.0
  0
LINE
  5
32B
  8
0
 39
5.0
 10
87.567073316185741
 20
92.475861092470709
 30
0.0
 11
87.716973316185744
 21
92.483561092470723
 31
0.0
  0
LINE
  5
32D
  8
1
 10
97.743773316185752
 20
42.372477651196
 30
0.0
 11
97.743773316185724
 21
17.172477651196001
 31
0.0
  0
LINE
  5
343
  8
0
 10
91.243773316185752
 20
92.483561092470723
 30
0.0
 11
91.243773316185752
 21
72.483561092470723
 31
0.0
  0
LINE
  5
344
  8
2
 10
91.543773316185735
 20
92.483561092470723
 30
0.0
 11
91.543773316185735
 21
72.483561092470723
 31
0.0
  0
LINE
  5
34C
  8
3
 10
104.44917331618571
 20
92.483561092470723
 30
0.0
 11
104.44917331618571
 21
72.483561092470723
 31
0.0
  0
LINE
  5
34D
  8
3
 10
104.7491733161857
 20
92.483561092470723
 30
0.0
 11
104.7491733161857
 21
72.483561092470723
 31
0.0
  0
LINE
  5
353
  8
0
 10
91.243773316185752
 20
57.990361092470707
 30
0.0
 11
91.243773316185752
 21
53.777761092470712
 31
0.0
  0
LINE
  5
355
  8
2
 10
91.543773316185735
 20
58.462801092470713
 30
0.0
 11
91.543773316185735
 21
53.777761092470712
 31
0.0
  0
LINE
  5
35A
  8
0
 10
91.743773316185752
 20
58.777761092470712
 30
0.0
 11
91.243773316185752
 21
57.990361092470707
 31
0.0
  0
LINE
  5
35B
  8
0
 10
91.743773316185752
 20
58.777761092470712
 30
0.0
 11
97.743773316185752
 21
58.777761092470712
 31
0.0
  0
LINE
  5
361
  8
0
 10
97.743773316185752
 20
48.777761092470712
 30
0.0
 11
85.243773316185752
 21
48.777761092470712
 31
0.0
  0
LINE
  5
362
  8
0
 10
85.243773316185752
 20
50.277761092470712
 30
0.0
 11
92.243773316185738
 21
50.277761092470712
 31
0.0
  0
LINE
  5
363
  8
0
 10
85.243773316185752
 20
48.777761092470712
 30
0.0
 11
85.243773316185752
 21
50.277761092470712
 31
0.0
  0
LINE
  5
365
  8
0
 10
91.243773316185752
 20
53.777761092470712
 30
0.0
 11
92.243773316185738
 21
53.777761092470712
 31
0.0
  0
LINE
  5
36A
  8
0
 10
92.243773316185738
 20
53.777761092470712
 30
0.0
 11
92.243773316185738
 21
50.277761092470712
 31
0.0
  0
LINE
  5
36F
  8
2
 10
103.9437733161857
 20
58.462801092470713
 30
0.0
 11
103.9437733161857
 21
53.777761092470712
 31
0.0
  0
LINE
  5
370
  8
0
 10
104.2437733161857
 20
57.990361092470707
 30
0.0
 11
104.2437733161857
 21
53.777761092470712
 31
0.0
  0
LINE
  5
371
  8
0
 10
97.743773316185752
 20
48.777761092470712
 30
0.0
 11
110.2437733161857
 21
48.777761092470712
 31
0.0
  0
LINE
  5
372
  8
0
 10
110.2437733161857
 20
50.277761092470712
 30
0.0
 11
97.743773316185752
 21
50.277761092470712
 31
0.0
  0
LINE
  5
373
  8
0
 10
110.2437733161857
 20
48.777761092470712
 30
0.0
 11
110.2437733161857
 21
50.277761092470712
 31
0.0
  0
LINE
  5
374
  8
0
 10
103.2437733161857
 20
53.777761092470712
 30
0.0
 11
103.2437733161857
 21
50.277761092470712
 31
0.0
  0
LINE
  5
375
  8
0
 10
104.2437733161857
 20
53.777761092470712
 30
0.0
 11
97.743773316185752
 21
53.777761092470712
 31
0.0
  0
LINE
  5
376
  8
0
 10
103.7437733161857
 20
58.777761092470712
 30
0.0
 11
97.743773316185752
 21
58.777761092470712
 31
0.0
  0
LINE
  5
377
  8
0
 10
103.7437733161857
 20
58.777761092470712
 30
0.0
 11
104.2437733161857
 21
57.990361092470707
 31
0.0
  0
LINE
  5
379
  8
0
 10
104.2437733161857
 20
57.990361092470707
 30
0.0
 11
97.743773316185752
 21
57.990361092470707
 31
0.0
  0
LINE
  5
37C
  8
0
 10
94.743773316185738
 20
58.777761092470712
 30
0.0
 11
94.743773316185738
 21
48.777761092470712
 31
0.0
  0
LINE
  5
37D
  8
3
 10
100.7437733161857
 20
58.777761092470712
 30
0.0
 11
100.7437733161857
 21
48.777761092470712
 31
0.0
  0
LINE
  5
386
  8
1
 10
85.043773316185764
 20
29.672477651196001
 30
0.0
 11
110.4437733161857
 21
29.672477651196001
 31
0.0
  0
CIRCLE
  5
387
  8
0
 10
97.743773316185752
 20
29.672477651196001
 30
0.0
 40
12.5
  0
LINE
  5
394
  8
1
 10
97.743773316185752
 20
48.477761092470708
 30
0.0
 11
97.743773316185752
 21
59.077761092470709
 31
0.0
  0
LINE
  5
39D
  8
0
 10
97.743773316185752
 20
26.78572630524787
 30
0.0
 11
95.243773316185752
 21
28.229101978221941
 31
0.0
  0
LINE
  5
39E
  8
0
 10
97.743773316185752
 20
32.559228997144139
 30
0.0
 11
95.243773316185752
 21
31.115853324170072
 31
0.0
  0
LINE
  5
39F
  8
0
 10
100.2437733161857
 20
28.229101978221941
 30
0.0
 11
97.743773316185752
 21
26.78572630524787
 31
0.0
  0
LINE
  5
3A0
  8
0
 10
97.743773316185752
 20
32.559228997144132
 30
0.0
 11
100.2437733161857
 21
31.115853324170061
 31
0.0
  0
LINE
  5
3A4
  8
0
 10
95.243773316185752
 20
31.115853324170072
 30
0.0
 11
95.243773316185752
 21
28.229101978221941
 31
0.0
  0
LINE
  5
3A5
  8
0
 10
100.2437733161857
 20
31.115853324170072
 30
0.0
 11
100.2437733161857
 21
28.229101978221941
 31
0.0
  0
LINE
  5
3AD
  8
1
 10
97.743773316185752
 20
17.172477651196001
 30
0.0
 11
97.743773316185752
 21
16.972477651196002
 31
0.0
  0
LINE
  5
3B7
  8
1
 10
97.743773316185752
 20
92.78356109247072
 30
0.0
 11
97.743773316185752
 21
72.183561092470725
 31
0.0
  0
DIMENSION
  5
3C7
  8
2
  2
*D1
 10
121.9006183857632
 20
72.483561092470723
 30
0.0
 11
120.0256183857631
 21
82.483561092470737
 31
0.0
 70
     0
 13
108.0499733161857
 23
92.483561092470723
 33
0.0
 14
108.0499733161857
 24
72.483561092470723
 34
0.0
 50
90.0
  0
DIMENSION
  5
3FA
  8
2
  2
*D2
 10
122.7742536116064
 20
50.277761092470712
 30
0.0
 11
122.7742536116064
 21
62.864154123185813
 31
0.0
 70
   128
 13
110.2437733161857
 23
48.777761092470712
 33
0.0
 14
110.2437733161857
 24
50.277761092470712
 34
0.0
 50
90.0
  0
DIMENSION
  5
409
  8
2
  2
*D3
 10
128.8897033633898
 20
58.777761092470698
 30
0.0
 11
127.0147033633898
 21
53.777761092470719
 31
0.0
 70
     0
 13
122.7742536116064
 23
48.777761092470698
 33
0.0
 14
103.7437733161857
 24
58.777761092470712
 34
0.0
 50
90.0
  0
DIMENSION
  5
422
  8
2
  2
*D4
 10
110.2437733161857
 20
44.196970730110642
 30
0.0
 11
97.743773316185752
 21
46.071970730110642
 31
0.0
 70
     0
  1
%%c<>
 13
85.243773316185752
 23
48.777761092470712
 33
0.0
 14
110.2437733161857
 24
48.777761092470712
 34
0.0
  0
DIMENSION
  5
439
  8
2
  2
*D5
 10
100.2437733161857
 20
12.598843150122059
 30
0.0
 11
97.743773316185752
 21
14.473843150122059
 31
0.0
 70
     0
 13
95.243773316185752
 23
28.229101978221941
 33
0.0
 14
100.2437733161857
 24
28.229101978221941
 34
0.0
  0
TEXT
  5
44A
  8
2
 10
71.742890303867725
 20
92.221730297338979
 30
0.0
 40
2.5
  1
G1/4
  0
POLYLINE
  8
2
  5
4C8
  66
     1
 10
0.000000
 20
0.000000
 30
0.000000
  70
     8
  0
VERTEX
  8
2
  5
4C9
 10
91.2438
 20
82.4836
 30
0.000000
  70
    32
  0
VERTEX
  8
2
  5
4CA
 10
81.0384
 20
90.8138
 30
0.000000
  70
    32
  0
VERTEX
  8
2
  5
4CB
 10
71.4983
 20
90.8138
 30
0.000000
  70
    32
  0
SEQEND
  8
2
  5
4CC
  0
TEXT
  5
44F
  8
2
 10
73.003273357646776
 20
76.333592816355804
 30
0.0
 40
2.5
  1
H20
  0
POLYLINE
  8
2
  5
4CD
  66
     1
 10
0.000000
 20
0.000000
 30
0.000000
  70
     8
  0
VERTEX
  8
2
  5
4CE
 10
86.2438
 20
82.4836
 30
0.000000
  70
    32
  0
VERTEX
  8
2
  5
4CF
 10
81.5726
 20
75.7128
 30
0.000000
  70
    32
  0
VERTEX
  8
2
  5
4D0
 10
71.9621
 20
75.7128
 30
0.000000
  70
    32
  0
SEQEND
  8
2
  5
4D1
  0
TEXT
  5
45C
  8
2
 10
74.284978678748757
 20
61.677169074627443
 30
0.0
 40
2.5
  1
G1/4
  0
POLYLINE
  8
2
  5
4D2
  66
     1
 10
0.000000
 20
0.000000
 30
0.000000
  70
     8
  0
VERTEX
  8
2
  5
4D3
 10
91.2438
 20
55.8841
 30
0.000000
  70
    32
  0
VERTEX
  8
2
  5
4D4
 10
83.1881
 20
61.0057
 30
0.000000
  70
    32
  0
VERTEX
  8
2
  5
4D5
 10
73.7094
 20
61.0057
 30
0.000000
  70
    32
  0
SEQEND
  8
2
  5
4D6
  0
ENDSEC
  0
EOF
