  0
SECTION
  2
HEADER
  9
$ACADVER
  1
AC1009
  9
$INSBASE
 10
0.0
 20
0.0
 30
0.0
  9
$EXTMIN
 10
68.497982435978983
 20
15.91251832519872
 30
0.0
  9
$EXTMAX
 10
117.4991925335202
 20
86.673385442310206
 30
5.0
  9
$LIMMIN
 10
0.0
 20
0.0
  9
$LIMMAX
 10
420.0
 20
297.0
  9
$ORTHOMODE
 70
     0
  9
$REGENMODE
 70
     1
  9
$FILLMODE
 70
     1
  9
$QTEXTMODE
 70
     0
  9
$MIRRTEXT
 70
     1
  9
$DRAGMODE
 70
     2
  9
$LTSCALE
 40
0.3
  9
$OSMODE
 70
    37
  9
$ATTMODE
 70
     1
  9
$TEXTSIZE
 40
2.5
  9
$TRACEWID
 40
1.0
  9
$TEXTSTYLE
  7
STANDARD
  9
$CLAYER
  8
2
  9
$CELTYPE
  6
BYLAYER
  9
$CECOLOR
 62
   256
  9
$DIMSCALE
 40
1.0
  9
$DIMASZ
 40
2.5
  9
$DIMEXO
 40
0.625
  9
$DIMDLI
 40
3.75
  9
$DIMRND
 40
0.0
  9
$DIMDLE
 40
0.0
  9
$DIMEXE
 40
1.25
  9
$DIMTP
 40
0.0
  9
$DIMTM
 40
0.0
  9
$DIMTXT
 40
2.5
  9
$DIMCEN
 40
2.5
  9
$DIMTSZ
 40
0.0
  9
$DIMTOL
 70
     0
  9
$DIMLIM
 70
     0
  9
$DIMTIH
 70
     0
  9
$DIMTOH
 70
     0
  9
$DIMSE1
 70
     0
  9
$DIMSE2
 70
     0
  9
$DIMTAD
 70
     1
  9
$DIMZIN
 70
     8
  9
$DIMBLK
  1

  9
$DIMASO
 70
     1
  9
$DIMSHO
 70
     1
  9
$DIMPOST
  1

  9
$DIMAPOST
  1

  9
$DIMALT
 70
     0
  9
$DIMALTD
 70
     3
  9
$DIMALTF
 40
0.03937007874016
  9
$DIMLFAC
 40
1.0
  9
$DIMTOFL
 70
     1
  9
$DIMTVP
 40
0.0
  9
$DIMTIX
 70
     0
  9
$DIMSOXD
 70
     0
  9
$DIMSAH
 70
     0
  9
$DIMBLK1
  1

  9
$DIMBLK2
  1

  9
$DIMSTYLE
  2
ISO-25
  9
$DIMCLRD
 70
     0
  9
$DIMCLRE
 70
     0
  9
$DIMCLRT
 70
     0
  9
$DIMTFAC
 40
1.0
  9
$DIMGAP
 40
0.625
  9
$LUNITS
 70
     2
  9
$LUPREC
 70
     4
  9
$SKETCHINC
 40
1.0
  9
$FILLETRAD
 40
10.0
  9
$AUNITS
 70
     0
  9
$AUPREC
 70
     0
  9
$MENU
  1
.
  9
$ELEVATION
 40
0.0
  9
$PELEVATION
 40
0.0
  9
$THICKNESS
 40
0.0
  9
$LIMCHECK
 70
     0
  9
$BLIPMODE
 70
     0
  9
$CHAMFERA
 40
10.0
  9
$CHAMFERB
 40
10.0
  9
$SKPOLY
 70
     0
  9
$TDCREATE
 40
2453452.424175451
  9
$TDUPDATE
 40
2453551.9301798721
  9
$TDINDWG
 40
0.0239496065
  9
$TDUSRTIMER
 40
0.0239496065
  9
$USRTIMER
 70
     1
  9
$ANGBASE
 50
0.0
  9
$ANGDIR
 70
     0
  9
$PDMODE
 70
     0
  9
$PDSIZE
 40
0.0
  9
$PLINEWID
 40
0.0
  9
$COORDS
 70
     1
  9
$SPLFRAME
 70
     0
  9
$SPLINETYPE
 70
     6
  9
$SPLINESEGS
 70
     8
  9
$ATTDIA
 70
     0
  9
$ATTREQ
 70
     1
  9
$HANDLING
 70
-16383
  9
$HANDSEED
  5
4C2
  9
$SURFTAB1
 70
     6
  9
$SURFTAB2
 70
     6
  9
$SURFTYPE
 70
     6
  9
$SURFU
 70
     6
  9
$SURFV
 70
     6
  9
$UCSNAME
  2

  9
$UCSORG
 10
0.0
 20
0.0
 30
0.0
  9
$UCSXDIR
 10
1.0
 20
0.0
 30
0.0
  9
$UCSYDIR
 10
0.0
 20
1.0
 30
0.0
  9
$PUCSNAME
  2

  9
$PUCSORG
 10
0.0
 20
0.0
 30
0.0
  9
$PUCSXDIR
 10
1.0
 20
0.0
 30
0.0
  9
$PUCSYDIR
 10
0.0
 20
1.0
 30
0.0
  9
$USERI1
 70
     0
  9
$USERI2
 70
     0
  9
$USERI3
 70
     0
  9
$USERI4
 70
     0
  9
$USERI5
 70
     0
  9
$USERR1
 40
0.0
  9
$USERR2
 40
0.0
  9
$USERR3
 40
0.0
  9
$USERR4
 40
0.0
  9
$USERR5
 40
0.0
  9
$WORLDVIEW
 70
     1
  9
$SHADEDGE
 70
     3
  9
$SHADEDIF
 70
    70
  9
$TILEMODE
 70
     1
  9
$MAXACTVP
 70
    64
  9
$PLIMCHECK
 70
     0
  9
$PEXTMIN
 10
1.0000000000000000E+020
 20
1.0000000000000000E+020
 30
1.0000000000000000E+020
  9
$PEXTMAX
 10
-1.0000000000000000E+020
 20
-1.0000000000000000E+020
 30
-1.0000000000000000E+020
  9
$PLIMMIN
 10
0.0
 20
0.0
  9
$PLIMMAX
 10
420.0
 20
297.0
  9
$UNITMODE
 70
     0
  9
$VISRETAIN
 70
     1
  9
$PLINEGEN
 70
     0
  9
$PSLTSCALE
 70
     1
  0
ENDSEC
  0
SECTION
  2
TABLES
  0
TABLE
  2
VPORT
 70
     2
  0
VPORT
  2
*ACTIVE
 70
     0
 10
0.0
 20
0.0
 11
1.0
 21
1.0
 12
89.350882792908564
 22
43.052698617331941
 13
0.0
 23
0.0
 14
10.0
 24
10.0
 15
10.0
 25
10.0
 16
0.0
 26
0.0
 36
1.0
 17
0.0
 27
0.0
 37
0.0
 40
119.5447156891986
 41
2.5392405063291141
 42
50.0
 43
0.0
 44
0.0
 50
0.0
 51
0.0
 71
     0
 72
   100
 73
     1
 74
     3
 75
     0
 76
     0
 77
     0
 78
     0
  0
ENDTAB
  0
TABLE
  2
LTYPE
 70
     3
  0
LTYPE
  2
CONTINUOUS
 70
     0
  3
Solid line
 72
    65
 73
     0
 40
0.0
  0
LTYPE
  2
CENTER
 70
     0
  3
Center ____ _ ____ _ ____ _ ____ _ ____ _ ____
 72
    65
 73
     4
 40
50.799999999999997
 49
31.75
 49
-6.3499999999999988
 49
6.3499999999999988
 49
-6.3499999999999988
  0
LTYPE
  2
DASHED2
 70
     0
  3
Dashed (.5x) _ _ _ _ _ _ _ _ _ _ _ _ _ _ _ _ _
 72
    65
 73
     2
 40
9.5249999999999986
 49
6.3499999999999988
 49
-3.1749999999999989
  0
ENDTAB
  0
TABLE
  2
LAYER
 70
     5
  0
LAYER
  2
0
 70
     0
 62
     7
  6
CONTINUOUS
  0
LAYER
  2
1
 70
     0
 62
     7
  6
CENTER
  0
LAYER
  2
2
 70
     0
 62
     7
  6
CONTINUOUS
  0
LAYER
  2
3
 70
     0
 62
     7
  6
DASHED2
  0
LAYER
  2
DEFPOINTS
 70
     0
 62
     7
  6
CONTINUOUS
  0
ENDTAB
  0
TABLE
  2
STYLE
 70
     3
  0
STYLE
  2
STANDARD
 70
     0
 40
0.0
 41
1.0
 50
0.0
 71
     0
 42
2.5
  3
txt
  4

  0
STYLE
  2
\U+00C9L\U+00C9R_\U+00C2S\U+00C2V\U+00C2B\U+00C2N
 70
     0
 40
1.0
 41
1.0
 50
0.0
 71
     0
 42
1.0
  3
\U+00E9l\U+00E9r \U+00E2S\U+00E2V\U+00E2b\U+00E2N
  4

  0
STYLE
  2

 70
     1
 40
0.0
 41
1.0
 50
0.0
 71
     0
 42
2.5
  3
ltypeshp.shx
  4

  0
ENDTAB
  0
TABLE
  2
VIEW
 70
     0
  0
ENDTAB
  0
TABLE
  2
UCS
 70
     0
  0
ENDTAB
  0
TABLE
  2
APPID
 70
     1
  0
APPID
  2
ACAD
 70
     0
  0
ENDTAB
  0
TABLE
  2
DIMSTYLE
 70
     2
  0
DIMSTYLE
  2
ISO-25
 70
     0
  3

  4

  5

  6

  7

 40
1.0
 41
2.5
 42
0.625
 43
3.75
 44
1.25
 45
0.0
 46
0.0
 47
0.0
 48
0.0
140
2.5
141
2.5
142
0.0
143
0.03937007874016
144
1.0
145
0.0
146
1.0
147
0.625
 71
     0
 72
     0
 73
     0
 74
     0
 75
     0
 76
     0
 77
     1
 78
     8
170
     0
171
     3
172
     1
173
     0
174
     0
175
     0
176
     0
177
     0
178
     0
  0
DIMSTYLE
  2
STANDARD
 70
     0
  3

  4

  5

  6

  7

 40
1.0
 41
0.18
 42
0.0625
 43
0.38
 44
0.18
 45
0.0
 46
0.0
 47
0.0
 48
0.0
140
0.18
141
0.09
142
0.0
143
25.399999999999999
144
1.0
145
0.0
146
1.0
147
0.09
 71
     0
 72
     0
 73
     1
 74
     1
 75
     0
 76
     0
 77
     0
 78
     0
170
     0
171
     2
172
     0
173
     0
174
     0
175
     0
176
     0
177
     0
178
     0
  0
ENDTAB
  0
ENDSEC
  0
SECTION
  2
BLOCKS
  0
BLOCK
  8
0
  2
$MODEL_SPACE
 70
     0
 10
0.0
 20
0.0
 30
0.0
  3
$MODEL_SPACE
  1

  0
ENDBLK
  5
21
  8
0
  0
BLOCK
 67
     1
  8
0
  2
$PAPER_SPACE
 70
     0
 10
0.0
 20
0.0
 30
0.0
  3
$PAPER_SPACE
  1

  0
ENDBLK
  5
1D
 67
     1
  8
0
  0
BLOCK
  8
0
  2
*D1
 70
     1
 10
0.0
 20
0.0
 30
0.0
  3
*D1
  1

  0
LINE
  5
3E3
  8
2
 62
     0
 10
101.81816121780039
 20
73.503823572251321
 30
0.0
 11
113.0383517681112
 21
73.503823572251321
 31
0.0
  0
LINE
  5
3E4
  8
2
 62
     0
 10
102.1903719560554
 20
58.503823572251321
 30
0.0
 11
113.0383517681112
 21
58.503823572251306
 31
0.0
  0
LINE
  5
3E5
  8
2
 62
     0
 10
111.7883517681112
 20
71.003823572251321
 30
0.0
 11
111.7883517681112
 21
61.003823572251321
 31
0.0
  0
SOLID
  5
3E6
  8
2
 62
     0
 10
111.3716851014446
 20
71.003823572251321
 30
0.0
 11
112.2050184347779
 21
71.003823572251321
 31
0.0
 12
111.7883517681112
 22
73.503823572251321
 32
0.0
 13
111.7883517681112
 23
73.503823572251321
 33
0.0
  0
SOLID
  5
3E7
  8
2
 62
     0
 10
111.3716851014446
 20
61.003823572251321
 30
0.0
 11
112.2050184347779
 21
61.003823572251306
 31
0.0
 12
111.7883517681112
 22
58.503823572251321
 32
0.0
 13
111.7883517681112
 23
58.503823572251321
 33
0.0
  0
TEXT
  5
3E8
  8
2
 62
     0
 10
111.1633517681112
 20
63.337156905584678
 30
0.0
 40
2.5
  1
15
 50
90.0
  0
POINT
  5
3E9
  8
DEFPOINTS
 62
     0
 10
101.19316121780039
 20
73.503823572251321
 30
0.0
  0
POINT
  5
3EA
  8
DEFPOINTS
 62
     0
 10
101.5653719560554
 20
58.503823572251321
 30
0.0
  0
POINT
  5
3EB
  8
DEFPOINTS
 62
     0
 10
111.7883517681112
 20
58.503823572251321
 30
0.0
  0
ENDBLK
  5
331
  8
0
  0
BLOCK
  8
0
  2
*D2
 70
     1
 10
0.0
 20
0.0
 30
0.0
  3
*D2
  1

  0
LINE
  5
3FE
  8
2
 62
     0
 10
114.2883517681112
 20
73.503823572251321
 30
0.0
 11
117.4991925335202
 21
73.503823572251321
 31
0.0
  0
LINE
  5
3FF
  8
2
 62
     0
 10
98.490961217800475
 20
44.503823572251321
 30
0.0
 11
117.4991925335202
 21
44.503823572251306
 31
0.0
  0
LINE
  5
400
  8
2
 62
     0
 10
116.2491925335202
 20
71.003823572251321
 30
0.0
 11
116.2491925335202
 21
47.003823572251306
 31
0.0
  0
SOLID
  5
401
  8
2
 62
     0
 10
115.8325258668535
 20
71.003823572251321
 30
0.0
 11
116.6658592001869
 21
71.003823572251321
 31
0.0
 12
116.2491925335202
 22
73.503823572251321
 32
0.0
 13
116.2491925335202
 23
73.503823572251321
 33
0.0
  0
SOLID
  5
402
  8
2
 62
     0
 10
115.8325258668535
 20
47.003823572251306
 30
0.0
 11
116.6658592001869
 21
47.003823572251306
 31
0.0
 12
116.2491925335202
 22
44.503823572251306
 32
0.0
 13
116.2491925335202
 23
44.503823572251306
 33
0.0
  0
TEXT
  5
403
  8
2
 62
     0
 10
115.6241925335202
 20
53.420490238917999
 30
0.0
 40
2.5
  1
29
 50
90.0
  0
POINT
  5
404
  8
DEFPOINTS
 62
     0
 10
113.6633517681112
 20
73.503823572251321
 30
0.0
  0
POINT
  5
405
  8
DEFPOINTS
 62
     0
 10
97.865961217800475
 20
44.503823572251321
 30
0.0
  0
POINT
  5
406
  8
DEFPOINTS
 62
     0
 10
116.2491925335202
 20
44.503823572251306
 30
0.0
  0
ENDBLK
  5
347
  8
0
  0
BLOCK
  8
0
  2
*D3
 70
     1
 10
0.0
 20
0.0
 30
0.0
  3
*D3
  1

  0
LINE
  5
3D1
  8
2
 62
     0
 10
83.499051133766727
 20
73.503823572251321
 30
0.0
 11
73.653605276965664
 21
73.503823572251321
 31
0.0
  0
LINE
  5
3D2
  8
2
 62
     0
 10
86.290961217800472
 20
62.503823572251321
 30
0.0
 11
73.653605276965664
 21
62.503823572251328
 31
0.0
  0
LINE
  5
3D3
  8
2
 62
     0
 10
74.903605276965664
 20
71.003823572251321
 30
0.0
 11
74.903605276965664
 21
65.003823572251335
 31
0.0
  0
SOLID
  5
3D4
  8
2
 62
     0
 10
74.486938610298992
 20
71.003823572251321
 30
0.0
 11
75.320271943632335
 21
71.003823572251321
 31
0.0
 12
74.903605276965664
 22
73.503823572251321
 32
0.0
 13
74.903605276965664
 23
73.503823572251321
 33
0.0
  0
SOLID
  5
3D5
  8
2
 62
     0
 10
74.486938610298992
 20
65.003823572251335
 30
0.0
 11
75.320271943632335
 21
65.003823572251335
 31
0.0
 12
74.903605276965664
 22
62.503823572251328
 32
0.0
 13
74.903605276965664
 23
62.503823572251328
 33
0.0
  0
TEXT
  5
3D6
  8
2
 62
     0
 10
74.278605276965649
 20
66.753823572251349
 30
0.0
 40
2.5
  1
11
 50
90.0
  0
POINT
  5
3D7
  8
DEFPOINTS
 62
     0
 10
84.124051133766727
 20
73.503823572251321
 30
0.0
  0
POINT
  5
3D8
  8
DEFPOINTS
 62
     0
 10
86.915961217800472
 20
62.503823572251321
 30
0.0
  0
POINT
  5
3D9
  8
DEFPOINTS
 62
     0
 10
74.903605276965664
 20
62.503823572251328
 30
0.0
  0
ENDBLK
  5
35E
  8
0
  0
BLOCK
  8
0
  2
*D4
 70
     1
 10
0.0
 20
0.0
 30
0.0
  3
*D4
  1

  0
LINE
  5
3F3
  8
2
 62
     0
 10
87.740961217800475
 20
44.503823572251321
 30
0.0
 11
73.653605276965664
 21
44.503823572251328
 31
0.0
  0
LINE
  5
3F4
  8
2
 62
     0
 10
87.740961217800475
 20
46.503823572251321
 30
0.0
 11
73.653605276965664
 21
46.503823572251321
 31
0.0
  0
LINE
  5
3F5
  8
2
 62
     0
 10
74.903605276965664
 20
42.003823572251328
 30
0.0
 11
74.903605276965664
 21
39.503823572251321
 31
0.0
  0
LINE
  5
3F6
  8
2
 62
     0
 10
74.903605276965664
 20
49.003823572251328
 30
0.0
 11
74.903605276965664
 21
54.420490238917992
 31
0.0
  0
LINE
  5
3F7
  8
2
 62
     0
 10
74.903605276965664
 20
44.503823572251328
 30
0.0
 11
74.903605276965664
 21
46.503823572251321
 31
0.0
  0
SOLID
  5
3F8
  8
2
 62
     0
 10
74.486938610298992
 20
42.003823572251328
 30
0.0
 11
75.320271943632335
 21
42.003823572251328
 31
0.0
 12
74.903605276965664
 22
44.503823572251328
 32
0.0
 13
74.903605276965664
 23
44.503823572251328
 33
0.0
  0
SOLID
  5
3F9
  8
2
 62
     0
 10
74.486938610298992
 20
49.003823572251328
 30
0.0
 11
75.320271943632335
 21
49.003823572251328
 31
0.0
 12
74.903605276965664
 22
46.503823572251321
 32
0.0
 13
74.903605276965664
 23
46.503823572251321
 33
0.0
  0
TEXT
  5
3FA
  8
2
 62
     0
 10
74.278605276965649
 20
52.128823572251328
 30
0.0
 40
2.5
  1
2
 50
90.0
  0
POINT
  5
3FB
  8
DEFPOINTS
 62
     0
 10
88.365961217800475
 20
44.503823572251321
 30
0.0
  0
POINT
  5
3FC
  8
DEFPOINTS
 62
     0
 10
88.365961217800475
 20
46.503823572251321
 30
0.0
  0
POINT
  5
3FD
  8
DEFPOINTS
 62
     0
 10
74.903605276965664
 20
46.503823572251321
 30
0.0
  0
ENDBLK
  5
36D
  8
0
  0
BLOCK
  8
0
  2
*D5
 70
     1
 10
0.0
 20
0.0
 30
0.0
  3
*D5
  1

  0
LINE
  5
456
  8
2
 62
     0
 10
91.115961217800475
 20
43.878823572251321
 30
0.0
 11
91.115961217800475
 21
33.506124241788299
 31
0.0
  0
LINE
  5
457
  8
2
 62
     0
 10
95.115961217800475
 20
43.878823572251321
 30
0.0
 11
95.115961217800475
 21
33.506124241788299
 31
0.0
  0
LINE
  5
458
  8
2
 62
     0
 10
88.615961217800475
 20
34.756124241788299
 30
0.0
 11
86.115961217800475
 21
34.756124241788299
 31
0.0
  0
LINE
  5
459
  8
2
 62
     0
 10
97.615961217800475
 20
34.756124241788299
 30
0.0
 11
105.5428318119304
 21
34.756124241788299
 31
0.0
  0
LINE
  5
45A
  8
2
 62
     0
 10
91.115961217800475
 20
34.756124241788299
 30
0.0
 11
95.115961217800475
 21
34.756124241788299
 31
0.0
  0
SOLID
  5
45B
  8
2
 62
     0
 10
88.615961217800475
 20
35.172790908454957
 30
0.0
 11
88.615961217800475
 21
34.339457575121628
 31
0.0
 12
91.115961217800475
 22
34.756124241788299
 32
0.0
 13
91.115961217800475
 23
34.756124241788299
 33
0.0
  0
SOLID
  5
45C
  8
2
 62
     0
 10
97.615961217800475
 20
35.172790908454957
 30
0.0
 11
97.615961217800475
 21
34.339457575121628
 31
0.0
 12
95.115961217800475
 22
34.756124241788299
 32
0.0
 13
95.115961217800475
 23
34.756124241788299
 33
0.0
  0
INSERT
  5
45D
  8
2
  2
*U8
 10
0.0
 20
0.0
 30
0.0
  0
POINT
  5
45E
  8
DEFPOINTS
 62
     0
 10
91.115961217800475
 20
44.503823572251321
 30
0.0
  0
POINT
  5
45F
  8
DEFPOINTS
 62
     0
 10
95.115961217800475
 20
44.503823572251321
 30
0.0
  0
POINT
  5
460
  8
DEFPOINTS
 62
     0
 10
95.115961217800475
 20
34.756124241788299
 30
0.0
  0
ENDBLK
  5
37D
  8
0
  0
BLOCK
  8
0
  2
*D6
 70
     1
 10
0.0
 20
0.0
 30
0.0
  3
*D6
  1

  0
LINE
  5
481
  8
2
 62
     0
 10
88.765961217800481
 20
45.878823572251321
 30
0.0
 11
88.765961217800481
 21
28.433991143646761
 31
0.0
  0
LINE
  5
482
  8
2
 62
     0
 10
97.465961217800469
 20
45.878823572251321
 30
0.0
 11
97.465961217800469
 21
28.433991143646761
 31
0.0
  0
LINE
  5
483
  8
2
 62
     0
 10
91.265961217800481
 20
29.683991143646761
 30
0.0
 11
94.965961217800469
 21
29.683991143646761
 31
0.0
  0
LINE
  5
484
  8
2
 62
     0
 10
97.465961217800469
 20
29.683991143646761
 30
0.0
 11
108.7159612178004
 21
29.683991143646761
 31
0.0
  0
SOLID
  5
485
  8
2
 62
     0
 10
91.265961217800481
 20
30.100657810313429
 30
0.0
 11
91.265961217800481
 21
29.26732447698009
 31
0.0
 12
88.765961217800481
 22
29.683991143646761
 32
0.0
 13
88.765961217800481
 23
29.683991143646761
 33
0.0
  0
SOLID
  5
486
  8
2
 62
     0
 10
94.965961217800469
 20
30.100657810313429
 30
0.0
 11
94.965961217800469
 21
29.26732447698009
 31
0.0
 12
97.465961217800469
 22
29.683991143646761
 32
0.0
 13
97.465961217800469
 23
29.683991143646761
 33
0.0
  0
INSERT
  5
487
  8
2
  2
*U9
 10
0.0
 20
0.0
 30
0.0
  0
POINT
  5
488
  8
DEFPOINTS
 62
     0
 10
88.765961217800481
 20
46.503823572251321
 30
0.0
  0
POINT
  5
489
  8
DEFPOINTS
 62
     0
 10
97.465961217800469
 20
46.503823572251321
 30
0.0
  0
POINT
  5
48A
  8
DEFPOINTS
 62
     0
 10
97.465961217800469
 20
29.683991143646761
 30
0.0
  0
ENDBLK
  5
44A
  8
0
  0
BLOCK
  8
0
  2
*D7
 70
     1
 10
0.0
 20
0.0
 30
0.0
  3
*D7
  1

  0
LINE
  5
48B
  8
2
 62
     0
 10
87.115961217800475
 20
45.878823572251321
 30
0.0
 11
87.115961217800475
 21
23.224773349365911
 31
0.0
  0
LINE
  5
48C
  8
2
 62
     0
 10
99.115961217800475
 20
45.878823572251321
 30
0.0
 11
99.115961217800475
 21
23.224773349365911
 31
0.0
  0
LINE
  5
48D
  8
2
 62
     0
 10
89.615961217800475
 20
24.474773349365911
 30
0.0
 11
96.615961217800475
 21
24.474773349365911
 31
0.0
  0
SOLID
  5
48E
  8
2
 62
     0
 10
89.615961217800475
 20
24.891440016032579
 30
0.0
 11
89.615961217800475
 21
24.05810668269925
 31
0.0
 12
87.115961217800475
 22
24.474773349365911
 32
0.0
 13
87.115961217800475
 23
24.474773349365911
 33
0.0
  0
SOLID
  5
48F
  8
2
 62
     0
 10
96.615961217800475
 20
24.891440016032579
 30
0.0
 11
96.615961217800475
 21
24.05810668269925
 31
0.0
 12
99.115961217800475
 22
24.474773349365911
 32
0.0
 13
99.115961217800475
 23
24.474773349365911
 33
0.0
  0
INSERT
  5
490
  8
2
  2
*U10
 10
0.0
 20
0.0
 30
0.0
  0
POINT
  5
491
  8
DEFPOINTS
 62
     0
 10
87.115961217800475
 20
46.503823572251321
 30
0.0
  0
POINT
  5
492
  8
DEFPOINTS
 62
     0
 10
99.115961217800475
 20
46.503823572251321
 30
0.0
  0
POINT
  5
493
  8
DEFPOINTS
 62
     0
 10
99.115961217800475
 20
24.474773349365911
 30
0.0
  0
ENDBLK
  5
476
  8
0
  0
BLOCK
  8
0
  2
*U8
 70
     1
 10
0.0
 20
0.0
 30
0.0
  3
*U8
  1

  0
TEXT
  5
4AA
  8
2
 62
     0
 10
100.7511651452638
 20
35.381124241788299
 30
0.0
 40
2.5
  1
\U+2205
  0
TEXT
  5
4AB
  8
2
 62
     0
 10
103.2511651452638
 20
35.381124241788299
 30
0.0
 40
2.5
  1
4
  0
ENDBLK
  5
4AD
  8
0
  0
BLOCK
  8
0
  2
*U9
 70
     1
 10
0.0
 20
0.0
 30
0.0
  3
*U9
  1

  0
TEXT
  5
4AF
  8
2
 62
     0
 10
100.5909612178004
 20
30.308991143646761
 30
0.0
 40
2.5
  1
\U+2205
  0
TEXT
  5
4B0
  8
2
 62
     0
 10
103.0909612178004
 20
30.308991143646761
 30
0.0
 40
2.5
  1
8.7
  0
ENDBLK
  5
4B2
  8
0
  0
BLOCK
  8
0
  2
*U10
 70
     1
 10
0.0
 20
0.0
 30
0.0
  3
*U10
  1

  0
TEXT
  5
4B4
  8
2
 62
     0
 10
90.199294551133804
 20
25.099773349365911
 30
0.0
 40
2.5
  1
\U+2205
  0
TEXT
  5
4B5
  8
2
 62
     0
 10
92.699294551133804
 20
25.099773349365911
 30
0.0
 40
2.5
  1
12
  0
ENDBLK
  5
4B7
  8
0
  0
ENDSEC
  0
SECTION
  2
ENTITIES
  0
TEXT
  5
134
  8
2
 10
82.870053674527256
 20
15.912518325198731
 30
0.0
 40
2.5399440000000002
  1
No. 270.192
 51
-0.0000015352344868
  7
\U+00C9L\U+00C9R_\U+00C2S\U+00C2V\U+00C2B\U+00C2N
  0
LINE
  5
230
  8
0
 39
5.0
 10
84.188800189963246
 20
58.503823572251321
 30
0.0
 11
84.132761217800464
 21
58.523923572251327
 31
0.0
  0
LINE
  5
231
  8
0
 39
5.0
 10
84.132761217800464
 20
58.523923572251327
 30
0.0
 11
84.002261217800466
 21
58.58372357225133
 31
0.0
  0
LINE
  5
232
  8
0
 39
5.0
 10
84.002261217800466
 20
58.58372357225133
 30
0.0
 11
83.873061217800469
 21
58.656123572251332
 31
0.0
  0
LINE
  5
233
  8
0
 39
5.0
 10
83.873061217800469
 20
58.656123572251332
 30
0.0
 11
83.747061217800479
 21
58.741223572251322
 31
0.0
  0
LINE
  5
234
  8
0
 39
5.0
 10
83.747061217800479
 20
58.741223572251322
 30
0.0
 11
83.625961217800466
 21
58.838523572251333
 31
0.0
  0
LINE
  5
235
  8
0
 39
5.0
 10
83.625961217800466
 20
58.838523572251333
 30
0.0
 11
83.511861217800472
 21
58.948323572251333
 31
0.0
  0
LINE
  5
236
  8
0
 39
5.0
 10
83.511861217800472
 20
58.948323572251333
 30
0.0
 11
83.406361217800495
 21
59.069923572251319
 31
0.0
  0
LINE
  5
237
  8
0
 39
5.0
 10
83.406361217800495
 20
59.069923572251319
 30
0.0
 11
83.311461217800471
 21
59.203523572251328
 31
0.0
  0
LINE
  5
238
  8
0
 39
5.0
 10
83.311461217800471
 20
59.203523572251328
 30
0.0
 11
83.228661217800465
 21
59.348523572251317
 31
0.0
  0
LINE
  5
239
  8
0
 39
5.0
 10
83.228661217800465
 20
59.348523572251317
 30
0.0
 11
83.160261217800453
 21
59.505223572251317
 31
0.0
  0
LINE
  5
23A
  8
0
 39
5.0
 10
83.160261217800453
 20
59.505223572251317
 30
0.0
 11
83.107661217800455
 21
59.67312357225132
 31
0.0
  0
LINE
  5
23B
  8
0
 39
5.0
 10
83.107661217800455
 20
59.67312357225132
 30
0.0
 11
83.072861217800465
 21
59.85212357225133
 31
0.0
  0
LINE
  5
23C
  8
0
 39
5.0
 10
83.072861217800465
 20
59.85212357225133
 30
0.0
 11
83.057561217800469
 21
60.041823572251332
 31
0.0
  0
LINE
  5
23D
  8
0
 39
5.0
 10
83.057561217800469
 20
60.041823572251332
 30
0.0
 11
83.057561217800469
 21
72.233823572251325
 31
0.0
  0
LINE
  5
23E
  8
0
 39
5.0
 10
83.057561217800469
 20
72.233823572251325
 30
0.0
 11
83.057561217800469
 21
72.233823572251325
 31
0.0
  0
LINE
  5
23F
  8
0
 39
5.0
 10
83.057561217800469
 20
72.233823572251325
 30
0.0
 11
83.063061217800467
 21
72.412323572251324
 31
0.0
  0
LINE
  5
240
  8
0
 39
5.0
 10
83.063061217800467
 20
72.412323572251324
 30
0.0
 11
83.087361217800463
 21
72.57602357225133
 31
0.0
  0
LINE
  5
241
  8
0
 39
5.0
 10
83.087361217800463
 20
72.57602357225133
 30
0.0
 11
83.128961217800466
 21
72.725623572251322
 31
0.0
  0
LINE
  5
242
  8
0
 39
5.0
 10
83.128961217800466
 20
72.725623572251322
 30
0.0
 11
83.185861217800465
 21
72.861023572251327
 31
0.0
  0
LINE
  5
243
  8
0
 39
5.0
 10
83.185861217800465
 20
72.861023572251327
 30
0.0
 11
83.256461217800478
 21
72.982923572251323
 31
0.0
  0
LINE
  5
244
  8
0
 39
5.0
 10
83.256461217800478
 20
72.982923572251323
 30
0.0
 11
83.338561217800475
 21
73.091223572251323
 31
0.0
  0
LINE
  5
245
  8
0
 39
5.0
 10
83.338561217800475
 20
73.091223572251323
 30
0.0
 11
83.430661217800449
 21
73.186523572251332
 31
0.0
  0
LINE
  5
246
  8
0
 39
5.0
 10
83.430661217800449
 20
73.186523572251332
 30
0.0
 11
83.530661217800471
 21
73.268923572251325
 31
0.0
  0
LINE
  5
247
  8
0
 39
5.0
 10
83.530661217800471
 20
73.268923572251325
 30
0.0
 11
83.637161217800468
 21
73.339023572251335
 31
0.0
  0
LINE
  5
248
  8
0
 39
5.0
 10
83.637161217800468
 20
73.339023572251335
 30
0.0
 11
83.747961217800494
 21
73.396823572251321
 31
0.0
  0
LINE
  5
249
  8
0
 39
5.0
 10
83.747961217800494
 20
73.396823572251321
 30
0.0
 11
83.861461217800468
 21
73.442723572251339
 31
0.0
  0
LINE
  5
24A
  8
0
 39
5.0
 10
83.861461217800468
 20
73.442723572251339
 30
0.0
 11
83.975561217800475
 21
73.476923572251337
 31
0.0
  0
LINE
  5
24B
  8
0
 39
5.0
 10
83.975561217800475
 20
73.476923572251337
 30
0.0
 11
84.088861217800485
 21
73.500023572251337
 31
0.0
  0
LINE
  5
24C
  8
0
 39
5.0
 10
84.088861217800485
 20
73.500023572251337
 30
0.0
 11
84.124051133766727
 21
73.503823572251321
 31
0.0
  0
LINE
  5
252
  8
0
 39
5.0
 10
94.770861217800473
 20
73.503823572251321
 30
0.0
 11
95.07856121780047
 21
73.49382357225133
 31
0.0
  0
LINE
  5
253
  8
0
 39
5.0
 10
95.07856121780047
 20
73.49382357225133
 30
0.0
 11
95.377461217800473
 21
73.464023572251335
 31
0.0
  0
LINE
  5
254
  8
0
 39
5.0
 10
95.377461217800473
 20
73.464023572251335
 30
0.0
 11
95.666261217800454
 21
73.41562357225132
 31
0.0
  0
LINE
  5
255
  8
0
 39
5.0
 10
95.666261217800454
 20
73.41562357225132
 30
0.0
 11
95.94316121780048
 21
73.349523572251329
 31
0.0
  0
LINE
  5
256
  8
0
 39
5.0
 10
95.94316121780048
 20
73.349523572251329
 30
0.0
 11
96.206961217800469
 21
73.267023572251333
 31
0.0
  0
LINE
  5
257
  8
0
 39
5.0
 10
96.206961217800469
 20
73.267023572251333
 30
0.0
 11
96.455861217800475
 21
73.168723572251324
 31
0.0
  0
LINE
  5
258
  8
0
 39
5.0
 10
96.455861217800475
 20
73.168723572251324
 30
0.0
 11
96.688361217800463
 21
73.055923572251331
 31
0.0
  0
LINE
  5
259
  8
0
 39
5.0
 10
96.688361217800463
 20
73.055923572251331
 30
0.0
 11
96.902861217800464
 21
72.929423572251324
 31
0.0
  0
LINE
  5
25A
  8
0
 39
5.0
 10
96.902861217800464
 20
72.929423572251324
 30
0.0
 11
97.098161217800495
 21
72.790423572251328
 31
0.0
  0
LINE
  5
25B
  8
0
 39
5.0
 10
97.098161217800495
 20
72.790423572251328
 30
0.0
 11
97.272361217800466
 21
72.639723572251313
 31
0.0
  0
LINE
  5
25C
  8
0
 39
5.0
 10
97.272361217800466
 20
72.639723572251313
 30
0.0
 11
97.424061217800485
 21
72.478523572251333
 31
0.0
  0
LINE
  5
25D
  8
0
 39
5.0
 10
97.424061217800485
 20
72.478523572251333
 30
0.0
 11
97.551461217800465
 21
72.307523572251327
 31
0.0
  0
LINE
  5
25E
  8
0
 39
5.0
 10
97.551461217800465
 20
72.307523572251327
 30
0.0
 11
97.653361217800466
 21
72.128123572251326
 31
0.0
  0
LINE
  5
25F
  8
0
 39
5.0
 10
97.653361217800466
 20
72.128123572251326
 30
0.0
 11
97.728061217800473
 21
71.941023572251325
 31
0.0
  0
LINE
  5
260
  8
0
 39
5.0
 10
97.728061217800473
 20
71.941023572251325
 30
0.0
 11
97.773961217800462
 21
71.747423572251336
 31
0.0
  0
LINE
  5
261
  8
0
 39
5.0
 10
97.773961217800462
 20
71.747423572251336
 30
0.0
 11
97.789561217800482
 21
71.548023572251324
 31
0.0
  0
LINE
  5
262
  8
0
 39
5.0
 10
97.789561217800482
 20
71.548023572251324
 30
0.0
 11
97.789561217800482
 21
60.422823572251332
 31
0.0
  0
LINE
  5
263
  8
0
 39
5.0
 10
97.789561217800482
 20
60.422823572251332
 30
0.0
 11
97.789561217800482
 21
60.422823572251332
 31
0.0
  0
LINE
  5
264
  8
0
 39
5.0
 10
97.789561217800482
 20
60.422823572251332
 30
0.0
 11
97.773961217800462
 21
60.22372357225133
 31
0.0
  0
LINE
  5
265
  8
0
 39
5.0
 10
97.773961217800462
 20
60.22372357225133
 30
0.0
 11
97.728061217800473
 21
60.030123572251327
 31
0.0
  0
LINE
  5
266
  8
0
 39
5.0
 10
97.728061217800473
 20
60.030123572251327
 30
0.0
 11
97.653361217800466
 21
59.843123572251329
 31
0.0
  0
LINE
  5
267
  8
0
 39
5.0
 10
97.653361217800466
 20
59.843123572251329
 30
0.0
 11
97.551461217800465
 21
59.663623572251332
 31
0.0
  0
LINE
  5
268
  8
0
 39
5.0
 10
97.551461217800465
 20
59.663623572251332
 30
0.0
 11
97.424061217800485
 21
59.492823572251332
 31
0.0
  0
LINE
  5
269
  8
0
 39
5.0
 10
97.424061217800485
 20
59.492823572251332
 30
0.0
 11
97.272361217800466
 21
59.331523572251321
 31
0.0
  0
LINE
  5
26A
  8
0
 39
5.0
 10
97.272361217800466
 20
59.331523572251321
 30
0.0
 11
97.098161217800495
 21
59.180923572251331
 31
0.0
  0
LINE
  5
26B
  8
0
 39
5.0
 10
97.098161217800495
 20
59.180923572251331
 30
0.0
 11
96.902861217800464
 21
59.041623572251318
 31
0.0
  0
LINE
  5
26C
  8
0
 39
5.0
 10
96.902861217800464
 20
59.041623572251318
 30
0.0
 11
96.688361217800463
 21
58.915223572251328
 31
0.0
  0
LINE
  5
26D
  8
0
 39
5.0
 10
96.688361217800463
 20
58.915223572251328
 30
0.0
 11
96.455861217800475
 21
58.802423572251321
 31
0.0
  0
LINE
  5
26E
  8
0
 39
5.0
 10
96.455861217800475
 20
58.802423572251321
 30
0.0
 11
96.206961217800469
 21
58.70422357225133
 31
0.0
  0
LINE
  5
26F
  8
0
 39
5.0
 10
96.206961217800469
 20
58.70422357225133
 30
0.0
 11
95.94316121780048
 21
58.621523572251327
 31
0.0
  0
LINE
  5
270
  8
0
 39
5.0
 10
95.94316121780048
 20
58.621523572251327
 30
0.0
 11
95.666261217800454
 21
58.555523572251332
 31
0.0
  0
LINE
  5
271
  8
0
 39
5.0
 10
95.666261217800454
 20
58.555523572251332
 30
0.0
 11
95.377461217800473
 21
58.507023572251327
 31
0.0
  0
LINE
  5
272
  8
0
 39
5.0
 10
95.377461217800473
 20
58.507023572251327
 30
0.0
 11
95.345364573505094
 21
58.503823572251321
 31
0.0
  0
LINE
  5
299
  8
1
 10
93.115961217800475
 20
73.803823572251318
 30
0.0
 11
93.115961217800475
 21
44.003823572251321
 31
0.0
  0
LINE
  5
29C
  8
0
 10
84.124051133766727
 20
73.503823572251321
 30
0.0
 11
101.19316121780039
 21
73.503823572251321
 31
0.0
  0
LINE
  5
29E
  8
0
 10
84.188800189963246
 20
58.503823572251321
 30
0.0
 11
88.765961217800481
 21
58.503823572251306
 31
0.0
  0
LINE
  5
2A3
  8
0
 39
5.0
 10
101.19316121780039
 20
73.503823572251321
 30
0.0
 11
101.39256121780041
 21
73.49382357225133
 31
0.0
  0
LINE
  5
2A4
  8
0
 39
5.0
 10
101.39256121780041
 20
73.49382357225133
 30
0.0
 11
101.5861612178004
 21
73.464023572251335
 31
0.0
  0
LINE
  5
2A5
  8
0
 39
5.0
 10
101.5861612178004
 20
73.464023572251335
 30
0.0
 11
101.7732612178004
 21
73.41562357225132
 31
0.0
  0
LINE
  5
2A6
  8
0
 39
5.0
 10
101.7732612178004
 20
73.41562357225132
 30
0.0
 11
101.9526612178004
 21
73.349523572251329
 31
0.0
  0
LINE
  5
2A7
  8
0
 39
5.0
 10
101.9526612178004
 20
73.349523572251329
 30
0.0
 11
102.1236612178004
 21
73.267023572251333
 31
0.0
  0
LINE
  5
2A8
  8
0
 39
5.0
 10
102.1236612178004
 20
73.267023572251333
 30
0.0
 11
102.2848612178004
 21
73.168723572251324
 31
0.0
  0
LINE
  5
2A9
  8
0
 39
5.0
 10
102.2848612178004
 20
73.168723572251324
 30
0.0
 11
102.4355612178004
 21
73.055923572251331
 31
0.0
  0
LINE
  5
2AA
  8
0
 39
5.0
 10
102.4355612178004
 20
73.055923572251331
 30
0.0
 11
102.57456121780039
 21
72.929423572251324
 31
0.0
  0
LINE
  5
2AB
  8
0
 39
5.0
 10
102.57456121780039
 20
72.929423572251324
 30
0.0
 11
102.7010612178004
 21
72.790423572251328
 31
0.0
  0
LINE
  5
2AC
  8
0
 39
5.0
 10
102.7010612178004
 20
72.790423572251328
 30
0.0
 11
102.81386121780039
 21
72.639723572251313
 31
0.0
  0
LINE
  5
2AD
  8
0
 39
5.0
 10
102.81386121780039
 20
72.639723572251313
 30
0.0
 11
102.9121612178004
 21
72.478523572251333
 31
0.0
  0
LINE
  5
2AE
  8
0
 39
5.0
 10
102.9121612178004
 20
72.478523572251333
 30
0.0
 11
102.9946612178004
 21
72.307523572251327
 31
0.0
  0
LINE
  5
2AF
  8
0
 39
5.0
 10
102.9946612178004
 20
72.307523572251327
 30
0.0
 11
103.0607612178004
 21
72.128123572251326
 31
0.0
  0
LINE
  5
2B0
  8
0
 39
5.0
 10
103.0607612178004
 20
72.128123572251326
 30
0.0
 11
103.10916121780041
 21
71.941023572251325
 31
0.0
  0
LINE
  5
2B1
  8
0
 39
5.0
 10
103.10916121780041
 20
71.941023572251325
 30
0.0
 11
103.1389612178004
 21
71.747423572251336
 31
0.0
  0
LINE
  5
2B2
  8
0
 39
5.0
 10
103.1389612178004
 20
71.747423572251336
 30
0.0
 11
103.14896121780041
 21
71.548023572251324
 31
0.0
  0
LINE
  5
2B3
  8
0
 39
5.0
 10
103.14896121780041
 20
71.548023572251324
 30
0.0
 11
103.14896121780041
 21
60.422823572251332
 31
0.0
  0
LINE
  5
2B4
  8
0
 39
5.0
 10
103.14896121780041
 20
60.422823572251332
 30
0.0
 11
103.14896121780041
 21
60.422823572251332
 31
0.0
  0
LINE
  5
2B5
  8
0
 39
5.0
 10
103.14896121780041
 20
60.422823572251332
 30
0.0
 11
103.1389612178004
 21
60.22372357225133
 31
0.0
  0
LINE
  5
2B6
  8
0
 39
5.0
 10
103.1389612178004
 20
60.22372357225133
 30
0.0
 11
103.10916121780041
 21
60.030123572251327
 31
0.0
  0
LINE
  5
2B7
  8
0
 39
5.0
 10
103.10916121780041
 20
60.030123572251327
 30
0.0
 11
103.0607612178004
 21
59.843123572251329
 31
0.0
  0
LINE
  5
2B8
  8
0
 39
5.0
 10
103.0607612178004
 20
59.843123572251329
 30
0.0
 11
102.9946612178004
 21
59.663623572251332
 31
0.0
  0
LINE
  5
2B9
  8
0
 39
5.0
 10
102.9946612178004
 20
59.663623572251332
 30
0.0
 11
102.9121612178004
 21
59.492823572251332
 31
0.0
  0
LINE
  5
2BA
  8
0
 39
5.0
 10
102.9121612178004
 20
59.492823572251332
 30
0.0
 11
102.81386121780039
 21
59.331523572251321
 31
0.0
  0
LINE
  5
2BB
  8
0
 39
5.0
 10
102.81386121780039
 20
59.331523572251321
 30
0.0
 11
102.7010612178004
 21
59.180923572251331
 31
0.0
  0
LINE
  5
2BC
  8
0
 39
5.0
 10
102.7010612178004
 20
59.180923572251331
 30
0.0
 11
102.57456121780039
 21
59.041623572251318
 31
0.0
  0
LINE
  5
2BD
  8
0
 39
5.0
 10
102.57456121780039
 20
59.041623572251318
 30
0.0
 11
102.4355612178004
 21
58.915223572251328
 31
0.0
  0
LINE
  5
2BE
  8
0
 39
5.0
 10
102.4355612178004
 20
58.915223572251328
 30
0.0
 11
102.2848612178004
 21
58.802423572251321
 31
0.0
  0
LINE
  5
2BF
  8
0
 39
5.0
 10
102.2848612178004
 20
58.802423572251321
 30
0.0
 11
102.1236612178004
 21
58.70422357225133
 31
0.0
  0
LINE
  5
2C0
  8
0
 39
5.0
 10
102.1236612178004
 20
58.70422357225133
 30
0.0
 11
101.9526612178004
 21
58.621523572251327
 31
0.0
  0
LINE
  5
2C1
  8
0
 39
5.0
 10
101.9526612178004
 20
58.621523572251327
 30
0.0
 11
101.7732612178004
 21
58.555523572251332
 31
0.0
  0
LINE
  5
2C2
  8
0
 39
5.0
 10
101.7732612178004
 20
58.555523572251332
 30
0.0
 11
101.5861612178004
 21
58.507023572251327
 31
0.0
  0
LINE
  5
2C3
  8
0
 39
5.0
 10
101.5861612178004
 20
58.507023572251327
 30
0.0
 11
101.5653719560554
 21
58.503823572251321
 31
0.0
  0
LINE
  5
2C9
  8
0
 10
86.615961217800475
 20
73.503823572251321
 30
0.0
 11
86.615961217800475
 21
62.503823572251321
 31
0.0
  0
LINE
  5
2CB
  8
0
 10
86.915961217800472
 20
73.503823572251321
 30
0.0
 11
86.915961217800472
 21
62.503823572251321
 31
0.0
  0
LINE
  5
2D0
  8
0
 10
86.615961217800475
 20
62.503823572251321
 30
0.0
 11
93.115961217800475
 21
62.503823572251321
 31
0.0
  0
LINE
  5
2D4
  8
0
 10
93.115961217800475
 20
58.503823572251321
 30
0.0
 11
101.5653719560554
 21
58.503823572251321
 31
0.0
  0
LINE
  5
2D7
  8
0
 39
5.0
 10
99.373450479545497
 20
58.503823572251321
 30
0.0
 11
99.352661217800474
 21
58.507023572251327
 31
0.0
  0
LINE
  5
2D8
  8
0
 39
5.0
 10
99.352661217800474
 20
58.507023572251327
 30
0.0
 11
99.165661217800476
 21
58.555523572251332
 31
0.0
  0
LINE
  5
2D9
  8
0
 39
5.0
 10
99.165661217800476
 20
58.555523572251332
 30
0.0
 11
98.986161217800472
 21
58.621523572251327
 31
0.0
  0
LINE
  5
2DA
  8
0
 39
5.0
 10
98.986161217800472
 20
58.621523572251327
 30
0.0
 11
98.815361217800472
 21
58.70422357225133
 31
0.0
  0
LINE
  5
2DB
  8
0
 39
5.0
 10
98.815361217800472
 20
58.70422357225133
 30
0.0
 11
98.654061217800475
 21
58.802423572251321
 31
0.0
  0
LINE
  5
2DC
  8
0
 39
5.0
 10
98.654061217800475
 20
58.802423572251321
 30
0.0
 11
98.503461217800464
 21
58.915223572251328
 31
0.0
  0
LINE
  5
2DD
  8
0
 39
5.0
 10
98.503461217800464
 20
58.915223572251328
 30
0.0
 11
98.364161217800472
 21
59.041623572251318
 31
0.0
  0
LINE
  5
2DE
  8
0
 39
5.0
 10
98.364161217800472
 20
59.041623572251318
 30
0.0
 11
98.237761217800468
 21
59.180923572251331
 31
0.0
  0
LINE
  5
2DF
  8
0
 39
5.0
 10
98.237761217800468
 20
59.180923572251331
 30
0.0
 11
98.124961217800461
 21
59.331523572251321
 31
0.0
  0
LINE
  5
2E0
  8
0
 39
5.0
 10
98.124961217800461
 20
59.331523572251321
 30
0.0
 11
98.02676121780047
 21
59.492823572251332
 31
0.0
  0
LINE
  5
2E1
  8
0
 39
5.0
 10
98.02676121780047
 20
59.492823572251332
 30
0.0
 11
97.944061217800467
 21
59.663623572251332
 31
0.0
  0
LINE
  5
2E2
  8
0
 39
5.0
 10
97.944061217800467
 20
59.663623572251332
 30
0.0
 11
97.878061217800479
 21
59.843123572251329
 31
0.0
  0
LINE
  5
2E3
  8
0
 39
5.0
 10
97.878061217800479
 20
59.843123572251329
 30
0.0
 11
97.82956121780046
 21
60.030123572251327
 31
0.0
  0
LINE
  5
2E4
  8
0
 39
5.0
 10
97.82956121780046
 20
60.030123572251327
 30
0.0
 11
97.799761217800466
 21
60.22372357225133
 31
0.0
  0
LINE
  5
2E5
  8
0
 39
5.0
 10
97.799761217800466
 20
60.22372357225133
 30
0.0
 11
97.789561217800482
 21
60.422823572251332
 31
0.0
  0
LINE
  5
2E6
  8
0
 39
5.0
 10
97.789561217800482
 20
60.422823572251332
 30
0.0
 11
97.789561217800482
 21
71.548023572251324
 31
0.0
  0
LINE
  5
2E7
  8
0
 39
5.0
 10
97.789561217800482
 20
71.548023572251324
 30
0.0
 11
97.789561217800482
 21
71.548023572251324
 31
0.0
  0
LINE
  5
2E8
  8
0
 39
5.0
 10
97.789561217800482
 20
71.548023572251324
 30
0.0
 11
97.799761217800466
 21
71.747423572251336
 31
0.0
  0
LINE
  5
2E9
  8
0
 39
5.0
 10
97.799761217800466
 20
71.747423572251336
 30
0.0
 11
97.82956121780046
 21
71.941023572251325
 31
0.0
  0
LINE
  5
2EA
  8
0
 39
5.0
 10
97.82956121780046
 20
71.941023572251325
 30
0.0
 11
97.878061217800479
 21
72.128123572251326
 31
0.0
  0
LINE
  5
2EB
  8
0
 39
5.0
 10
97.878061217800479
 20
72.128123572251326
 30
0.0
 11
97.944061217800467
 21
72.307523572251327
 31
0.0
  0
LINE
  5
2EC
  8
0
 39
5.0
 10
97.944061217800467
 20
72.307523572251327
 30
0.0
 11
98.02676121780047
 21
72.478523572251333
 31
0.0
  0
LINE
  5
2ED
  8
0
 39
5.0
 10
98.02676121780047
 20
72.478523572251333
 30
0.0
 11
98.124961217800461
 21
72.639723572251313
 31
0.0
  0
LINE
  5
2EE
  8
0
 39
5.0
 10
98.124961217800461
 20
72.639723572251313
 30
0.0
 11
98.237761217800468
 21
72.790423572251328
 31
0.0
  0
LINE
  5
2EF
  8
0
 39
5.0
 10
98.237761217800468
 20
72.790423572251328
 30
0.0
 11
98.364161217800472
 21
72.929423572251324
 31
0.0
  0
LINE
  5
2F0
  8
0
 39
5.0
 10
98.364161217800472
 20
72.929423572251324
 30
0.0
 11
98.503461217800464
 21
73.055923572251331
 31
0.0
  0
LINE
  5
2F1
  8
0
 39
5.0
 10
98.503461217800464
 20
73.055923572251331
 30
0.0
 11
98.654061217800475
 21
73.168723572251324
 31
0.0
  0
LINE
  5
2F2
  8
0
 39
5.0
 10
98.654061217800475
 20
73.168723572251324
 30
0.0
 11
98.815361217800472
 21
73.267023572251333
 31
0.0
  0
LINE
  5
2F3
  8
0
 39
5.0
 10
98.815361217800472
 20
73.267023572251333
 30
0.0
 11
98.986161217800472
 21
73.349523572251329
 31
0.0
  0
LINE
  5
2F4
  8
0
 39
5.0
 10
98.986161217800472
 20
73.349523572251329
 30
0.0
 11
99.165661217800476
 21
73.41562357225132
 31
0.0
  0
LINE
  5
2F5
  8
0
 39
5.0
 10
99.165661217800476
 20
73.41562357225132
 30
0.0
 11
99.352661217800474
 21
73.464023572251335
 31
0.0
  0
LINE
  5
2F6
  8
0
 39
5.0
 10
99.352661217800474
 20
73.464023572251335
 30
0.0
 11
99.546261217800463
 21
73.49382357225133
 31
0.0
  0
LINE
  5
2F7
  8
0
 39
5.0
 10
99.546261217800463
 20
73.49382357225133
 30
0.0
 11
99.745361217800465
 21
73.503823572251321
 31
0.0
  0
LINE
  5
2F9
  8
0
 10
88.765961217800466
 20
44.503823572251321
 30
0.0
 11
97.465961217800455
 21
44.503823572251321
 31
0.0
  0
LINE
  5
2FE
  8
0
 10
87.115961217800475
 20
46.503823572251321
 30
0.0
 11
88.765961217800466
 21
46.503823572251321
 31
0.0
  0
LINE
  5
305
  8
0
 10
91.115961217800475
 20
60.503823572251321
 30
0.0
 11
91.115961217800475
 21
44.503823572251321
 31
0.0
  0
LINE
  5
309
  8
0
 10
91.115961217800475
 20
60.503823572251321
 30
0.0
 11
86.915961217800472
 21
62.503823572251321
 31
0.0
  0
LINE
  5
30D
  8
0
 10
93.115961217800475
 20
60.503823572251321
 30
0.0
 11
91.115961217800475
 21
60.503823572251321
 31
0.0
  0
LINE
  5
317
  8
0
 10
99.115961217800475
 20
46.503823572251321
 30
0.0
 11
93.115961217800475
 21
46.503823572251321
 31
0.0
  0
LINE
  5
318
  8
3
 10
95.115961217800475
 20
60.503823572251321
 30
0.0
 11
95.115961217800475
 21
44.503823572251321
 31
0.0
  0
LINE
  5
319
  8
3
 10
99.315961217800478
 20
73.503823572251321
 30
0.0
 11
99.315961217800478
 21
62.503823572251321
 31
0.0
  0
LINE
  5
31A
  8
3
 10
99.615961217800475
 20
73.503823572251321
 30
0.0
 11
99.615961217800475
 21
62.503823572251321
 31
0.0
  0
LINE
  5
31B
  8
3
 10
95.115961217800475
 20
60.503823572251321
 30
0.0
 11
99.315961217800478
 21
62.503823572251321
 31
0.0
  0
LINE
  5
31C
  8
3
 10
99.615961217800475
 20
62.503823572251321
 30
0.0
 11
93.115961217800475
 21
62.503823572251321
 31
0.0
  0
LINE
  5
31D
  8
3
 10
93.115961217800475
 20
60.503823572251321
 30
0.0
 11
95.115961217800475
 21
60.503823572251321
 31
0.0
  0
DIMENSION
  5
324
  8
2
  2
*D1
 10
111.7883517681112
 20
58.503823572251321
 30
0.0
 11
111.7883517681112
 21
65.003823572251335
 31
0.0
 70
   128
 13
101.19316121780039
 23
73.503823572251321
 33
0.0
 14
101.5653719560554
 24
58.503823572251321
 34
0.0
 50
90.0
  0
DIMENSION
  5
33B
  8
2
  2
*D2
 10
116.2491925335202
 20
44.503823572251306
 30
0.0
 11
116.2491925335202
 21
55.503823572251342
 31
0.0
 70
   128
 13
113.6633517681112
 23
73.503823572251321
 33
0.0
 14
97.865961217800475
 24
44.503823572251321
 34
0.0
 50
90.0
  0
DIMENSION
  5
352
  8
2
  2
*D3
 10
74.903605276965664
 20
62.503823572251328
 30
0.0
 11
73.028605276965649
 21
68.003823572251349
 31
0.0
 70
     0
 13
84.124051133766727
 23
73.503823572251321
 33
0.0
 14
86.915961217800472
 24
62.503823572251321
 34
0.0
 50
90.0
  0
DIMENSION
  5
35F
  8
2
  2
*D4
 10
74.903605276965664
 20
46.503823572251321
 30
0.0
 11
73.028605276965649
 21
52.962156905584671
 31
0.0
 70
     0
 13
88.365961217800475
 23
44.503823572251321
 33
0.0
 14
88.365961217800475
 24
46.503823572251321
 34
0.0
 50
90.0
  0
DIMENSION
  5
36F
  8
2
  2
*D5
 10
95.115961217800475
 20
34.756124241788299
 30
0.0
 11
102.8344984785971
 21
34.756124241788299
 31
0.0
 70
   128
  1
%%c<>
 13
91.115961217800475
 23
44.503823572251321
 33
0.0
 14
95.115961217800475
 24
44.503823572251321
 34
0.0
  0
TEXT
  5
3B9
  8
2
 10
69.661732351654663
 20
84.173385442310177
 30
0.0
 40
2.5
  1
G1/4
  0
TEXT
  5
3BB
  8
2
 10
69.661732351654663
 20
78.608858588497299
 30
0.0
 40
2.5
  1
H17
  0
POLYLINE
  8
2
  5
4B8
  66
     1
 10
0.000000
 20
0.000000
 30
0.000000
  70
     8
  0
VERTEX
  8
2
  5
4B9
 10
86.9160
 20
68.5038
 30
0.000000
  70
    32
  0
VERTEX
  8
2
  5
4BA
 10
78.6679
 20
83.5887
 30
0.000000
  70
    32
  0
VERTEX
  8
2
  5
4BB
 10
68.4980
 20
83.5887
 30
0.000000
  70
    32
  0
SEQEND
  8
2
  5
4BC
  0
POLYLINE
  8
2
  5
4BD
  66
     1
 10
0.000000
 20
0.000000
 30
0.000000
  70
     8
  0
VERTEX
  8
2
  5
4BE
 10
83.0576
 20
66.1378
 30
0.000000
  70
    32
  0
VERTEX
  8
2
  5
4BF
 10
75.8560
 20
78.2106
 30
0.000000
  70
    32
  0
VERTEX
  8
2
  5
4C0
 10
69.3061
 20
78.2106
 30
0.000000
  70
    32
  0
SEQEND
  8
2
  5
4C1
  0
LINE
  5
431
  8
0
 10
97.465961217800469
 20
46.503823572251321
 30
0.0
 11
97.465961217800469
 21
58.503823572251321
 31
0.0
  0
LINE
  5
432
  8
0
 10
88.765961217800481
 20
58.503823572251321
 30
0.0
 11
88.765961217800481
 21
46.503823572251321
 31
0.0
  0
LINE
  5
437
  8
0
 10
88.765961217800481
 20
44.503823572251321
 30
0.0
 11
87.115961217800475
 21
46.503823572251321
 31
0.0
  0
LINE
  5
438
  8
0
 10
97.465961217800469
 20
44.503823572251321
 30
0.0
 11
99.115961217800475
 21
46.503823572251321
 31
0.0
  0
DIMENSION
  5
43E
  8
2
  2
*D6
 10
97.465961217800469
 20
29.683991143646761
 30
0.0
 11
104.3409612178004
 21
31.558991143646761
 31
0.0
 70
     0
  1
%%c<>
 13
88.765961217800481
 23
46.503823572251321
 33
0.0
 14
97.465961217800469
 24
46.503823572251321
 34
0.0
  0
DIMENSION
  5
46A
  8
2
  2
*D7
 10
99.115961217800475
 20
24.474773349365911
 30
0.0
 11
93.115961217800475
 21
26.349773349365911
 31
0.0
 70
     0
  1
%%c<>
 13
87.115961217800475
 23
46.503823572251321
 33
0.0
 14
99.115961217800475
 24
46.503823572251321
 34
0.0
  0
ENDSEC
  0
EOF
