  0
SECTION
  2
HEADER
  9
$ACADVER
  1
AC1009
  9
$INSBASE
 10
0.0
 20
0.0
 30
0.0
  9
$EXTMIN
 10
66.863713582815535
 20
48.877021859076137
 30
0.0
  9
$EXTMAX
 10
92.875572103249624
 20
73.250591748603966
 30
5.0
  9
$LIMMIN
 10
0.0
 20
0.0
  9
$LIMMAX
 10
420.0
 20
297.0
  9
$ORTHOMODE
 70
     0
  9
$REGENMODE
 70
     1
  9
$FILLMODE
 70
     1
  9
$QTEXTMODE
 70
     0
  9
$MIRRTEXT
 70
     1
  9
$DRAGMODE
 70
     2
  9
$LTSCALE
 40
0.3
  9
$OSMODE
 70
    37
  9
$ATTMODE
 70
     1
  9
$TEXTSIZE
 40
2.5
  9
$TRACEWID
 40
1.0
  9
$TEXTSTYLE
  7
STANDARD
  9
$CLAYER
  8
2
  9
$CELTYPE
  6
BYLAYER
  9
$CECOLOR
 62
   256
  9
$DIMSCALE
 40
0.5
  9
$DIMASZ
 40
2.5
  9
$DIMEXO
 40
0.625
  9
$DIMDLI
 40
3.75
  9
$DIMRND
 40
0.0
  9
$DIMDLE
 40
0.0
  9
$DIMEXE
 40
1.25
  9
$DIMTP
 40
0.0
  9
$DIMTM
 40
0.0
  9
$DIMTXT
 40
2.5
  9
$DIMCEN
 40
2.5
  9
$DIMTSZ
 40
0.0
  9
$DIMTOL
 70
     0
  9
$DIMLIM
 70
     0
  9
$DIMTIH
 70
     0
  9
$DIMTOH
 70
     0
  9
$DIMSE1
 70
     0
  9
$DIMSE2
 70
     0
  9
$DIMTAD
 70
     1
  9
$DIMZIN
 70
     8
  9
$DIMBLK
  1

  9
$DIMASO
 70
     1
  9
$DIMSHO
 70
     1
  9
$DIMPOST
  1

  9
$DIMAPOST
  1

  9
$DIMALT
 70
     0
  9
$DIMALTD
 70
     3
  9
$DIMALTF
 40
0.03937007874016
  9
$DIMLFAC
 40
1.0
  9
$DIMTOFL
 70
     1
  9
$DIMTVP
 40
0.0
  9
$DIMTIX
 70
     0
  9
$DIMSOXD
 70
     0
  9
$DIMSAH
 70
     0
  9
$DIMBLK1
  1

  9
$DIMBLK2
  1

  9
$DIMSTYLE
  2
ISO-25
  9
$DIMCLRD
 70
     0
  9
$DIMCLRE
 70
     0
  9
$DIMCLRT
 70
     0
  9
$DIMTFAC
 40
1.0
  9
$DIMGAP
 40
0.625
  9
$LUNITS
 70
     2
  9
$LUPREC
 70
     4
  9
$SKETCHINC
 40
1.0
  9
$FILLETRAD
 40
10.0
  9
$AUNITS
 70
     0
  9
$AUPREC
 70
     0
  9
$MENU
  1
.
  9
$ELEVATION
 40
0.0
  9
$PELEVATION
 40
0.0
  9
$THICKNESS
 40
0.0
  9
$LIMCHECK
 70
     0
  9
$BLIPMODE
 70
     0
  9
$CHAMFERA
 40
10.0
  9
$CHAMFERB
 40
10.0
  9
$SKPOLY
 70
     0
  9
$TDCREATE
 40
2453447.3765125349
  9
$TDUPDATE
 40
2453551.9196079508
  9
$TDINDWG
 40
0.0575680671
  9
$TDUSRTIMER
 40
0.0575680671
  9
$USRTIMER
 70
     1
  9
$ANGBASE
 50
0.0
  9
$ANGDIR
 70
     0
  9
$PDMODE
 70
     0
  9
$PDSIZE
 40
0.0
  9
$PLINEWID
 40
0.0
  9
$COORDS
 70
     1
  9
$SPLFRAME
 70
     0
  9
$SPLINETYPE
 70
     6
  9
$SPLINESEGS
 70
     8
  9
$ATTDIA
 70
     0
  9
$ATTREQ
 70
     1
  9
$HANDLING
 70
-16383
  9
$HANDSEED
  5
7B7
  9
$SURFTAB1
 70
     6
  9
$SURFTAB2
 70
     6
  9
$SURFTYPE
 70
     6
  9
$SURFU
 70
     6
  9
$SURFV
 70
     6
  9
$UCSNAME
  2

  9
$UCSORG
 10
0.0
 20
0.0
 30
0.0
  9
$UCSXDIR
 10
1.0
 20
0.0
 30
0.0
  9
$UCSYDIR
 10
0.0
 20
1.0
 30
0.0
  9
$PUCSNAME
  2

  9
$PUCSORG
 10
0.0
 20
0.0
 30
0.0
  9
$PUCSXDIR
 10
1.0
 20
0.0
 30
0.0
  9
$PUCSYDIR
 10
0.0
 20
1.0
 30
0.0
  9
$USERI1
 70
     0
  9
$USERI2
 70
     0
  9
$USERI3
 70
     0
  9
$USERI4
 70
     0
  9
$USERI5
 70
     0
  9
$USERR1
 40
0.0
  9
$USERR2
 40
0.0
  9
$USERR3
 40
0.0
  9
$USERR4
 40
0.0
  9
$USERR5
 40
0.0
  9
$WORLDVIEW
 70
     1
  9
$SHADEDGE
 70
     3
  9
$SHADEDIF
 70
    70
  9
$TILEMODE
 70
     1
  9
$MAXACTVP
 70
    64
  9
$PLIMCHECK
 70
     0
  9
$PEXTMIN
 10
1.0000000000000000E+020
 20
1.0000000000000000E+020
 30
1.0000000000000000E+020
  9
$PEXTMAX
 10
-1.0000000000000000E+020
 20
-1.0000000000000000E+020
 30
-1.0000000000000000E+020
  9
$PLIMMIN
 10
0.0
 20
0.0
  9
$PLIMMAX
 10
420.0
 20
297.0
  9
$UNITMODE
 70
     0
  9
$VISRETAIN
 70
     1
  9
$PLINEGEN
 70
     0
  9
$PSLTSCALE
 70
     1
  0
ENDSEC
  0
SECTION
  2
TABLES
  0
TABLE
  2
VPORT
 70
     2
  0
VPORT
  2
*ACTIVE
 70
     0
 10
0.0
 20
0.0
 11
1.0
 21
1.0
 12
84.509155477265224
 22
59.634978483503993
 13
0.0
 23
0.0
 14
0.1
 24
0.1
 15
0.5
 25
0.5
 16
0.0
 26
0.0
 36
1.0
 17
0.0
 27
0.0
 37
0.0
 40
38.038032679649
 41
2.5392405063291141
 42
50.0
 43
0.0
 44
0.0
 50
0.0
 51
0.0
 71
     0
 72
   100
 73
     1
 74
     3
 75
     0
 76
     0
 77
     0
 78
     0
  0
ENDTAB
  0
TABLE
  2
LTYPE
 70
     3
  0
LTYPE
  2
CONTINUOUS
 70
     0
  3
Solid line
 72
    65
 73
     0
 40
0.0
  0
LTYPE
  2
CENTER
 70
     0
  3
Center ____ _ ____ _ ____ _ ____ _ ____ _ ____
 72
    65
 73
     4
 40
50.799999999999997
 49
31.75
 49
-6.3499999999999988
 49
6.3499999999999988
 49
-6.3499999999999988
  0
LTYPE
  2
DASHED2
 70
     0
  3
Dashed (.5x) _ _ _ _ _ _ _ _ _ _ _ _ _ _ _ _ _
 72
    65
 73
     2
 40
9.5249999999999986
 49
6.3499999999999988
 49
-3.1749999999999989
  0
ENDTAB
  0
TABLE
  2
LAYER
 70
     5
  0
LAYER
  2
0
 70
     0
 62
     7
  6
CONTINUOUS
  0
LAYER
  2
1
 70
     0
 62
     7
  6
CENTER
  0
LAYER
  2
2
 70
     0
 62
     7
  6
CONTINUOUS
  0
LAYER
  2
3
 70
     0
 62
     7
  6
DASHED2
  0
LAYER
  2
DEFPOINTS
 70
     0
 62
     7
  6
CONTINUOUS
  0
ENDTAB
  0
TABLE
  2
STYLE
 70
     3
  0
STYLE
  2
STANDARD
 70
     0
 40
0.0
 41
1.0
 50
0.0
 71
     0
 42
2.5
  3
txt
  4

  0
STYLE
  2
\U+00C9L\U+00C9R_\U+00C2S\U+00C2V\U+00C2B\U+00C2N
 70
     0
 40
1.0
 41
1.0
 50
0.0
 71
     0
 42
1.0
  3
\U+00E9l\U+00E9r \U+00E2S\U+00E2V\U+00E2b\U+00E2N
  4

  0
STYLE
  2

 70
     1
 40
0.0
 41
1.0
 50
0.0
 71
     0
 42
2.5
  3
ltypeshp.shx
  4

  0
ENDTAB
  0
TABLE
  2
VIEW
 70
     0
  0
ENDTAB
  0
TABLE
  2
UCS
 70
     0
  0
ENDTAB
  0
TABLE
  2
APPID
 70
     1
  0
APPID
  2
ACAD
 70
     0
  0
ENDTAB
  0
TABLE
  2
DIMSTYLE
 70
     2
  0
DIMSTYLE
  2
ISO-25
 70
     0
  3

  4

  5

  6

  7

 40
0.5
 41
2.5
 42
0.625
 43
3.75
 44
1.25
 45
0.0
 46
0.0
 47
0.0
 48
0.0
140
2.5
141
2.5
142
0.0
143
0.03937007874016
144
1.0
145
0.0
146
1.0
147
0.625
 71
     0
 72
     0
 73
     0
 74
     0
 75
     0
 76
     0
 77
     1
 78
     8
170
     0
171
     3
172
     1
173
     0
174
     0
175
     0
176
     0
177
     0
178
     0
  0
DIMSTYLE
  2
STANDARD
 70
     0
  3

  4

  5

  6

  7

 40
1.0
 41
0.18
 42
0.0625
 43
0.38
 44
0.18
 45
0.0
 46
0.0
 47
0.0
 48
0.0
140
0.18
141
0.09
142
0.0
143
25.399999999999999
144
1.0
145
0.0
146
1.0
147
0.09
 71
     0
 72
     0
 73
     1
 74
     1
 75
     0
 76
     0
 77
     0
 78
     0
170
     0
171
     2
172
     0
173
     0
174
     0
175
     0
176
     0
177
     0
178
     0
  0
ENDTAB
  0
ENDSEC
  0
SECTION
  2
BLOCKS
  0
BLOCK
  8
0
  2
$MODEL_SPACE
 70
     0
 10
0.0
 20
0.0
 30
0.0
  3
$MODEL_SPACE
  1

  0
ENDBLK
  5
21
  8
0
  0
BLOCK
 67
     1
  8
0
  2
$PAPER_SPACE
 70
     0
 10
0.0
 20
0.0
 30
0.0
  3
$PAPER_SPACE
  1

  0
ENDBLK
  5
1D
 67
     1
  8
0
  0
BLOCK
  8
0
  2
*D1
 70
     1
 10
0.0
 20
0.0
 30
0.0
  3
*D1
  1

  0
LINE
  5
613
  8
2
 62
     0
 10
79.167199999999994
 20
72.500000000000014
 30
0.0
 11
87.696068990708454
 21
72.500000000000014
 31
0.0
  0
LINE
  5
614
  8
2
 62
     0
 10
81.15179999999998
 20
68.0
 30
0.0
 11
87.696068990708454
 21
68.0
 31
0.0
  0
LINE
  5
615
  8
2
 62
     0
 10
87.071068990708454
 20
71.250000000000014
 30
0.0
 11
87.071068990708454
 21
69.25
 31
0.0
  0
SOLID
  5
616
  8
2
 62
     0
 10
86.862735657375126
 20
71.250000000000014
 30
0.0
 11
87.279402324041769
 21
71.250000000000014
 31
0.0
 12
87.071068990708454
 22
72.500000000000014
 32
0.0
 13
87.071068990708454
 23
72.500000000000014
 33
0.0
  0
SOLID
  5
617
  8
2
 62
     0
 10
86.862735657375126
 20
69.25
 30
0.0
 11
87.279402324041769
 21
69.25
 31
0.0
 12
87.071068990708454
 22
68.0
 32
0.0
 13
87.071068990708454
 23
68.0
 33
0.0
  0
TEXT
  5
618
  8
2
 62
     0
 10
86.75856899070844
 20
69.000000000000028
 30
0.0
 40
1.25
  1
4.5
 50
90.0
  0
POINT
  5
619
  8
DEFPOINTS
 62
     0
 10
78.854699999999994
 20
72.500000000000014
 30
0.0
  0
POINT
  5
61A
  8
DEFPOINTS
 62
     0
 10
80.83929999999998
 20
68.0
 30
0.0
  0
POINT
  5
61B
  8
DEFPOINTS
 62
     0
 10
87.071068990708454
 20
68.0
 30
0.0
  0
ENDBLK
  5
61D
  8
0
  0
BLOCK
  8
0
  2
*D2
 70
     1
 10
0.0
 20
0.0
 30
0.0
  3
*D2
  1

  0
LINE
  5
620
  8
2
 62
     0
 10
87.383568990708454
 20
72.500000000000014
 30
0.0
 11
90.176394463684574
 21
72.500000000000014
 31
0.0
  0
LINE
  5
621
  8
2
 62
     0
 10
81.197900000000004
 20
64.5
 30
0.0
 11
90.176394463684574
 21
64.5
 31
0.0
  0
LINE
  5
622
  8
2
 62
     0
 10
89.551394463684574
 20
71.250000000000014
 30
0.0
 11
89.551394463684574
 21
65.75
 31
0.0
  0
SOLID
  5
623
  8
2
 62
     0
 10
89.343061130351245
 20
71.250000000000014
 30
0.0
 11
89.759727797017888
 21
71.250000000000014
 31
0.0
 12
89.551394463684574
 22
72.500000000000014
 32
0.0
 13
89.551394463684574
 23
72.500000000000014
 33
0.0
  0
SOLID
  5
624
  8
2
 62
     0
 10
89.343061130351245
 20
65.75
 30
0.0
 11
89.759727797017888
 21
65.75
 31
0.0
 12
89.551394463684574
 22
64.5
 32
0.0
 13
89.551394463684574
 23
64.5
 33
0.0
  0
TEXT
  5
625
  8
2
 62
     0
 10
89.238894463684545
 20
68.083333333333357
 30
0.0
 40
1.25
  1
8
 50
90.0
  0
POINT
  5
626
  8
DEFPOINTS
 62
     0
 10
87.071068990708454
 20
72.500000000000014
 30
0.0
  0
POINT
  5
627
  8
DEFPOINTS
 62
     0
 10
80.885400000000004
 20
64.5
 30
0.0
  0
POINT
  5
628
  8
DEFPOINTS
 62
     0
 10
89.551394463684574
 20
64.5
 30
0.0
  0
ENDBLK
  5
62A
  8
0
  0
BLOCK
  8
0
  2
*D3
 70
     1
 10
0.0
 20
0.0
 30
0.0
  3
*D3
  1

  0
LINE
  5
702
  8
2
 62
     0
 10
89.238894463684574
 20
64.5
 30
0.0
 11
88.926394463684574
 21
64.5
 31
0.0
  0
LINE
  5
703
  8
2
 62
     0
 10
79.312499999999943
 20
61.999999999999972
 30
0.0
 11
90.176394463684574
 21
61.999999999999957
 31
0.0
  0
LINE
  5
704
  8
2
 62
     0
 10
89.551394463684574
 20
65.75
 30
0.0
 11
89.551394463684574
 21
67.0
 31
0.0
  0
LINE
  5
705
  8
2
 62
     0
 10
89.551394463684574
 20
60.749999999999957
 30
0.0
 11
89.551394463684574
 21
56.374999999999957
 31
0.0
  0
LINE
  5
706
  8
2
 62
     0
 10
89.551394463684574
 20
64.5
 30
0.0
 11
89.551394463684574
 21
61.999999999999957
 31
0.0
  0
SOLID
  5
707
  8
2
 62
     0
 10
89.343061130351245
 20
65.75
 30
0.0
 11
89.759727797017888
 21
65.75
 31
0.0
 12
89.551394463684574
 22
64.5
 32
0.0
 13
89.551394463684574
 23
64.5
 33
0.0
  0
SOLID
  5
708
  8
2
 62
     0
 10
89.343061130351245
 20
60.749999999999957
 30
0.0
 11
89.759727797017888
 21
60.749999999999957
 31
0.0
 12
89.551394463684574
 22
61.999999999999957
 32
0.0
 13
89.551394463684574
 23
61.999999999999957
 33
0.0
  0
TEXT
  5
709
  8
2
 62
     0
 10
89.238894463684545
 20
56.687499999999979
 30
0.0
 40
1.25
  1
2.5
 50
90.0
  0
POINT
  5
70A
  8
DEFPOINTS
 62
     0
 10
89.551394463684574
 20
64.5
 30
0.0
  0
POINT
  5
70B
  8
DEFPOINTS
 62
     0
 10
78.999999999999943
 20
61.999999999999972
 30
0.0
  0
POINT
  5
70C
  8
DEFPOINTS
 62
     0
 10
89.551394463684574
 20
61.999999999999957
 30
0.0
  0
ENDBLK
  5
637
  8
0
  0
BLOCK
  8
0
  2
*D4
 70
     1
 10
0.0
 20
0.0
 30
0.0
  3
*D4
  1

  0
LINE
  5
6EE
  8
2
 62
     0
 10
89.863894463684574
 20
72.500000000000014
 30
0.0
 11
92.875572103249624
 21
72.500000000000014
 31
0.0
  0
LINE
  5
6EF
  8
2
 62
     0
 10
89.863894463684574
 20
61.999999999999957
 30
0.0
 11
92.875572103249624
 21
61.999999999999957
 31
0.0
  0
LINE
  5
6F0
  8
2
 62
     0
 10
92.250572103249624
 20
71.250000000000014
 30
0.0
 11
92.250572103249624
 21
63.249999999999957
 31
0.0
  0
SOLID
  5
6F1
  8
2
 62
     0
 10
92.042238769916295
 20
71.250000000000014
 30
0.0
 11
92.458905436582967
 21
71.250000000000014
 31
0.0
 12
92.250572103249624
 22
72.500000000000014
 32
0.0
 13
92.250572103249624
 23
72.500000000000014
 33
0.0
  0
SOLID
  5
6F2
  8
2
 62
     0
 10
92.042238769916295
 20
63.249999999999957
 30
0.0
 11
92.458905436582967
 21
63.249999999999957
 31
0.0
 12
92.250572103249624
 22
61.999999999999957
 32
0.0
 13
92.250572103249624
 23
61.999999999999957
 33
0.0
  0
TEXT
  5
6F3
  8
2
 62
     0
 10
91.938072103249596
 20
64.854166666666671
 30
0.0
 40
1.25
  1
(10.5)
 50
90.0
  0
POINT
  5
6F4
  8
DEFPOINTS
 62
     0
 10
89.551394463684574
 20
72.500000000000014
 30
0.0
  0
POINT
  5
6F5
  8
DEFPOINTS
 62
     0
 10
89.551394463684574
 20
61.999999999999957
 30
0.0
  0
POINT
  5
6F6
  8
DEFPOINTS
 62
     0
 10
92.250572103249624
 20
61.999999999999957
 30
0.0
  0
ENDBLK
  5
644
  8
0
  0
BLOCK
  8
0
  2
*D5
 70
     1
 10
0.0
 20
0.0
 30
0.0
  3
*D5
  1

  0
LINE
  5
743
  8
2
 62
     0
 10
78.312499999999972
 20
62.0
 30
0.0
 11
87.696068990708469
 21
61.999999999999993
 31
0.0
  0
LINE
  5
744
  8
2
 62
     0
 10
78.312499999999972
 20
63.0
 30
0.0
 11
87.696068990708469
 21
62.999999999999993
 31
0.0
  0
LINE
  5
745
  8
2
 62
     0
 10
87.071068990708469
 20
64.25
 30
0.0
 11
87.071068990708469
 21
65.5
 31
0.0
  0
LINE
  5
746
  8
2
 62
     0
 10
87.071068990708469
 20
60.749999999999993
 30
0.0
 11
87.071068990708469
 21
58.458333333333329
 31
0.0
  0
LINE
  5
747
  8
2
 62
     0
 10
87.071068990708469
 20
62.999999999999993
 30
0.0
 11
87.071068990708469
 21
61.999999999999993
 31
0.0
  0
SOLID
  5
748
  8
2
 62
     0
 10
86.862735657375126
 20
64.25
 30
0.0
 11
87.279402324041797
 21
64.25
 31
0.0
 12
87.071068990708469
 22
62.999999999999993
 32
0.0
 13
87.071068990708469
 23
62.999999999999993
 33
0.0
  0
SOLID
  5
749
  8
2
 62
     0
 10
86.862735657375126
 20
60.749999999999993
 30
0.0
 11
87.279402324041797
 21
60.749999999999993
 31
0.0
 12
87.071068990708469
 22
61.999999999999993
 32
0.0
 13
87.071068990708469
 23
61.999999999999993
 33
0.0
  0
TEXT
  5
74A
  8
2
 62
     0
 10
86.758568990708454
 20
58.770833333333343
 30
0.0
 40
1.25
  1
1
 50
90.0
  0
POINT
  5
74B
  8
DEFPOINTS
 62
     0
 10
77.999999999999972
 20
62.0
 30
0.0
  0
POINT
  5
74C
  8
DEFPOINTS
 62
     0
 10
77.999999999999972
 20
63.0
 30
0.0
  0
POINT
  5
74D
  8
DEFPOINTS
 62
     0
 10
87.071068990708469
 20
62.999999999999993
 30
0.0
  0
ENDBLK
  5
742
  8
0
  0
BLOCK
  8
0
  2
*D6
 70
     1
 10
0.0
 20
0.0
 30
0.0
  3
*D6
  1

  0
LINE
  5
76E
  8
2
 62
     0
 10
76.399999999999963
 20
61.6875
 30
0.0
 11
76.399999999999963
 21
57.321962490496489
 31
0.0
  0
LINE
  5
76F
  8
2
 62
     0
 10
77.599999999999966
 20
61.6875
 30
0.0
 11
77.599999999999966
 21
57.321962490496489
 31
0.0
  0
LINE
  5
770
  8
2
 62
     0
 10
75.149999999999963
 20
57.946962490496489
 30
0.0
 11
73.899999999999963
 21
57.946962490496489
 31
0.0
  0
LINE
  5
771
  8
2
 62
     0
 10
78.849999999999966
 20
57.946962490496489
 30
0.0
 11
84.058333333333294
 21
57.946962490496489
 31
0.0
  0
LINE
  5
772
  8
2
 62
     0
 10
76.399999999999963
 20
57.946962490496489
 30
0.0
 11
77.599999999999966
 21
57.946962490496489
 31
0.0
  0
SOLID
  5
773
  8
2
 62
     0
 10
75.149999999999963
 20
58.155295823829817
 30
0.0
 11
75.149999999999963
 21
57.738629157163153
 31
0.0
 12
76.399999999999963
 22
57.946962490496489
 32
0.0
 13
76.399999999999963
 23
57.946962490496489
 33
0.0
  0
SOLID
  5
774
  8
2
 62
     0
 10
78.849999999999966
 20
58.155295823829817
 30
0.0
 11
78.849999999999966
 21
57.738629157163153
 31
0.0
 12
77.599999999999966
 22
57.946962490496489
 32
0.0
 13
77.599999999999966
 23
57.946962490496489
 33
0.0
  0
INSERT
  5
775
  8
2
  2
*U8
 10
0.0
 20
0.0
 30
0.0
  0
POINT
  5
776
  8
DEFPOINTS
 62
     0
 10
76.399999999999963
 20
62.0
 30
0.0
  0
POINT
  5
777
  8
DEFPOINTS
 62
     0
 10
77.599999999999966
 20
62.0
 30
0.0
  0
POINT
  5
778
  8
DEFPOINTS
 62
     0
 10
77.599999999999966
 20
57.946962490496489
 30
0.0
  0
ENDBLK
  5
75E
  8
0
  0
BLOCK
  8
0
  2
*D7
 70
     1
 10
0.0
 20
0.0
 30
0.0
  3
*D7
  1

  0
LINE
  5
779
  8
2
 62
     0
 10
75.499999999999972
 20
62.1875
 30
0.0
 11
75.499999999999972
 21
54.385167622609728
 31
0.0
  0
LINE
  5
77A
  8
2
 62
     0
 10
78.499999999999972
 20
62.1875
 30
0.0
 11
78.499999999999972
 21
54.385167622609728
 31
0.0
  0
LINE
  5
77B
  8
2
 62
     0
 10
74.249999999999972
 20
55.010167622609728
 30
0.0
 11
72.999999999999972
 21
55.010167622609728
 31
0.0
  0
LINE
  5
77C
  8
2
 62
     0
 10
79.749999999999972
 20
55.010167622609728
 30
0.0
 11
80.999999999999972
 21
55.010167622609728
 31
0.0
  0
LINE
  5
77D
  8
2
 62
     0
 10
75.499999999999972
 20
55.010167622609728
 30
0.0
 11
78.499999999999972
 21
55.010167622609728
 31
0.0
  0
SOLID
  5
77E
  8
2
 62
     0
 10
74.249999999999972
 20
55.218500955943057
 30
0.0
 11
74.249999999999972
 21
54.801834289276393
 31
0.0
 12
75.499999999999972
 22
55.010167622609728
 32
0.0
 13
75.499999999999972
 23
55.010167622609728
 33
0.0
  0
SOLID
  5
77F
  8
2
 62
     0
 10
79.749999999999972
 20
55.218500955943057
 30
0.0
 11
79.749999999999972
 21
54.801834289276393
 31
0.0
 12
78.499999999999972
 22
55.010167622609728
 32
0.0
 13
78.499999999999972
 23
55.010167622609728
 33
0.0
  0
INSERT
  5
780
  8
2
  2
*U9
 10
0.0
 20
0.0
 30
0.0
  0
POINT
  5
781
  8
DEFPOINTS
 62
     0
 10
75.499999999999972
 20
62.5
 30
0.0
  0
POINT
  5
782
  8
DEFPOINTS
 62
     0
 10
78.499999999999972
 20
62.5
 30
0.0
  0
POINT
  5
783
  8
DEFPOINTS
 62
     0
 10
78.499999999999972
 20
55.010167622609728
 30
0.0
  0
ENDBLK
  5
76D
  8
0
  0
BLOCK
  8
0
  2
*U8
 70
     1
 10
0.0
 20
0.0
 30
0.0
  3
*U8
  1

  0
TEXT
  5
7A4
  8
2
 62
     0
 10
80.412499999999966
 20
58.259462490496489
 30
0.0
 40
1.25
  1
\U+2205
  0
TEXT
  5
7A5
  8
2
 62
     0
 10
81.662499999999966
 20
58.259462490496489
 30
0.0
 40
1.25
  1
1.2
  0
ENDBLK
  5
7A7
  8
0
  0
BLOCK
  8
0
  2
*U9
 70
     1
 10
0.0
 20
0.0
 30
0.0
  3
*U9
  1

  0
TEXT
  5
7A9
  8
2
 62
     0
 10
75.9583333333333
 20
55.322667622609728
 30
0.0
 40
1.25
  1
\U+2205
  0
TEXT
  5
7AA
  8
2
 62
     0
 10
77.2083333333333
 20
55.322667622609728
 30
0.0
 40
1.25
  1
3
  0
ENDBLK
  5
7AC
  8
0
  0
ENDSEC
  0
SECTION
  2
ENTITIES
  0
TEXT
  5
130
  8
2
 10
72.090529774294737
 20
48.877021859076173
 30
0.0
 40
1.142963999999999
  1
No. 270.300
 51
-0.0000015352344868
  7
\U+00C9L\U+00C9R_\U+00C2S\U+00C2V\U+00C2B\U+00C2N
  0
LINE
  5
220
  8
0
 39
5.0
 10
77.0
 20
72.5
 30
0.0
 11
75.145300000000006
 21
72.5
 31
0.0
  0
LINE
  5
221
  8
0
 39
5.0
 10
75.145300000000006
 20
72.5
 30
0.0
 11
74.5
 21
71.851100000000002
 31
0.0
  0
LINE
  5
222
  8
0
 39
5.0
 10
74.5
 20
71.851100000000002
 30
0.0
 11
74.5
 21
68.0
 31
0.0
  0
LINE
  5
223
  8
0
 39
5.0
 10
74.799999999999997
 20
68.0
 30
0.0
 11
73.160700000000077
 21
68.0
 31
0.0
  0
LINE
  5
224
  8
0
 39
5.0
 10
73.160699999999991
 20
68.0
 30
0.0
 11
73.160699999999991
 21
68.0
 31
0.0
  0
LINE
  5
225
  8
0
 39
5.0
 10
73.160699999999991
 20
68.0
 30
0.0
 11
73.066999999999993
 21
67.9923
 31
0.0
  0
LINE
  5
226
  8
0
 39
5.0
 10
73.066999999999993
 20
67.9923
 30
0.0
 11
72.981199999999987
 21
67.974900000000005
 31
0.0
  0
LINE
  5
227
  8
0
 39
5.0
 10
72.981199999999987
 20
67.974900000000005
 30
0.0
 11
72.903199999999984
 21
67.948800000000006
 31
0.0
  0
LINE
  5
228
  8
0
 39
5.0
 10
72.903199999999984
 20
67.948800000000006
 30
0.0
 11
72.832799999999992
 21
67.914100000000005
 31
0.0
  0
LINE
  5
229
  8
0
 39
5.0
 10
72.832799999999992
 20
67.914100000000005
 30
0.0
 11
72.769999999999996
 21
67.871799999999993
 31
0.0
  0
LINE
  5
22A
  8
0
 39
5.0
 10
72.769999999999996
 20
67.871799999999993
 30
0.0
 11
72.714199999999991
 21
67.822099999999992
 31
0.0
  0
LINE
  5
22B
  8
0
 39
5.0
 10
72.714199999999991
 20
67.822099999999992
 30
0.0
 11
72.665299999999988
 21
67.765799999999999
 31
0.0
  0
LINE
  5
22C
  8
0
 39
5.0
 10
72.665299999999988
 20
67.765799999999999
 30
0.0
 11
72.62299999999999
 21
67.703299999999999
 31
0.0
  0
LINE
  5
22D
  8
0
 39
5.0
 10
72.62299999999999
 20
67.703299999999999
 30
0.0
 11
72.587399999999988
 21
67.635400000000004
 31
0.0
  0
LINE
  5
22E
  8
0
 39
5.0
 10
72.587399999999988
 20
67.635400000000004
 30
0.0
 11
72.557999999999993
 21
67.562399999999997
 31
0.0
  0
LINE
  5
22F
  8
0
 39
5.0
 10
72.557999999999993
 20
67.562399999999997
 30
0.0
 11
72.534599999999998
 21
67.484999999999985
 31
0.0
  0
LINE
  5
230
  8
0
 39
5.0
 10
72.534599999999998
 20
67.484999999999985
 30
0.0
 11
72.516899999999993
 21
67.403599999999983
 31
0.0
  0
LINE
  5
231
  8
0
 39
5.0
 10
72.516899999999993
 20
67.403599999999983
 30
0.0
 11
72.504999999999981
 21
67.319000000000003
 31
0.0
  0
LINE
  5
232
  8
0
 39
5.0
 10
72.504999999999981
 20
67.319000000000003
 30
0.0
 11
72.498299999999986
 21
67.231499999999997
 31
0.0
  0
LINE
  5
233
  8
0
 39
5.0
 10
72.498299999999986
 20
67.231499999999997
 30
0.0
 11
72.49669999999999
 21
67.141899999999993
 31
0.0
  0
LINE
  5
234
  8
0
 39
5.0
 10
72.49669999999999
 20
67.141899999999993
 30
0.0
 11
72.499999999999986
 21
67.050399999999996
 31
0.0
  0
LINE
  5
235
  8
0
 39
5.0
 10
72.499999999999986
 20
67.050399999999996
 30
0.0
 11
72.499999999999986
 21
65.560400000000016
 31
0.0
  0
LINE
  5
236
  8
0
 39
5.0
 10
72.499999999999986
 20
65.560400000000016
 30
0.0
 11
72.499999999999986
 21
65.560400000000016
 31
0.0
  0
LINE
  5
237
  8
0
 39
5.0
 10
72.499999999999986
 20
65.560400000000016
 30
0.0
 11
72.501799999999989
 21
65.467900000000014
 31
0.0
  0
LINE
  5
238
  8
0
 39
5.0
 10
72.501799999999989
 20
65.467900000000014
 30
0.0
 11
72.506999999999991
 21
65.374700000000018
 31
0.0
  0
LINE
  5
239
  8
0
 39
5.0
 10
72.506999999999991
 20
65.374700000000018
 30
0.0
 11
72.51609999999998
 21
65.281900000000007
 31
0.0
  0
LINE
  5
23A
  8
0
 39
5.0
 10
72.51609999999998
 20
65.281900000000007
 30
0.0
 11
72.529099999999985
 21
65.190100000000001
 31
0.0
  0
LINE
  5
23B
  8
0
 39
5.0
 10
72.529099999999985
 20
65.190100000000001
 30
0.0
 11
72.54679999999999
 21
65.100500000000011
 31
0.0
  0
LINE
  5
23C
  8
0
 39
5.0
 10
72.54679999999999
 20
65.100500000000011
 30
0.0
 11
72.568999999999988
 21
65.013599999999997
 31
0.0
  0
LINE
  5
23D
  8
0
 39
5.0
 10
72.568999999999988
 20
65.013599999999997
 30
0.0
 11
72.596399999999988
 21
64.930700000000002
 31
0.0
  0
LINE
  5
23E
  8
0
 39
5.0
 10
72.596399999999988
 20
64.930700000000002
 30
0.0
 11
72.628799999999998
 21
64.852200000000011
 31
0.0
  0
LINE
  5
23F
  8
0
 39
5.0
 10
72.628799999999998
 20
64.852200000000011
 30
0.0
 11
72.667099999999991
 21
64.779600000000016
 31
0.0
  0
LINE
  5
240
  8
0
 39
5.0
 10
72.667099999999991
 20
64.779600000000016
 30
0.0
 11
72.711099999999988
 21
64.713300000000004
 31
0.0
  0
LINE
  5
241
  8
0
 39
5.0
 10
72.711099999999988
 20
64.713300000000004
 30
0.0
 11
72.761299999999991
 21
64.654399999999995
 31
0.0
  0
LINE
  5
242
  8
0
 39
5.0
 10
72.761299999999991
 20
64.654399999999995
 30
0.0
 11
72.817799999999991
 21
64.603499999999997
 31
0.0
  0
LINE
  5
243
  8
0
 39
5.0
 10
72.817799999999991
 20
64.603499999999997
 30
0.0
 11
72.881299999999996
 21
64.561900000000009
 31
0.0
  0
LINE
  5
244
  8
0
 39
5.0
 10
72.881299999999996
 20
64.561900000000009
 30
0.0
 11
72.951599999999999
 21
64.530100000000004
 31
0.0
  0
LINE
  5
245
  8
0
 39
5.0
 10
72.951599999999999
 20
64.530100000000004
 30
0.0
 11
73.029399999999995
 21
64.509200000000021
 31
0.0
  0
LINE
  5
246
  8
0
 39
5.0
 10
73.029399999999995
 20
64.509200000000021
 30
0.0
 11
73.114599999999982
 21
64.5
 31
0.0
  0
LINE
  5
266
  8
1
 10
77.0
 20
73.0
 30
0.0
 11
76.999999999999972
 21
61.911398077505069
 31
0.0
  0
LINE
  5
27E
  8
0
 39
5.0
 10
80.885400000000004
 20
64.5
 30
0.0
 11
77.0
 21
64.5
 31
0.0
  0
LINE
  5
27F
  8
0
 39
5.0
 10
80.970599999999976
 20
64.509200000000021
 30
0.0
 11
80.885400000000004
 21
64.5
 31
0.0
  0
LINE
  5
280
  8
0
 39
5.0
 10
81.048399999999972
 20
64.530100000000004
 30
0.0
 11
80.970599999999976
 21
64.509200000000021
 31
0.0
  0
LINE
  5
281
  8
0
 39
5.0
 10
81.118699999999976
 20
64.561900000000009
 30
0.0
 11
81.048399999999972
 21
64.530100000000004
 31
0.0
  0
LINE
  5
282
  8
0
 39
5.0
 10
81.182199999999995
 20
64.603499999999997
 30
0.0
 11
81.118699999999976
 21
64.561900000000009
 31
0.0
  0
LINE
  5
283
  8
0
 39
5.0
 10
81.23869999999998
 20
64.654399999999995
 30
0.0
 11
81.182199999999995
 21
64.603499999999997
 31
0.0
  0
LINE
  5
284
  8
0
 39
5.0
 10
81.288899999999984
 20
64.713300000000004
 30
0.0
 11
81.23869999999998
 21
64.654399999999995
 31
0.0
  0
LINE
  5
285
  8
0
 39
5.0
 10
81.332899999999981
 20
64.779600000000016
 30
0.0
 11
81.288899999999984
 21
64.713300000000004
 31
0.0
  0
LINE
  5
286
  8
0
 39
5.0
 10
81.371199999999973
 20
64.852200000000011
 30
0.0
 11
81.332899999999981
 21
64.779600000000016
 31
0.0
  0
LINE
  5
287
  8
0
 39
5.0
 10
81.403599999999983
 20
64.930700000000002
 30
0.0
 11
81.371199999999973
 21
64.852200000000011
 31
0.0
  0
LINE
  5
288
  8
0
 39
5.0
 10
81.430999999999983
 20
65.013599999999997
 30
0.0
 11
81.403599999999983
 21
64.930700000000002
 31
0.0
  0
LINE
  5
289
  8
0
 39
5.0
 10
81.453199999999981
 20
65.100500000000011
 30
0.0
 11
81.430999999999983
 21
65.013599999999997
 31
0.0
  0
LINE
  5
28A
  8
0
 39
5.0
 10
81.470899999999986
 20
65.190100000000001
 30
0.0
 11
81.453199999999981
 21
65.100500000000011
 31
0.0
  0
LINE
  5
28B
  8
0
 39
5.0
 10
81.483899999999991
 20
65.281900000000007
 30
0.0
 11
81.470899999999986
 21
65.190100000000001
 31
0.0
  0
LINE
  5
28C
  8
0
 39
5.0
 10
81.492999999999981
 20
65.374700000000018
 30
0.0
 11
81.483899999999991
 21
65.281900000000007
 31
0.0
  0
LINE
  5
28D
  8
0
 39
5.0
 10
81.498199999999983
 20
65.467900000000014
 30
0.0
 11
81.492999999999981
 21
65.374700000000018
 31
0.0
  0
LINE
  5
28E
  8
0
 39
5.0
 10
81.499999999999986
 20
65.560400000000016
 30
0.0
 11
81.498199999999983
 21
65.467900000000014
 31
0.0
  0
LINE
  5
28F
  8
0
 39
5.0
 10
81.499999999999986
 20
65.560400000000016
 30
0.0
 11
81.499999999999986
 21
65.560400000000016
 31
0.0
  0
LINE
  5
290
  8
0
 39
5.0
 10
81.499999999999986
 20
67.050399999999996
 30
0.0
 11
81.499999999999986
 21
65.560400000000016
 31
0.0
  0
LINE
  5
291
  8
0
 39
5.0
 10
81.503299999999982
 20
67.141899999999993
 30
0.0
 11
81.499999999999986
 21
67.050399999999996
 31
0.0
  0
LINE
  5
292
  8
0
 39
5.0
 10
81.501699999999985
 20
67.231499999999997
 30
0.0
 11
81.503299999999982
 21
67.141899999999993
 31
0.0
  0
LINE
  5
293
  8
0
 39
5.0
 10
81.49499999999999
 20
67.319000000000003
 30
0.0
 11
81.501699999999985
 21
67.231499999999997
 31
0.0
  0
LINE
  5
294
  8
0
 39
5.0
 10
81.483099999999979
 20
67.403599999999983
 30
0.0
 11
81.49499999999999
 21
67.319000000000003
 31
0.0
  0
LINE
  5
295
  8
0
 39
5.0
 10
81.465399999999974
 20
67.484999999999985
 30
0.0
 11
81.483099999999979
 21
67.403599999999983
 31
0.0
  0
LINE
  5
296
  8
0
 39
5.0
 10
81.441999999999965
 20
67.562399999999997
 30
0.0
 11
81.465399999999974
 21
67.484999999999985
 31
0.0
  0
LINE
  5
297
  8
0
 39
5.0
 10
81.412599999999983
 20
67.635400000000004
 30
0.0
 11
81.441999999999965
 21
67.562399999999997
 31
0.0
  0
LINE
  5
298
  8
0
 39
5.0
 10
81.376999999999981
 20
67.703299999999999
 30
0.0
 11
81.412599999999983
 21
67.635400000000004
 31
0.0
  0
LINE
  5
299
  8
0
 39
5.0
 10
81.334699999999984
 20
67.765799999999999
 30
0.0
 11
81.376999999999981
 21
67.703299999999999
 31
0.0
  0
LINE
  5
29A
  8
0
 39
5.0
 10
81.285799999999966
 20
67.822099999999992
 30
0.0
 11
81.334699999999984
 21
67.765799999999999
 31
0.0
  0
LINE
  5
29B
  8
0
 39
5.0
 10
81.229999999999976
 20
67.871799999999993
 30
0.0
 11
81.285799999999966
 21
67.822099999999992
 31
0.0
  0
LINE
  5
29C
  8
0
 39
5.0
 10
81.167199999999994
 20
67.914100000000005
 30
0.0
 11
81.229999999999976
 21
67.871799999999993
 31
0.0
  0
LINE
  5
29D
  8
0
 39
5.0
 10
81.096799999999988
 20
67.948800000000006
 30
0.0
 11
81.167199999999994
 21
67.914100000000005
 31
0.0
  0
LINE
  5
29E
  8
0
 39
5.0
 10
81.018799999999985
 20
67.974900000000005
 30
0.0
 11
81.096799999999988
 21
67.948800000000006
 31
0.0
  0
LINE
  5
29F
  8
0
 39
5.0
 10
80.932999999999964
 20
67.9923
 30
0.0
 11
81.018799999999985
 21
67.974900000000005
 31
0.0
  0
LINE
  5
2A0
  8
0
 39
5.0
 10
80.83929999999998
 20
68.0
 30
0.0
 11
80.932999999999964
 21
67.9923
 31
0.0
  0
LINE
  5
2A1
  8
0
 39
5.0
 10
80.83929999999998
 20
68.0
 30
0.0
 11
80.83929999999998
 21
68.0
 31
0.0
  0
LINE
  5
2A2
  8
0
 39
5.0
 10
77.000000000000014
 20
68.0
 30
0.0
 11
80.83929999999998
 21
68.0
 31
0.0
  0
LINE
  5
2A5
  8
0
 39
5.0
 10
77.0
 20
72.5
 30
0.0
 11
78.854700000000022
 21
72.5
 31
0.0
  0
LINE
  5
2C1
  8
0
 39
5.0
 10
79.660699999999991
 20
68.0
 30
0.0
 11
79.660699999999991
 21
68.0
 31
0.0
  0
LINE
  5
2C2
  8
0
 39
5.0
 10
79.660699999999991
 20
68.0
 30
0.0
 11
79.566999999999993
 21
67.9923
 31
0.0
  0
LINE
  5
2C3
  8
0
 39
5.0
 10
79.566999999999993
 20
67.9923
 30
0.0
 11
79.481199999999987
 21
67.974900000000005
 31
0.0
  0
LINE
  5
2C4
  8
0
 39
5.0
 10
79.481199999999987
 20
67.974900000000005
 30
0.0
 11
79.403199999999984
 21
67.948800000000006
 31
0.0
  0
LINE
  5
2C5
  8
0
 39
5.0
 10
79.403199999999984
 20
67.948800000000006
 30
0.0
 11
79.332799999999992
 21
67.914100000000005
 31
0.0
  0
LINE
  5
2C6
  8
0
 39
5.0
 10
79.332799999999992
 20
67.914100000000005
 30
0.0
 11
79.269999999999996
 21
67.871799999999993
 31
0.0
  0
LINE
  5
2C7
  8
0
 39
5.0
 10
79.269999999999996
 20
67.871799999999993
 30
0.0
 11
79.214199999999991
 21
67.822099999999992
 31
0.0
  0
LINE
  5
2C8
  8
0
 39
5.0
 10
79.214199999999991
 20
67.822099999999992
 30
0.0
 11
79.165299999999974
 21
67.765799999999999
 31
0.0
  0
LINE
  5
2C9
  8
0
 39
5.0
 10
79.165299999999974
 20
67.765799999999999
 30
0.0
 11
79.12299999999999
 21
67.703299999999999
 31
0.0
  0
LINE
  5
2CA
  8
0
 39
5.0
 10
79.12299999999999
 20
67.703299999999999
 30
0.0
 11
79.087399999999974
 21
67.635400000000004
 31
0.0
  0
LINE
  5
2CB
  8
0
 39
5.0
 10
79.087399999999974
 20
67.635400000000004
 30
0.0
 11
79.057999999999993
 21
67.562399999999997
 31
0.0
  0
LINE
  5
2CC
  8
0
 39
5.0
 10
79.057999999999993
 20
67.562399999999997
 30
0.0
 11
79.034599999999983
 21
67.484999999999985
 31
0.0
  0
LINE
  5
2CD
  8
0
 39
5.0
 10
79.034599999999983
 20
67.484999999999985
 30
0.0
 11
79.016899999999993
 21
67.403599999999983
 31
0.0
  0
LINE
  5
2CE
  8
0
 39
5.0
 10
79.016899999999993
 20
67.403599999999983
 30
0.0
 11
79.004999999999981
 21
67.319000000000003
 31
0.0
  0
LINE
  5
2CF
  8
0
 39
5.0
 10
79.004999999999981
 20
67.319000000000003
 30
0.0
 11
78.998299999999986
 21
67.231499999999997
 31
0.0
  0
LINE
  5
2D0
  8
0
 39
5.0
 10
78.998299999999986
 20
67.231499999999997
 30
0.0
 11
78.99669999999999
 21
67.141899999999993
 31
0.0
  0
LINE
  5
2D1
  8
0
 39
5.0
 10
78.99669999999999
 20
67.141899999999993
 30
0.0
 11
78.999999999999986
 21
67.050399999999996
 31
0.0
  0
LINE
  5
2D2
  8
0
 39
5.0
 10
78.999999999999986
 20
67.050399999999996
 30
0.0
 11
78.999999999999986
 21
65.560400000000016
 31
0.0
  0
LINE
  5
2D3
  8
0
 39
5.0
 10
78.999999999999986
 20
65.560400000000016
 30
0.0
 11
78.999999999999986
 21
65.560400000000016
 31
0.0
  0
LINE
  5
2D4
  8
0
 39
5.0
 10
78.999999999999986
 20
65.560400000000016
 30
0.0
 11
79.001799999999974
 21
65.467900000000014
 31
0.0
  0
LINE
  5
2D5
  8
0
 39
5.0
 10
79.001799999999974
 20
65.467900000000014
 30
0.0
 11
79.006999999999991
 21
65.374700000000018
 31
0.0
  0
LINE
  5
2D6
  8
0
 39
5.0
 10
79.006999999999991
 20
65.374700000000018
 30
0.0
 11
79.01609999999998
 21
65.281900000000007
 31
0.0
  0
LINE
  5
2D7
  8
0
 39
5.0
 10
79.01609999999998
 20
65.281900000000007
 30
0.0
 11
79.029099999999985
 21
65.190100000000001
 31
0.0
  0
LINE
  5
2D8
  8
0
 39
5.0
 10
79.029099999999985
 20
65.190100000000001
 30
0.0
 11
79.04679999999999
 21
65.100500000000011
 31
0.0
  0
LINE
  5
2D9
  8
0
 39
5.0
 10
79.04679999999999
 20
65.100500000000011
 30
0.0
 11
79.068999999999988
 21
65.013599999999997
 31
0.0
  0
LINE
  5
2DA
  8
0
 39
5.0
 10
79.068999999999988
 20
65.013599999999997
 30
0.0
 11
79.096399999999988
 21
64.930700000000002
 31
0.0
  0
LINE
  5
2DB
  8
0
 39
5.0
 10
79.096399999999988
 20
64.930700000000002
 30
0.0
 11
79.128799999999998
 21
64.852200000000011
 31
0.0
  0
LINE
  5
2DC
  8
0
 39
5.0
 10
79.128799999999998
 20
64.852200000000011
 30
0.0
 11
79.167099999999991
 21
64.779600000000016
 31
0.0
  0
LINE
  5
2DD
  8
0
 39
5.0
 10
79.167099999999991
 20
64.779600000000016
 30
0.0
 11
79.211099999999973
 21
64.713300000000004
 31
0.0
  0
LINE
  5
2DE
  8
0
 39
5.0
 10
79.211099999999973
 20
64.713300000000004
 30
0.0
 11
79.261299999999991
 21
64.654399999999995
 31
0.0
  0
LINE
  5
2DF
  8
0
 39
5.0
 10
79.261299999999991
 20
64.654399999999995
 30
0.0
 11
79.317799999999991
 21
64.603499999999997
 31
0.0
  0
LINE
  5
2E0
  8
0
 39
5.0
 10
79.317799999999991
 20
64.603499999999997
 30
0.0
 11
79.381299999999996
 21
64.561900000000009
 31
0.0
  0
LINE
  5
2E1
  8
0
 39
5.0
 10
79.381299999999996
 20
64.561900000000009
 30
0.0
 11
79.451599999999999
 21
64.530100000000004
 31
0.0
  0
LINE
  5
2E2
  8
0
 39
5.0
 10
79.451599999999999
 20
64.530100000000004
 30
0.0
 11
79.529399999999995
 21
64.509200000000021
 31
0.0
  0
LINE
  5
2E3
  8
0
 39
5.0
 10
79.529399999999995
 20
64.509200000000021
 30
0.0
 11
79.614599999999982
 21
64.5
 31
0.0
  0
LINE
  5
2E5
  8
0
 39
5.0
 10
78.470599999999976
 20
64.509200000000021
 30
0.0
 11
78.38539999999999
 21
64.5
 31
0.0
  0
LINE
  5
2E6
  8
0
 39
5.0
 10
78.548399999999972
 20
64.530100000000004
 30
0.0
 11
78.470599999999976
 21
64.509200000000021
 31
0.0
  0
LINE
  5
2E7
  8
0
 39
5.0
 10
78.618699999999976
 20
64.561900000000009
 30
0.0
 11
78.548399999999972
 21
64.530100000000004
 31
0.0
  0
LINE
  5
2E8
  8
0
 39
5.0
 10
78.68219999999998
 20
64.603499999999997
 30
0.0
 11
78.618699999999976
 21
64.561900000000009
 31
0.0
  0
LINE
  5
2E9
  8
0
 39
5.0
 10
78.73869999999998
 20
64.654399999999995
 30
0.0
 11
78.68219999999998
 21
64.603499999999997
 31
0.0
  0
LINE
  5
2EA
  8
0
 39
5.0
 10
78.788899999999984
 20
64.713300000000004
 30
0.0
 11
78.73869999999998
 21
64.654399999999995
 31
0.0
  0
LINE
  5
2EB
  8
0
 39
5.0
 10
78.832899999999981
 20
64.779600000000016
 30
0.0
 11
78.788899999999984
 21
64.713300000000004
 31
0.0
  0
LINE
  5
2EC
  8
0
 39
5.0
 10
78.871199999999973
 20
64.852200000000011
 30
0.0
 11
78.832899999999981
 21
64.779600000000016
 31
0.0
  0
LINE
  5
2ED
  8
0
 39
5.0
 10
78.903599999999983
 20
64.930700000000002
 30
0.0
 11
78.871199999999973
 21
64.852200000000011
 31
0.0
  0
LINE
  5
2EE
  8
0
 39
5.0
 10
78.930999999999983
 20
65.013599999999997
 30
0.0
 11
78.903599999999983
 21
64.930700000000002
 31
0.0
  0
LINE
  5
2EF
  8
0
 39
5.0
 10
78.953199999999981
 20
65.100500000000011
 30
0.0
 11
78.930999999999983
 21
65.013599999999997
 31
0.0
  0
LINE
  5
2F0
  8
0
 39
5.0
 10
78.970899999999986
 20
65.190100000000001
 30
0.0
 11
78.953199999999981
 21
65.100500000000011
 31
0.0
  0
LINE
  5
2F1
  8
0
 39
5.0
 10
78.983899999999991
 20
65.281900000000007
 30
0.0
 11
78.970899999999986
 21
65.190100000000001
 31
0.0
  0
LINE
  5
2F2
  8
0
 39
5.0
 10
78.992999999999981
 20
65.374700000000018
 30
0.0
 11
78.983899999999991
 21
65.281900000000007
 31
0.0
  0
LINE
  5
2F3
  8
0
 39
5.0
 10
78.998199999999983
 20
65.467900000000014
 30
0.0
 11
78.992999999999981
 21
65.374700000000018
 31
0.0
  0
LINE
  5
2F4
  8
0
 39
5.0
 10
78.999999999999986
 20
65.560400000000016
 30
0.0
 11
78.998199999999983
 21
65.467900000000014
 31
0.0
  0
LINE
  5
2F5
  8
0
 39
5.0
 10
78.999999999999986
 20
65.560400000000016
 30
0.0
 11
78.999999999999986
 21
65.560400000000016
 31
0.0
  0
LINE
  5
2F6
  8
0
 39
5.0
 10
78.999999999999986
 20
67.050399999999996
 30
0.0
 11
78.999999999999986
 21
65.560400000000016
 31
0.0
  0
LINE
  5
2F7
  8
0
 39
5.0
 10
79.003299999999982
 20
67.141899999999993
 30
0.0
 11
78.999999999999986
 21
67.050399999999996
 31
0.0
  0
LINE
  5
2F8
  8
0
 39
5.0
 10
79.001699999999985
 20
67.231499999999997
 30
0.0
 11
79.003299999999982
 21
67.141899999999993
 31
0.0
  0
LINE
  5
2F9
  8
0
 39
5.0
 10
78.99499999999999
 20
67.319000000000003
 30
0.0
 11
79.001699999999985
 21
67.231499999999997
 31
0.0
  0
LINE
  5
2FA
  8
0
 39
5.0
 10
78.983099999999979
 20
67.403599999999983
 30
0.0
 11
78.99499999999999
 21
67.319000000000003
 31
0.0
  0
LINE
  5
2FB
  8
0
 39
5.0
 10
78.965399999999974
 20
67.484999999999985
 30
0.0
 11
78.983099999999979
 21
67.403599999999983
 31
0.0
  0
LINE
  5
2FC
  8
0
 39
5.0
 10
78.941999999999965
 20
67.562399999999997
 30
0.0
 11
78.965399999999974
 21
67.484999999999985
 31
0.0
  0
LINE
  5
2FD
  8
0
 39
5.0
 10
78.912599999999983
 20
67.635400000000004
 30
0.0
 11
78.941999999999965
 21
67.562399999999997
 31
0.0
  0
LINE
  5
2FE
  8
0
 39
5.0
 10
78.876999999999981
 20
67.703299999999999
 30
0.0
 11
78.912599999999983
 21
67.635400000000004
 31
0.0
  0
LINE
  5
2FF
  8
0
 39
5.0
 10
78.834699999999984
 20
67.765799999999999
 30
0.0
 11
78.876999999999981
 21
67.703299999999999
 31
0.0
  0
LINE
  5
300
  8
0
 39
5.0
 10
78.785799999999981
 20
67.822099999999992
 30
0.0
 11
78.834699999999984
 21
67.765799999999999
 31
0.0
  0
LINE
  5
301
  8
0
 39
5.0
 10
78.729999999999976
 20
67.871799999999993
 30
0.0
 11
78.785799999999981
 21
67.822099999999992
 31
0.0
  0
LINE
  5
302
  8
0
 39
5.0
 10
78.66719999999998
 20
67.914100000000005
 30
0.0
 11
78.729999999999976
 21
67.871799999999993
 31
0.0
  0
LINE
  5
303
  8
0
 39
5.0
 10
78.596799999999988
 20
67.948800000000006
 30
0.0
 11
78.66719999999998
 21
67.914100000000005
 31
0.0
  0
LINE
  5
304
  8
0
 39
5.0
 10
78.518799999999985
 20
67.974900000000005
 30
0.0
 11
78.596799999999988
 21
67.948800000000006
 31
0.0
  0
LINE
  5
305
  8
0
 39
5.0
 10
78.432999999999979
 20
67.9923
 30
0.0
 11
78.518799999999985
 21
67.974900000000005
 31
0.0
  0
LINE
  5
306
  8
0
 39
5.0
 10
78.33929999999998
 20
68.0
 30
0.0
 11
78.432999999999979
 21
67.9923
 31
0.0
  0
LINE
  5
307
  8
0
 39
5.0
 10
78.33929999999998
 20
68.0
 30
0.0
 11
78.33929999999998
 21
68.0
 31
0.0
  0
LINE
  5
30C
  8
2
 10
74.799999999999997
 20
72.152773640167354
 30
0.0
 11
74.799999999999997
 21
68.0
 31
0.0
  0
LINE
  5
497
  8
0
 10
75.999999999999972
 20
62.0
 30
0.0
 11
77.999999999999972
 21
62.0
 31
0.0
  0
LINE
  5
523
  8
0
 39
5.0
 10
78.854699999999994
 20
72.500000000000014
 30
0.0
 11
79.5
 21
71.851100000000017
 31
0.0
  0
LINE
  5
524
  8
0
 39
5.0
 10
79.5
 20
71.851100000000017
 30
0.0
 11
79.500000000000014
 21
68.000000000000014
 31
0.0
  0
LINE
  5
525
  8
0
 39
5.0
 10
77.0
 20
72.5
 30
0.0
 11
78.854699999999994
 21
72.500000000000014
 31
0.0
  0
LINE
  5
526
  8
2
 10
79.200000000000003
 20
72.152773640167368
 30
0.0
 11
79.200000000000031
 21
68.000000000000014
 31
0.0
  0
LINE
  5
52A
  8
0
 10
79.5
 20
71.851100000000017
 30
0.0
 11
77.0
 21
71.851100000000017
 31
0.0
  0
LINE
  5
5ED
  8
0
 39
5.0
 10
73.114599999999854
 20
64.5
 30
0.0
 11
75.999999999999972
 21
64.5
 31
0.0
  0
DIMENSION
  5
611
  8
2
  2
*D1
 10
87.071068990708454
 20
68.0
 30
0.0
 11
86.13356899070844
 21
70.250000000000028
 31
0.0
 70
     0
 13
78.854699999999994
 23
72.500000000000014
 33
0.0
 14
80.83929999999998
 24
68.0
 34
0.0
 50
90.0
  0
DIMENSION
  5
61E
  8
2
  2
*D2
 10
89.551394463684574
 20
64.5
 30
0.0
 11
88.613894463684545
 21
68.500000000000028
 31
0.0
 70
     0
 13
87.071068990708454
 23
72.500000000000014
 33
0.0
 14
80.885400000000004
 24
64.5
 34
0.0
 50
90.0
  0
DIMENSION
  5
62B
  8
2
  2
*D3
 10
89.551394463684574
 20
61.999999999999957
 30
0.0
 11
88.613894463684545
 21
57.937499999999979
 31
0.0
 70
     0
 13
89.551394463684574
 23
64.5
 33
0.0
 14
78.999999999999943
 24
61.999999999999972
 34
0.0
 50
90.0
  0
DIMENSION
  5
638
  8
2
  2
*D4
 10
92.250572103249624
 20
61.999999999999957
 30
0.0
 11
91.313072103249596
 21
67.25
 31
0.0
 70
     0
  1
(<>)
 13
89.551394463684574
 23
72.500000000000014
 33
0.0
 14
89.551394463684574
 24
61.999999999999957
 34
0.0
 50
90.0
  0
TEXT
  5
699
  8
2
 10
67.119040974726914
 20
72.000591748603966
 30
0.0
 40
1.25
  1
M5
  0
TEXT
  5
69A
  8
2
 10
67.119041195093544
 20
69.013674111459125
 30
0.0
 40
1.25
  1
H8
  0
POLYLINE
  8
2
  5
7AD
  66
     1
 10
0.000000
 20
0.000000
 30
0.000000
  70
     8
  0
VERTEX
  8
2
  5
7AE
 10
74.5000
 20
69.9256
 30
0.000000
  70
    32
  0
VERTEX
  8
2
  5
7AF
 10
69.5629
 20
71.5750
 30
0.000000
  70
    32
  0
VERTEX
  8
2
  5
7B0
 10
66.9367
 20
71.5750
 30
0.000000
  70
    32
  0
SEQEND
  8
2
  5
7B1
  0
POLYLINE
  8
2
  5
7B2
  66
     1
 10
0.000000
 20
0.000000
 30
0.000000
  70
     8
  0
VERTEX
  8
2
  5
7B3
 10
72.5000
 20
66.3054
 30
0.000000
  70
    32
  0
VERTEX
  8
2
  5
7B4
 10
69.5629
 20
68.5881
 30
0.000000
  70
    32
  0
VERTEX
  8
2
  5
7B5
 10
66.8637
 20
68.5881
 30
0.000000
  70
    32
  0
SEQEND
  8
2
  5
7B6
  0
LINE
  5
71A
  8
0
 10
76.400000000000006
 20
72.5
 30
0.0
 11
76.399999999999963
 21
62.0
 31
0.0
  0
LINE
  5
71B
  8
3
 10
77.599999999999994
 20
72.5
 30
0.0
 11
77.599999999999966
 21
62.0
 31
0.0
  0
LINE
  5
71E
  8
0
 10
75.999999999999972
 20
64.5
 30
0.0
 11
75.999999999999972
 21
63.0
 31
0.0
  0
LINE
  5
720
  8
2
 10
77.999999999999972
 20
64.5
 30
0.0
 11
77.999999999999972
 21
63.0
 31
0.0
  0
ARC
  5
72A
  8
0
 10
75.999999999999972
 20
62.5
 30
0.0
 40
0.5
 50
90.0
 51
270.0
  0
ARC
  5
72D
  8
0
 10
77.999999999999972
 20
62.5
 30
0.0
 40
0.5
 50
270.0
 51
90.0
  0
LINE
  5
72E
  8
0
 10
75.999999999999972
 20
63.0
 30
0.0
 11
75.999999999999972
 21
64.5
 31
0.0
  0
LINE
  5
72F
  8
0
 10
77.999999999999972
 20
63.0
 30
0.0
 11
77.999999999999972
 21
64.5
 31
0.0
  0
DIMENSION
  5
734
  8
2
  2
*D5
 10
87.071068990708469
 20
62.999999999999993
 30
0.0
 11
87.071068990708454
 21
58.979166666666671
 31
0.0
 70
   128
 13
77.999999999999972
 23
62.0
 33
0.0
 14
77.999999999999972
 24
63.0
 34
0.0
 50
90.0
  0
DIMENSION
  5
750
  8
2
  2
*D6
 10
77.599999999999966
 20
57.946962490496489
 30
0.0
 11
82.079166666666637
 21
58.884462490496489
 31
0.0
 70
     0
  1
%%c<>
 13
76.399999999999963
 23
62.0
 33
0.0
 14
77.599999999999966
 24
62.0
 34
0.0
  0
DIMENSION
  5
75F
  8
2
  2
*D7
 10
78.499999999999972
 20
55.010167622609728
 30
0.0
 11
76.999999999999972
 21
55.947667622609728
 31
0.0
 70
     0
  1
%%c<>
 13
75.499999999999972
 23
62.5
 33
0.0
 14
78.499999999999972
 24
62.5
 34
0.0
  0
ENDSEC
  0
EOF
