  0
SECTION
  2
HEADER
  9
$ACADVER
  1
AC1009
  9
$INSBASE
 10
0.0
 20
0.0
 30
0.0
  9
$EXTMIN
 10
69.682322297418565
 20
30.20459447096362
 30
0.0
  9
$EXTMAX
 10
105.0590784905261
 20
64.816568112487175
 30
0.0
  9
$LIMMIN
 10
0.0
 20
0.0
  9
$LIMMAX
 10
420.0
 20
297.0
  9
$ORTHOMODE
 70
     0
  9
$REGENMODE
 70
     1
  9
$FILLMODE
 70
     1
  9
$QTEXTMODE
 70
     0
  9
$MIRRTEXT
 70
     1
  9
$DRAGMODE
 70
     2
  9
$LTSCALE
 40
0.3
  9
$OSMODE
 70
    37
  9
$ATTMODE
 70
     1
  9
$TEXTSIZE
 40
2.5
  9
$TRACEWID
 40
1.0
  9
$TEXTSTYLE
  7
STANDARD
  9
$CLAYER
  8
2
  9
$CELTYPE
  6
BYLAYER
  9
$CECOLOR
 62
   256
  9
$DIMSCALE
 40
1.0
  9
$DIMASZ
 40
2.5
  9
$DIMEXO
 40
0.625
  9
$DIMDLI
 40
3.75
  9
$DIMRND
 40
0.0
  9
$DIMDLE
 40
0.0
  9
$DIMEXE
 40
1.25
  9
$DIMTP
 40
0.0
  9
$DIMTM
 40
0.0
  9
$DIMTXT
 40
2.5
  9
$DIMCEN
 40
2.5
  9
$DIMTSZ
 40
0.0
  9
$DIMTOL
 70
     0
  9
$DIMLIM
 70
     0
  9
$DIMTIH
 70
     0
  9
$DIMTOH
 70
     0
  9
$DIMSE1
 70
     0
  9
$DIMSE2
 70
     0
  9
$DIMTAD
 70
     1
  9
$DIMZIN
 70
     8
  9
$DIMBLK
  1

  9
$DIMASO
 70
     1
  9
$DIMSHO
 70
     1
  9
$DIMPOST
  1

  9
$DIMAPOST
  1

  9
$DIMALT
 70
     0
  9
$DIMALTD
 70
     3
  9
$DIMALTF
 40
0.03937007874016
  9
$DIMLFAC
 40
1.0
  9
$DIMTOFL
 70
     1
  9
$DIMTVP
 40
0.0
  9
$DIMTIX
 70
     0
  9
$DIMSOXD
 70
     0
  9
$DIMSAH
 70
     0
  9
$DIMBLK1
  1

  9
$DIMBLK2
  1

  9
$DIMSTYLE
  2
ISO-25
  9
$DIMCLRD
 70
     0
  9
$DIMCLRE
 70
     0
  9
$DIMCLRT
 70
     0
  9
$DIMTFAC
 40
1.0
  9
$DIMGAP
 40
0.625
  9
$LUNITS
 70
     2
  9
$LUPREC
 70
     4
  9
$SKETCHINC
 40
1.0
  9
$FILLETRAD
 40
10.0
  9
$AUNITS
 70
     0
  9
$AUPREC
 70
     0
  9
$MENU
  1
.
  9
$ELEVATION
 40
0.0
  9
$PELEVATION
 40
0.0
  9
$THICKNESS
 40
0.0
  9
$LIMCHECK
 70
     0
  9
$BLIPMODE
 70
     0
  9
$CHAMFERA
 40
10.0
  9
$CHAMFERB
 40
10.0
  9
$SKPOLY
 70
     0
  9
$TDCREATE
 40
2453447.3761744332
  9
$TDUPDATE
 40
2453551.9194052308
  9
$TDINDWG
 40
0.0133704977
  9
$TDUSRTIMER
 40
0.0133704977
  9
$USRTIMER
 70
     1
  9
$ANGBASE
 50
0.0
  9
$ANGDIR
 70
     0
  9
$PDMODE
 70
     0
  9
$PDSIZE
 40
0.0
  9
$PLINEWID
 40
0.0
  9
$COORDS
 70
     1
  9
$SPLFRAME
 70
     0
  9
$SPLINETYPE
 70
     6
  9
$SPLINESEGS
 70
     8
  9
$ATTDIA
 70
     0
  9
$ATTREQ
 70
     1
  9
$HANDLING
 70
-16383
  9
$HANDSEED
  5
250
  9
$SURFTAB1
 70
     6
  9
$SURFTAB2
 70
     6
  9
$SURFTYPE
 70
     6
  9
$SURFU
 70
     6
  9
$SURFV
 70
     6
  9
$UCSNAME
  2

  9
$UCSORG
 10
0.0
 20
0.0
 30
0.0
  9
$UCSXDIR
 10
1.0
 20
0.0
 30
0.0
  9
$UCSYDIR
 10
0.0
 20
1.0
 30
0.0
  9
$PUCSNAME
  2

  9
$PUCSORG
 10
0.0
 20
0.0
 30
0.0
  9
$PUCSXDIR
 10
1.0
 20
0.0
 30
0.0
  9
$PUCSYDIR
 10
0.0
 20
1.0
 30
0.0
  9
$USERI1
 70
     0
  9
$USERI2
 70
     0
  9
$USERI3
 70
     0
  9
$USERI4
 70
     0
  9
$USERI5
 70
     0
  9
$USERR1
 40
0.0
  9
$USERR2
 40
0.0
  9
$USERR3
 40
0.0
  9
$USERR4
 40
0.0
  9
$USERR5
 40
0.0
  9
$WORLDVIEW
 70
     1
  9
$SHADEDGE
 70
     3
  9
$SHADEDIF
 70
    70
  9
$TILEMODE
 70
     1
  9
$MAXACTVP
 70
    64
  9
$PLIMCHECK
 70
     0
  9
$PEXTMIN
 10
1.0000000000000000E+020
 20
1.0000000000000000E+020
 30
1.0000000000000000E+020
  9
$PEXTMAX
 10
-1.0000000000000000E+020
 20
-1.0000000000000000E+020
 30
-1.0000000000000000E+020
  9
$PLIMMIN
 10
0.0
 20
0.0
  9
$PLIMMAX
 10
420.0
 20
297.0
  9
$UNITMODE
 70
     0
  9
$VISRETAIN
 70
     1
  9
$PLINEGEN
 70
     0
  9
$PSLTSCALE
 70
     1
  0
ENDSEC
  0
SECTION
  2
TABLES
  0
TABLE
  2
VPORT
 70
     2
  0
VPORT
  2
*ACTIVE
 70
     0
 10
0.0
 20
0.0
 11
1.0
 21
1.0
 12
93.658336736291744
 22
48.952312833251924
 13
0.0
 23
0.0
 14
10.0
 24
10.0
 15
10.0
 25
10.0
 16
0.0
 26
0.0
 36
1.0
 17
0.0
 27
0.0
 37
0.0
 40
58.689107468378403
 41
2.5392405063291141
 42
50.0
 43
0.0
 44
0.0
 50
0.0
 51
0.0
 71
     0
 72
   100
 73
     1
 74
     3
 75
     0
 76
     0
 77
     0
 78
     0
  0
ENDTAB
  0
TABLE
  2
LTYPE
 70
     3
  0
LTYPE
  2
CONTINUOUS
 70
     0
  3
Solid line
 72
    65
 73
     0
 40
0.0
  0
LTYPE
  2
CENTER
 70
     0
  3
Center ____ _ ____ _ ____ _ ____ _ ____ _ ____
 72
    65
 73
     4
 40
50.799999999999997
 49
31.75
 49
-6.3499999999999988
 49
6.3499999999999988
 49
-6.3499999999999988
  0
LTYPE
  2
DASHED2
 70
     0
  3
Dashed (.5x) _ _ _ _ _ _ _ _ _ _ _ _ _ _ _ _ _
 72
    65
 73
     2
 40
9.5249999999999986
 49
6.3499999999999988
 49
-3.1749999999999989
  0
ENDTAB
  0
TABLE
  2
LAYER
 70
     5
  0
LAYER
  2
0
 70
     0
 62
     7
  6
CONTINUOUS
  0
LAYER
  2
1
 70
     0
 62
     7
  6
CENTER
  0
LAYER
  2
2
 70
     0
 62
     7
  6
CONTINUOUS
  0
LAYER
  2
3
 70
     0
 62
     7
  6
DASHED2
  0
LAYER
  2
DEFPOINTS
 70
     0
 62
     7
  6
CONTINUOUS
  0
ENDTAB
  0
TABLE
  2
STYLE
 70
     3
  0
STYLE
  2
STANDARD
 70
     0
 40
0.0
 41
1.0
 50
0.0
 71
     0
 42
2.5
  3
txt
  4

  0
STYLE
  2
\U+00C9L\U+00C9R_\U+00C2S\U+00C2V\U+00C2B\U+00C2N
 70
     0
 40
1.0
 41
1.0
 50
0.0
 71
     0
 42
1.0
  3
\U+00E9l\U+00E9r \U+00E2S\U+00E2V\U+00E2b\U+00E2N
  4

  0
STYLE
  2

 70
     1
 40
0.0
 41
1.0
 50
0.0
 71
     0
 42
2.5
  3
ltypeshp.shx
  4

  0
ENDTAB
  0
TABLE
  2
VIEW
 70
     0
  0
ENDTAB
  0
TABLE
  2
UCS
 70
     0
  0
ENDTAB
  0
TABLE
  2
APPID
 70
     1
  0
APPID
  2
ACAD
 70
     0
  0
ENDTAB
  0
TABLE
  2
DIMSTYLE
 70
     2
  0
DIMSTYLE
  2
ISO-25
 70
     0
  3

  4

  5

  6

  7

 40
1.0
 41
2.5
 42
0.625
 43
3.75
 44
1.25
 45
0.0
 46
0.0
 47
0.0
 48
0.0
140
2.5
141
2.5
142
0.0
143
0.03937007874016
144
1.0
145
0.0
146
1.0
147
0.625
 71
     0
 72
     0
 73
     0
 74
     0
 75
     0
 76
     0
 77
     1
 78
     8
170
     0
171
     3
172
     1
173
     0
174
     0
175
     0
176
     0
177
     0
178
     0
  0
DIMSTYLE
  2
STANDARD
 70
     0
  3

  4

  5

  6

  7

 40
1.0
 41
0.18
 42
0.0625
 43
0.38
 44
0.18
 45
0.0
 46
0.0
 47
0.0
 48
0.0
140
0.18
141
0.09
142
0.0
143
25.399999999999999
144
1.0
145
0.0
146
1.0
147
0.09
 71
     0
 72
     0
 73
     1
 74
     1
 75
     0
 76
     0
 77
     0
 78
     0
170
     0
171
     2
172
     0
173
     0
174
     0
175
     0
176
     0
177
     0
178
     0
  0
ENDTAB
  0
ENDSEC
  0
SECTION
  2
BLOCKS
  0
BLOCK
  8
0
  2
$MODEL_SPACE
 70
     0
 10
0.0
 20
0.0
 30
0.0
  3
$MODEL_SPACE
  1

  0
ENDBLK
  5
21
  8
0
  0
BLOCK
 67
     1
  8
0
  2
$PAPER_SPACE
 70
     0
 10
0.0
 20
0.0
 30
0.0
  3
$PAPER_SPACE
  1

  0
ENDBLK
  5
1D
 67
     1
  8
0
  0
BLOCK
  8
0
  2
*D1
 70
     1
 10
0.0
 20
0.0
 30
0.0
  3
*D1
  1

  0
LINE
  5
1C6
  8
2
 62
     0
 10
83.605235706078332
 20
56.334430938516327
 30
0.0
 11
83.605235706078332
 21
62.941568112487182
 31
0.0
  0
LINE
  5
1C7
  8
2
 62
     0
 10
86.105235706078332
 20
56.334430938516327
 30
0.0
 11
86.105235706078332
 21
62.941568112487182
 31
0.0
  0
LINE
  5
1C8
  8
2
 62
     0
 10
81.105235706078332
 20
61.691568112487182
 30
0.0
 11
78.605235706078332
 21
61.691568112487182
 31
0.0
  0
LINE
  5
1C9
  8
2
 62
     0
 10
88.605235706078332
 20
61.691568112487182
 30
0.0
 11
99.855235706078332
 21
61.691568112487182
 31
0.0
  0
LINE
  5
1CA
  8
2
 62
     0
 10
83.605235706078332
 20
61.691568112487182
 30
0.0
 11
86.105235706078332
 21
61.691568112487182
 31
0.0
  0
SOLID
  5
1CB
  8
2
 62
     0
 10
81.105235706078332
 20
62.10823477915384
 30
0.0
 11
81.105235706078332
 21
61.274901445820511
 31
0.0
 12
83.605235706078332
 22
61.691568112487182
 32
0.0
 13
83.605235706078332
 23
61.691568112487182
 33
0.0
  0
SOLID
  5
1CC
  8
2
 62
     0
 10
88.605235706078332
 20
62.10823477915384
 30
0.0
 11
88.605235706078332
 21
61.274901445820511
 31
0.0
 12
86.105235706078332
 22
61.691568112487182
 32
0.0
 13
86.105235706078332
 23
61.691568112487182
 33
0.0
  0
INSERT
  5
1CD
  8
2
  2
*U5
 10
0.0
 20
0.0
 30
0.0
  0
POINT
  5
1CE
  8
DEFPOINTS
 62
     0
 10
83.605235706078332
 20
55.709430938516327
 30
0.0
  0
POINT
  5
1CF
  8
DEFPOINTS
 62
     0
 10
86.105235706078332
 20
55.709430938516327
 30
0.0
  0
POINT
  5
1D0
  8
DEFPOINTS
 62
     0
 10
86.105235706078332
 20
61.691568112487182
 30
0.0
  0
ENDBLK
  5
17E
  8
0
  0
BLOCK
  8
0
  2
*D2
 70
     1
 10
0.0
 20
0.0
 30
0.0
  3
*D2
  1

  0
LINE
  5
21B
  8
2
 62
     0
 10
87.480235706078318
 20
55.709430938516327
 30
0.0
 11
100.46608842246791
 21
55.709430938516327
 31
0.0
  0
LINE
  5
21C
  8
2
 62
     0
 10
90.980235706078346
 20
46.70943093851632
 30
0.0
 11
100.46608842246791
 21
46.70943093851632
 31
0.0
  0
LINE
  5
21D
  8
2
 62
     0
 10
99.216088422467948
 20
53.209430938516327
 30
0.0
 11
99.216088422467948
 21
49.209430938516327
 31
0.0
  0
SOLID
  5
21E
  8
2
 62
     0
 10
98.799421755801276
 20
53.209430938516327
 30
0.0
 11
99.632755089134605
 21
53.209430938516327
 31
0.0
 12
99.216088422467948
 22
55.709430938516327
 32
0.0
 13
99.216088422467948
 23
55.709430938516327
 33
0.0
  0
SOLID
  5
21F
  8
2
 62
     0
 10
98.799421755801276
 20
49.209430938516327
 30
0.0
 11
99.632755089134605
 21
49.209430938516327
 31
0.0
 12
99.216088422467948
 22
46.70943093851632
 32
0.0
 13
99.216088422467948
 23
46.70943093851632
 33
0.0
  0
TEXT
  5
220
  8
2
 62
     0
 10
98.591088422467934
 20
50.376097605182999
 30
0.0
 40
2.5
  1
9
 50
90.0
  0
POINT
  5
221
  8
DEFPOINTS
 62
     0
 10
86.855235706078318
 20
55.709430938516327
 30
0.0
  0
POINT
  5
222
  8
DEFPOINTS
 62
     0
 10
90.355235706078346
 20
46.70943093851632
 30
0.0
  0
POINT
  5
223
  8
DEFPOINTS
 62
     0
 10
99.216088422467948
 20
46.70943093851632
 30
0.0
  0
ENDBLK
  5
1A1
  8
0
  0
BLOCK
  8
0
  2
*D3
 70
     1
 10
0.0
 20
0.0
 30
0.0
  3
*D3
  1

  0
LINE
  5
212
  8
2
 62
     0
 10
87.480235706078318
 20
55.709430938516327
 30
0.0
 11
105.0590784905261
 21
55.709430938516327
 31
0.0
  0
LINE
  5
213
  8
2
 62
     0
 10
90.980235706078346
 20
44.709430938516327
 30
0.0
 11
105.0590784905261
 21
44.709430938516327
 31
0.0
  0
LINE
  5
214
  8
2
 62
     0
 10
103.80907849052601
 20
53.209430938516327
 30
0.0
 11
103.80907849052601
 21
47.209430938516327
 31
0.0
  0
SOLID
  5
215
  8
2
 62
     0
 10
103.3924118238594
 20
53.209430938516327
 30
0.0
 11
104.2257451571927
 21
53.209430938516327
 31
0.0
 12
103.80907849052601
 22
55.709430938516327
 32
0.0
 13
103.80907849052601
 23
55.709430938516327
 33
0.0
  0
SOLID
  5
216
  8
2
 62
     0
 10
103.3924118238594
 20
47.209430938516327
 30
0.0
 11
104.2257451571927
 21
47.209430938516327
 31
0.0
 12
103.80907849052601
 22
44.709430938516327
 32
0.0
 13
103.80907849052601
 23
44.709430938516327
 33
0.0
  0
TEXT
  5
217
  8
2
 62
     0
 10
103.18407849052601
 20
48.959430938516341
 30
0.0
 40
2.5
  1
11
 50
90.0
  0
POINT
  5
218
  8
DEFPOINTS
 62
     0
 10
86.855235706078318
 20
55.709430938516327
 30
0.0
  0
POINT
  5
219
  8
DEFPOINTS
 62
     0
 10
90.355235706078346
 20
44.709430938516327
 30
0.0
  0
POINT
  5
21A
  8
DEFPOINTS
 62
     0
 10
103.80907849052601
 20
44.709430938516327
 30
0.0
  0
ENDBLK
  5
1AE
  8
0
  0
BLOCK
  8
0
  2
*D4
 70
     1
 10
0.0
 20
0.0
 30
0.0
  3
*D4
  1

  0
LINE
  5
224
  8
2
 62
     0
 10
79.355235706078332
 20
44.084430938516327
 30
0.0
 11
79.355235706078332
 21
34.938696953778681
 31
0.0
  0
LINE
  5
225
  8
2
 62
     0
 10
90.355235706078346
 20
44.084430938516327
 30
0.0
 11
90.355235706078346
 21
34.938696953778681
 31
0.0
  0
LINE
  5
226
  8
2
 62
     0
 10
81.855235706078318
 20
36.188696953778681
 30
0.0
 11
87.855235706078346
 21
36.188696953778681
 31
0.0
  0
SOLID
  5
227
  8
2
 62
     0
 10
81.855235706078318
 20
36.605363620445338
 30
0.0
 11
81.855235706078318
 21
35.77203028711201
 31
0.0
 12
79.355235706078332
 22
36.188696953778681
 32
0.0
 13
79.355235706078332
 23
36.188696953778681
 33
0.0
  0
SOLID
  5
228
  8
2
 62
     0
 10
87.855235706078346
 20
36.605363620445338
 30
0.0
 11
87.855235706078346
 21
35.77203028711201
 31
0.0
 12
90.355235706078346
 22
36.188696953778681
 32
0.0
 13
90.355235706078346
 23
36.188696953778681
 33
0.0
  0
INSERT
  5
229
  8
2
  2
*U6
 10
0.0
 20
0.0
 30
0.0
  0
POINT
  5
22A
  8
DEFPOINTS
 62
     0
 10
79.355235706078332
 20
44.709430938516327
 30
0.0
  0
POINT
  5
22B
  8
DEFPOINTS
 62
     0
 10
90.355235706078346
 20
44.709430938516327
 30
0.0
  0
POINT
  5
22C
  8
DEFPOINTS
 62
     0
 10
90.355235706078346
 20
36.188696953778681
 30
0.0
  0
ENDBLK
  5
1BC
  8
0
  0
BLOCK
  8
0
  2
*U5
 70
     1
 10
0.0
 20
0.0
 30
0.0
  3
*U5
  1

  0
TEXT
  5
242
  8
2
 62
     0
 10
91.730235706078332
 20
62.316568112487182
 30
0.0
 40
2.5
  1
\U+2205
  0
TEXT
  5
243
  8
2
 62
     0
 10
94.230235706078332
 20
62.316568112487182
 30
0.0
 40
2.5
  1
2.5
  0
ENDBLK
  5
245
  8
0
  0
BLOCK
  8
0
  2
*U6
 70
     1
 10
0.0
 20
0.0
 30
0.0
  3
*U6
  1

  0
TEXT
  5
247
  8
2
 62
     0
 10
82.355235706078332
 20
36.813696953778681
 30
0.0
 40
2.5
  1
\U+2205
  0
TEXT
  5
248
  8
2
 62
     0
 10
84.855235706078332
 20
36.813696953778681
 30
0.0
 40
2.5
  1
11
  0
ENDBLK
  5
24A
  8
0
  0
ENDSEC
  0
SECTION
  2
ENTITIES
  0
TEXT
  5
A1
  8
2
 10
75.748651354351367
 20
30.20459447096362
 30
0.0
 40
2.2859279999999988
  1
No. 270.311
 51
-0.0000015352344868
  7
\U+00C9L\U+00C9R_\U+00C2S\U+00C2V\U+00C2B\U+00C2N
  0
LINE
  5
139
  8
1
 10
84.855235706078332
 20
56.009430938516331
 30
0.0
 11
84.855235706078332
 21
44.409430938516323
 31
0.0
  0
LINE
  5
13D
  8
0
 10
82.355235706078332
 20
55.209430938516327
 30
0.0
 11
82.355235706078332
 21
46.70943093851632
 31
0.0
  0
LINE
  5
13E
  8
0
 10
83.605235706078332
 20
55.709430938516327
 30
0.0
 11
83.605235706078332
 21
44.709430938516327
 31
0.0
  0
LINE
  5
140
  8
2
 10
82.655235706078315
 20
55.509430938516338
 30
0.0
 11
82.655235706078315
 21
46.70943093851632
 31
0.0
  0
LINE
  5
142
  8
0
 10
79.355235706078332
 20
44.709430938516327
 30
0.0
 11
84.855235706078332
 21
44.709430938516327
 31
0.0
  0
LINE
  5
143
  8
0
 10
79.355235706078332
 20
46.70943093851632
 30
0.0
 11
82.655235706078315
 21
46.70943093851632
 31
0.0
  0
LINE
  5
144
  8
0
 10
79.355235706078332
 20
46.70943093851632
 30
0.0
 11
79.355235706078332
 21
44.709430938516327
 31
0.0
  0
LINE
  5
153
  8
0
 10
82.855235706078346
 20
55.709430938516327
 30
0.0
 11
82.355235706078332
 21
55.209430938516327
 31
0.0
  0
LINE
  5
154
  8
0
 10
82.855235706078346
 20
55.709430938516327
 30
0.0
 11
84.855235706078332
 21
55.709430938516327
 31
0.0
  0
LINE
  5
157
  8
3
 10
84.355235706078318
 20
45.70943093851632
 30
0.0
 11
84.355235706078318
 21
44.709430938516327
 31
0.0
  0
LINE
  5
159
  8
3
 10
84.355235706078318
 20
45.70943093851632
 30
0.0
 11
84.855235706078332
 21
45.70943093851632
 31
0.0
  0
LINE
  5
15C
  8
0
 10
86.855235706078318
 20
55.709430938516327
 30
0.0
 11
87.355235706078332
 21
55.209430938516327
 31
0.0
  0
LINE
  5
15D
  8
3
 10
86.105235706078332
 20
55.709430938516327
 30
0.0
 11
86.105235706078332
 21
44.709430938516327
 31
0.0
  0
LINE
  5
15E
  8
2
 10
87.055235706078335
 20
55.509430938516338
 30
0.0
 11
87.055235706078335
 21
46.70943093851632
 31
0.0
  0
LINE
  5
15F
  8
0
 10
87.355235706078332
 20
55.209430938516327
 30
0.0
 11
87.355235706078332
 21
46.70943093851632
 31
0.0
  0
LINE
  5
160
  8
0
 10
90.355235706078346
 20
44.709430938516327
 30
0.0
 11
84.855235706078332
 21
44.709430938516327
 31
0.0
  0
LINE
  5
161
  8
0
 10
90.355235706078346
 20
46.70943093851632
 30
0.0
 11
90.355235706078346
 21
44.709430938516327
 31
0.0
  0
LINE
  5
162
  8
0
 10
90.355235706078346
 20
46.70943093851632
 30
0.0
 11
84.855235706078332
 21
46.709430938516327
 31
0.0
  0
LINE
  5
163
  8
0
 10
85.355235706078346
 20
45.70943093851632
 30
0.0
 11
84.855235706078332
 21
45.70943093851632
 31
0.0
  0
LINE
  5
164
  8
0
 10
85.355235706078346
 20
45.70943093851632
 30
0.0
 11
85.355235706078346
 21
44.709430938516327
 31
0.0
  0
LINE
  5
165
  8
0
 10
86.855235706078318
 20
55.709430938516327
 30
0.0
 11
84.855235706078332
 21
55.709430938516327
 31
0.0
  0
LINE
  5
167
  8
0
 10
87.355235706078332
 20
55.209430938516327
 30
0.0
 11
84.855235706078332
 21
55.209430938516327
 31
0.0
  0
DIMENSION
  5
16F
  8
2
  2
*D1
 10
86.105235706078332
 20
61.691568112487182
 30
0.0
 11
95.480235706078332
 21
63.566568112487182
 31
0.0
 70
     0
  1
%%c<>
 13
83.605235706078332
 23
55.709430938516327
 33
0.0
 14
86.105235706078332
 24
55.709430938516327
 34
0.0
  0
DIMENSION
  5
195
  8
2
  2
*D2
 10
99.216088422467948
 20
46.70943093851632
 30
0.0
 11
97.341088422467934
 21
51.209430938516341
 31
0.0
 70
     0
 13
86.855235706078318
 23
55.709430938516327
 33
0.0
 14
90.355235706078346
 24
46.70943093851632
 34
0.0
 50
90.0
  0
DIMENSION
  5
1A2
  8
2
  2
*D3
 10
103.80907849052601
 20
44.709430938516327
 30
0.0
 11
101.93407849052601
 21
50.209430938516341
 31
0.0
 70
     0
 13
86.855235706078318
 23
55.709430938516327
 33
0.0
 14
90.355235706078346
 24
44.709430938516327
 34
0.0
 50
90.0
  0
DIMENSION
  5
1B0
  8
2
  2
*D4
 10
90.355235706078346
 20
36.188696953778681
 30
0.0
 11
84.855235706078332
 21
38.063696953778681
 31
0.0
 70
     0
  1
%%c<>
 13
79.355235706078332
 23
44.709430938516327
 33
0.0
 14
90.355235706078346
 24
44.709430938516327
 34
0.0
  0
TEXT
  5
1D6
  8
2
 10
69.682322297418565
 20
56.26659806739525
 30
0.0
 40
2.5
  1
M5
  0
POLYLINE
  8
2
  5
24B
  66
     1
 10
0.000000
 20
0.000000
 30
0.000000
  70
     8
  0
VERTEX
  8
2
  5
24C
 10
82.3552
 20
51.9594
 30
0.000000
  70
    32
  0
VERTEX
  8
2
  5
24D
 10
75.5863
 20
55.7608
 30
0.000000
  70
    32
  0
VERTEX
  8
2
  5
24E
 10
69.7981
 20
55.7608
 30
0.000000
  70
    32
  0
SEQEND
  8
2
  5
24F
  0
ENDSEC
  0
EOF
