  0
SECTION
  2
HEADER
  9
$ACADVER
  1
AC1009
  9
$INSBASE
 10
0.0
 20
0.0
 30
0.0
  9
$EXTMIN
 10
34.239635013578209
 20
-74.157185079702117
 30
0.0
  9
$EXTMAX
 10
114.3862967160903
 20
117.205171798008
 30
60.0
  9
$LIMMIN
 10
0.0
 20
0.0
  9
$LIMMAX
 10
420.0
 20
297.0
  9
$ORTHOMODE
 70
     0
  9
$REGENMODE
 70
     1
  9
$FILLMODE
 70
     1
  9
$QTEXTMODE
 70
     0
  9
$MIRRTEXT
 70
     1
  9
$DRAGMODE
 70
     2
  9
$LTSCALE
 40
0.3
  9
$OSMODE
 70
    37
  9
$ATTMODE
 70
     1
  9
$TEXTSIZE
 40
2.5
  9
$TRACEWID
 40
1.0
  9
$TEXTSTYLE
  7
STANDARD
  9
$CLAYER
  8
2
  9
$CELTYPE
  6
BYLAYER
  9
$CECOLOR
 62
   256
  9
$DIMSCALE
 40
1.0
  9
$DIMASZ
 40
2.5
  9
$DIMEXO
 40
0.625
  9
$DIMDLI
 40
3.75
  9
$DIMRND
 40
0.0
  9
$DIMDLE
 40
0.0
  9
$DIMEXE
 40
1.25
  9
$DIMTP
 40
0.0
  9
$DIMTM
 40
0.0
  9
$DIMTXT
 40
2.5
  9
$DIMCEN
 40
2.5
  9
$DIMTSZ
 40
0.0
  9
$DIMTOL
 70
     0
  9
$DIMLIM
 70
     0
  9
$DIMTIH
 70
     0
  9
$DIMTOH
 70
     0
  9
$DIMSE1
 70
     0
  9
$DIMSE2
 70
     0
  9
$DIMTAD
 70
     1
  9
$DIMZIN
 70
     8
  9
$DIMBLK
  1

  9
$DIMASO
 70
     1
  9
$DIMSHO
 70
     1
  9
$DIMPOST
  1

  9
$DIMAPOST
  1

  9
$DIMALT
 70
     0
  9
$DIMALTD
 70
     3
  9
$DIMALTF
 40
0.03937007874016
  9
$DIMLFAC
 40
1.0
  9
$DIMTOFL
 70
     1
  9
$DIMTVP
 40
0.0
  9
$DIMTIX
 70
     0
  9
$DIMSOXD
 70
     0
  9
$DIMSAH
 70
     0
  9
$DIMBLK1
  1

  9
$DIMBLK2
  1

  9
$DIMSTYLE
  2
ISO-25
  9
$DIMCLRD
 70
     0
  9
$DIMCLRE
 70
     0
  9
$DIMCLRT
 70
     0
  9
$DIMTFAC
 40
1.0
  9
$DIMGAP
 40
0.625
  9
$LUNITS
 70
     2
  9
$LUPREC
 70
     4
  9
$SKETCHINC
 40
1.0
  9
$FILLETRAD
 40
10.0
  9
$AUNITS
 70
     0
  9
$AUPREC
 70
     0
  9
$MENU
  1
.
  9
$ELEVATION
 40
0.0
  9
$PELEVATION
 40
0.0
  9
$THICKNESS
 40
0.0
  9
$LIMCHECK
 70
     0
  9
$BLIPMODE
 70
     0
  9
$CHAMFERA
 40
10.0
  9
$CHAMFERB
 40
10.0
  9
$SKPOLY
 70
     0
  9
$TDCREATE
 40
2453446.4382365742
  9
$TDUPDATE
 40
2453551.9340129271
  9
$TDINDWG
 40
0.0860165162
  9
$TDUSRTIMER
 40
0.0860165162
  9
$USRTIMER
 70
     1
  9
$ANGBASE
 50
0.0
  9
$ANGDIR
 70
     0
  9
$PDMODE
 70
     0
  9
$PDSIZE
 40
0.0
  9
$PLINEWID
 40
0.0
  9
$COORDS
 70
     1
  9
$SPLFRAME
 70
     0
  9
$SPLINETYPE
 70
     6
  9
$SPLINESEGS
 70
     8
  9
$ATTDIA
 70
     0
  9
$ATTREQ
 70
     1
  9
$HANDLING
 70
-16383
  9
$HANDSEED
  5
1104
  9
$SURFTAB1
 70
     6
  9
$SURFTAB2
 70
     6
  9
$SURFTYPE
 70
     6
  9
$SURFU
 70
     6
  9
$SURFV
 70
     6
  9
$UCSNAME
  2

  9
$UCSORG
 10
0.0
 20
0.0
 30
0.0
  9
$UCSXDIR
 10
1.0
 20
0.0
 30
0.0
  9
$UCSYDIR
 10
0.0
 20
1.0
 30
0.0
  9
$PUCSNAME
  2

  9
$PUCSORG
 10
0.0
 20
0.0
 30
0.0
  9
$PUCSXDIR
 10
1.0
 20
0.0
 30
0.0
  9
$PUCSYDIR
 10
0.0
 20
1.0
 30
0.0
  9
$USERI1
 70
     0
  9
$USERI2
 70
     0
  9
$USERI3
 70
     0
  9
$USERI4
 70
     0
  9
$USERI5
 70
     0
  9
$USERR1
 40
0.0
  9
$USERR2
 40
0.0
  9
$USERR3
 40
0.0
  9
$USERR4
 40
0.0
  9
$USERR5
 40
0.0
  9
$WORLDVIEW
 70
     1
  9
$SHADEDGE
 70
     3
  9
$SHADEDIF
 70
    70
  9
$TILEMODE
 70
     1
  9
$MAXACTVP
 70
    64
  9
$PLIMCHECK
 70
     0
  9
$PEXTMIN
 10
1.0000000000000000E+020
 20
1.0000000000000000E+020
 30
1.0000000000000000E+020
  9
$PEXTMAX
 10
-1.0000000000000000E+020
 20
-1.0000000000000000E+020
 30
-1.0000000000000000E+020
  9
$PLIMMIN
 10
0.0
 20
0.0
  9
$PLIMMAX
 10
420.0
 20
297.0
  9
$UNITMODE
 70
     0
  9
$VISRETAIN
 70
     1
  9
$PLINEGEN
 70
     0
  9
$PSLTSCALE
 70
     1
  0
ENDSEC
  0
SECTION
  2
TABLES
  0
TABLE
  2
VPORT
 70
     2
  0
VPORT
  2
*ACTIVE
 70
     0
 10
0.0
 20
0.0
 11
1.0
 21
1.0
 12
222.26033998539091
 22
5.7686527968653527
 13
0.0
 23
0.0
 14
10.0
 24
10.0
 15
10.0
 25
10.0
 16
0.0
 26
0.0
 36
1.0
 17
0.0
 27
0.0
 37
0.0
 40
269.51658908444227
 41
2.5392405063291141
 42
50.0
 43
0.0
 44
0.0
 50
0.0
 51
0.0
 71
     0
 72
   100
 73
     1
 74
     3
 75
     0
 76
     0
 77
     0
 78
     0
  0
ENDTAB
  0
TABLE
  2
LTYPE
 70
     3
  0
LTYPE
  2
CONTINUOUS
 70
     0
  3
Solid line
 72
    65
 73
     0
 40
0.0
  0
LTYPE
  2
CENTER
 70
     0
  3
Center ____ _ ____ _ ____ _ ____ _ ____ _ ____
 72
    65
 73
     4
 40
50.799999999999997
 49
31.75
 49
-6.3499999999999988
 49
6.3499999999999988
 49
-6.3499999999999988
  0
LTYPE
  2
DASHED2
 70
     0
  3
Dashed (.5x) _ _ _ _ _ _ _ _ _ _ _ _ _ _ _ _ _
 72
    65
 73
     2
 40
9.5249999999999986
 49
6.3499999999999988
 49
-3.1749999999999989
  0
ENDTAB
  0
TABLE
  2
LAYER
 70
     5
  0
LAYER
  2
0
 70
     0
 62
     7
  6
CONTINUOUS
  0
LAYER
  2
1
 70
     0
 62
     7
  6
CENTER
  0
LAYER
  2
2
 70
     0
 62
     7
  6
CONTINUOUS
  0
LAYER
  2
3
 70
     0
 62
     7
  6
DASHED2
  0
LAYER
  2
DEFPOINTS
 70
     0
 62
     7
  6
CONTINUOUS
  0
ENDTAB
  0
TABLE
  2
STYLE
 70
     4
  0
STYLE
  2
STANDARD
 70
     0
 40
0.0
 41
1.0
 50
0.0
 71
     0
 42
2.5
  3
txt
  4

  0
STYLE
  2
\U+00C9L\U+00C9R_\U+00C2S\U+00C2V\U+00C2B\U+00C2N
 70
     0
 40
1.0
 41
1.0
 50
0.0
 71
     0
 42
1.0
  3
\U+00E9l\U+00E9r \U+00E2S\U+00E2V\U+00E2b\U+00E2N
  4

  0
STYLE
  2
SWIS721_CN_BT
 70
     0
 40
1.0
 41
1.0
 50
0.0
 71
     0
 42
1.0
  3
Swis721 Cn BT
  4

  0
STYLE
  2

 70
     1
 40
0.0
 41
1.0
 50
0.0
 71
     0
 42
2.5
  3
ltypeshp.shx
  4

  0
ENDTAB
  0
TABLE
  2
VIEW
 70
     0
  0
ENDTAB
  0
TABLE
  2
UCS
 70
     0
  0
ENDTAB
  0
TABLE
  2
APPID
 70
     1
  0
APPID
  2
ACAD
 70
     0
  0
ENDTAB
  0
TABLE
  2
DIMSTYLE
 70
     2
  0
DIMSTYLE
  2
ISO-25
 70
     0
  3

  4

  5

  6

  7

 40
1.0
 41
2.5
 42
0.625
 43
3.75
 44
1.25
 45
0.0
 46
0.0
 47
0.0
 48
0.0
140
2.5
141
2.5
142
0.0
143
0.03937007874016
144
1.0
145
0.0
146
1.0
147
0.625
 71
     0
 72
     0
 73
     0
 74
     0
 75
     0
 76
     0
 77
     1
 78
     8
170
     0
171
     3
172
     1
173
     0
174
     0
175
     0
176
     0
177
     0
178
     0
  0
DIMSTYLE
  2
STANDARD
 70
     0
  3

  4

  5

  6

  7

 40
1.0
 41
0.18
 42
0.0625
 43
0.38
 44
0.18
 45
0.0
 46
0.0
 47
0.0
 48
0.0
140
0.18
141
0.09
142
0.0
143
25.399999999999999
144
1.0
145
0.0
146
1.0
147
0.09
 71
     0
 72
     0
 73
     1
 74
     1
 75
     0
 76
     0
 77
     0
 78
     0
170
     0
171
     2
172
     0
173
     0
174
     0
175
     0
176
     0
177
     0
178
     0
  0
ENDTAB
  0
ENDSEC
  0
SECTION
  2
BLOCKS
  0
BLOCK
  8
0
  2
$MODEL_SPACE
 70
     0
 10
0.0
 20
0.0
 30
0.0
  3
$MODEL_SPACE
  1

  0
ENDBLK
  5
21
  8
0
  0
BLOCK
 67
     1
  8
0
  2
$PAPER_SPACE
 70
     0
 10
0.0
 20
0.0
 30
0.0
  3
$PAPER_SPACE
  1

  0
ENDBLK
  5
1D
 67
     1
  8
0
  0
BLOCK
  8
0
  2
*D1
 70
     1
 10
0.0
 20
0.0
 30
0.0
  3
*D1
  1

  0
LINE
  5
F6A
  8
2
 62
     0
 10
74.25531153274197
 20
105.7895666178074
 30
0.0
 11
104.390894317047
 21
105.7895666178074
 31
0.0
  0
LINE
  5
F6B
  8
2
 62
     0
 10
79.37979153274199
 20
73.789566617807452
 30
0.0
 11
104.390894317047
 21
73.789566617807438
 31
0.0
  0
LINE
  5
F6C
  8
2
 62
     0
 10
103.140894317047
 20
103.2895666178074
 30
0.0
 11
103.140894317047
 21
76.289566617807438
 31
0.0
  0
SOLID
  5
F6D
  8
2
 62
     0
 10
102.7242276503803
 20
103.2895666178074
 30
0.0
 11
103.5575609837136
 21
103.2895666178074
 31
0.0
 12
103.140894317047
 22
105.7895666178074
 32
0.0
 13
103.140894317047
 23
105.7895666178074
 33
0.0
  0
SOLID
  5
F6E
  8
2
 62
     0
 10
102.7242276503803
 20
76.289566617807438
 30
0.0
 11
103.5575609837136
 21
76.289566617807438
 31
0.0
 12
103.140894317047
 22
73.789566617807438
 32
0.0
 13
103.140894317047
 23
73.789566617807438
 33
0.0
  0
TEXT
  5
F6F
  8
2
 62
     0
 10
102.5158943170469
 20
87.706233284474123
 30
0.0
 40
2.5
  1
32
 50
90.0
  0
POINT
  5
F70
  8
DEFPOINTS
 62
     0
 10
73.63031153274197
 20
105.7895666178074
 30
0.0
  0
POINT
  5
F71
  8
DEFPOINTS
 62
     0
 10
78.75479153274199
 20
73.789566617807452
 30
0.0
  0
POINT
  5
F72
  8
DEFPOINTS
 62
     0
 10
103.140894317047
 20
73.789566617807438
 30
0.0
  0
ENDBLK
  5
F4A
  8
0
  0
BLOCK
  8
0
  2
*D2
 70
     1
 10
0.0
 20
0.0
 30
0.0
  3
*D2
  1

  0
LINE
  5
F61
  8
2
 62
     0
 10
102.515894317047
 20
73.789566617807438
 30
0.0
 11
101.890894317047
 21
73.789566617807438
 31
0.0
  0
LINE
  5
F62
  8
2
 62
     0
 10
79.501471532741974
 20
33.789566617807452
 30
0.0
 11
104.390894317047
 21
33.789566617807438
 31
0.0
  0
LINE
  5
F63
  8
2
 62
     0
 10
103.140894317047
 20
71.289566617807438
 30
0.0
 11
103.140894317047
 21
36.289566617807438
 31
0.0
  0
SOLID
  5
F64
  8
2
 62
     0
 10
102.7242276503803
 20
71.289566617807438
 30
0.0
 11
103.5575609837136
 21
71.289566617807438
 31
0.0
 12
103.140894317047
 22
73.789566617807438
 32
0.0
 13
103.140894317047
 23
73.789566617807438
 33
0.0
  0
SOLID
  5
F65
  8
2
 62
     0
 10
102.7242276503803
 20
36.289566617807438
 30
0.0
 11
103.5575609837136
 21
36.289566617807438
 31
0.0
 12
103.140894317047
 22
33.789566617807438
 32
0.0
 13
103.140894317047
 23
33.789566617807438
 33
0.0
  0
TEXT
  5
F66
  8
2
 62
     0
 10
102.5158943170469
 20
51.914566617807459
 30
0.0
 40
2.5
  1
40
 50
90.0
  0
POINT
  5
F67
  8
DEFPOINTS
 62
     0
 10
103.140894317047
 20
73.789566617807438
 30
0.0
  0
POINT
  5
F68
  8
DEFPOINTS
 62
     0
 10
78.876471532741974
 20
33.789566617807452
 30
0.0
  0
POINT
  5
F69
  8
DEFPOINTS
 62
     0
 10
103.140894317047
 20
33.789566617807438
 30
0.0
  0
ENDBLK
  5
F57
  8
0
  0
BLOCK
  8
0
  2
*D3
 70
     1
 10
0.0
 20
0.0
 30
0.0
  3
*D3
  1

  0
LINE
  5
1053
  8
2
 62
     0
 10
102.515894317047
 20
33.789566617807438
 30
0.0
 11
101.890894317047
 21
33.789566617807438
 31
0.0
  0
LINE
  5
1054
  8
2
 62
     0
 10
81.128431532741999
 20
-31.210433382192551
 30
0.0
 11
104.390894317047
 21
-31.210433382192551
 31
0.0
  0
LINE
  5
1055
  8
2
 62
     0
 10
103.140894317047
 20
31.289566617807441
 30
0.0
 11
103.140894317047
 21
-28.710433382192551
 31
0.0
  0
SOLID
  5
1056
  8
2
 62
     0
 10
102.7242276503803
 20
31.289566617807441
 30
0.0
 11
103.5575609837136
 21
31.289566617807441
 31
0.0
 12
103.140894317047
 22
33.789566617807438
 32
0.0
 13
103.140894317047
 23
33.789566617807438
 33
0.0
  0
SOLID
  5
1057
  8
2
 62
     0
 10
102.7242276503803
 20
-28.710433382192551
 30
0.0
 11
103.5575609837136
 21
-28.710433382192551
 31
0.0
 12
103.140894317047
 22
-31.210433382192551
 32
0.0
 13
103.140894317047
 23
-31.210433382192551
 33
0.0
  0
TEXT
  5
1058
  8
2
 62
     0
 10
102.5158943170469
 20
-0.7937667155258711
 30
0.0
 40
2.5
  1
65
 50
90.0
  0
POINT
  5
1059
  8
DEFPOINTS
 62
     0
 10
103.140894317047
 20
33.789566617807438
 30
0.0
  0
POINT
  5
105A
  8
DEFPOINTS
 62
     0
 10
80.503431532741999
 20
-31.210433382192551
 30
0.0
  0
POINT
  5
105B
  8
DEFPOINTS
 62
     0
 10
103.140894317047
 20
-31.210433382192551
 30
0.0
  0
ENDBLK
  5
F7F
  8
0
  0
BLOCK
  8
0
  2
*D4
 70
     1
 10
0.0
 20
0.0
 30
0.0
  3
*D4
  1

  0
LINE
  5
105C
  8
2
 62
     0
 10
103.7658943170469
 20
-31.210433382192551
 30
0.0
 11
104.390894317047
 21
-31.210433382192551
 31
0.0
  0
LINE
  5
105D
  8
2
 62
     0
 10
77.413951532741891
 20
-46.210433382192541
 30
0.0
 11
104.390894317047
 21
-46.210433382192548
 31
0.0
  0
LINE
  5
105E
  8
2
 62
     0
 10
103.140894317047
 20
-33.710433382192548
 30
0.0
 11
103.140894317047
 21
-43.710433382192548
 31
0.0
  0
SOLID
  5
105F
  8
2
 62
     0
 10
102.7242276503803
 20
-33.710433382192548
 30
0.0
 11
103.5575609837136
 21
-33.710433382192548
 31
0.0
 12
103.140894317047
 22
-31.210433382192551
 32
0.0
 13
103.140894317047
 23
-31.210433382192551
 33
0.0
  0
SOLID
  5
1060
  8
2
 62
     0
 10
102.7242276503803
 20
-43.710433382192548
 30
0.0
 11
103.5575609837136
 21
-43.710433382192548
 31
0.0
 12
103.140894317047
 22
-46.210433382192548
 32
0.0
 13
103.140894317047
 23
-46.210433382192548
 33
0.0
  0
TEXT
  5
1061
  8
2
 62
     0
 10
102.515894317047
 20
-40.377100048859198
 30
0.0
 40
2.5
  1
15
 50
90.0
  0
POINT
  5
1062
  8
DEFPOINTS
 62
     0
 10
103.140894317047
 20
-31.210433382192551
 30
0.0
  0
POINT
  5
1063
  8
DEFPOINTS
 62
     0
 10
76.788951532741891
 20
-46.210433382192541
 30
0.0
  0
POINT
  5
1064
  8
DEFPOINTS
 62
     0
 10
103.140894317047
 20
-46.210433382192548
 30
0.0
  0
ENDBLK
  5
F95
  8
0
  0
BLOCK
  8
0
  2
*D5
 70
     1
 10
0.0
 20
0.0
 30
0.0
  3
*D5
  1

  0
LINE
  5
104A
  8
2
 62
     0
 10
102.5158943170469
 20
-46.210433382192548
 30
0.0
 11
101.890894317047
 21
-46.210433382192548
 31
0.0
  0
LINE
  5
104B
  8
2
 62
     0
 10
74.042727927953564
 20
-56.210433382192548
 30
0.0
 11
104.390894317047
 21
-56.210433382192548
 31
0.0
  0
LINE
  5
104C
  8
2
 62
     0
 10
103.140894317047
 20
-48.710433382192548
 30
0.0
 11
103.140894317047
 21
-53.710433382192548
 31
0.0
  0
SOLID
  5
104D
  8
2
 62
     0
 10
102.7242276503803
 20
-48.710433382192548
 30
0.0
 11
103.5575609837136
 21
-48.710433382192548
 31
0.0
 12
103.140894317047
 22
-46.210433382192548
 32
0.0
 13
103.140894317047
 23
-46.210433382192548
 33
0.0
  0
SOLID
  5
104E
  8
2
 62
     0
 10
102.7242276503803
 20
-53.710433382192548
 30
0.0
 11
103.5575609837136
 21
-53.710433382192548
 31
0.0
 12
103.140894317047
 22
-56.210433382192548
 32
0.0
 13
103.140894317047
 23
-56.210433382192548
 33
0.0
  0
TEXT
  5
104F
  8
2
 62
     0
 10
102.515894317047
 20
-52.668766715525869
 30
0.0
 40
2.5
  1
10
 50
90.0
  0
POINT
  5
1050
  8
DEFPOINTS
 62
     0
 10
103.140894317047
 20
-46.210433382192548
 30
0.0
  0
POINT
  5
1051
  8
DEFPOINTS
 62
     0
 10
73.417727927953564
 20
-56.210433382192548
 30
0.0
  0
POINT
  5
1052
  8
DEFPOINTS
 62
     0
 10
103.140894317047
 20
-56.210433382192548
 30
0.0
  0
ENDBLK
  5
FA2
  8
0
  0
BLOCK
  8
0
  2
*D6
 70
     1
 10
0.0
 20
0.0
 30
0.0
  3
*D6
  1

  0
LINE
  5
1041
  8
2
 62
     0
 10
103.765894317047
 20
105.7895666178074
 30
0.0
 11
114.3862967160903
 21
105.7895666178074
 31
0.0
  0
LINE
  5
1042
  8
2
 62
     0
 10
105.015894317047
 20
-56.210433382192562
 30
0.0
 11
114.3862967160903
 21
-56.210433382192569
 31
0.0
  0
LINE
  5
1043
  8
2
 62
     0
 10
113.1362967160903
 20
103.2895666178074
 30
0.0
 11
113.1362967160903
 21
-53.710433382192569
 31
0.0
  0
SOLID
  5
1044
  8
2
 62
     0
 10
112.7196300494236
 20
103.2895666178074
 30
0.0
 11
113.552963382757
 21
103.2895666178074
 31
0.0
 12
113.1362967160903
 22
105.7895666178074
 32
0.0
 13
113.1362967160903
 23
105.7895666178074
 33
0.0
  0
SOLID
  5
1045
  8
2
 62
     0
 10
112.7196300494236
 20
-53.710433382192569
 30
0.0
 11
113.5529633827569
 21
-53.710433382192569
 31
0.0
 12
113.1362967160903
 22
-56.210433382192569
 32
0.0
 13
113.1362967160903
 23
-56.210433382192569
 33
0.0
  0
TEXT
  5
1046
  8
2
 62
     0
 10
112.5112967160903
 20
20.20623328447412
 30
0.0
 40
2.5
  1
(162)
 50
90.0
  0
POINT
  5
1047
  8
DEFPOINTS
 62
     0
 10
103.140894317047
 20
105.7895666178074
 30
0.0
  0
POINT
  5
1048
  8
DEFPOINTS
 62
     0
 10
104.390894317047
 20
-56.210433382192562
 30
0.0
  0
POINT
  5
1049
  8
DEFPOINTS
 62
     0
 10
113.1362967160903
 20
-56.210433382192569
 30
0.0
  0
ENDBLK
  5
FB0
  8
0
  0
BLOCK
  8
0
  2
*D7
 70
     1
 10
0.0
 20
0.0
 30
0.0
  3
*D7
  1

  0
LINE
  5
102B
  8
2
 62
     0
 10
62.277071532741957
 20
33.789566617807452
 30
0.0
 11
42.766177285850752
 21
33.789566617807459
 31
0.0
  0
LINE
  5
102C
  8
2
 62
     0
 10
52.211303929931312
 20
-16.210433382192541
 30
0.0
 11
42.766177285850738
 21
-16.210433382192541
 31
0.0
  0
LINE
  5
102D
  8
2
 62
     0
 10
44.016177285850752
 20
31.289566617807449
 30
0.0
 11
44.016177285850752
 21
-13.710433382192541
 31
0.0
  0
SOLID
  5
102E
  8
2
 62
     0
 10
43.599510619184088
 20
31.289566617807449
 30
0.0
 11
44.432843952517423
 21
31.289566617807449
 31
0.0
 12
44.016177285850752
 22
33.789566617807459
 32
0.0
 13
44.016177285850752
 23
33.789566617807459
 33
0.0
  0
SOLID
  5
102F
  8
2
 62
     0
 10
43.59951061918408
 20
-13.710433382192541
 30
0.0
 11
44.432843952517409
 21
-13.710433382192541
 31
0.0
 12
44.016177285850738
 22
-16.210433382192541
 32
0.0
 13
44.016177285850738
 23
-16.210433382192541
 33
0.0
  0
TEXT
  5
1030
  8
2
 62
     0
 10
43.391177285850752
 20
6.9145666178074618
 30
0.0
 40
2.5
  1
50
 50
90.0
  0
POINT
  5
1031
  8
DEFPOINTS
 62
     0
 10
62.902071532741957
 20
33.789566617807452
 30
0.0
  0
POINT
  5
1032
  8
DEFPOINTS
 62
     0
 10
52.836303929931312
 20
-16.210433382192541
 30
0.0
  0
POINT
  5
1033
  8
DEFPOINTS
 62
     0
 10
44.016177285850738
 20
-16.210433382192541
 30
0.0
  0
ENDBLK
  5
FCD
  8
0
  0
BLOCK
  8
0
  2
*D8
 70
     1
 10
0.0
 20
0.0
 30
0.0
  3
*D8
  1

  0
LINE
  5
FF7
  8
2
 62
     0
 10
67.889271532741972
 20
106.4145666178074
 30
0.0
 11
67.889271532741972
 21
115.3301717980079
 31
0.0
  0
LINE
  5
FF8
  8
2
 62
     0
 10
73.889271532741972
 20
106.4145666178074
 30
0.0
 11
73.889271532741972
 21
115.3301717980079
 31
0.0
  0
LINE
  5
FF9
  8
2
 62
     0
 10
65.389271532741972
 20
114.080171798008
 30
0.0
 11
62.889271532741972
 21
114.080171798008
 31
0.0
  0
LINE
  5
FFA
  8
2
 62
     0
 10
76.389271532741972
 20
114.080171798008
 30
0.0
 11
78.889271532741972
 21
114.080171798008
 31
0.0
  0
LINE
  5
FFB
  8
2
 62
     0
 10
67.889271532741972
 20
114.080171798008
 30
0.0
 11
73.889271532741972
 21
114.080171798008
 31
0.0
  0
SOLID
  5
FFC
  8
2
 62
     0
 10
65.389271532741972
 20
114.4968384646746
 30
0.0
 11
65.389271532741972
 21
113.6635051313413
 31
0.0
 12
67.889271532741972
 22
114.080171798008
 32
0.0
 13
67.889271532741972
 23
114.080171798008
 33
0.0
  0
SOLID
  5
FFD
  8
2
 62
     0
 10
76.389271532741972
 20
114.4968384646746
 30
0.0
 11
76.389271532741972
 21
113.6635051313413
 31
0.0
 12
73.889271532741972
 22
114.080171798008
 32
0.0
 13
73.889271532741972
 23
114.080171798008
 33
0.0
  0
INSERT
  5
FFE
  8
2
  2
*U9
 10
0.0
 20
0.0
 30
0.0
  0
POINT
  5
FFF
  8
DEFPOINTS
 62
     0
 10
67.889271532741972
 20
105.7895666178074
 30
0.0
  0
POINT
  5
1000
  8
DEFPOINTS
 62
     0
 10
73.889271532741972
 20
105.7895666178074
 30
0.0
  0
POINT
  5
1001
  8
DEFPOINTS
 62
     0
 10
73.889271532741972
 20
114.080171798008
 30
0.0
  0
ENDBLK
  5
FF6
  8
0
  0
BLOCK
  8
0
  2
*U9
 70
     1
 10
0.0
 20
0.0
 30
0.0
  3
*U9
  1

  0
TEXT
  5
10EC
  8
2
 62
     0
 10
68.805938199408644
 20
114.7051717980079
 30
0.0
 40
2.5
  1
\U+2205
  0
TEXT
  5
10ED
  8
2
 62
     0
 10
71.305938199408644
 20
114.7051717980079
 30
0.0
 40
2.5
  1
6
  0
ENDBLK
  5
10EF
  8
0
  0
ENDSEC
  0
SECTION
  2
ENTITIES
  0
TEXT
  5
65D
  8
2
 10
65.643122524398905
 20
-74.157185079702117
 30
0.0
 40
2.5399440000000002
  1
50.109
 51
-0.0000015352344868
  7
\U+00C9L\U+00C9R_\U+00C2S\U+00C2V\U+00C2B\U+00C2N
  0
LINE
  5
C24
  8
1
 10
70.889271532741972
 20
-58.349393382192567
 30
0.0
 11
70.889271532741972
 21
108.1895666178074
 31
0.0
  0
POLYLINE
  5
D72
  8
2
 62
     0
 66
     1
 10
0.0
 20
0.0
 30
0.0
 39
60.0
  0
VERTEX
  5
10D3
  8
2
 62
     0
 10
62.536071532742
 20
38.977406617807461
 30
0.0
  0
VERTEX
  5
10D4
  8
2
 62
     0
 10
62.536071532742
 20
34.081427679072092
 30
0.0
  0
SEQEND
  5
10D5
  8
2
 62
     0
  0
POLYLINE
  5
D73
  8
2
 62
     0
 66
     1
 10
0.0
 20
0.0
 30
0.0
 39
60.0
  0
VERTEX
  5
10D6
  8
2
 62
     0
 10
62.536071532742
 20
58.484606617807472
 30
0.0
  0
VERTEX
  5
10D7
  8
2
 62
     0
 10
62.536071532742
 20
46.353566617807452
 30
0.0
  0
SEQEND
  5
10D8
  8
2
 62
     0
  0
POLYLINE
  5
D74
  8
2
 62
     0
 66
     1
 10
0.0
 20
0.0
 30
0.0
 39
60.0
  0
VERTEX
  5
10D9
  8
2
 62
     0
 10
62.536071532742
 20
73.294069042154419
 30
0.0
  0
VERTEX
  5
10DA
  8
2
 62
     0
 10
62.536071532742
 20
65.860766617807457
 30
0.0
  0
SEQEND
  5
10DB
  8
2
 62
     0
  0
LINE
  5
D75
  8
0
 62
     0
 39
12.0
 10
66.77375153274194
 20
-46.210433382192541
 30
0.0
 11
66.77375153274194
 21
-54.525953382192569
 31
0.0
  0
LINE
  5
D77
  8
0
 62
     0
 39
12.0
 10
66.77375153274194
 20
-54.525953382192569
 30
0.0
 11
68.360815137530381
 21
-56.210433382192548
 31
0.0
  0
LINE
  5
D7A
  8
0
 62
     0
 39
12.0
 10
70.889271532741972
 20
-46.210433382192541
 30
0.0
 11
64.989591532741926
 21
-46.210433382192541
 31
0.0
  0
LINE
  5
D7B
  8
0
 62
     0
 39
12.0
 10
61.275111532741953
 20
-31.210433382192551
 30
0.0
 11
61.275111532741953
 21
-33.265793382192548
 31
0.0
  0
LINE
  5
D7C
  8
0
 62
     0
 39
12.0
 10
70.889271532741972
 20
-31.210433382192551
 30
0.0
 11
61.275111532741953
 21
-31.210433382192551
 31
0.0
  0
LINE
  5
D7D
  8
0
 62
     0
 39
12.0
 10
66.636471532741965
 20
-31.210433382192559
 30
0.0
 11
66.636471532741965
 21
33.789566617807452
 31
0.0
  0
LINE
  5
D7E
  8
0
 62
     0
 39
12.0
 10
66.636471532741965
 20
33.789566617807452
 30
0.0
 11
62.902071532741957
 21
33.789566617807452
 31
0.0
  0
LINE
  5
D80
  8
0
 62
     0
 39
12.0
 10
70.889271532741972
 20
58.484606617807472
 30
0.0
 11
58.756551532741959
 21
58.484606617807472
 31
0.0
  0
LINE
  5
D81
  8
0
 62
     0
 39
12.0
 10
51.258471532741972
 20
65.860766617807457
 30
0.0
 11
70.889271532741972
 21
65.860766617807457
 31
0.0
  0
LINE
  5
D82
  8
0
 62
     0
 39
12.0
 10
51.258471532741972
 20
61.105886617807492
 30
0.0
 11
51.258471532741972
 21
65.860766617807457
 31
0.0
  0
LINE
  5
D83
  8
0
 62
     0
 39
12.0
 10
58.756551532741959
 20
58.484606617807472
 30
0.0
 11
51.258471532741972
 21
61.105886617807492
 31
0.0
  0
LINE
  5
D85
  8
0
 62
     0
 39
12.0
 10
63.02375153274194
 20
75.187646617807459
 30
0.0
 11
63.02375153274194
 21
73.789566617807466
 31
0.0
  0
LINE
  5
D86
  8
0
 62
     0
 39
12.0
 10
65.757661856509287
 20
89.699869270466337
 30
0.0
 11
65.563582914522826
 21
89.75708661780746
 31
0.0
  0
LINE
  5
D87
  8
0
 62
     0
 39
12.0
 10
65.900221856509276
 20
89.6475492704663
 30
0.0
 11
65.757661856509287
 21
89.699869270466337
 31
0.0
  0
LINE
  5
D88
  8
0
 62
     0
 39
12.0
 10
66.02526185650926
 20
89.589709270466344
 30
0.0
 11
65.900221856509276
 21
89.6475492704663
 31
0.0
  0
LINE
  5
D89
  8
0
 62
     0
 39
12.0
 10
66.133021856509302
 20
89.526349270466284
 30
0.0
 11
66.02526185650926
 21
89.589709270466344
 31
0.0
  0
LINE
  5
D8A
  8
0
 62
     0
 39
12.0
 10
66.2254218565093
 20
89.456269270466322
 30
0.0
 11
66.133021856509302
 21
89.526349270466284
 31
0.0
  0
LINE
  5
D8B
  8
0
 62
     0
 39
12.0
 10
66.303181856509283
 20
89.379469270466288
 30
0.0
 11
66.2254218565093
 21
89.456269270466322
 31
0.0
  0
LINE
  5
D8C
  8
0
 62
     0
 39
12.0
 10
66.367261856509302
 20
89.295229270466308
 30
0.0
 11
66.303181856509283
 21
89.379469270466288
 31
0.0
  0
LINE
  5
D8D
  8
0
 62
     0
 39
12.0
 10
66.41862185650929
 20
89.203309270466335
 30
0.0
 11
66.367261856509302
 21
89.295229270466308
 31
0.0
  0
LINE
  5
D8E
  8
0
 62
     0
 39
12.0
 10
66.459181856509275
 20
89.102509270466314
 30
0.0
 11
66.41862185650929
 21
89.203309270466335
 31
0.0
  0
LINE
  5
D8F
  8
0
 62
     0
 39
12.0
 10
66.488941856509271
 20
88.992829270466316
 30
0.0
 11
66.459181856509275
 21
89.102509270466314
 31
0.0
  0
LINE
  5
D90
  8
0
 62
     0
 39
12.0
 10
66.509581856509286
 20
88.873309270466308
 30
0.0
 11
66.488941856509271
 21
88.992829270466316
 31
0.0
  0
LINE
  5
D91
  8
0
 62
     0
 39
12.0
 10
66.5215818565093
 20
88.744189270466308
 30
0.0
 11
66.509581856509286
 21
88.873309270466308
 31
0.0
  0
LINE
  5
D92
  8
0
 62
     0
 39
12.0
 10
66.526861856509271
 20
88.604029270466313
 30
0.0
 11
66.5215818565093
 21
88.744189270466308
 31
0.0
  0
LINE
  5
D93
  8
0
 62
     0
 39
12.0
 10
66.525901856509279
 20
88.453069270466315
 30
0.0
 11
66.526861856509271
 21
88.604029270466313
 31
0.0
  0
LINE
  5
D94
  8
0
 62
     0
 39
12.0
 10
66.520141856509284
 20
88.290109270466331
 30
0.0
 11
66.525901856509279
 21
88.453069270466315
 31
0.0
  0
LINE
  5
D95
  8
0
 62
     0
 39
12.0
 10
66.510061856509267
 20
88.115389270466309
 30
0.0
 11
66.520141856509284
 21
88.290109270466331
 31
0.0
  0
LINE
  5
D96
  8
0
 62
     0
 39
12.0
 10
66.510061856509267
 20
88.115389270466309
 30
0.0
 11
66.510061856509267
 21
88.115389270466309
 31
0.0
  0
LINE
  5
D97
  8
0
 62
     0
 39
12.0
 10
66.510061856509267
 20
75.187646617807488
 30
0.0
 11
66.510061856509267
 21
88.115389270466309
 31
0.0
  0
LINE
  5
D9B
  8
0
 62
     0
 39
12.0
 10
61.011661856509271
 20
88.537309270466324
 30
0.0
 11
60.889271532741972
 21
87.907873319662883
 31
0.0
  0
LINE
  5
D9C
  8
0
 62
     0
 39
12.0
 10
61.060141856509269
 20
88.70170927046631
 30
0.0
 11
61.011661856509271
 21
88.537309270466324
 31
0.0
  0
LINE
  5
D9D
  8
0
 62
     0
 39
12.0
 10
61.122541856509258
 20
88.856029270466308
 30
0.0
 11
61.060141856509269
 21
88.70170927046631
 31
0.0
  0
LINE
  5
D9E
  8
0
 62
     0
 39
12.0
 10
61.196461856509259
 20
89.00050927046631
 30
0.0
 11
61.122541856509258
 21
88.856029270466308
 31
0.0
  0
LINE
  5
D9F
  8
0
 62
     0
 39
12.0
 10
61.281181856509278
 20
89.133949270466289
 30
0.0
 11
61.196461856509259
 21
89.00050927046631
 31
0.0
  0
LINE
  5
DA0
  8
0
 62
     0
 39
12.0
 10
61.374301856509312
 20
89.256349270466302
 30
0.0
 11
61.281181856509278
 21
89.133949270466289
 31
0.0
  0
LINE
  5
DA1
  8
0
 62
     0
 39
12.0
 10
61.474861856509293
 20
89.366029270466299
 30
0.0
 11
61.374301856509312
 21
89.256349270466302
 31
0.0
  0
LINE
  5
DA2
  8
0
 62
     0
 39
12.0
 10
61.58094185650927
 20
89.463469270466334
 30
0.0
 11
61.474861856509293
 21
89.366029270466299
 31
0.0
  0
LINE
  5
DA3
  8
0
 62
     0
 39
12.0
 10
61.691101856509277
 20
89.547469270466337
 30
0.0
 11
61.58094185650927
 21
89.463469270466334
 31
0.0
  0
LINE
  5
DA4
  8
0
 62
     0
 39
12.0
 10
61.802941856509278
 20
89.618029270466309
 30
0.0
 11
61.691101856509277
 21
89.547469270466337
 31
0.0
  0
LINE
  5
DA5
  8
0
 62
     0
 39
12.0
 10
61.916221856509281
 20
89.673469270466313
 30
0.0
 11
61.802941856509278
 21
89.618029270466309
 31
0.0
  0
LINE
  5
DA6
  8
0
 62
     0
 39
12.0
 10
62.02830185650928
 20
89.714269270466303
 30
0.0
 11
61.916221856509281
 21
89.673469270466313
 31
0.0
  0
LINE
  5
DA7
  8
0
 62
     0
 39
12.0
 10
62.137981856509278
 20
89.738989270466305
 30
0.0
 11
62.02830185650928
 21
89.714269270466303
 31
0.0
  0
LINE
  5
DA8
  8
0
 62
     0
 39
12.0
 10
62.357663545066828
 20
89.75708661780746
 30
0.0
 11
62.137981856509278
 21
89.738989270466305
 31
0.0
  0
LINE
  5
DA9
  8
0
 62
     0
 39
12.0
 10
62.242861856509279
 20
89.747629270466305
 30
0.0
 11
62.242861856509279
 21
89.747629270466305
 31
0.0
  0
LINE
  5
DAB
  8
0
 62
     0
 39
12.0
 10
66.578871532741957
 20
88.370606617807454
 30
0.0
 11
66.510061856509267
 21
87.452294765860699
 31
0.0
  0
LINE
  5
DAC
  8
0
 62
     0
 39
12.0
 10
66.633111532741964
 20
88.601726617807472
 30
0.0
 11
66.578871532741957
 21
88.370606617807454
 31
0.0
  0
LINE
  5
DAD
  8
0
 62
     0
 39
12.0
 10
66.717351532741986
 20
88.805966617807456
 30
0.0
 11
66.633111532741964
 21
88.601726617807472
 31
0.0
  0
LINE
  5
DAE
  8
0
 62
     0
 39
12.0
 10
66.826311532741983
 20
88.985246617807476
 30
0.0
 11
66.717351532741986
 21
88.805966617807456
 31
0.0
  0
LINE
  5
DAF
  8
0
 62
     0
 39
12.0
 10
66.955671532741988
 20
89.140526617807495
 30
0.0
 11
66.826311532741983
 21
88.985246617807476
 31
0.0
  0
LINE
  5
DB0
  8
0
 62
     0
 39
12.0
 10
67.099671532741993
 20
89.274446617807456
 30
0.0
 11
66.955671532741988
 21
89.140526617807495
 31
0.0
  0
LINE
  5
DB1
  8
0
 62
     0
 39
12.0
 10
67.253991532741992
 20
89.387726617807473
 30
0.0
 11
67.099671532741993
 21
89.274446617807456
 31
0.0
  0
LINE
  5
DB2
  8
0
 62
     0
 39
12.0
 10
67.412871532741946
 20
89.482526617807466
 30
0.0
 11
67.253991532741992
 21
89.387726617807473
 31
0.0
  0
LINE
  5
DB3
  8
0
 62
     0
 39
12.0
 10
67.572471532742
 20
89.559806617807453
 30
0.0
 11
67.412871532741946
 21
89.482526617807466
 31
0.0
  0
LINE
  5
DB4
  8
0
 62
     0
 39
12.0
 10
67.726551532741993
 20
89.621726617807454
 30
0.0
 11
67.572471532742
 21
89.559806617807453
 31
0.0
  0
LINE
  5
DB5
  8
0
 62
     0
 39
12.0
 10
67.870791532741976
 20
89.669486617807465
 30
0.0
 11
67.726551532741993
 21
89.621726617807454
 31
0.0
  0
LINE
  5
DB6
  8
0
 62
     0
 39
12.0
 10
67.999671532741985
 20
89.70548661780748
 30
0.0
 11
67.870791532741976
 21
89.669486617807465
 31
0.0
  0
LINE
  5
DB7
  8
0
 62
     0
 39
12.0
 10
68.109111532741963
 20
89.730206617807497
 30
0.0
 11
67.999671532741985
 21
89.70548661780748
 31
0.0
  0
LINE
  5
DB8
  8
0
 62
     0
 39
12.0
 10
68.193111532741966
 20
89.746286617807456
 30
0.0
 11
68.109111532741963
 21
89.730206617807497
 31
0.0
  0
LINE
  5
DB9
  8
0
 62
     0
 39
12.0
 10
68.247351532741959
 20
89.754446617807474
 30
0.0
 11
68.193111532741966
 21
89.746286617807456
 31
0.0
  0
LINE
  5
DBA
  8
0
 62
     0
 39
12.0
 10
68.266311532741966
 20
89.75708661780746
 30
0.0
 11
68.247351532741959
 21
89.754446617807474
 31
0.0
  0
LINE
  5
DBB
  8
0
 62
     0
 39
12.0
 10
68.266311532741966
 20
89.75708661780746
 30
0.0
 11
68.266311532741966
 21
89.75708661780746
 31
0.0
  0
LINE
  5
DBC
  8
0
 62
     0
 39
12.0
 10
65.052711532741981
 20
89.75708661780746
 30
0.0
 11
70.889271532741972
 21
89.75708661780746
 31
0.0
  0
LINE
  5
DBD
  8
0
 62
     0
 39
12.0
 10
65.052711532741981
 20
91.204286617807469
 30
0.0
 11
65.052711532741981
 21
89.75708661780746
 31
0.0
  0
LINE
  5
DBE
  8
0
 62
     0
 39
12.0
 10
70.889271532741972
 20
101.8881266178074
 30
0.0
 11
65.709831532741958
 21
101.8881266178074
 31
0.0
  0
LINE
  5
DBF
  8
0
 62
     0
 39
12.0
 10
64.429671532741963
 20
91.204286617807469
 30
0.0
 11
70.889271532741972
 21
91.204286617807469
 31
0.0
  0
LINE
  5
DC0
  8
0
 62
     0
 39
12.0
 10
64.463271532741985
 20
100.9070066178074
 30
0.0
 11
64.429671532741963
 21
100.7733266178074
 31
0.0
  0
LINE
  5
DC1
  8
0
 62
     0
 39
12.0
 10
64.495191532741956
 20
101.03060661780739
 30
0.0
 11
64.463271532741985
 21
100.9070066178074
 31
0.0
  0
LINE
  5
DC2
  8
0
 62
     0
 39
12.0
 10
64.527591532741965
 20
101.1438866178074
 30
0.0
 11
64.495191532741956
 21
101.03060661780739
 31
0.0
  0
LINE
  5
DC3
  8
0
 62
     0
 39
12.0
 10
64.561431532741963
 20
101.2478066178074
 30
0.0
 11
64.527591532741965
 21
101.1438866178074
 31
0.0
  0
LINE
  5
DC4
  8
0
 62
     0
 39
12.0
 10
64.599351532741963
 20
101.34212661780739
 30
0.0
 11
64.561431532741963
 21
101.2478066178074
 31
0.0
  0
LINE
  5
DC5
  8
0
 62
     0
 39
12.0
 10
64.64207153274198
 20
101.42780661780741
 30
0.0
 11
64.599351532741963
 21
101.34212661780739
 31
0.0
  0
LINE
  5
DC6
  8
0
 62
     0
 39
12.0
 10
64.691991532741966
 20
101.5048466178074
 30
0.0
 11
64.64207153274198
 21
101.42780661780741
 31
0.0
  0
LINE
  5
DC7
  8
0
 62
     0
 39
12.0
 10
64.74983153274195
 20
101.5744466178074
 30
0.0
 11
64.691991532741966
 21
101.5048466178074
 31
0.0
  0
LINE
  5
DC8
  8
0
 62
     0
 39
12.0
 10
64.818471532741981
 20
101.6356466178074
 30
0.0
 11
64.74983153274195
 21
101.5744466178074
 31
0.0
  0
LINE
  5
DC9
  8
0
 62
     0
 39
12.0
 10
64.897911532741958
 20
101.69012661780739
 30
0.0
 11
64.818471532741981
 21
101.6356466178074
 31
0.0
  0
LINE
  5
DCA
  8
0
 62
     0
 39
12.0
 10
64.991031532741971
 20
101.7376466178074
 30
0.0
 11
64.897911532741958
 21
101.69012661780739
 31
0.0
  0
LINE
  5
DCB
  8
0
 62
     0
 39
12.0
 10
65.098551532741965
 20
101.7789266178074
 30
0.0
 11
64.991031532741971
 21
101.7376466178074
 31
0.0
  0
LINE
  5
DCC
  8
0
 62
     0
 39
12.0
 10
65.223111532741967
 20
101.8139666178074
 30
0.0
 11
65.098551532741965
 21
101.7789266178074
 31
0.0
  0
LINE
  5
DCD
  8
0
 62
     0
 39
12.0
 10
65.365191532741974
 20
101.84372661780741
 30
0.0
 11
65.223111532741967
 21
101.8139666178074
 31
0.0
  0
LINE
  5
DCE
  8
0
 62
     0
 39
12.0
 10
65.526951532741961
 20
101.8679666178074
 30
0.0
 11
65.365191532741974
 21
101.84372661780741
 31
0.0
  0
LINE
  5
DCF
  8
0
 62
     0
 39
12.0
 10
65.709831532741958
 20
101.8881266178074
 30
0.0
 11
65.526951532741961
 21
101.8679666178074
 31
0.0
  0
LINE
  5
DD0
  8
0
 62
     0
 39
12.0
 10
65.709831532741958
 20
101.8881266178074
 30
0.0
 11
65.709831532741958
 21
101.8881266178074
 31
0.0
  0
LINE
  5
DD2
  8
0
 62
     0
 39
12.0
 10
70.889271532741972
 20
105.7895666178074
 30
0.0
 11
67.889271532741972
 21
105.7895666178074
 31
0.0
  0
POLYLINE
  5
DD5
  8
0
 62
     0
 66
     1
 10
0.0
 20
0.0
 30
0.0
 39
12.0
  0
VERTEX
  5
10DC
  8
0
 62
     0
 10
67.889271532741972
 20
43.732286617807468
 30
0.0
  0
VERTEX
  5
10DD
  8
0
 62
     0
 10
51.258471532741972
 20
43.732286617807468
 30
0.0
  0
SEQEND
  5
10DE
  8
0
 62
     0
  0
LINE
  5
DD6
  8
0
 62
     0
 10
67.889271532741972
 20
61.105886617807478
 30
0.0
 11
51.258471532741972
 21
61.105886617807492
 31
0.0
  0
LINE
  5
DD7
  8
1
 10
65.302071532741962
 20
-31.210433382192551
 30
0.0
 11
64.102071532741959
 21
33.789566617807452
 31
0.0
  0
LINE
  5
DD8
  8
1
 10
65.302071532741962
 20
33.789566617807452
 30
0.0
 11
64.102071532741959
 21
-31.210433382192551
 31
0.0
  0
LINE
  5
DD9
  8
1
 10
64.102071532741959
 20
33.789566617807452
 30
0.0
 11
64.102071532741959
 21
-31.210433382192551
 31
0.0
  0
LINE
  5
DDA
  8
1
 10
65.302071532741962
 20
33.789566617807452
 30
0.0
 11
65.302071532741962
 21
-31.210433382192551
 31
0.0
  0
LINE
  5
DDB
  8
2
 62
     0
 10
67.493751532741925
 20
-46.210433382192541
 30
0.0
 11
67.493751532741925
 21
-55.290148085127377
 31
0.0
  0
LINE
  5
DDC
  8
0
 62
     0
 10
66.77375153274194
 20
-54.525953382192569
 30
0.0
 11
70.889271532741972
 21
-54.525953382192569
 31
0.0
  0
LINE
  5
DDD
  8
0
 62
     0
 10
61.275111532741953
 20
-33.265793382192548
 30
0.0
 11
68.110551532741979
 21
-33.265793382192548
 31
0.0
  0
LINE
  5
DDE
  8
0
 62
     0
 10
64.429671532741963
 20
100.7733266178074
 30
0.0
 11
64.429671532741963
 21
91.204286617807469
 31
0.0
  0
LINE
  5
DDF
  8
0
 62
     0
 10
60.889271532741979
 20
35.394642967844369
 30
0.0
 11
62.902071532741957
 21
33.789566617807452
 31
0.0
  0
LINE
  5
DE1
  8
0
 62
     0
 10
66.636471532741965
 20
33.789566617807452
 30
0.0
 11
70.889271532741972
 21
33.789566617807452
 31
0.0
  0
LINE
  5
DE4
  8
0
 62
     0
 10
60.889271532741972
 20
75.187646617807459
 30
0.0
 11
70.889271532741972
 21
75.187646617807459
 31
0.0
  0
LINE
  5
DE6
  8
0
 62
     0
 10
70.889271532741972
 20
89.75708661780746
 30
0.0
 11
62.357663545066828
 21
89.75708661780746
 31
0.0
  0
LINE
  5
DF7
  8
0
 62
     0
 39
12.0
 10
70.889271532741972
 20
46.353566617807452
 30
0.0
 11
58.756551532741959
 21
46.353566617807452
 31
0.0
  0
LINE
  5
DF8
  8
0
 62
     0
 39
12.0
 10
58.756551532741959
 20
46.353566617807452
 30
0.0
 11
51.258471532741972
 21
43.732286617807468
 31
0.0
  0
LINE
  5
DF9
  8
0
 62
     0
 39
12.0
 10
51.258471532741972
 20
43.732286617807468
 30
0.0
 11
51.258471532741972
 21
38.977406617807468
 31
0.0
  0
LINE
  5
DFA
  8
0
 62
     0
 39
12.0
 10
51.258471532741972
 20
38.977406617807468
 30
0.0
 11
70.889271532741972
 21
38.977406617807468
 31
0.0
  0
LINE
  5
DFE
  8
0
 62
     0
 39
12.0
 10
64.989591532741926
 20
-46.210433382192541
 30
0.0
 11
64.989591532741926
 21
-46.210433382192541
 31
0.0
  0
LINE
  5
DFF
  8
0
 62
     0
 39
12.0
 10
64.989591532741926
 20
-46.210433382192541
 30
0.0
 11
64.830471532741896
 21
-46.200353382192553
 31
0.0
  0
LINE
  5
E00
  8
0
 62
     0
 39
12.0
 10
64.830471532741896
 20
-46.200353382192553
 30
0.0
 11
64.675911532741921
 21
-46.169633382192558
 31
0.0
  0
LINE
  5
E01
  8
0
 62
     0
 39
12.0
 10
64.675911532741921
 20
-46.169633382192558
 30
0.0
 11
64.526391532741897
 21
-46.120193382192546
 31
0.0
  0
LINE
  5
E02
  8
0
 62
     0
 39
12.0
 10
64.526391532741897
 20
-46.120193382192546
 30
0.0
 11
64.383351532741926
 21
-46.052033382192569
 31
0.0
  0
LINE
  5
E03
  8
0
 62
     0
 39
12.0
 10
64.383351532741926
 20
-46.052033382192569
 30
0.0
 11
64.246791532741923
 21
-45.967313382192572
 31
0.0
  0
LINE
  5
E04
  8
0
 62
     0
 39
12.0
 10
64.246791532741923
 20
-45.967313382192572
 30
0.0
 11
64.118151532741919
 21
-45.866033382192569
 31
0.0
  0
LINE
  5
E05
  8
0
 62
     0
 39
12.0
 10
64.118151532741919
 20
-45.866033382192569
 30
0.0
 11
63.997911532741917
 21
-45.750113382192573
 31
0.0
  0
LINE
  5
E06
  8
0
 62
     0
 39
12.0
 10
63.997911532741917
 20
-45.750113382192573
 30
0.0
 11
63.887271532741892
 21
-45.619793382192569
 31
0.0
  0
LINE
  5
E07
  8
0
 62
     0
 39
12.0
 10
63.887271532741892
 20
-45.619793382192569
 30
0.0
 11
63.785991532741939
 21
-45.477233382192559
 31
0.0
  0
LINE
  5
E08
  8
0
 62
     0
 39
12.0
 10
63.785991532741939
 20
-45.477233382192559
 30
0.0
 11
63.696231532741898
 21
-45.32219338219258
 31
0.0
  0
LINE
  5
E09
  8
0
 62
     0
 39
12.0
 10
63.696231532741898
 20
-45.32219338219258
 30
0.0
 11
63.61775153274192
 21
-45.156593382192568
 31
0.0
  0
LINE
  5
E0A
  8
0
 62
     0
 39
12.0
 10
63.61775153274192
 20
-45.156593382192568
 30
0.0
 11
63.551991532741923
 21
-44.980433382192558
 31
0.0
  0
LINE
  5
E0B
  8
0
 62
     0
 39
12.0
 10
63.551991532741923
 20
-44.980433382192558
 30
0.0
 11
63.499191532741897
 21
-44.796113382192573
 31
0.0
  0
LINE
  5
E0C
  8
0
 62
     0
 39
12.0
 10
63.499191532741897
 20
-44.796113382192573
 30
0.0
 11
63.460791532741922
 21
-44.603633382192548
 31
0.0
  0
LINE
  5
E0D
  8
0
 62
     0
 39
12.0
 10
63.460791532741922
 20
-44.603633382192548
 30
0.0
 11
63.389271532741972
 21
-44.004021260980963
 31
0.0
  0
LINE
  5
E14
  8
0
 62
     0
 39
12.0
 10
63.389271532741972
 20
-35.066033382192302
 30
0.0
 11
63.551991532741923
 21
-34.496513382192539
 31
0.0
  0
LINE
  5
E15
  8
0
 62
     0
 39
12.0
 10
63.551991532741923
 20
-34.496513382192539
 30
0.0
 11
63.61775153274192
 21
-34.321073382192552
 31
0.0
  0
LINE
  5
E16
  8
0
 62
     0
 39
12.0
 10
63.61775153274192
 20
-34.321073382192552
 30
0.0
 11
63.696231532741898
 21
-34.154993382192544
 31
0.0
  0
LINE
  5
E17
  8
0
 62
     0
 39
12.0
 10
63.696231532741898
 20
-34.154993382192544
 30
0.0
 11
63.785991532741939
 21
-33.999953382192551
 31
0.0
  0
LINE
  5
E18
  8
0
 62
     0
 39
12.0
 10
63.785991532741939
 20
-33.999953382192551
 30
0.0
 11
63.887271532741892
 21
-33.856673382192547
 31
0.0
  0
LINE
  5
E19
  8
0
 62
     0
 39
12.0
 10
63.887271532741892
 20
-33.856673382192547
 30
0.0
 11
63.997911532741917
 21
-33.727073382192543
 31
0.0
  0
LINE
  5
E1A
  8
0
 62
     0
 39
12.0
 10
63.997911532741917
 20
-33.727073382192543
 30
0.0
 11
64.118151532741919
 21
-33.61091338219255
 31
0.0
  0
LINE
  5
E1B
  8
0
 62
     0
 39
12.0
 10
64.118151532741919
 20
-33.61091338219255
 30
0.0
 11
64.246791532741923
 21
-33.51011338219255
 31
0.0
  0
LINE
  5
E1C
  8
0
 62
     0
 39
12.0
 10
64.246791532741923
 20
-33.51011338219255
 30
0.0
 11
64.383351532741926
 21
-33.424673382192552
 31
0.0
  0
LINE
  5
E1D
  8
0
 62
     0
 39
12.0
 10
64.383351532741926
 20
-33.424673382192552
 30
0.0
 11
64.526391532741897
 21
-33.356993382192549
 31
0.0
  0
LINE
  5
E1E
  8
0
 62
     0
 39
12.0
 10
64.526391532741897
 20
-33.356993382192549
 30
0.0
 11
64.675911532741921
 21
-33.307073382192549
 31
0.0
  0
LINE
  5
E1F
  8
0
 62
     0
 39
12.0
 10
64.675911532741921
 20
-33.307073382192549
 30
0.0
 11
64.830471532741896
 21
-33.276353382192553
 31
0.0
  0
LINE
  5
E20
  8
0
 62
     0
 39
12.0
 10
64.830471532741896
 20
-33.276353382192553
 30
0.0
 11
64.989591532741926
 21
-33.265793382192548
 31
0.0
  0
LINE
  5
E21
  8
0
 62
     0
 39
12.0
 10
70.889271532741972
 20
-33.265793382192548
 30
0.0
 11
68.110551532741979
 21
-33.265793382192548
 31
0.0
  0
LINE
  5
E22
  8
0
 62
     0
 39
12.0
 10
68.110551532741979
 20
-33.265793382192548
 30
0.0
 11
68.110551532741979
 21
-33.265793382192548
 31
0.0
  0
LINE
  5
E23
  8
0
 62
     0
 39
12.0
 10
68.110551532741979
 20
-33.265793382192548
 30
0.0
 11
67.951911532741974
 21
-33.276353382192553
 31
0.0
  0
LINE
  5
E24
  8
0
 62
     0
 39
12.0
 10
67.951911532741974
 20
-33.276353382192553
 30
0.0
 11
67.797351532741956
 21
-33.307073382192549
 31
0.0
  0
LINE
  5
E25
  8
0
 62
     0
 39
12.0
 10
67.797351532741956
 20
-33.307073382192549
 30
0.0
 11
67.648311532741985
 21
-33.356993382192549
 31
0.0
  0
LINE
  5
E26
  8
0
 62
     0
 39
12.0
 10
67.648311532741985
 20
-33.356993382192549
 30
0.0
 11
67.504791532741962
 21
-33.424673382192552
 31
0.0
  0
LINE
  5
E27
  8
0
 62
     0
 39
12.0
 10
67.504791532741962
 20
-33.424673382192552
 30
0.0
 11
67.368711532741983
 21
-33.51011338219255
 31
0.0
  0
LINE
  5
E28
  8
0
 62
     0
 39
12.0
 10
67.368711532741983
 20
-33.51011338219255
 30
0.0
 11
67.240071532741979
 21
-33.61091338219255
 31
0.0
  0
LINE
  5
E29
  8
0
 62
     0
 39
12.0
 10
67.240071532741979
 20
-33.61091338219255
 30
0.0
 11
67.120071532741989
 21
-33.727073382192543
 31
0.0
  0
LINE
  5
E2A
  8
0
 62
     0
 39
12.0
 10
67.120071532741989
 20
-33.727073382192543
 30
0.0
 11
67.00871153274197
 21
-33.856673382192547
 31
0.0
  0
LINE
  5
E2B
  8
0
 62
     0
 39
12.0
 10
67.00871153274197
 20
-33.856673382192547
 30
0.0
 11
66.908151532741968
 21
-33.999953382192551
 31
0.0
  0
LINE
  5
E2C
  8
0
 62
     0
 39
12.0
 10
66.908151532741968
 20
-33.999953382192551
 30
0.0
 11
66.817911532741974
 21
-34.154993382192544
 31
0.0
  0
LINE
  5
E2D
  8
0
 62
     0
 39
12.0
 10
66.817911532741974
 20
-34.154993382192544
 30
0.0
 11
66.739671532741966
 21
-34.321073382192552
 31
0.0
  0
LINE
  5
E2E
  8
0
 62
     0
 39
12.0
 10
66.739671532741966
 20
-34.321073382192552
 30
0.0
 11
66.673431532741944
 21
-34.496513382192539
 31
0.0
  0
LINE
  5
E2F
  8
0
 62
     0
 39
12.0
 10
66.673431532741944
 20
-34.496513382192539
 30
0.0
 11
66.621111532741992
 21
-34.68131338219257
 31
0.0
  0
LINE
  5
E30
  8
0
 62
     0
 39
12.0
 10
66.621111532741992
 20
-34.68131338219257
 30
0.0
 11
66.582231532741972
 21
-34.873313382192549
 31
0.0
  0
LINE
  5
E31
  8
0
 62
     0
 39
12.0
 10
66.582231532741972
 20
-34.873313382192549
 30
0.0
 11
66.558471532741962
 21
-35.07251338219254
 31
0.0
  0
LINE
  5
E32
  8
0
 62
     0
 39
12.0
 10
66.558471532741962
 20
-35.07251338219254
 30
0.0
 11
66.550071532741953
 21
-35.276993382192551
 31
0.0
  0
LINE
  5
E33
  8
0
 62
     0
 39
12.0
 10
66.550071532741953
 20
-35.276993382192551
 30
0.0
 11
66.550071532741953
 21
-44.199233382192567
 31
0.0
  0
LINE
  5
E34
  8
0
 62
     0
 39
12.0
 10
66.550071532741953
 20
-44.199233382192567
 30
0.0
 11
66.550071532741953
 21
-44.199233382192567
 31
0.0
  0
LINE
  5
E35
  8
0
 62
     0
 39
12.0
 10
66.550071532741953
 20
-44.199233382192567
 30
0.0
 11
66.558471532741962
 21
-44.404433382192558
 31
0.0
  0
LINE
  5
E36
  8
0
 62
     0
 39
12.0
 10
66.558471532741962
 20
-44.404433382192558
 30
0.0
 11
66.582231532741972
 21
-44.603633382192548
 31
0.0
  0
LINE
  5
E37
  8
0
 62
     0
 39
12.0
 10
66.582231532741972
 20
-44.603633382192548
 30
0.0
 11
66.621111532741992
 21
-44.796113382192573
 31
0.0
  0
LINE
  5
E38
  8
0
 62
     0
 39
12.0
 10
66.621111532741992
 20
-44.796113382192573
 30
0.0
 11
66.673431532741944
 21
-44.980433382192558
 31
0.0
  0
LINE
  5
E39
  8
0
 62
     0
 39
12.0
 10
66.673431532741944
 20
-44.980433382192558
 30
0.0
 11
66.739671532741966
 21
-45.156593382192568
 31
0.0
  0
LINE
  5
E3A
  8
0
 62
     0
 39
12.0
 10
66.739671532741966
 20
-45.156593382192568
 30
0.0
 11
66.817911532741974
 21
-45.32219338219258
 31
0.0
  0
LINE
  5
E3B
  8
0
 62
     0
 39
12.0
 10
66.817911532741974
 20
-45.32219338219258
 30
0.0
 11
66.908151532741968
 21
-45.477233382192559
 31
0.0
  0
LINE
  5
E3C
  8
0
 62
     0
 39
12.0
 10
66.908151532741968
 20
-45.477233382192559
 30
0.0
 11
67.00871153274197
 21
-45.619793382192569
 31
0.0
  0
LINE
  5
E3D
  8
0
 62
     0
 39
12.0
 10
67.00871153274197
 20
-45.619793382192569
 30
0.0
 11
67.120071532741989
 21
-45.750113382192573
 31
0.0
  0
LINE
  5
E3E
  8
0
 62
     0
 39
12.0
 10
67.120071532741989
 20
-45.750113382192573
 30
0.0
 11
67.240071532741979
 21
-45.866033382192569
 31
0.0
  0
LINE
  5
E3F
  8
0
 62
     0
 39
12.0
 10
67.240071532741979
 20
-45.866033382192569
 30
0.0
 11
67.368711532741983
 21
-45.967313382192572
 31
0.0
  0
LINE
  5
E40
  8
0
 62
     0
 39
12.0
 10
67.368711532741983
 20
-45.967313382192572
 30
0.0
 11
67.504791532741962
 21
-46.052033382192569
 31
0.0
  0
LINE
  5
E41
  8
0
 62
     0
 39
12.0
 10
67.504791532741962
 20
-46.052033382192569
 30
0.0
 11
67.648311532741985
 21
-46.120193382192546
 31
0.0
  0
LINE
  5
E42
  8
0
 62
     0
 39
12.0
 10
67.648311532741985
 20
-46.120193382192546
 30
0.0
 11
67.797351532741956
 21
-46.169633382192558
 31
0.0
  0
LINE
  5
E43
  8
0
 62
     0
 39
12.0
 10
67.797351532741956
 20
-46.169633382192558
 30
0.0
 11
67.951911532741974
 21
-46.200353382192553
 31
0.0
  0
LINE
  5
E44
  8
0
 62
     0
 39
12.0
 10
67.951911532741974
 20
-46.200353382192553
 30
0.0
 11
68.110551532741979
 21
-46.210433382192541
 31
0.0
  0
LINE
  5
E45
  8
0
 62
     0
 39
12.0
 10
68.110551532741979
 20
-46.210433382192541
 30
0.0
 11
70.889271532741972
 21
-46.210433382192541
 31
0.0
  0
LINE
  5
E47
  8
0
 10
60.889271532741972
 20
71.620870617807469
 30
0.0
 11
60.889271532741972
 21
65.860766617807457
 31
0.0
  0
LINE
  5
E5B
  8
0
 10
60.889271532741972
 20
75.187646617807459
 30
0.0
 11
60.889271532741972
 21
87.907873319662883
 31
0.0
  0
LINE
  5
E5E
  8
0
 10
60.889271532741972
 20
58.484606617807472
 30
0.0
 11
60.889271532741972
 21
46.353566617807452
 31
0.0
  0
LINE
  5
E5F
  8
0
 10
60.889271532741972
 20
38.977406617807468
 30
0.0
 11
60.889271532741972
 21
35.394642967844369
 31
0.0
  0
LINE
  5
E60
  8
0
 10
60.889271532741972
 20
71.620870617807469
 30
0.0
 11
70.889271532741972
 21
71.620870617807469
 31
0.0
  0
LINE
  5
E62
  8
0
 10
70.889271532741972
 20
35.394642967844369
 30
0.0
 11
60.889271532741972
 21
35.394642967844369
 31
0.0
  0
LINE
  5
E64
  8
0
 10
63.389271532741972
 20
-35.066033382192302
 30
0.0
 11
63.389271532741972
 21
-44.004021260980963
 31
0.0
  0
LINE
  5
E69
  8
0
 10
67.889271532741972
 20
65.860766617807457
 30
0.0
 11
67.889271532741972
 21
58.484606617807472
 31
0.0
  0
LINE
  5
E6B
  8
0
 10
67.889271532741972
 20
46.353566617807452
 30
0.0
 11
67.889271532741972
 21
38.977406617807468
 31
0.0
  0
LINE
  5
E71
  8
0
 10
70.889271532741972
 20
73.789566617807452
 30
0.0
 11
63.02375153274194
 21
73.789566617807452
 31
0.0
  0
LINE
  5
E73
  8
0
 10
63.02375153274194
 20
73.789566617807452
 30
0.0
 11
60.889271532741972
 21
71.620870617807469
 31
0.0
  0
LINE
  5
E7D
  8
0
 10
68.360815137530381
 20
-56.210433382192548
 30
0.0
 11
70.889271532741972
 21
-56.210433382192548
 31
0.0
  0
LINE
  5
E80
  8
0
 10
80.889271532741958
 20
75.187646617807459
 30
0.0
 11
80.889271532741958
 21
87.907873319662883
 31
0.0
  0
LINE
  5
E81
  8
0
 62
     0
 39
12.0
 10
75.268481208974677
 20
75.187646617807488
 30
0.0
 11
75.268481208974677
 21
88.115389270466309
 31
0.0
  0
POLYLINE
  5
E82
  8
2
 62
     0
 66
     1
 10
0.0
 20
0.0
 30
0.0
 39
60.0
  0
VERTEX
  5
10DF
  8
2
 62
     0
 10
79.242471532741945
 20
38.977406617807461
 30
0.0
  0
VERTEX
  5
10E0
  8
2
 62
     0
 10
79.242471532741945
 20
34.081427679072092
 30
0.0
  0
SEQEND
  5
10E1
  8
2
 62
     0
  0
POLYLINE
  5
E83
  8
2
 62
     0
 66
     1
 10
0.0
 20
0.0
 30
0.0
 39
60.0
  0
VERTEX
  5
10E2
  8
2
 62
     0
 10
79.242471532741945
 20
73.294069042154419
 30
0.0
  0
VERTEX
  5
10E3
  8
2
 62
     0
 10
79.242471532741945
 20
65.860766617807457
 30
0.0
  0
SEQEND
  5
10E4
  8
2
 62
     0
  0
POLYLINE
  5
E84
  8
2
 62
     0
 66
     1
 10
0.0
 20
0.0
 30
0.0
 39
60.0
  0
VERTEX
  5
10E5
  8
2
 62
     0
 10
79.242471532741945
 20
58.484606617807472
 30
0.0
  0
VERTEX
  5
10E6
  8
2
 62
     0
 10
79.242471532741945
 20
46.353566617807452
 30
0.0
  0
SEQEND
  5
10E7
  8
2
 62
     0
  0
LINE
  5
E85
  8
1
 10
76.476471532741982
 20
-31.210433382192551
 30
0.0
 11
77.676471532741985
 21
33.789566617807452
 31
0.0
  0
LINE
  5
E86
  8
1
 10
76.476471532741982
 20
33.789566617807452
 30
0.0
 11
77.676471532741985
 21
-31.210433382192551
 31
0.0
  0
LINE
  5
E87
  8
1
 10
77.676471532741985
 20
33.789566617807452
 30
0.0
 11
77.676471532741985
 21
-31.210433382192551
 31
0.0
  0
LINE
  5
E88
  8
1
 10
76.476471532741982
 20
33.789566617807452
 30
0.0
 11
76.476471532741982
 21
-31.210433382192551
 31
0.0
  0
LINE
  5
E89
  8
0
 62
     0
 39
12.0
 10
75.14207153274198
 20
-31.210433382192559
 30
0.0
 11
75.14207153274198
 21
33.789566617807452
 31
0.0
  0
LINE
  5
E8A
  8
0
 62
     0
 39
12.0
 10
75.004791532742004
 20
-54.525953382192569
 30
0.0
 11
73.417727927953564
 21
-56.210433382192548
 31
0.0
  0
LINE
  5
E8C
  8
0
 62
     0
 39
12.0
 10
75.004791532742004
 20
-46.210433382192541
 30
0.0
 11
75.004791532742004
 21
-54.525953382192569
 31
0.0
  0
LINE
  5
E8D
  8
0
 62
     0
 39
12.0
 10
70.889271532741972
 20
-46.210433382192541
 30
0.0
 11
76.788951532742018
 21
-46.210433382192541
 31
0.0
  0
LINE
  5
E8E
  8
0
 62
     0
 39
12.0
 10
76.788951532742018
 20
-46.210433382192541
 30
0.0
 11
76.788951532742018
 21
-46.210433382192541
 31
0.0
  0
LINE
  5
E8F
  8
0
 62
     0
 39
12.0
 10
76.788951532742018
 20
-46.210433382192541
 30
0.0
 11
76.948071532742034
 21
-46.200353382192553
 31
0.0
  0
LINE
  5
E90
  8
0
 62
     0
 39
12.0
 10
76.948071532742034
 20
-46.200353382192553
 30
0.0
 11
77.102631532742024
 21
-46.169633382192558
 31
0.0
  0
LINE
  5
E91
  8
0
 62
     0
 39
12.0
 10
77.102631532742024
 20
-46.169633382192558
 30
0.0
 11
77.252151532742047
 21
-46.120193382192546
 31
0.0
  0
LINE
  5
E92
  8
0
 62
     0
 39
12.0
 10
77.252151532742047
 20
-46.120193382192546
 30
0.0
 11
77.395191532742004
 21
-46.052033382192569
 31
0.0
  0
LINE
  5
E93
  8
0
 62
     0
 39
12.0
 10
77.395191532742004
 20
-46.052033382192569
 30
0.0
 11
77.531751532742021
 21
-45.967313382192572
 31
0.0
  0
LINE
  5
E94
  8
0
 62
     0
 39
12.0
 10
77.531751532742021
 20
-45.967313382192572
 30
0.0
 11
77.660391532742025
 21
-45.866033382192569
 31
0.0
  0
LINE
  5
E95
  8
0
 62
     0
 39
12.0
 10
77.660391532742025
 20
-45.866033382192569
 30
0.0
 11
77.780631532742035
 21
-45.750113382192573
 31
0.0
  0
LINE
  5
E96
  8
0
 62
     0
 39
12.0
 10
77.780631532742035
 20
-45.750113382192573
 30
0.0
 11
77.891271532742053
 21
-45.619793382192569
 31
0.0
  0
LINE
  5
E97
  8
0
 62
     0
 39
12.0
 10
77.891271532742053
 20
-45.619793382192569
 30
0.0
 11
77.992551532741999
 21
-45.477233382192559
 31
0.0
  0
LINE
  5
E98
  8
0
 62
     0
 39
12.0
 10
77.992551532741999
 20
-45.477233382192559
 30
0.0
 11
78.08231153274204
 21
-45.32219338219258
 31
0.0
  0
LINE
  5
E99
  8
0
 62
     0
 39
12.0
 10
78.08231153274204
 20
-45.32219338219258
 30
0.0
 11
78.160791532742024
 21
-45.156593382192568
 31
0.0
  0
LINE
  5
E9A
  8
0
 62
     0
 39
12.0
 10
78.160791532742024
 20
-45.156593382192568
 30
0.0
 11
78.226551532742036
 21
-44.980433382192558
 31
0.0
  0
LINE
  5
E9B
  8
0
 62
     0
 39
12.0
 10
78.226551532742036
 20
-44.980433382192558
 30
0.0
 11
78.279351532742041
 21
-44.796113382192573
 31
0.0
  0
LINE
  5
E9C
  8
0
 62
     0
 39
12.0
 10
78.279351532742041
 20
-44.796113382192573
 30
0.0
 11
78.317751532742022
 21
-44.603633382192548
 31
0.0
  0
LINE
  5
E9D
  8
0
 62
     0
 39
12.0
 10
75.228471532741992
 20
-44.199233382192567
 30
0.0
 11
75.228471532741992
 21
-44.199233382192567
 31
0.0
  0
LINE
  5
E9E
  8
0
 62
     0
 39
12.0
 10
75.228471532741992
 20
-44.199233382192567
 30
0.0
 11
75.220071532741983
 21
-44.404433382192558
 31
0.0
  0
LINE
  5
E9F
  8
0
 62
     0
 39
12.0
 10
75.220071532741983
 20
-44.404433382192558
 30
0.0
 11
75.196311532741973
 21
-44.603633382192548
 31
0.0
  0
LINE
  5
EA0
  8
0
 62
     0
 39
12.0
 10
75.196311532741973
 20
-44.603633382192548
 30
0.0
 11
75.157431532741953
 21
-44.796113382192573
 31
0.0
  0
LINE
  5
EA1
  8
0
 62
     0
 39
12.0
 10
75.157431532741953
 20
-44.796113382192573
 30
0.0
 11
75.105111532741986
 21
-44.980433382192558
 31
0.0
  0
LINE
  5
EA2
  8
0
 62
     0
 39
12.0
 10
75.105111532741986
 20
-44.980433382192558
 30
0.0
 11
75.038871532741965
 21
-45.156593382192568
 31
0.0
  0
LINE
  5
EA3
  8
0
 62
     0
 39
12.0
 10
75.038871532741965
 20
-45.156593382192568
 30
0.0
 11
74.960631532741971
 21
-45.32219338219258
 31
0.0
  0
LINE
  5
EA4
  8
0
 62
     0
 39
12.0
 10
74.960631532741971
 20
-45.32219338219258
 30
0.0
 11
74.870391532741976
 21
-45.477233382192559
 31
0.0
  0
LINE
  5
EA5
  8
0
 62
     0
 39
12.0
 10
74.870391532741976
 20
-45.477233382192559
 30
0.0
 11
74.769831532741975
 21
-45.619793382192569
 31
0.0
  0
LINE
  5
EA6
  8
0
 62
     0
 39
12.0
 10
74.769831532741975
 20
-45.619793382192569
 30
0.0
 11
74.658471532741956
 21
-45.750113382192573
 31
0.0
  0
LINE
  5
EA7
  8
0
 62
     0
 39
12.0
 10
74.658471532741956
 20
-45.750113382192573
 30
0.0
 11
74.538471532741966
 21
-45.866033382192569
 31
0.0
  0
LINE
  5
EA8
  8
0
 62
     0
 39
12.0
 10
74.538471532741966
 20
-45.866033382192569
 30
0.0
 11
74.409831532741961
 21
-45.967313382192572
 31
0.0
  0
LINE
  5
EA9
  8
0
 62
     0
 39
12.0
 10
74.409831532741961
 20
-45.967313382192572
 30
0.0
 11
74.273751532741983
 21
-46.052033382192569
 31
0.0
  0
LINE
  5
EAA
  8
0
 62
     0
 39
12.0
 10
74.273751532741983
 20
-46.052033382192569
 30
0.0
 11
74.130231532741945
 21
-46.120193382192546
 31
0.0
  0
LINE
  5
EAB
  8
0
 62
     0
 39
12.0
 10
74.130231532741945
 20
-46.120193382192546
 30
0.0
 11
73.981191532741988
 21
-46.169633382192558
 31
0.0
  0
LINE
  5
EAC
  8
0
 62
     0
 39
12.0
 10
73.981191532741988
 20
-46.169633382192558
 30
0.0
 11
73.82663153274197
 21
-46.200353382192553
 31
0.0
  0
LINE
  5
EAD
  8
0
 62
     0
 39
12.0
 10
73.82663153274197
 20
-46.200353382192553
 30
0.0
 11
73.667991532741965
 21
-46.210433382192541
 31
0.0
  0
LINE
  5
EAE
  8
0
 62
     0
 39
12.0
 10
73.667991532741965
 20
-46.210433382192541
 30
0.0
 11
70.889271532741972
 21
-46.210433382192541
 31
0.0
  0
LINE
  5
EAF
  8
0
 62
     0
 39
12.0
 10
75.228471532741992
 20
-35.276993382192551
 30
0.0
 11
75.228471532741992
 21
-44.199233382192567
 31
0.0
  0
LINE
  5
EB0
  8
0
 62
     0
 39
12.0
 10
78.317751532742022
 20
-44.603633382192548
 30
0.0
 11
78.389271532741972
 21
-44.004021260980963
 31
0.0
  0
LINE
  5
EB1
  8
0
 62
     0
 39
12.0
 10
78.389271532741972
 20
-35.066033382192302
 30
0.0
 11
78.226551532742036
 21
-34.496513382192539
 31
0.0
  0
LINE
  5
EB2
  8
0
 62
     0
 39
12.0
 10
75.220071532741983
 20
-35.07251338219254
 30
0.0
 11
75.228471532741992
 21
-35.276993382192551
 31
0.0
  0
LINE
  5
EB3
  8
0
 62
     0
 39
12.0
 10
75.196311532741973
 20
-34.873313382192549
 30
0.0
 11
75.220071532741983
 21
-35.07251338219254
 31
0.0
  0
LINE
  5
EB4
  8
0
 62
     0
 39
12.0
 10
75.157431532741953
 20
-34.68131338219257
 30
0.0
 11
75.196311532741973
 21
-34.873313382192549
 31
0.0
  0
LINE
  5
EB5
  8
0
 62
     0
 39
12.0
 10
75.105111532741986
 20
-34.496513382192539
 30
0.0
 11
75.157431532741953
 21
-34.68131338219257
 31
0.0
  0
LINE
  5
EB6
  8
0
 62
     0
 39
12.0
 10
75.038871532741965
 20
-34.321073382192552
 30
0.0
 11
75.105111532741986
 21
-34.496513382192539
 31
0.0
  0
LINE
  5
EB7
  8
0
 62
     0
 39
12.0
 10
74.960631532741971
 20
-34.154993382192544
 30
0.0
 11
75.038871532741965
 21
-34.321073382192552
 31
0.0
  0
LINE
  5
EB8
  8
0
 62
     0
 39
12.0
 10
74.870391532741976
 20
-33.999953382192551
 30
0.0
 11
74.960631532741971
 21
-34.154993382192544
 31
0.0
  0
LINE
  5
EB9
  8
0
 62
     0
 39
12.0
 10
74.769831532741975
 20
-33.856673382192547
 30
0.0
 11
74.870391532741976
 21
-33.999953382192551
 31
0.0
  0
LINE
  5
EBA
  8
0
 62
     0
 39
12.0
 10
74.658471532741956
 20
-33.727073382192543
 30
0.0
 11
74.769831532741975
 21
-33.856673382192547
 31
0.0
  0
LINE
  5
EBB
  8
0
 62
     0
 39
12.0
 10
74.538471532741966
 20
-33.61091338219255
 30
0.0
 11
74.658471532741956
 21
-33.727073382192543
 31
0.0
  0
LINE
  5
EBC
  8
0
 62
     0
 39
12.0
 10
74.409831532741961
 20
-33.51011338219255
 30
0.0
 11
74.538471532741966
 21
-33.61091338219255
 31
0.0
  0
LINE
  5
EBD
  8
0
 62
     0
 39
12.0
 10
74.273751532741983
 20
-33.424673382192552
 30
0.0
 11
74.409831532741961
 21
-33.51011338219255
 31
0.0
  0
LINE
  5
EBE
  8
0
 62
     0
 39
12.0
 10
74.130231532741945
 20
-33.356993382192549
 30
0.0
 11
74.273751532741983
 21
-33.424673382192552
 31
0.0
  0
LINE
  5
EBF
  8
0
 62
     0
 39
12.0
 10
73.981191532741988
 20
-33.307073382192549
 30
0.0
 11
74.130231532741945
 21
-33.356993382192549
 31
0.0
  0
LINE
  5
EC0
  8
0
 62
     0
 39
12.0
 10
73.82663153274197
 20
-33.276353382192553
 30
0.0
 11
73.981191532741988
 21
-33.307073382192549
 31
0.0
  0
LINE
  5
EC1
  8
0
 62
     0
 39
12.0
 10
73.667991532741965
 20
-33.265793382192548
 30
0.0
 11
73.82663153274197
 21
-33.276353382192553
 31
0.0
  0
LINE
  5
EC2
  8
0
 62
     0
 39
12.0
 10
73.667991532741965
 20
-33.265793382192548
 30
0.0
 11
73.667991532741965
 21
-33.265793382192548
 31
0.0
  0
LINE
  5
EC3
  8
0
 62
     0
 39
12.0
 10
70.889271532741972
 20
-33.265793382192548
 30
0.0
 11
73.667991532741965
 21
-33.265793382192548
 31
0.0
  0
LINE
  5
EC4
  8
0
 62
     0
 39
12.0
 10
76.948071532742034
 20
-33.276353382192553
 30
0.0
 11
76.788951532742018
 21
-33.265793382192548
 31
0.0
  0
LINE
  5
EC5
  8
0
 62
     0
 39
12.0
 10
77.102631532742024
 20
-33.307073382192549
 30
0.0
 11
76.948071532742034
 21
-33.276353382192553
 31
0.0
  0
LINE
  5
EC6
  8
0
 62
     0
 39
12.0
 10
77.252151532742047
 20
-33.356993382192549
 30
0.0
 11
77.102631532742024
 21
-33.307073382192549
 31
0.0
  0
LINE
  5
EC7
  8
0
 62
     0
 39
12.0
 10
77.395191532742004
 20
-33.424673382192552
 30
0.0
 11
77.252151532742047
 21
-33.356993382192549
 31
0.0
  0
LINE
  5
EC8
  8
0
 62
     0
 39
12.0
 10
77.531751532742021
 20
-33.51011338219255
 30
0.0
 11
77.395191532742004
 21
-33.424673382192552
 31
0.0
  0
LINE
  5
EC9
  8
0
 62
     0
 39
12.0
 10
77.660391532742025
 20
-33.61091338219255
 30
0.0
 11
77.531751532742021
 21
-33.51011338219255
 31
0.0
  0
LINE
  5
ECA
  8
0
 62
     0
 39
12.0
 10
77.780631532742035
 20
-33.727073382192543
 30
0.0
 11
77.660391532742025
 21
-33.61091338219255
 31
0.0
  0
LINE
  5
ECB
  8
0
 62
     0
 39
12.0
 10
77.891271532742053
 20
-33.856673382192547
 30
0.0
 11
77.780631532742035
 21
-33.727073382192543
 31
0.0
  0
LINE
  5
ECC
  8
0
 62
     0
 39
12.0
 10
77.992551532741999
 20
-33.999953382192551
 30
0.0
 11
77.891271532742053
 21
-33.856673382192547
 31
0.0
  0
LINE
  5
ECD
  8
0
 62
     0
 39
12.0
 10
78.08231153274204
 20
-34.154993382192544
 30
0.0
 11
77.992551532741999
 21
-33.999953382192551
 31
0.0
  0
LINE
  5
ECE
  8
0
 62
     0
 39
12.0
 10
78.160791532742024
 20
-34.321073382192552
 30
0.0
 11
78.08231153274204
 21
-34.154993382192544
 31
0.0
  0
LINE
  5
ECF
  8
0
 62
     0
 39
12.0
 10
78.226551532742036
 20
-34.496513382192539
 30
0.0
 11
78.160791532742024
 21
-34.321073382192552
 31
0.0
  0
LINE
  5
ED0
  8
0
 62
     0
 39
12.0
 10
70.889271532741972
 20
-31.210433382192551
 30
0.0
 11
80.503431532741999
 21
-31.210433382192551
 31
0.0
  0
LINE
  5
ED1
  8
0
 62
     0
 39
12.0
 10
80.503431532741999
 20
-31.210433382192551
 30
0.0
 11
80.503431532741999
 21
-33.265793382192548
 31
0.0
  0
LINE
  5
ED2
  8
0
 62
     0
 10
80.503431532741999
 20
-33.265793382192548
 30
0.0
 11
73.667991532741965
 21
-33.265793382192548
 31
0.0
  0
LINE
  5
ED3
  8
2
 62
     0
 10
74.284791532742005
 20
-46.210433382192541
 30
0.0
 11
74.284791532742005
 21
-55.290148085127377
 31
0.0
  0
LINE
  5
ED4
  8
0
 10
73.417727927953564
 20
-56.210433382192548
 30
0.0
 11
70.889271532741972
 21
-56.210433382192548
 31
0.0
  0
LINE
  5
ED5
  8
0
 62
     0
 10
75.004791532742004
 20
-54.525953382192569
 30
0.0
 11
70.889271532741972
 21
-54.525953382192569
 31
0.0
  0
LINE
  5
ED6
  8
0
 10
78.389271532741972
 20
-35.066033382192302
 30
0.0
 11
78.389271532741972
 21
-44.004021260980963
 31
0.0
  0
LINE
  5
ED7
  8
0
 62
     0
 39
12.0
 10
75.14207153274198
 20
33.789566617807452
 30
0.0
 11
78.876471532741974
 21
33.789566617807452
 31
0.0
  0
LINE
  5
ED8
  8
0
 62
     0
 39
12.0
 10
78.75479153274199
 20
75.187646617807459
 30
0.0
 11
78.75479153274199
 21
73.789566617807466
 31
0.0
  0
POLYLINE
  5
ED9
  8
0
 62
     0
 66
     1
 10
0.0
 20
0.0
 30
0.0
 39
12.0
  0
VERTEX
  5
10E8
  8
0
 62
     0
 10
73.889271532741972
 20
43.732286617807468
 30
0.0
  0
VERTEX
  5
10E9
  8
0
 62
     0
 10
90.52007153274198
 20
43.732286617807468
 30
0.0
  0
SEQEND
  5
10EA
  8
0
 62
     0
  0
LINE
  5
EDC
  8
0
 62
     0
 39
12.0
 10
90.52007153274198
 20
38.977406617807468
 30
0.0
 11
70.889271532741972
 21
38.977406617807468
 31
0.0
  0
LINE
  5
EDD
  8
0
 62
     0
 39
12.0
 10
90.52007153274198
 20
43.732286617807468
 30
0.0
 11
90.52007153274198
 21
38.977406617807468
 31
0.0
  0
LINE
  5
EDE
  8
0
 62
     0
 39
12.0
 10
83.021991532741978
 20
46.353566617807452
 30
0.0
 11
90.52007153274198
 21
43.732286617807468
 31
0.0
  0
LINE
  5
EDF
  8
0
 62
     0
 39
12.0
 10
70.889271532741972
 20
46.353566617807452
 30
0.0
 11
83.021991532741978
 21
46.353566617807452
 31
0.0
  0
LINE
  5
EE1
  8
0
 62
     0
 39
12.0
 10
83.021991532741978
 20
58.484606617807472
 30
0.0
 11
90.52007153274198
 21
61.105886617807492
 31
0.0
  0
LINE
  5
EE2
  8
0
 62
     0
 39
12.0
 10
90.52007153274198
 20
61.105886617807492
 30
0.0
 11
90.52007153274198
 21
65.860766617807457
 31
0.0
  0
LINE
  5
EE3
  8
0
 62
     0
 39
12.0
 10
90.52007153274198
 20
65.860766617807457
 30
0.0
 11
70.889271532741972
 21
65.860766617807457
 31
0.0
  0
LINE
  5
EE4
  8
0
 62
     0
 39
12.0
 10
70.889271532741972
 20
58.484606617807472
 30
0.0
 11
83.021991532741978
 21
58.484606617807472
 31
0.0
  0
LINE
  5
EE5
  8
0
 10
73.889271532741972
 20
46.353566617807452
 30
0.0
 11
73.889271532741972
 21
38.977406617807468
 31
0.0
  0
LINE
  5
EE6
  8
0
 62
     0
 10
80.889271532741958
 20
35.394642967844369
 30
0.0
 11
78.876471532741974
 21
33.789566617807452
 31
0.0
  0
LINE
  5
EE7
  8
0
 10
70.889271532741972
 20
35.394642967844369
 30
0.0
 11
80.889271532741958
 21
35.394642967844369
 31
0.0
  0
LINE
  5
EE8
  8
0
 10
80.889271532741958
 20
38.977406617807468
 30
0.0
 11
80.889271532741958
 21
35.394642967844369
 31
0.0
  0
LINE
  5
EE9
  8
0
 62
     0
 10
75.14207153274198
 20
33.789566617807452
 30
0.0
 11
70.889271532741972
 21
33.789566617807452
 31
0.0
  0
LINE
  5
EEA
  8
0
 10
78.75479153274199
 20
73.789566617807452
 30
0.0
 11
80.889271532741958
 21
71.620870617807469
 31
0.0
  0
LINE
  5
EEB
  8
0
 62
     0
 10
73.889271532741972
 20
61.105886617807478
 30
0.0
 11
90.52007153274198
 21
61.105886617807492
 31
0.0
  0
LINE
  5
EEC
  8
0
 10
80.889271532741958
 20
71.620870617807469
 30
0.0
 11
70.889271532741972
 21
71.620870617807469
 31
0.0
  0
LINE
  5
EED
  8
0
 62
     0
 10
80.889271532741958
 20
75.187646617807459
 30
0.0
 11
70.889271532741972
 21
75.187646617807459
 31
0.0
  0
LINE
  5
EEE
  8
0
 10
80.889271532741958
 20
58.484606617807472
 30
0.0
 11
80.889271532741958
 21
46.353566617807452
 31
0.0
  0
LINE
  5
EEF
  8
0
 10
80.889271532741958
 20
71.620870617807469
 30
0.0
 11
80.889271532741958
 21
65.860766617807457
 31
0.0
  0
LINE
  5
EF0
  8
0
 10
73.889271532741972
 20
65.860766617807457
 30
0.0
 11
73.889271532741972
 21
58.484606617807472
 31
0.0
  0
LINE
  5
EF1
  8
0
 10
70.889271532741972
 20
73.789566617807452
 30
0.0
 11
78.75479153274199
 21
73.789566617807452
 31
0.0
  0
LINE
  5
EF2
  8
0
 62
     0
 39
12.0
 10
80.766881208974667
 20
88.537309270466324
 30
0.0
 11
80.889271532741958
 21
87.907873319662883
 31
0.0
  0
LINE
  5
EF3
  8
0
 62
     0
 39
12.0
 10
70.889271532741972
 20
105.7895666178074
 30
0.0
 11
73.889271532741972
 21
105.7895666178074
 31
0.0
  0
LINE
  5
EF5
  8
0
 62
     0
 39
12.0
 10
76.068711532741986
 20
101.8881266178074
 30
0.0
 11
76.068711532741986
 21
101.8881266178074
 31
0.0
  0
LINE
  5
EF6
  8
0
 62
     0
 39
12.0
 10
76.068711532741986
 20
101.8881266178074
 30
0.0
 11
76.251591532741983
 21
101.8679666178074
 31
0.0
  0
LINE
  5
EF7
  8
0
 62
     0
 39
12.0
 10
76.251591532741983
 20
101.8679666178074
 30
0.0
 11
76.41335153274197
 21
101.84372661780741
 31
0.0
  0
LINE
  5
EF8
  8
0
 62
     0
 39
12.0
 10
76.41335153274197
 20
101.84372661780741
 30
0.0
 11
76.555431532741977
 21
101.8139666178074
 31
0.0
  0
LINE
  5
EF9
  8
0
 62
     0
 39
12.0
 10
76.555431532741977
 20
101.8139666178074
 30
0.0
 11
76.67999153274198
 21
101.7789266178074
 31
0.0
  0
LINE
  5
EFA
  8
0
 62
     0
 39
12.0
 10
76.67999153274198
 20
101.7789266178074
 30
0.0
 11
76.787511532741973
 21
101.7376466178074
 31
0.0
  0
LINE
  5
EFB
  8
0
 62
     0
 39
12.0
 10
76.787511532741973
 20
101.7376466178074
 30
0.0
 11
76.880631532741987
 21
101.69012661780739
 31
0.0
  0
LINE
  5
EFC
  8
0
 62
     0
 39
12.0
 10
76.880631532741987
 20
101.69012661780739
 30
0.0
 11
76.960071532741964
 21
101.6356466178074
 31
0.0
  0
LINE
  5
EFD
  8
0
 62
     0
 39
12.0
 10
76.960071532741964
 20
101.6356466178074
 30
0.0
 11
77.028711532741994
 21
101.5744466178074
 31
0.0
  0
LINE
  5
EFE
  8
0
 62
     0
 39
12.0
 10
77.028711532741994
 20
101.5744466178074
 30
0.0
 11
77.086551532741979
 21
101.5048466178074
 31
0.0
  0
LINE
  5
EFF
  8
0
 62
     0
 39
12.0
 10
77.086551532741979
 20
101.5048466178074
 30
0.0
 11
77.136471532741965
 21
101.42780661780741
 31
0.0
  0
LINE
  5
F00
  8
0
 62
     0
 39
12.0
 10
77.136471532741965
 20
101.42780661780741
 30
0.0
 11
77.179191532741982
 21
101.34212661780739
 31
0.0
  0
LINE
  5
F01
  8
0
 62
     0
 39
12.0
 10
77.179191532741982
 20
101.34212661780739
 30
0.0
 11
77.217111532741981
 21
101.2478066178074
 31
0.0
  0
LINE
  5
F02
  8
0
 62
     0
 39
12.0
 10
77.217111532741981
 20
101.2478066178074
 30
0.0
 11
77.250951532741979
 21
101.1438866178074
 31
0.0
  0
LINE
  5
F03
  8
0
 62
     0
 39
12.0
 10
77.250951532741979
 20
101.1438866178074
 30
0.0
 11
77.283351532741989
 21
101.03060661780739
 31
0.0
  0
LINE
  5
F04
  8
0
 62
     0
 39
12.0
 10
77.283351532741989
 20
101.03060661780739
 30
0.0
 11
77.31527153274196
 21
100.9070066178074
 31
0.0
  0
LINE
  5
F05
  8
0
 62
     0
 39
12.0
 10
77.31527153274196
 20
100.9070066178074
 30
0.0
 11
77.348871532741981
 21
100.7733266178074
 31
0.0
  0
LINE
  5
F06
  8
0
 62
     0
 39
12.0
 10
77.348871532741981
 20
91.204286617807469
 30
0.0
 11
70.889271532741972
 21
91.204286617807469
 31
0.0
  0
LINE
  5
F07
  8
0
 62
     0
 39
12.0
 10
70.889271532741972
 20
101.8881266178074
 30
0.0
 11
76.068711532741986
 21
101.8881266178074
 31
0.0
  0
LINE
  5
F08
  8
0
 62
     0
 39
12.0
 10
76.725831532741964
 20
91.204286617807469
 30
0.0
 11
76.725831532741964
 21
89.75708661780746
 31
0.0
  0
LINE
  5
F09
  8
0
 62
     0
 39
12.0
 10
76.725831532741964
 20
89.75708661780746
 30
0.0
 11
70.889271532741972
 21
89.75708661780746
 31
0.0
  0
LINE
  5
F0A
  8
0
 62
     0
 39
12.0
 10
73.512231532741964
 20
89.75708661780746
 30
0.0
 11
73.512231532741964
 21
89.75708661780746
 31
0.0
  0
LINE
  5
F0B
  8
0
 62
     0
 39
12.0
 10
73.512231532741964
 20
89.75708661780746
 30
0.0
 11
73.531191532741985
 21
89.754446617807474
 31
0.0
  0
LINE
  5
F0C
  8
0
 62
     0
 39
12.0
 10
73.531191532741985
 20
89.754446617807474
 30
0.0
 11
73.585431532741964
 21
89.746286617807456
 31
0.0
  0
LINE
  5
F0D
  8
0
 62
     0
 39
12.0
 10
73.585431532741964
 20
89.746286617807456
 30
0.0
 11
73.669431532741953
 21
89.730206617807497
 31
0.0
  0
LINE
  5
F0E
  8
0
 62
     0
 39
12.0
 10
73.669431532741953
 20
89.730206617807497
 30
0.0
 11
73.77887153274196
 21
89.70548661780748
 31
0.0
  0
LINE
  5
F0F
  8
0
 62
     0
 39
12.0
 10
73.77887153274196
 20
89.70548661780748
 30
0.0
 11
73.907751532741969
 21
89.669486617807465
 31
0.0
  0
LINE
  5
F10
  8
0
 62
     0
 39
12.0
 10
73.907751532741969
 20
89.669486617807465
 30
0.0
 11
74.051991532741951
 21
89.621726617807454
 31
0.0
  0
LINE
  5
F11
  8
0
 62
     0
 39
12.0
 10
74.051991532741951
 20
89.621726617807454
 30
0.0
 11
74.206071532741944
 21
89.559806617807453
 31
0.0
  0
LINE
  5
F12
  8
0
 62
     0
 39
12.0
 10
74.206071532741944
 20
89.559806617807453
 30
0.0
 11
74.365671532741999
 21
89.482526617807466
 31
0.0
  0
LINE
  5
F13
  8
0
 62
     0
 39
12.0
 10
74.365671532741999
 20
89.482526617807466
 30
0.0
 11
74.524551532741953
 21
89.387726617807473
 31
0.0
  0
LINE
  5
F14
  8
0
 62
     0
 39
12.0
 10
74.524551532741953
 20
89.387726617807473
 30
0.0
 11
74.678871532741951
 21
89.274446617807456
 31
0.0
  0
LINE
  5
F15
  8
0
 62
     0
 39
12.0
 10
74.678871532741951
 20
89.274446617807456
 30
0.0
 11
74.822871532741956
 21
89.140526617807495
 31
0.0
  0
LINE
  5
F16
  8
0
 62
     0
 39
12.0
 10
74.822871532741956
 20
89.140526617807495
 30
0.0
 11
74.952231532741962
 21
88.985246617807476
 31
0.0
  0
LINE
  5
F17
  8
0
 62
     0
 39
12.0
 10
74.952231532741962
 20
88.985246617807476
 30
0.0
 11
75.061191532741944
 21
88.805966617807456
 31
0.0
  0
LINE
  5
F18
  8
0
 62
     0
 39
12.0
 10
75.061191532741944
 20
88.805966617807456
 30
0.0
 11
75.145431532741966
 21
88.601726617807472
 31
0.0
  0
LINE
  5
F19
  8
0
 62
     0
 39
12.0
 10
75.145431532741966
 20
88.601726617807472
 30
0.0
 11
75.199671532741974
 21
88.370606617807454
 31
0.0
  0
LINE
  5
F1A
  8
0
 62
     0
 39
12.0
 10
79.535681208974665
 20
89.747629270466305
 30
0.0
 11
79.535681208974665
 21
89.747629270466305
 31
0.0
  0
LINE
  5
F1B
  8
0
 62
     0
 39
12.0
 10
79.420879520417117
 20
89.75708661780746
 30
0.0
 11
79.640561208974674
 21
89.738989270466305
 31
0.0
  0
LINE
  5
F1C
  8
0
 62
     0
 39
12.0
 10
79.640561208974674
 20
89.738989270466305
 30
0.0
 11
79.750241208974657
 21
89.714269270466303
 31
0.0
  0
LINE
  5
F1D
  8
0
 62
     0
 39
12.0
 10
79.750241208974657
 20
89.714269270466303
 30
0.0
 11
79.862321208974663
 21
89.673469270466313
 31
0.0
  0
LINE
  5
F1E
  8
0
 62
     0
 39
12.0
 10
79.862321208974663
 20
89.673469270466313
 30
0.0
 11
79.975601208974666
 21
89.618029270466309
 31
0.0
  0
LINE
  5
F1F
  8
0
 62
     0
 39
12.0
 10
79.975601208974666
 20
89.618029270466309
 30
0.0
 11
80.087441208974667
 21
89.547469270466337
 31
0.0
  0
LINE
  5
F20
  8
0
 62
     0
 39
12.0
 10
80.087441208974667
 20
89.547469270466337
 30
0.0
 11
80.197601208974675
 21
89.463469270466334
 31
0.0
  0
LINE
  5
F21
  8
0
 62
     0
 39
12.0
 10
80.197601208974675
 20
89.463469270466334
 30
0.0
 11
80.303681208974623
 21
89.366029270466299
 31
0.0
  0
LINE
  5
F22
  8
0
 62
     0
 39
12.0
 10
80.303681208974623
 20
89.366029270466299
 30
0.0
 11
80.404241208974639
 21
89.256349270466302
 31
0.0
  0
LINE
  5
F23
  8
0
 62
     0
 39
12.0
 10
80.404241208974639
 20
89.256349270466302
 30
0.0
 11
80.497361208974667
 21
89.133949270466289
 31
0.0
  0
LINE
  5
F24
  8
0
 62
     0
 39
12.0
 10
80.497361208974667
 20
89.133949270466289
 30
0.0
 11
80.582081208974657
 21
89.00050927046631
 31
0.0
  0
LINE
  5
F25
  8
0
 62
     0
 39
12.0
 10
80.582081208974657
 20
89.00050927046631
 30
0.0
 11
80.656001208974686
 21
88.856029270466308
 31
0.0
  0
LINE
  5
F26
  8
0
 62
     0
 39
12.0
 10
80.656001208974686
 20
88.856029270466308
 30
0.0
 11
80.718401208974669
 21
88.70170927046631
 31
0.0
  0
LINE
  5
F27
  8
0
 62
     0
 39
12.0
 10
80.718401208974669
 20
88.70170927046631
 30
0.0
 11
80.766881208974667
 21
88.537309270466324
 31
0.0
  0
LINE
  5
F28
  8
0
 62
     0
 39
12.0
 10
75.268481208974677
 20
88.115389270466309
 30
0.0
 11
75.268481208974677
 21
88.115389270466309
 31
0.0
  0
LINE
  5
F29
  8
0
 62
     0
 39
12.0
 10
75.268481208974677
 20
88.115389270466309
 30
0.0
 11
75.258401208974661
 21
88.290109270466331
 31
0.0
  0
LINE
  5
F2A
  8
0
 62
     0
 39
12.0
 10
75.258401208974661
 20
88.290109270466331
 30
0.0
 11
75.252641208974666
 21
88.453069270466315
 31
0.0
  0
LINE
  5
F2B
  8
0
 62
     0
 39
12.0
 10
75.252641208974666
 20
88.453069270466315
 30
0.0
 11
75.251681208974674
 21
88.604029270466313
 31
0.0
  0
LINE
  5
F2C
  8
0
 62
     0
 39
12.0
 10
75.251681208974674
 20
88.604029270466313
 30
0.0
 11
75.256961208974644
 21
88.744189270466308
 31
0.0
  0
LINE
  5
F2D
  8
0
 62
     0
 39
12.0
 10
75.256961208974644
 20
88.744189270466308
 30
0.0
 11
75.268961208974659
 21
88.873309270466308
 31
0.0
  0
LINE
  5
F2E
  8
0
 62
     0
 39
12.0
 10
75.268961208974659
 20
88.873309270466308
 30
0.0
 11
75.289601208974673
 21
88.992829270466316
 31
0.0
  0
LINE
  5
F2F
  8
0
 62
     0
 39
12.0
 10
75.289601208974673
 20
88.992829270466316
 30
0.0
 11
75.319361208974669
 21
89.102509270466314
 31
0.0
  0
LINE
  5
F30
  8
0
 62
     0
 39
12.0
 10
75.319361208974669
 20
89.102509270466314
 30
0.0
 11
75.359921208974654
 21
89.203309270466335
 31
0.0
  0
LINE
  5
F31
  8
0
 62
     0
 39
12.0
 10
75.359921208974654
 20
89.203309270466335
 30
0.0
 11
75.411281208974643
 21
89.295229270466308
 31
0.0
  0
LINE
  5
F32
  8
0
 62
     0
 39
12.0
 10
75.411281208974643
 20
89.295229270466308
 30
0.0
 11
75.475361208974661
 21
89.379469270466288
 31
0.0
  0
LINE
  5
F33
  8
0
 62
     0
 39
12.0
 10
75.475361208974661
 20
89.379469270466288
 30
0.0
 11
75.553121208974645
 21
89.456269270466322
 31
0.0
  0
LINE
  5
F34
  8
0
 62
     0
 39
12.0
 10
75.553121208974645
 20
89.456269270466322
 30
0.0
 11
75.645521208974642
 21
89.526349270466284
 31
0.0
  0
LINE
  5
F35
  8
0
 62
     0
 39
12.0
 10
75.645521208974642
 20
89.526349270466284
 30
0.0
 11
75.753281208974684
 21
89.589709270466344
 31
0.0
  0
LINE
  5
F36
  8
0
 62
     0
 39
12.0
 10
75.753281208974684
 20
89.589709270466344
 30
0.0
 11
75.878321208974654
 21
89.6475492704663
 31
0.0
  0
LINE
  5
F37
  8
0
 62
     0
 39
12.0
 10
75.878321208974654
 20
89.6475492704663
 30
0.0
 11
76.020881208974657
 21
89.699869270466337
 31
0.0
  0
LINE
  5
F38
  8
0
 62
     0
 39
12.0
 10
76.020881208974657
 20
89.699869270466337
 30
0.0
 11
76.214960150961119
 21
89.75708661780746
 31
0.0
  0
LINE
  5
F39
  8
0
 62
     0
 39
12.0
 10
75.199671532741974
 20
88.370606617807454
 30
0.0
 11
75.268481208974677
 21
87.452294765860699
 31
0.0
  0
LINE
  5
F3A
  8
0
 62
     0
 10
77.348871532741981
 20
100.7733266178074
 30
0.0
 11
77.348871532741981
 21
91.204286617807469
 31
0.0
  0
LINE
  5
F3B
  8
0
 62
     0
 10
70.889271532741972
 20
89.75708661780746
 30
0.0
 11
79.420879520417117
 21
89.75708661780746
 31
0.0
  0
DIMENSION
  5
F3E
  8
2
  2
*D1
 10
103.140894317047
 20
73.789566617807438
 30
0.0
 11
101.265894317047
 21
89.789566617807466
 31
0.0
 70
     0
 13
73.63031153274197
 23
105.7895666178074
 33
0.0
 14
78.75479153274199
 24
73.789566617807452
 34
0.0
 50
90.0
  0
DIMENSION
  5
F4B
  8
2
  2
*D2
 10
103.140894317047
 20
33.789566617807438
 30
0.0
 11
101.265894317047
 21
53.789566617807459
 31
0.0
 70
     0
 13
103.140894317047
 23
73.789566617807438
 33
0.0
 14
78.876471532741974
 24
33.789566617807452
 34
0.0
 50
90.0
  0
DIMENSION
  5
F73
  8
2
  2
*D3
 10
103.140894317047
 20
-31.210433382192551
 30
0.0
 11
101.265894317047
 21
1.2895666178074621
 31
0.0
 70
     0
 13
103.140894317047
 23
33.789566617807438
 33
0.0
 14
80.503431532741999
 24
-31.210433382192551
 34
0.0
 50
90.0
  0
DIMENSION
  5
F89
  8
2
  2
*D4
 10
103.140894317047
 20
-46.210433382192548
 30
0.0
 11
101.265894317047
 21
-38.710433382192541
 31
0.0
 70
     0
 13
103.140894317047
 23
-31.210433382192551
 33
0.0
 14
76.788951532741891
 24
-46.210433382192541
 34
0.0
 50
90.0
  0
DIMENSION
  5
F96
  8
2
  2
*D5
 10
103.140894317047
 20
-56.210433382192548
 30
0.0
 11
101.265894317047
 21
-51.210433382192541
 31
0.0
 70
     0
 13
103.140894317047
 23
-46.210433382192548
 33
0.0
 14
73.417727927953564
 24
-56.210433382192548
 34
0.0
 50
90.0
  0
DIMENSION
  5
FA4
  8
2
  2
*D6
 10
113.1362967160903
 20
-56.210433382192569
 30
0.0
 11
111.2612967160903
 21
24.789566617807449
 31
0.0
 70
     0
  1
(<>)
 13
103.140894317047
 23
105.7895666178074
 33
0.0
 14
104.390894317047
 24
-56.210433382192562
 34
0.0
 50
90.0
  0
LINE
  5
FBC
  8
2
 10
58.322260511077047
 20
-16.210433382192541
 30
0.0
 11
52.836303929931312
 21
-16.210433382192541
 31
0.0
  0
DIMENSION
  5
FC1
  8
2
  2
*D7
 10
44.016177285850738
 20
-16.210433382192541
 30
0.0
 11
42.141177285850752
 21
8.7895666178074627
 31
0.0
 70
     0
 13
62.902071532741957
 23
33.789566617807452
 33
0.0
 14
52.836303929931312
 24
-16.210433382192541
 34
0.0
 50
90.0
  0
TEXT
  5
FD0
  8
2
 10
36.145778084425501
 20
96.347365517857483
 30
0.0
 40
2.5
  1
H17
  0
TEXT
  5
FD1
  8
2
 10
35.820199183097429
 20
75.538628119766031
 30
0.0
 40
2.5
  1
M20
  0
TEXT
  5
FD2
  8
2
 10
36.144286535809442
 20
-33.153619171502548
 30
0.0
 40
2.5
  1
H13
  0
TEXT
  5
FD3
  8
2
 10
36.144286535809442
 20
-42.932250298472233
 30
0.0
 40
2.5
  1
G1/4
  0
LINE
  5
FD6
  8
2
 10
68.889271532741972
 20
33.789566617807459
 30
0.0
 11
68.889271532741972
 21
-31.210433382192551
 31
0.0
  0
LINE
  5
FDA
  8
2
 10
72.889271532741972
 20
33.789566617807459
 30
0.0
 11
72.889271532741972
 21
-31.210433382192551
 31
0.0
  0
POLYLINE
  8
2
  5
10F0
  66
     1
 10
0.000000
 20
0.000000
 30
0.000000
  70
     8
  0
VERTEX
  8
2
  5
10F1
 10
60.8893
 20
81.5478
 30
0.000000
  70
    32
  0
VERTEX
  8
2
  5
10F2
 10
43.2856
 20
94.6827
 30
0.000000
  70
    32
  0
VERTEX
  8
2
  5
10F3
 10
35.0915
 20
94.6853
 30
0.000000
  70
    32
  0
SEQEND
  8
2
  5
10F4
  0
POLYLINE
  8
2
  5
10F5
  66
     1
 10
0.000000
 20
0.000000
 30
0.000000
  70
     8
  0
VERTEX
  8
2
  5
10F6
 10
60.8893
 20
68.7408
 30
0.000000
  70
    32
  0
VERTEX
  8
2
  5
10F7
 10
42.6164
 20
74.8353
 30
0.000000
  70
    32
  0
VERTEX
  8
2
  5
10F8
 10
34.5236
 20
74.8353
 30
0.000000
  70
    32
  0
SEQEND
  8
2
  5
10F9
  0
POLYLINE
  8
2
  5
10FA
  66
     1
 10
0.000000
 20
0.000000
 30
0.000000
  70
     8
  0
VERTEX
  8
2
  5
10FB
 10
63.3893
 20
-39.5350
 30
0.000000
  70
    32
  0
VERTEX
  8
2
  5
10FC
 10
42.9004
 20
-34.0503
 30
0.000000
  70
    32
  0
VERTEX
  8
2
  5
10FD
 10
34.5236
 20
-34.0503
 30
0.000000
  70
    32
  0
SEQEND
  8
2
  5
10FE
  0
POLYLINE
  8
2
  5
10FF
  66
     1
 10
0.000000
 20
0.000000
 30
0.000000
  70
     8
  0
VERTEX
  8
2
  5
1100
 10
66.7738
 20
-50.3682
 30
0.000000
  70
    32
  0
VERTEX
  8
2
  5
1101
 10
44.7461
 20
-43.5500
 30
0.000000
  70
    32
  0
VERTEX
  8
2
  5
1102
 10
34.2396
 20
-43.5500
 30
0.000000
  70
    32
  0
SEQEND
  8
2
  5
1103
  0
LINE
  5
FE4
  8
2
 10
67.889271532741972
 20
105.7895666178074
 30
0.0
 11
67.889271532741972
 21
101.8881266178074
 31
0.0
  0
LINE
  5
FE6
  8
2
 10
73.889271532741972
 20
105.7895666178074
 30
0.0
 11
73.889271532741972
 21
101.8881266178074
 31
0.0
  0
DIMENSION
  5
FE8
  8
2
  2
*D8
 10
73.889271532741972
 20
114.080171798008
 30
0.0
 11
70.889271532741972
 21
115.955171798008
 31
0.0
 70
     0
  1
%%c<>
 13
67.889271532741972
 23
105.7895666178074
 33
0.0
 14
73.889271532741972
 24
105.7895666178074
 34
0.0
  0
LINE
  5
1079
  8
0
 62
     0
 39
12.0
 10
64.98959153274194
 20
-46.210433382192548
 30
0.0
 11
64.98959153274194
 21
-46.210433382192548
 31
0.0
  0
LINE
  5
107A
  8
0
 62
     0
 39
12.0
 10
64.98959153274194
 20
-46.210433382192548
 30
0.0
 11
65.14871153274197
 21
-46.20035338219256
 31
0.0
  0
LINE
  5
107B
  8
0
 62
     0
 39
12.0
 10
65.14871153274197
 20
-46.20035338219256
 30
0.0
 11
65.303271532741945
 21
-46.169633382192558
 31
0.0
  0
LINE
  5
107C
  8
0
 62
     0
 39
12.0
 10
65.303271532741945
 20
-46.169633382192558
 30
0.0
 11
65.452791532741969
 21
-46.120193382192561
 31
0.0
  0
LINE
  5
107D
  8
0
 62
     0
 39
12.0
 10
65.452791532741969
 20
-46.120193382192561
 30
0.0
 11
65.59583153274194
 21
-46.052033382192569
 31
0.0
  0
LINE
  5
107E
  8
0
 62
     0
 39
12.0
 10
65.59583153274194
 20
-46.052033382192569
 30
0.0
 11
65.732391532741929
 21
-45.967313382192579
 31
0.0
  0
LINE
  5
107F
  8
0
 62
     0
 39
12.0
 10
65.732391532741929
 20
-45.967313382192579
 30
0.0
 11
65.861031532741947
 21
-45.866033382192583
 31
0.0
  0
LINE
  5
1080
  8
0
 62
     0
 39
12.0
 10
65.861031532741947
 20
-45.866033382192583
 30
0.0
 11
65.981271532741943
 21
-45.750113382192573
 31
0.0
  0
LINE
  5
1081
  8
0
 62
     0
 39
12.0
 10
65.981271532741943
 20
-45.750113382192573
 30
0.0
 11
66.09191153274196
 21
-45.619793382192562
 31
0.0
  0
LINE
  5
1082
  8
0
 62
     0
 39
12.0
 10
66.09191153274196
 20
-45.619793382192562
 30
0.0
 11
66.19319153274192
 21
-45.477233382192573
 31
0.0
  0
LINE
  5
1083
  8
0
 62
     0
 39
12.0
 10
66.19319153274192
 20
-45.477233382192573
 30
0.0
 11
66.282951532741961
 21
-45.322193382192573
 31
0.0
  0
LINE
  5
1084
  8
0
 62
     0
 39
12.0
 10
66.282951532741961
 20
-45.322193382192573
 30
0.0
 11
66.361431532741946
 21
-45.156593382192568
 31
0.0
  0
LINE
  5
1085
  8
0
 62
     0
 39
12.0
 10
66.361431532741946
 20
-45.156593382192568
 30
0.0
 11
66.427191532741944
 21
-44.980433382192572
 31
0.0
  0
LINE
  5
1086
  8
0
 62
     0
 39
12.0
 10
66.427191532741944
 20
-44.980433382192572
 30
0.0
 11
66.479991532741963
 21
-44.79611338219258
 31
0.0
  0
LINE
  5
1087
  8
0
 62
     0
 39
12.0
 10
66.479991532741963
 20
-44.79611338219258
 30
0.0
 11
66.51839153274193
 21
-44.603633382192562
 31
0.0
  0
LINE
  5
1088
  8
0
 62
     0
 39
12.0
 10
66.51839153274193
 20
-44.603633382192562
 30
0.0
 11
66.542151532741926
 21
-44.404433382192572
 31
0.0
  0
LINE
  5
1089
  8
0
 62
     0
 39
12.0
 10
66.542151532741926
 20
-44.404433382192572
 30
0.0
 11
66.550071532741967
 21
-44.199233382192581
 31
0.0
  0
LINE
  5
108A
  8
0
 62
     0
 39
12.0
 10
66.550071532741967
 20
-44.199233382192581
 30
0.0
 11
66.550071532741967
 21
-35.276993382192551
 31
0.0
  0
LINE
  5
108B
  8
0
 62
     0
 39
12.0
 10
66.550071532741967
 20
-35.276993382192551
 30
0.0
 11
66.550071532741967
 21
-35.276993382192551
 31
0.0
  0
LINE
  5
108C
  8
0
 62
     0
 39
12.0
 10
66.550071532741967
 20
-35.276993382192551
 30
0.0
 11
66.542151532741926
 21
-35.07251338219254
 31
0.0
  0
LINE
  5
108D
  8
0
 62
     0
 39
12.0
 10
66.542151532741926
 20
-35.07251338219254
 30
0.0
 11
66.51839153274193
 21
-34.873313382192549
 31
0.0
  0
LINE
  5
108E
  8
0
 62
     0
 39
12.0
 10
66.51839153274193
 20
-34.873313382192549
 30
0.0
 11
66.479991532741963
 21
-34.681313382192563
 31
0.0
  0
LINE
  5
108F
  8
0
 62
     0
 39
12.0
 10
66.479991532741963
 20
-34.681313382192563
 30
0.0
 11
66.427191532741944
 21
-34.496513382192553
 31
0.0
  0
LINE
  5
1090
  8
0
 62
     0
 39
12.0
 10
66.427191532741944
 20
-34.496513382192553
 30
0.0
 11
66.361431532741946
 21
-34.321073382192552
 31
0.0
  0
LINE
  5
1091
  8
0
 62
     0
 39
12.0
 10
66.361431532741946
 20
-34.321073382192552
 30
0.0
 11
66.282951532741961
 21
-34.154993382192551
 31
0.0
  0
LINE
  5
1092
  8
0
 62
     0
 39
12.0
 10
66.282951532741961
 20
-34.154993382192551
 30
0.0
 11
66.19319153274192
 21
-33.999953382192551
 31
0.0
  0
LINE
  5
1093
  8
0
 62
     0
 39
12.0
 10
66.19319153274192
 20
-33.999953382192551
 30
0.0
 11
66.09191153274196
 21
-33.856673382192547
 31
0.0
  0
LINE
  5
1094
  8
0
 62
     0
 39
12.0
 10
66.09191153274196
 20
-33.856673382192547
 30
0.0
 11
65.981271532741943
 21
-33.72707338219255
 31
0.0
  0
LINE
  5
1095
  8
0
 62
     0
 39
12.0
 10
65.981271532741943
 20
-33.72707338219255
 30
0.0
 11
65.861031532741947
 21
-33.61091338219255
 31
0.0
  0
LINE
  5
1096
  8
0
 62
     0
 39
12.0
 10
65.861031532741947
 20
-33.61091338219255
 30
0.0
 11
65.732391532741929
 21
-33.510113382192557
 31
0.0
  0
LINE
  5
1097
  8
0
 62
     0
 39
12.0
 10
65.732391532741929
 20
-33.510113382192557
 30
0.0
 11
65.59583153274194
 21
-33.424673382192559
 31
0.0
  0
LINE
  5
1098
  8
0
 62
     0
 39
12.0
 10
65.59583153274194
 20
-33.424673382192559
 30
0.0
 11
65.452791532741969
 21
-33.356993382192563
 31
0.0
  0
LINE
  5
1099
  8
0
 62
     0
 39
12.0
 10
65.452791532741969
 20
-33.356993382192563
 30
0.0
 11
65.303271532741945
 21
-33.307073382192549
 31
0.0
  0
LINE
  5
109A
  8
0
 62
     0
 39
12.0
 10
65.303271532741945
 20
-33.307073382192549
 30
0.0
 11
65.14871153274197
 21
-33.276353382192561
 31
0.0
  0
LINE
  5
109B
  8
0
 62
     0
 39
12.0
 10
65.14871153274197
 20
-33.276353382192561
 30
0.0
 11
64.98959153274194
 21
-33.265793382192541
 31
0.0
  0
LINE
  5
109C
  8
0
 62
     0
 39
12.0
 10
76.788951532742004
 20
-46.210433382192548
 30
0.0
 11
76.788951532742004
 21
-46.210433382192548
 31
0.0
  0
LINE
  5
109D
  8
0
 62
     0
 39
12.0
 10
76.788951532742004
 20
-46.210433382192548
 30
0.0
 11
76.629831532741974
 21
-46.20035338219256
 31
0.0
  0
LINE
  5
109E
  8
0
 62
     0
 39
12.0
 10
76.629831532741974
 20
-46.20035338219256
 30
0.0
 11
76.475271532741999
 21
-46.169633382192558
 31
0.0
  0
LINE
  5
109F
  8
0
 62
     0
 39
12.0
 10
76.475271532741999
 20
-46.169633382192558
 30
0.0
 11
76.325751532741975
 21
-46.120193382192561
 31
0.0
  0
LINE
  5
10A0
  8
0
 62
     0
 39
12.0
 10
76.325751532741975
 20
-46.120193382192561
 30
0.0
 11
76.182711532742005
 21
-46.052033382192569
 31
0.0
  0
LINE
  5
10A1
  8
0
 62
     0
 39
12.0
 10
76.182711532742005
 20
-46.052033382192569
 30
0.0
 11
76.046151532742016
 21
-45.967313382192579
 31
0.0
  0
LINE
  5
10A2
  8
0
 62
     0
 39
12.0
 10
76.046151532742016
 20
-45.967313382192579
 30
0.0
 11
75.917511532741983
 21
-45.866033382192583
 31
0.0
  0
LINE
  5
10A3
  8
0
 62
     0
 39
12.0
 10
75.917511532741983
 20
-45.866033382192583
 30
0.0
 11
75.797271532742002
 21
-45.750113382192573
 31
0.0
  0
LINE
  5
10A4
  8
0
 62
     0
 39
12.0
 10
75.797271532742002
 20
-45.750113382192573
 30
0.0
 11
75.686631532741984
 21
-45.619793382192562
 31
0.0
  0
LINE
  5
10A5
  8
0
 62
     0
 39
12.0
 10
75.686631532741984
 20
-45.619793382192562
 30
0.0
 11
75.585351532742024
 21
-45.477233382192573
 31
0.0
  0
LINE
  5
10A6
  8
0
 62
     0
 39
12.0
 10
75.585351532742024
 20
-45.477233382192573
 30
0.0
 11
75.495591532741983
 21
-45.322193382192573
 31
0.0
  0
LINE
  5
10A7
  8
0
 62
     0
 39
12.0
 10
75.495591532741983
 20
-45.322193382192573
 30
0.0
 11
75.417111532741984
 21
-45.156593382192568
 31
0.0
  0
LINE
  5
10A8
  8
0
 62
     0
 39
12.0
 10
75.417111532741984
 20
-45.156593382192568
 30
0.0
 11
75.351351532742001
 21
-44.980433382192572
 31
0.0
  0
LINE
  5
10A9
  8
0
 62
     0
 39
12.0
 10
75.351351532742001
 20
-44.980433382192572
 30
0.0
 11
75.298551532741982
 21
-44.79611338219258
 31
0.0
  0
LINE
  5
10AA
  8
0
 62
     0
 39
12.0
 10
75.298551532741982
 20
-44.79611338219258
 30
0.0
 11
75.260151532742015
 21
-44.603633382192562
 31
0.0
  0
LINE
  5
10AB
  8
0
 62
     0
 39
12.0
 10
75.260151532742015
 20
-44.603633382192562
 30
0.0
 11
75.236391532742005
 21
-44.404433382192572
 31
0.0
  0
LINE
  5
10AC
  8
0
 62
     0
 39
12.0
 10
75.236391532742005
 20
-44.404433382192572
 30
0.0
 11
75.228471532741978
 21
-44.199233382192581
 31
0.0
  0
LINE
  5
10AD
  8
0
 62
     0
 39
12.0
 10
75.228471532741978
 20
-44.199233382192581
 30
0.0
 11
75.228471532741978
 21
-35.276993382192551
 31
0.0
  0
LINE
  5
10AE
  8
0
 62
     0
 39
12.0
 10
75.228471532741978
 20
-35.276993382192551
 30
0.0
 11
75.228471532741978
 21
-35.276993382192551
 31
0.0
  0
LINE
  5
10AF
  8
0
 62
     0
 39
12.0
 10
75.228471532741978
 20
-35.276993382192551
 30
0.0
 11
75.236391532742005
 21
-35.07251338219254
 31
0.0
  0
LINE
  5
10B0
  8
0
 62
     0
 39
12.0
 10
75.236391532742005
 20
-35.07251338219254
 30
0.0
 11
75.260151532742015
 21
-34.873313382192549
 31
0.0
  0
LINE
  5
10B1
  8
0
 62
     0
 39
12.0
 10
75.260151532742015
 20
-34.873313382192549
 30
0.0
 11
75.298551532741982
 21
-34.681313382192563
 31
0.0
  0
LINE
  5
10B2
  8
0
 62
     0
 39
12.0
 10
75.298551532741982
 20
-34.681313382192563
 30
0.0
 11
75.351351532742001
 21
-34.496513382192553
 31
0.0
  0
LINE
  5
10B3
  8
0
 62
     0
 39
12.0
 10
75.351351532742001
 20
-34.496513382192553
 30
0.0
 11
75.417111532741984
 21
-34.321073382192552
 31
0.0
  0
LINE
  5
10B4
  8
0
 62
     0
 39
12.0
 10
75.417111532741984
 20
-34.321073382192552
 30
0.0
 11
75.495591532741983
 21
-34.154993382192551
 31
0.0
  0
LINE
  5
10B5
  8
0
 62
     0
 39
12.0
 10
75.495591532741983
 20
-34.154993382192551
 30
0.0
 11
75.585351532742024
 21
-33.999953382192551
 31
0.0
  0
LINE
  5
10B6
  8
0
 62
     0
 39
12.0
 10
75.585351532742024
 20
-33.999953382192551
 30
0.0
 11
75.686631532741984
 21
-33.856673382192547
 31
0.0
  0
LINE
  5
10B7
  8
0
 62
     0
 39
12.0
 10
75.686631532741984
 20
-33.856673382192547
 30
0.0
 11
75.797271532742002
 21
-33.72707338219255
 31
0.0
  0
LINE
  5
10B8
  8
0
 62
     0
 39
12.0
 10
75.797271532742002
 20
-33.72707338219255
 30
0.0
 11
75.917511532741983
 21
-33.61091338219255
 31
0.0
  0
LINE
  5
10B9
  8
0
 62
     0
 39
12.0
 10
75.917511532741983
 20
-33.61091338219255
 30
0.0
 11
76.046151532742016
 21
-33.510113382192557
 31
0.0
  0
LINE
  5
10BA
  8
0
 62
     0
 39
12.0
 10
76.046151532742016
 20
-33.510113382192557
 30
0.0
 11
76.182711532742005
 21
-33.424673382192559
 31
0.0
  0
LINE
  5
10BB
  8
0
 62
     0
 39
12.0
 10
76.182711532742005
 20
-33.424673382192559
 30
0.0
 11
76.325751532741975
 21
-33.356993382192563
 31
0.0
  0
LINE
  5
10BC
  8
0
 62
     0
 39
12.0
 10
76.325751532741975
 20
-33.356993382192563
 30
0.0
 11
76.475271532741999
 21
-33.307073382192549
 31
0.0
  0
LINE
  5
10BD
  8
0
 62
     0
 39
12.0
 10
76.475271532741999
 20
-33.307073382192549
 30
0.0
 11
76.629831532741974
 21
-33.276353382192561
 31
0.0
  0
LINE
  5
10BE
  8
0
 62
     0
 39
12.0
 10
76.629831532741974
 20
-33.276353382192561
 30
0.0
 11
76.788951532742004
 21
-33.265793382192541
 31
0.0
  0
ENDSEC
  0
EOF
