  0
SECTION
  2
HEADER
  9
$ACADVER
  1
AC1009
  9
$INSBASE
 10
0.0
 20
0.0
 30
0.0
  9
$EXTMIN
 10
58.571205280051217
 20
-24.181352123819231
 30
0.0
  9
$EXTMAX
 10
145.7129404465025
 20
116.9227580106426
 30
58.5
  9
$LIMMIN
 10
0.0
 20
0.0
  9
$LIMMAX
 10
420.0
 20
297.0
  9
$ORTHOMODE
 70
     0
  9
$REGENMODE
 70
     1
  9
$FILLMODE
 70
     1
  9
$QTEXTMODE
 70
     0
  9
$MIRRTEXT
 70
     1
  9
$DRAGMODE
 70
     2
  9
$LTSCALE
 40
0.3
  9
$OSMODE
 70
    37
  9
$ATTMODE
 70
     1
  9
$TEXTSIZE
 40
2.5
  9
$TRACEWID
 40
1.0
  9
$TEXTSTYLE
  7
STANDARD
  9
$CLAYER
  8
2
  9
$CELTYPE
  6
BYLAYER
  9
$CECOLOR
 62
   256
  9
$DIMSCALE
 40
1.0
  9
$DIMASZ
 40
2.5
  9
$DIMEXO
 40
0.625
  9
$DIMDLI
 40
3.75
  9
$DIMRND
 40
0.0
  9
$DIMDLE
 40
0.0
  9
$DIMEXE
 40
1.25
  9
$DIMTP
 40
0.0
  9
$DIMTM
 40
0.0
  9
$DIMTXT
 40
2.5
  9
$DIMCEN
 40
2.5
  9
$DIMTSZ
 40
0.0
  9
$DIMTOL
 70
     0
  9
$DIMLIM
 70
     0
  9
$DIMTIH
 70
     0
  9
$DIMTOH
 70
     0
  9
$DIMSE1
 70
     0
  9
$DIMSE2
 70
     0
  9
$DIMTAD
 70
     1
  9
$DIMZIN
 70
     8
  9
$DIMBLK
  1

  9
$DIMASO
 70
     1
  9
$DIMSHO
 70
     1
  9
$DIMPOST
  1

  9
$DIMAPOST
  1

  9
$DIMALT
 70
     0
  9
$DIMALTD
 70
     3
  9
$DIMALTF
 40
0.03937007874016
  9
$DIMLFAC
 40
1.0
  9
$DIMTOFL
 70
     1
  9
$DIMTVP
 40
0.0
  9
$DIMTIX
 70
     0
  9
$DIMSOXD
 70
     0
  9
$DIMSAH
 70
     0
  9
$DIMBLK1
  1

  9
$DIMBLK2
  1

  9
$DIMSTYLE
  2
ISO-25
  9
$DIMCLRD
 70
     0
  9
$DIMCLRE
 70
     0
  9
$DIMCLRT
 70
     0
  9
$DIMTFAC
 40
1.0
  9
$DIMGAP
 40
0.625
  9
$LUNITS
 70
     2
  9
$LUPREC
 70
     4
  9
$SKETCHINC
 40
1.0
  9
$FILLETRAD
 40
10.0
  9
$AUNITS
 70
     0
  9
$AUPREC
 70
     0
  9
$MENU
  1
.
  9
$ELEVATION
 40
0.0
  9
$PELEVATION
 40
0.0
  9
$THICKNESS
 40
0.0
  9
$LIMCHECK
 70
     0
  9
$BLIPMODE
 70
     0
  9
$CHAMFERA
 40
10.0
  9
$CHAMFERB
 40
10.0
  9
$SKPOLY
 70
     0
  9
$TDCREATE
 40
2453446.4243600229
  9
$TDUPDATE
 40
2453551.931364676
  9
$TDINDWG
 40
0.0911959491
  9
$TDUSRTIMER
 40
0.0911959491
  9
$USRTIMER
 70
     1
  9
$ANGBASE
 50
0.0
  9
$ANGDIR
 70
     0
  9
$PDMODE
 70
     0
  9
$PDSIZE
 40
0.0
  9
$PLINEWID
 40
0.0
  9
$COORDS
 70
     1
  9
$SPLFRAME
 70
     0
  9
$SPLINETYPE
 70
     6
  9
$SPLINESEGS
 70
     8
  9
$ATTDIA
 70
     0
  9
$ATTREQ
 70
     1
  9
$HANDLING
 70
-16383
  9
$HANDSEED
  5
165E
  9
$SURFTAB1
 70
     6
  9
$SURFTAB2
 70
     6
  9
$SURFTYPE
 70
     6
  9
$SURFU
 70
     6
  9
$SURFV
 70
     6
  9
$UCSNAME
  2

  9
$UCSORG
 10
0.0
 20
0.0
 30
0.0
  9
$UCSXDIR
 10
1.0
 20
0.0
 30
0.0
  9
$UCSYDIR
 10
0.0
 20
1.0
 30
0.0
  9
$PUCSNAME
  2

  9
$PUCSORG
 10
0.0
 20
0.0
 30
0.0
  9
$PUCSXDIR
 10
1.0
 20
0.0
 30
0.0
  9
$PUCSYDIR
 10
0.0
 20
1.0
 30
0.0
  9
$USERI1
 70
     0
  9
$USERI2
 70
     0
  9
$USERI3
 70
     0
  9
$USERI4
 70
     0
  9
$USERI5
 70
     0
  9
$USERR1
 40
0.0
  9
$USERR2
 40
0.0
  9
$USERR3
 40
0.0
  9
$USERR4
 40
0.0
  9
$USERR5
 40
0.0
  9
$WORLDVIEW
 70
     1
  9
$SHADEDGE
 70
     3
  9
$SHADEDIF
 70
    70
  9
$TILEMODE
 70
     1
  9
$MAXACTVP
 70
    64
  9
$PLIMCHECK
 70
     0
  9
$PEXTMIN
 10
1.0000000000000000E+020
 20
1.0000000000000000E+020
 30
1.0000000000000000E+020
  9
$PEXTMAX
 10
-1.0000000000000000E+020
 20
-1.0000000000000000E+020
 30
-1.0000000000000000E+020
  9
$PLIMMIN
 10
0.0
 20
0.0
  9
$PLIMMAX
 10
420.0
 20
297.0
  9
$UNITMODE
 70
     0
  9
$VISRETAIN
 70
     1
  9
$PLINEGEN
 70
     0
  9
$PSLTSCALE
 70
     1
  0
ENDSEC
  0
SECTION
  2
TABLES
  0
TABLE
  2
VPORT
 70
     2
  0
VPORT
  2
*ACTIVE
 70
     0
 10
0.0
 20
0.0
 11
1.0
 21
1.0
 12
147.4862844614448
 22
53.087902490359618
 13
0.0
 23
0.0
 14
10.0
 24
10.0
 15
10.0
 25
10.0
 16
0.0
 26
0.0
 36
1.0
 17
0.0
 27
0.0
 37
0.0
 40
186.46635419647751
 41
2.5392405063291141
 42
50.0
 43
0.0
 44
0.0
 50
0.0
 51
0.0
 71
     0
 72
   100
 73
     1
 74
     3
 75
     0
 76
     0
 77
     0
 78
     0
  0
ENDTAB
  0
TABLE
  2
LTYPE
 70
     2
  0
LTYPE
  2
CONTINUOUS
 70
     0
  3
Solid line
 72
    65
 73
     0
 40
0.0
  0
LTYPE
  2
CENTER
 70
     0
  3
Center ____ _ ____ _ ____ _ ____ _ ____ _ ____
 72
    65
 73
     4
 40
50.799999999999997
 49
31.75
 49
-6.3499999999999988
 49
6.3499999999999988
 49
-6.3499999999999988
  0
ENDTAB
  0
TABLE
  2
LAYER
 70
     4
  0
LAYER
  2
0
 70
     0
 62
     7
  6
CONTINUOUS
  0
LAYER
  2
1
 70
     0
 62
     7
  6
CENTER
  0
LAYER
  2
2
 70
     0
 62
     7
  6
CONTINUOUS
  0
LAYER
  2
DEFPOINTS
 70
     0
 62
     7
  6
CONTINUOUS
  0
ENDTAB
  0
TABLE
  2
STYLE
 70
     4
  0
STYLE
  2
STANDARD
 70
     0
 40
0.0
 41
1.0
 50
0.0
 71
     0
 42
2.5
  3
txt
  4

  0
STYLE
  2
\U+00C9L\U+00C9R_\U+00C2S\U+00C2V\U+00C2B\U+00C2N
 70
     0
 40
1.0
 41
1.0
 50
0.0
 71
     0
 42
1.0
  3
\U+00E9l\U+00E9r \U+00E2S\U+00E2V\U+00E2b\U+00E2N
  4

  0
STYLE
  2
SWIS721_CN_BT
 70
     0
 40
1.0
 41
1.0
 50
0.0
 71
     0
 42
1.0
  3
Swis721 Cn BT
  4

  0
STYLE
  2

 70
     1
 40
0.0
 41
1.0
 50
0.0
 71
     0
 42
2.5
  3
ltypeshp.shx
  4

  0
ENDTAB
  0
TABLE
  2
VIEW
 70
     0
  0
ENDTAB
  0
TABLE
  2
UCS
 70
     0
  0
ENDTAB
  0
TABLE
  2
APPID
 70
     1
  0
APPID
  2
ACAD
 70
     0
  0
ENDTAB
  0
TABLE
  2
DIMSTYLE
 70
     2
  0
DIMSTYLE
  2
ISO-25
 70
     0
  3

  4

  5

  6

  7

 40
1.0
 41
2.5
 42
0.625
 43
3.75
 44
1.25
 45
0.0
 46
0.0
 47
0.0
 48
0.0
140
2.5
141
2.5
142
0.0
143
0.03937007874016
144
1.0
145
0.0
146
1.0
147
0.625
 71
     0
 72
     0
 73
     0
 74
     0
 75
     0
 76
     0
 77
     1
 78
     8
170
     0
171
     3
172
     1
173
     0
174
     0
175
     0
176
     0
177
     0
178
     0
  0
DIMSTYLE
  2
STANDARD
 70
     0
  3

  4

  5

  6

  7

 40
1.0
 41
0.18
 42
0.0625
 43
0.38
 44
0.18
 45
0.0
 46
0.0
 47
0.0
 48
0.0
140
0.18
141
0.09
142
0.0
143
25.399999999999999
144
1.0
145
0.0
146
1.0
147
0.09
 71
     0
 72
     0
 73
     1
 74
     1
 75
     0
 76
     0
 77
     0
 78
     0
170
     0
171
     2
172
     0
173
     0
174
     0
175
     0
176
     0
177
     0
178
     0
  0
ENDTAB
  0
ENDSEC
  0
SECTION
  2
BLOCKS
  0
BLOCK
  8
0
  2
$MODEL_SPACE
 70
     0
 10
0.0
 20
0.0
 30
0.0
  3
$MODEL_SPACE
  1

  0
ENDBLK
  5
21
  8
0
  0
BLOCK
 67
     1
  8
0
  2
$PAPER_SPACE
 70
     0
 10
0.0
 20
0.0
 30
0.0
  3
$PAPER_SPACE
  1

  0
ENDBLK
  5
1D
 67
     1
  8
0
  0
BLOCK
  8
0
  2
*D1
 70
     1
 10
0.0
 20
0.0
 30
0.0
  3
*D1
  1

  0
LINE
  5
1482
  8
2
 62
     0
 10
104.3606921344106
 20
116.4227580106426
 30
0.0
 11
134.3528732886017
 21
116.4227580106426
 31
0.0
  0
LINE
  5
1483
  8
2
 62
     0
 10
109.3611521344106
 20
84.422758010642625
 30
0.0
 11
134.3528732886017
 21
84.422758010642625
 31
0.0
  0
LINE
  5
1484
  8
2
 62
     0
 10
133.1028732886017
 20
113.9227580106426
 30
0.0
 11
133.1028732886017
 21
86.922758010642625
 31
0.0
  0
SOLID
  5
1485
  8
2
 62
     0
 10
132.68620662193501
 20
113.9227580106426
 30
0.0
 11
133.5195399552683
 21
113.9227580106426
 31
0.0
 12
133.1028732886017
 22
116.4227580106426
 32
0.0
 13
133.1028732886017
 23
116.4227580106426
 33
0.0
  0
SOLID
  5
1486
  8
2
 62
     0
 10
132.68620662193501
 20
86.922758010642625
 30
0.0
 11
133.5195399552683
 21
86.922758010642625
 31
0.0
 12
133.1028732886017
 22
84.422758010642625
 32
0.0
 13
133.1028732886017
 23
84.422758010642625
 33
0.0
  0
TEXT
  5
1487
  8
2
 62
     0
 10
132.47787328860159
 20
98.33942467730931
 30
0.0
 40
2.5
  1
32
 50
90.0
  0
POINT
  5
1488
  8
DEFPOINTS
 62
     0
 10
103.7356921344106
 20
116.4227580106426
 30
0.0
  0
POINT
  5
1489
  8
DEFPOINTS
 62
     0
 10
108.7361521344106
 20
84.422758010642625
 30
0.0
  0
POINT
  5
148A
  8
DEFPOINTS
 62
     0
 10
133.1028732886017
 20
84.422758010642625
 30
0.0
  0
ENDBLK
  5
148C
  8
0
  0
BLOCK
  8
0
  2
*D2
 70
     1
 10
0.0
 20
0.0
 30
0.0
  3
*D2
  1

  0
LINE
  5
148F
  8
2
 62
     0
 10
109.3611521344106
 20
84.422758010642625
 30
0.0
 11
134.3528732886017
 21
84.422758010642625
 31
0.0
  0
LINE
  5
1490
  8
2
 62
     0
 10
108.9685001344106
 20
44.422758010642639
 30
0.0
 11
134.35287328860159
 21
44.422758010642632
 31
0.0
  0
LINE
  5
1491
  8
2
 62
     0
 10
133.1028732886017
 20
81.922758010642625
 30
0.0
 11
133.10287328860159
 21
46.922758010642632
 31
0.0
  0
SOLID
  5
1492
  8
2
 62
     0
 10
132.68620662193501
 20
81.922758010642625
 30
0.0
 11
133.5195399552683
 21
81.922758010642625
 31
0.0
 12
133.1028732886017
 22
84.422758010642625
 32
0.0
 13
133.1028732886017
 23
84.422758010642625
 33
0.0
  0
SOLID
  5
1493
  8
2
 62
     0
 10
132.68620662193501
 20
46.922758010642632
 30
0.0
 11
133.5195399552683
 21
46.922758010642632
 31
0.0
 12
133.10287328860159
 22
44.422758010642632
 32
0.0
 13
133.10287328860159
 23
44.422758010642632
 33
0.0
  0
TEXT
  5
1494
  8
2
 62
     0
 10
132.47787328860159
 20
62.547758010642639
 30
0.0
 40
2.5
  1
40
 50
90.0
  0
POINT
  5
1495
  8
DEFPOINTS
 62
     0
 10
108.7361521344106
 20
84.422758010642625
 30
0.0
  0
POINT
  5
1496
  8
DEFPOINTS
 62
     0
 10
108.3435001344106
 20
44.422758010642639
 30
0.0
  0
POINT
  5
1497
  8
DEFPOINTS
 62
     0
 10
133.10287328860159
 20
44.422758010642632
 30
0.0
  0
ENDBLK
  5
1499
  8
0
  0
BLOCK
  8
0
  2
*D3
 70
     1
 10
0.0
 20
0.0
 30
0.0
  3
*D3
  1

  0
LINE
  5
149C
  8
2
 62
     0
 10
132.47787328860159
 20
44.422758010642632
 30
0.0
 11
131.85287328860159
 21
44.422758010642632
 31
0.0
  0
LINE
  5
149D
  8
2
 62
     0
 10
111.0505261344105
 20
16.422758010642621
 30
0.0
 11
134.35287328860159
 21
16.422758010642621
 31
0.0
  0
LINE
  5
149E
  8
2
 62
     0
 10
133.10287328860159
 20
41.922758010642632
 30
0.0
 11
133.10287328860159
 21
18.922758010642621
 31
0.0
  0
SOLID
  5
149F
  8
2
 62
     0
 10
132.68620662193501
 20
41.922758010642632
 30
0.0
 11
133.5195399552683
 21
41.922758010642632
 31
0.0
 12
133.10287328860159
 22
44.422758010642632
 32
0.0
 13
133.10287328860159
 23
44.422758010642632
 33
0.0
  0
SOLID
  5
14A0
  8
2
 62
     0
 10
132.68620662193501
 20
18.922758010642621
 30
0.0
 11
133.5195399552683
 21
18.922758010642621
 31
0.0
 12
133.10287328860159
 22
16.422758010642621
 32
0.0
 13
133.10287328860159
 23
16.422758010642621
 33
0.0
  0
TEXT
  5
14A1
  8
2
 62
     0
 10
132.47787328860159
 20
28.33942467730931
 30
0.0
 40
2.5
  1
28
 50
90.0
  0
POINT
  5
14A2
  8
DEFPOINTS
 62
     0
 10
133.10287328860159
 20
44.422758010642632
 30
0.0
  0
POINT
  5
14A3
  8
DEFPOINTS
 62
     0
 10
110.4255261344106
 20
16.422758010642621
 30
0.0
  0
POINT
  5
14A4
  8
DEFPOINTS
 62
     0
 10
133.10287328860159
 20
16.422758010642621
 30
0.0
  0
ENDBLK
  5
14A6
  8
0
  0
BLOCK
  8
0
  2
*D4
 70
     1
 10
0.0
 20
0.0
 30
0.0
  3
*D4
  1

  0
LINE
  5
14B7
  8
2
 62
     0
 10
132.47787328860159
 20
16.422758010642621
 30
0.0
 11
131.85287328860159
 21
16.422758010642621
 31
0.0
  0
LINE
  5
14B8
  8
2
 62
     0
 10
111.0505261344103
 20
1.422758010642625
 30
0.0
 11
134.35287328860159
 21
1.4227580106426181
 31
0.0
  0
LINE
  5
14B9
  8
2
 62
     0
 10
133.10287328860159
 20
13.92275801064261
 30
0.0
 11
133.10287328860159
 21
3.9227580106426179
 31
0.0
  0
SOLID
  5
14BA
  8
2
 62
     0
 10
132.68620662193501
 20
13.92275801064261
 30
0.0
 11
133.5195399552683
 21
13.92275801064261
 31
0.0
 12
133.10287328860159
 22
16.422758010642621
 32
0.0
 13
133.10287328860159
 23
16.422758010642621
 33
0.0
  0
SOLID
  5
14BB
  8
2
 62
     0
 10
132.68620662193501
 20
3.9227580106426192
 30
0.0
 11
133.5195399552683
 21
3.9227580106426179
 31
0.0
 12
133.10287328860159
 22
1.422758010642619
 32
0.0
 13
133.10287328860159
 23
1.422758010642619
 33
0.0
  0
TEXT
  5
14BC
  8
2
 62
     0
 10
132.47787328860159
 20
7.2560913439759744
 30
0.0
 40
2.5
  1
15
 50
90.0
  0
POINT
  5
14BD
  8
DEFPOINTS
 62
     0
 10
133.10287328860159
 20
16.422758010642621
 30
0.0
  0
POINT
  5
14BE
  8
DEFPOINTS
 62
     0
 10
110.4255261344103
 20
1.422758010642625
 30
0.0
  0
POINT
  5
14BF
  8
DEFPOINTS
 62
     0
 10
133.10287328860159
 20
1.422758010642619
 30
0.0
  0
ENDBLK
  5
14C1
  8
0
  0
BLOCK
  8
0
  2
*D5
 70
     1
 10
0.0
 20
0.0
 30
0.0
  3
*D5
  1

  0
LINE
  5
14C4
  8
2
 62
     0
 10
132.47787328860159
 20
1.422758010642619
 30
0.0
 11
131.85287328860159
 21
1.422758010642619
 31
0.0
  0
LINE
  5
14C5
  8
2
 62
     0
 10
106.28920013441061
 20
-7.5772419893573764
 30
0.0
 11
134.35287328860159
 21
-7.5772419893573844
 31
0.0
  0
LINE
  5
14C6
  8
2
 62
     0
 10
133.10287328860159
 20
-1.077241989357381
 30
0.0
 11
133.10287328860159
 21
-5.0772419893573826
 31
0.0
  0
SOLID
  5
14C7
  8
2
 62
     0
 10
132.68620662193501
 20
-1.077241989357381
 30
0.0
 11
133.5195399552683
 21
-1.077241989357381
 31
0.0
 12
133.10287328860159
 22
1.422758010642619
 32
0.0
 13
133.10287328860159
 23
1.422758010642619
 33
0.0
  0
SOLID
  5
14C8
  8
2
 62
     0
 10
132.68620662193501
 20
-5.0772419893573826
 30
0.0
 11
133.5195399552683
 21
-5.0772419893573826
 31
0.0
 12
133.10287328860159
 22
-7.5772419893573826
 32
0.0
 13
133.10287328860159
 23
-7.5772419893573826
 33
0.0
  0
TEXT
  5
14C9
  8
2
 62
     0
 10
132.47787328860159
 20
-3.9105753226906939
 30
0.0
 40
2.5
  1
9
 50
90.0
  0
POINT
  5
14CA
  8
DEFPOINTS
 62
     0
 10
133.10287328860159
 20
1.422758010642619
 30
0.0
  0
POINT
  5
14CB
  8
DEFPOINTS
 62
     0
 10
105.66420013441061
 20
-7.5772419893573746
 30
0.0
  0
POINT
  5
14CC
  8
DEFPOINTS
 62
     0
 10
133.10287328860159
 20
-7.5772419893573826
 30
0.0
  0
ENDBLK
  5
14CE
  8
0
  0
BLOCK
  8
0
  2
*D6
 70
     1
 10
0.0
 20
0.0
 30
0.0
  3
*D6
  1

  0
LINE
  5
14F0
  8
2
 62
     0
 10
134.9778732886017
 20
116.4227580106426
 30
0.0
 11
145.7129404465025
 21
116.4227580106426
 31
0.0
  0
LINE
  5
14F1
  8
2
 62
     0
 10
134.97787328860159
 20
-7.5772419893573844
 30
0.0
 11
145.7129404465025
 21
-7.577241989357387
 31
0.0
  0
LINE
  5
14F2
  8
2
 62
     0
 10
144.4629404465025
 20
113.9227580106426
 30
0.0
 11
144.4629404465025
 21
-5.077241989357387
 31
0.0
  0
SOLID
  5
14F3
  8
2
 62
     0
 10
144.0462737798359
 20
113.9227580106426
 30
0.0
 11
144.87960711316919
 21
113.9227580106426
 31
0.0
 12
144.4629404465025
 22
116.4227580106426
 32
0.0
 13
144.4629404465025
 23
116.4227580106426
 33
0.0
  0
SOLID
  5
14F4
  8
2
 62
     0
 10
144.04627377983579
 20
-5.077241989357387
 30
0.0
 11
144.87960711316919
 21
-5.077241989357387
 31
0.0
 12
144.4629404465025
 22
-7.577241989357387
 32
0.0
 13
144.4629404465025
 23
-7.577241989357387
 33
0.0
  0
TEXT
  5
14F5
  8
2
 62
     0
 10
143.8379404465025
 20
49.839424677309303
 30
0.0
 40
2.5
  1
(124)
 50
90.0
  0
POINT
  5
14F6
  8
DEFPOINTS
 62
     0
 10
134.3528732886017
 20
116.4227580106426
 30
0.0
  0
POINT
  5
14F7
  8
DEFPOINTS
 62
     0
 10
134.35287328860159
 20
-7.5772419893573844
 30
0.0
  0
POINT
  5
14F8
  8
DEFPOINTS
 62
     0
 10
144.4629404465025
 20
-7.577241989357387
 30
0.0
  0
ENDBLK
  5
14DC
  8
0
  0
BLOCK
  8
0
  2
*D7
 70
     1
 10
0.0
 20
0.0
 30
0.0
  3
*D7
  1

  0
LINE
  5
150F
  8
2
 62
     0
 10
94.226528134410657
 20
44.422758010642639
 30
0.0
 11
60.446205280051231
 21
44.422758010642653
 31
0.0
  0
LINE
  5
1510
  8
2
 62
     0
 10
84.447730820083621
 20
27.422758010642639
 30
0.0
 11
60.446205280051231
 21
27.422758010642639
 31
0.0
  0
LINE
  5
1511
  8
2
 62
     0
 10
61.696205280051231
 20
41.922758010642653
 30
0.0
 11
61.696205280051231
 21
29.922758010642639
 31
0.0
  0
SOLID
  5
1512
  8
2
 62
     0
 10
61.279538613384567
 20
41.922758010642653
 30
0.0
 11
62.112871946717902
 21
41.922758010642653
 31
0.0
 12
61.696205280051231
 22
44.422758010642653
 32
0.0
 13
61.696205280051231
 23
44.422758010642653
 33
0.0
  0
SOLID
  5
1513
  8
2
 62
     0
 10
61.279538613384567
 20
29.922758010642639
 30
0.0
 11
62.112871946717902
 21
29.922758010642639
 31
0.0
 12
61.696205280051231
 22
27.422758010642639
 32
0.0
 13
61.696205280051231
 23
27.422758010642639
 33
0.0
  0
TEXT
  5
1514
  8
2
 62
     0
 10
61.071205280051217
 20
34.256091343975982
 30
0.0
 40
2.5
  1
17
 50
90.0
  0
POINT
  5
1515
  8
DEFPOINTS
 62
     0
 10
94.851528134410657
 20
44.422758010642639
 30
0.0
  0
POINT
  5
1516
  8
DEFPOINTS
 62
     0
 10
85.072730820083621
 20
27.422758010642639
 30
0.0
  0
POINT
  5
1517
  8
DEFPOINTS
 62
     0
 10
61.696205280051231
 20
27.422758010642639
 30
0.0
  0
ENDBLK
  5
1519
  8
0
  0
ENDSEC
  0
SECTION
  2
ENTITIES
  0
TEXT
  5
D2F
  8
2
 10
97.4411500831593
 20
-23.38473332381923
 30
0.0
 40
2.5399440000000002
  1
50.131
 51
-0.0000015352344868
  7
SWIS721_CN_BT
  0
POLYLINE
  5
1084
  8
2
 66
     1
 10
0.0
 20
0.0
 30
0.0
 39
58.5
  0
VERTEX
  5
1633
  8
2
 10
92.474088134410664
 20
84.203232173575444
 30
0.0
  0
VERTEX
  5
1634
  8
2
 10
92.474088134410664
 20
80.676915360655784
 30
0.0
  0
SEQEND
  5
1635
  8
2
  0
POLYLINE
  5
1085
  8
2
 66
     1
 10
0.0
 20
0.0
 30
0.0
 39
58.5
  0
VERTEX
  5
1636
  8
2
 10
92.474088134410664
 20
55.676915360655812
 30
0.0
  0
VERTEX
  5
1637
  8
2
 10
92.474088134410664
 20
44.854510086114331
 30
0.0
  0
SEQEND
  5
1638
  8
2
  0
POLYLINE
  5
1086
  8
2
 66
     1
 10
0.0
 20
0.0
 30
0.0
 39
58.5
  0
VERTEX
  5
1639
  8
2
 10
92.474088134410664
 20
70.676915360655812
 30
0.0
  0
VERTEX
  5
163A
  8
2
 10
92.474088134410664
 20
65.676915360655812
 30
0.0
  0
SEQEND
  5
163B
  8
2
  0
LINE
  5
1087
  8
0
 39
11.699999999999999
 10
95.216440134410675
 20
15.0278840106426
 30
0.0
 11
95.216440134410675
 21
2.845010010642639
 31
0.0
  0
LINE
  5
1089
  8
0
 39
11.699999999999999
 10
100.7356921344106
 20
-7.5772419893573746
 30
0.0
 11
95.807184134410633
 21
-7.5772419893573746
 31
0.0
  0
LINE
  5
108A
  8
0
 39
11.699999999999999
 10
96.008062134410665
 20
1.478684010642624
 30
0.0
 11
96.268428734410605
 21
1.4227580106426529
 31
0.0
  0
LINE
  5
108B
  8
0
 39
11.699999999999999
 10
94.271208134410614
 20
-6.4072419893573871
 30
0.0
 11
94.271208134410614
 21
1.422758010642625
 31
0.0
  0
LINE
  5
108C
  8
0
 39
11.699999999999999
 10
95.807184134410633
 20
-7.5772419893573746
 30
0.0
 11
94.271208134410614
 21
-6.4072419893573871
 31
0.0
  0
LINE
  5
108D
  8
0
 39
11.699999999999999
 10
95.913058134410647
 20
1.5135500106426181
 30
0.0
 11
96.008062134410665
 21
1.478684010642624
 31
0.0
  0
LINE
  5
108E
  8
0
 39
11.699999999999999
 10
95.822266134410654
 20
1.5603500106426089
 30
0.0
 11
95.913058134410647
 21
1.5135500106426181
 31
0.0
  0
LINE
  5
108F
  8
0
 39
11.699999999999999
 10
95.73545213441065
 20
1.619552010642636
 30
0.0
 11
95.822266134410654
 21
1.5603500106426089
 31
0.0
  0
LINE
  5
1090
  8
0
 39
11.699999999999999
 10
95.654020134410644
 20
1.6895180106426011
 30
0.0
 11
95.73545213441065
 21
1.619552010642636
 31
0.0
  0
LINE
  5
1091
  8
0
 39
11.699999999999999
 10
95.577502134410665
 20
1.770248010642647
 30
0.0
 11
95.654020134410644
 21
1.6895180106426011
 31
0.0
  0
LINE
  5
1092
  8
0
 39
11.699999999999999
 10
95.507302134410665
 20
1.8601040106426441
 30
0.0
 11
95.577502134410665
 21
1.770248010642647
 31
0.0
  0
LINE
  5
1093
  8
0
 39
11.699999999999999
 10
95.442952134410646
 20
1.959554010642635
 30
0.0
 11
95.507302134410665
 21
1.8601040106426441
 31
0.0
  0
LINE
  5
1094
  8
0
 39
11.699999999999999
 10
95.385856134410659
 20
2.06696001064266
 30
0.0
 11
95.442952134410646
 21
1.959554010642635
 31
0.0
  0
LINE
  5
1095
  8
0
 39
11.699999999999999
 10
95.335780134410655
 20
2.182088010642659
 30
0.0
 11
95.385856134410659
 21
2.06696001064266
 31
0.0
  0
LINE
  5
1096
  8
0
 39
11.699999999999999
 10
95.294362134410676
 20
2.3037680106426279
 30
0.0
 11
95.335780134410655
 21
2.182088010642659
 31
0.0
  0
LINE
  5
1097
  8
0
 39
11.699999999999999
 10
95.260666134410656
 20
2.4320000106426249
 30
0.0
 11
95.294362134410676
 21
2.3037680106426279
 31
0.0
  0
LINE
  5
1098
  8
0
 39
11.699999999999999
 10
95.236330134410679
 20
2.565146010642636
 30
0.0
 11
95.260666134410656
 21
2.4320000106426249
 31
0.0
  0
LINE
  5
1099
  8
0
 39
11.699999999999999
 10
95.22135413441066
 20
2.7034400106426379
 30
0.0
 11
95.236330134410679
 21
2.565146010642636
 31
0.0
  0
LINE
  5
109A
  8
0
 39
11.699999999999999
 10
95.216440134410675
 20
2.845010010642639
 30
0.0
 11
95.22135413441066
 21
2.7034400106426379
 31
0.0
  0
LINE
  5
109B
  8
0
 39
11.699999999999999
 10
95.216440134410675
 20
2.845010010642639
 30
0.0
 11
95.216440134410675
 21
2.845010010642639
 31
0.0
  0
LINE
  5
109C
  8
0
 10
94.271208134410614
 20
-6.4072419893573871
 30
0.0
 11
100.7356921344106
 21
-6.4072419893573871
 31
0.0
  0
LINE
  5
109D
  8
0
 10
91.045858134410665
 20
1.422758010642625
 30
0.0
 11
100.7356921344106
 21
1.422758010642625
 31
0.0
  0
LINE
  5
109E
  8
2
 10
95.441208134410616
 20
1.422758010642621
 30
0.0
 11
95.441208134410658
 21
-7.2984668522458227
 31
0.0
  0
LINE
  5
109F
  8
0
 39
11.699999999999999
 10
100.7356921344106
 20
16.422758010642621
 30
0.0
 11
96.207430134410657
 21
16.422758010642621
 31
0.0
  0
LINE
  5
10A0
  8
0
 39
11.699999999999999
 10
95.22135413441066
 20
15.1701560106426
 30
0.0
 11
95.216440134410675
 21
15.0278840106426
 31
0.0
  0
LINE
  5
10A1
  8
0
 39
11.699999999999999
 10
95.236330134410679
 20
15.3084500106426
 30
0.0
 11
95.22135413441066
 21
15.1701560106426
 31
0.0
  0
LINE
  5
10A2
  8
0
 39
11.699999999999999
 10
95.260666134410656
 20
15.442064010642619
 30
0.0
 11
95.236330134410679
 21
15.3084500106426
 31
0.0
  0
LINE
  5
10A3
  8
0
 39
11.699999999999999
 10
95.294362134410676
 20
15.569828010642601
 30
0.0
 11
95.260666134410656
 21
15.442064010642619
 31
0.0
  0
LINE
  5
10A4
  8
0
 39
11.699999999999999
 10
95.335780134410655
 20
15.69174201064261
 30
0.0
 11
95.294362134410676
 21
15.569828010642601
 31
0.0
  0
LINE
  5
10A5
  8
0
 39
11.699999999999999
 10
95.385856134410659
 20
15.80687001064258
 30
0.0
 11
95.335780134410655
 21
15.69174201064261
 31
0.0
  0
LINE
  5
10A6
  8
0
 39
11.699999999999999
 10
95.442952134410646
 20
15.914276010642601
 30
0.0
 11
95.385856134410659
 21
15.80687001064258
 31
0.0
  0
LINE
  5
10A7
  8
0
 39
11.699999999999999
 10
95.507302134410665
 20
16.013258010642581
 30
0.0
 11
95.442952134410646
 21
15.914276010642601
 31
0.0
  0
LINE
  5
10A8
  8
0
 39
11.699999999999999
 10
95.577502134410665
 20
16.10358201064259
 30
0.0
 11
95.507302134410665
 21
16.013258010642581
 31
0.0
  0
LINE
  5
10A9
  8
0
 39
11.699999999999999
 10
95.654020134410644
 20
16.184078010642601
 30
0.0
 11
95.577502134410665
 21
16.10358201064259
 31
0.0
  0
LINE
  5
10AA
  8
0
 39
11.699999999999999
 10
95.73545213441065
 20
16.254278010642601
 30
0.0
 11
95.654020134410644
 21
16.184078010642601
 31
0.0
  0
LINE
  5
10AB
  8
0
 39
11.699999999999999
 10
95.822266134410654
 20
16.31301201064262
 30
0.0
 11
95.73545213441065
 21
16.254278010642601
 31
0.0
  0
LINE
  5
10AC
  8
0
 39
11.699999999999999
 10
95.913058134410647
 20
16.36028001064259
 30
0.0
 11
95.822266134410654
 21
16.31301201064262
 31
0.0
  0
LINE
  5
10AD
  8
0
 39
11.699999999999999
 10
96.008062134410665
 20
16.394678010642629
 30
0.0
 11
95.913058134410647
 21
16.36028001064259
 31
0.0
  0
LINE
  5
10AE
  8
0
 39
11.699999999999999
 10
96.106108134410661
 20
16.415738010642642
 30
0.0
 11
96.008062134410665
 21
16.394678010642629
 31
0.0
  0
LINE
  5
10AF
  8
0
 39
11.699999999999999
 10
96.207430134410657
 20
16.422758010642621
 30
0.0
 11
96.106108134410661
 21
16.415738010642642
 31
0.0
  0
LINE
  5
10B0
  8
0
 39
11.699999999999999
 10
96.207430134410657
 20
16.422758010642621
 30
0.0
 11
96.207430134410657
 21
16.422758010642621
 31
0.0
  0
LINE
  5
10B1
  8
0
 39
11.699999999999999
 10
94.851528134410657
 20
44.422758010642639
 30
0.0
 11
94.851528134410643
 21
16.42172989113471
 31
0.0
  0
LINE
  5
10B2
  8
0
 39
11.699999999999999
 10
93.127884134410621
 20
44.422758010642639
 30
0.0
 11
100.7356921344106
 21
44.422758010642639
 31
0.0
  0
LINE
  5
10FE
  8
0
 39
9.4185000000000016
 10
97.913721164410646
 20
80.673145827416434
 30
0.0
 11
97.966026733153726
 21
80.676915360655812
 31
0.0
  0
LINE
  5
10FF
  8
0
 39
9.4185000000000016
 10
90.400960454410622
 20
78.553418217416421
 30
0.0
 11
90.400960454410622
 21
78.553418217416421
 31
0.0
  0
LINE
  5
1100
  8
0
 39
9.4185000000000016
 10
90.400960454410622
 20
78.553418217416421
 30
0.0
 11
91.380861194410642
 21
79.086128577416403
 31
0.0
  0
LINE
  5
1101
  8
0
 39
9.4185000000000016
 10
91.380861194410642
 20
79.086128577416403
 30
0.0
 11
92.496199964410636
 21
79.545939747416426
 31
0.0
  0
LINE
  5
1102
  8
0
 39
9.4185000000000016
 10
92.496199964410636
 20
79.545939747416426
 30
0.0
 11
93.726632804410656
 21
79.933793577416424
 31
0.0
  0
LINE
  5
1103
  8
0
 39
9.4185000000000016
 10
93.726632804410656
 20
79.933793577416424
 30
0.0
 11
95.053134344410637
 21
80.25044354741641
 31
0.0
  0
LINE
  5
1104
  8
0
 39
9.4185000000000016
 10
95.053134344410637
 20
80.25044354741641
 30
0.0
 11
96.455172254410627
 21
80.496454767416424
 31
0.0
  0
LINE
  5
1105
  8
0
 39
9.4185000000000016
 10
96.455172254410627
 20
80.496454767416424
 30
0.0
 11
97.913721164410646
 21
80.673145827416434
 31
0.0
  0
LINE
  5
1106
  8
0
 39
9.4185000000000016
 10
97.913721164410646
 20
70.699750818705539
 30
0.0
 11
98.230583105915272
 21
70.676915360655812
 31
0.0
  0
LINE
  5
1107
  8
0
 39
9.4185000000000016
 10
90.400960454410594
 20
78.590248292834985
 30
0.0
 11
90.400960454410622
 21
72.819478428705523
 31
0.0
  0
LINE
  5
1108
  8
0
 39
9.4185000000000016
 10
90.400960454410622
 20
78.553418217416421
 30
0.0
 11
90.400960454410622
 21
78.553418217416421
 31
0.0
  0
LINE
  5
1109
  8
0
 39
9.4185000000000016
 10
90.400960454410622
 20
78.553418217416421
 30
0.0
 11
91.380861194410642
 21
79.086128577416403
 31
0.0
  0
LINE
  5
110A
  8
0
 39
9.4185000000000016
 10
91.380861194410642
 20
79.086128577416403
 30
0.0
 11
92.496199964410636
 21
79.545939747416426
 31
0.0
  0
LINE
  5
110B
  8
0
 39
9.4185000000000016
 10
92.496199964410636
 20
79.545939747416426
 30
0.0
 11
93.726632804410656
 21
79.933793577416424
 31
0.0
  0
LINE
  5
110C
  8
0
 39
9.4185000000000016
 10
93.726632804410656
 20
79.933793577416424
 30
0.0
 11
95.053134344410637
 21
80.25044354741641
 31
0.0
  0
LINE
  5
110D
  8
0
 39
9.4185000000000016
 10
96.455172254410627
 20
70.876441878705521
 30
0.0
 11
97.913721164410646
 21
70.699750818705539
 31
0.0
  0
LINE
  5
110E
  8
0
 39
9.4185000000000016
 10
95.053134344410637
 20
71.122453098705535
 30
0.0
 11
96.455172254410627
 21
70.876441878705521
 31
0.0
  0
LINE
  5
110F
  8
0
 39
9.4185000000000016
 10
93.726632804410656
 20
71.439103068705535
 30
0.0
 11
95.053134344410637
 21
71.122453098705535
 31
0.0
  0
LINE
  5
1110
  8
0
 39
9.4185000000000016
 10
92.496199964410636
 20
71.826956898705518
 30
0.0
 11
93.726632804410656
 21
71.439103068705535
 31
0.0
  0
LINE
  5
1111
  8
0
 39
9.4185000000000016
 10
91.380861194410642
 20
72.286768068705541
 30
0.0
 11
92.496199964410636
 21
71.826956898705518
 31
0.0
  0
LINE
  5
1112
  8
0
 39
9.4185000000000016
 10
90.400960454410622
 20
72.819478428705523
 30
0.0
 11
91.380861194410642
 21
72.286768068705541
 31
0.0
  0
LINE
  5
1113
  8
0
 39
9.4185000000000016
 10
90.400960454410622
 20
72.819478428705523
 30
0.0
 11
90.400960454410622
 21
72.819478428705523
 31
0.0
  0
LINE
  5
1114
  8
0
 39
9.4185000000000016
 10
90.343750560701935
 20
72.608838080655801
 30
0.0
 11
90.417842695486044
 21
72.810300616756038
 31
0.0
  0
LINE
  5
1115
  8
0
 39
9.4185000000000016
 10
90.210196230701925
 20
72.3330644006558
 30
0.0
 11
90.343750560701935
 21
72.608838080655801
 31
0.0
  0
LINE
  5
1116
  8
0
 39
9.4185000000000016
 10
90.051588690701934
 20
72.072548690655793
 30
0.0
 11
90.210196230701925
 21
72.3330644006558
 31
0.0
  0
LINE
  5
1117
  8
0
 39
9.4185000000000016
 10
89.869246530701915
 20
71.829363020655819
 30
0.0
 11
90.051588690701934
 21
72.072548690655793
 31
0.0
  0
LINE
  5
1118
  8
0
 39
9.4185000000000016
 10
89.665430190701926
 20
71.604637610655772
 30
0.0
 11
89.869246530701915
 21
71.829363020655819
 31
0.0
  0
LINE
  5
1119
  8
0
 39
9.4185000000000016
 10
89.440704780701935
 20
71.400821270655825
 30
0.0
 11
89.665430190701926
 21
71.604637610655772
 31
0.0
  0
LINE
  5
111A
  8
0
 39
9.4185000000000016
 10
89.197519110701947
 20
71.218479110655821
 30
0.0
 11
89.440704780701935
 21
71.400821270655825
 31
0.0
  0
LINE
  5
111B
  8
0
 39
9.4185000000000016
 10
88.937003400701926
 20
71.059871570655801
 30
0.0
 11
89.197519110701947
 21
71.218479110655821
 31
0.0
  0
LINE
  5
111C
  8
0
 39
9.4185000000000016
 10
88.661229720701925
 20
70.92631724065582
 30
0.0
 11
88.937003400701926
 21
71.059871570655801
 31
0.0
  0
LINE
  5
111D
  8
0
 39
9.4185000000000016
 10
88.371328290701925
 20
70.819699820655813
 30
0.0
 11
88.661229720701925
 21
70.92631724065582
 31
0.0
  0
LINE
  5
111E
  8
0
 39
9.4185000000000016
 10
88.069371180701935
 20
70.741526270655811
 30
0.0
 11
88.371328290701925
 21
70.819699820655813
 31
0.0
  0
LINE
  5
111F
  8
0
 39
9.4185000000000016
 10
87.756676980701926
 20
70.693491920655788
 30
0.0
 11
88.069371180701935
 21
70.741526270655811
 31
0.0
  0
LINE
  5
1120
  8
0
 39
9.4185000000000016
 10
87.435317760701935
 20
70.676915360655812
 30
0.0
 11
87.756676980701926
 21
70.693491920655788
 31
0.0
  0
LINE
  5
1121
  8
0
 39
9.4185000000000016
 10
86.765474040701946
 20
70.676915360655812
 30
0.0
 11
87.435317760701935
 21
70.676915360655812
 31
0.0
  0
LINE
  5
1122
  8
0
 39
9.4185000000000016
 10
86.443549710701916
 20
70.693491920655788
 30
0.0
 11
86.765474040701946
 21
70.676915360655812
 31
0.0
  0
LINE
  5
1123
  8
0
 39
9.4185000000000016
 10
86.13085551070192
 20
70.741526270655811
 30
0.0
 11
86.443549710701916
 21
70.693491920655788
 31
0.0
  0
LINE
  5
1124
  8
0
 39
9.4185000000000016
 10
85.828710030701927
 20
70.819699820655813
 30
0.0
 11
86.13085551070192
 21
70.741526270655811
 31
0.0
  0
LINE
  5
1125
  8
0
 39
9.4185000000000016
 10
85.53899697070193
 20
70.92631724065582
 30
0.0
 11
85.828710030701927
 21
70.819699820655813
 31
0.0
  0
LINE
  5
1126
  8
0
 39
9.4185000000000016
 10
85.262846550701937
 20
71.059871570655801
 30
0.0
 11
85.53899697070193
 21
70.92631724065582
 31
0.0
  0
LINE
  5
1127
  8
0
 39
9.4185000000000016
 10
85.002519210701934
 20
71.218479110655821
 30
0.0
 11
85.262846550701937
 21
71.059871570655801
 31
0.0
  0
LINE
  5
1128
  8
0
 39
9.4185000000000016
 10
84.759145170701942
 20
71.400821270655825
 30
0.0
 11
85.002519210701934
 21
71.218479110655821
 31
0.0
  0
LINE
  5
1129
  8
0
 39
9.4185000000000016
 10
84.534984870701948
 20
71.604637610655772
 30
0.0
 11
84.759145170701942
 21
71.400821270655825
 31
0.0
  0
LINE
  5
112A
  8
0
 39
9.4185000000000016
 10
84.330603420701934
 20
71.829363020655819
 30
0.0
 11
84.534984870701948
 21
71.604637610655772
 31
0.0
  0
LINE
  5
112B
  8
0
 39
9.4185000000000016
 10
84.148449630701919
 20
72.072548690655793
 30
0.0
 11
84.330603420701934
 21
71.829363020655819
 31
0.0
  0
LINE
  5
112C
  8
0
 39
9.4185000000000016
 10
83.989842090701941
 20
72.3330644006558
 30
0.0
 11
84.148449630701919
 21
72.072548690655793
 31
0.0
  0
LINE
  5
112D
  8
0
 39
9.4185000000000016
 10
83.85666450070191
 20
72.608838080655801
 30
0.0
 11
83.989842090701941
 21
72.3330644006558
 31
0.0
  0
LINE
  5
112E
  8
0
 39
9.4185000000000016
 10
83.749858710701915
 20
72.898739510655815
 30
0.0
 11
83.85666450070191
 21
72.608838080655801
 31
0.0
  0
LINE
  5
112F
  8
0
 39
9.4185000000000016
 10
83.735692134410627
 20
72.953592220305424
 30
0.0
 11
83.749858710701915
 21
72.898739510655815
 31
0.0
  0
LINE
  5
1136
  8
0
 39
9.4185000000000016
 10
83.749858710701915
 20
78.455992505845472
 30
0.0
 11
83.735692134410627
 21
78.401105577412551
 31
0.0
  0
LINE
  5
1137
  8
0
 39
9.4185000000000016
 10
83.85666450070191
 20
78.745705565845455
 30
0.0
 11
83.749858710701915
 21
78.455992505845472
 31
0.0
  0
LINE
  5
1138
  8
0
 39
9.4185000000000016
 10
83.989842090701941
 20
79.021855985845477
 30
0.0
 11
83.85666450070191
 21
78.745705565845455
 31
0.0
  0
LINE
  5
1139
  8
0
 39
9.4185000000000016
 10
84.148449630701919
 20
79.282183325845494
 30
0.0
 11
83.989842090701941
 21
79.021855985845477
 31
0.0
  0
LINE
  5
113A
  8
0
 39
9.4185000000000016
 10
84.330603420701934
 20
79.525557365845486
 30
0.0
 11
84.148449630701919
 21
79.282183325845494
 31
0.0
  0
LINE
  5
113B
  8
0
 39
9.4185000000000016
 10
84.534984870701948
 20
79.749717665845495
 30
0.0
 11
84.330603420701934
 21
79.525557365845486
 31
0.0
  0
LINE
  5
113C
  8
0
 39
9.4185000000000016
 10
84.759145170701942
 20
79.95409911584548
 30
0.0
 11
84.534984870701948
 21
79.749717665845495
 31
0.0
  0
LINE
  5
113D
  8
0
 39
9.4185000000000016
 10
85.002519210701934
 20
80.136252905845467
 30
0.0
 11
84.759145170701942
 21
79.95409911584548
 31
0.0
  0
LINE
  5
113E
  8
0
 39
9.4185000000000016
 10
85.262846550701937
 20
80.294860445845487
 30
0.0
 11
85.002519210701934
 21
80.136252905845467
 31
0.0
  0
LINE
  5
113F
  8
0
 39
9.4185000000000016
 10
85.53899697070193
 20
80.428038035845475
 30
0.0
 11
85.262846550701937
 21
80.294860445845487
 31
0.0
  0
LINE
  5
1140
  8
0
 39
9.4185000000000016
 10
85.828710030701927
 20
80.534843825845485
 30
0.0
 11
85.53899697070193
 21
80.428038035845475
 31
0.0
  0
LINE
  5
1141
  8
0
 39
9.4185000000000016
 10
86.13085551070192
 20
80.612829005845484
 30
0.0
 11
85.828710030701927
 21
80.534843825845485
 31
0.0
  0
LINE
  5
1142
  8
0
 39
9.4185000000000016
 10
86.443549710701916
 20
80.660863355845478
 30
0.0
 11
86.13085551070192
 21
80.612829005845484
 31
0.0
  0
LINE
  5
1143
  8
0
 39
9.4185000000000016
 10
86.765474040701946
 20
80.677063175845504
 30
0.0
 11
86.443549710701916
 21
80.660863355845478
 31
0.0
  0
LINE
  5
1144
  8
0
 39
9.4185000000000016
 10
86.765474040701946
 20
80.677063175845504
 30
0.0
 11
86.765474040701946
 21
80.677063175845504
 31
0.0
  0
LINE
  5
1145
  8
0
 39
9.4185000000000016
 10
87.435317760701935
 20
80.677063175845504
 30
0.0
 11
86.765474040701946
 21
80.677063175845504
 31
0.0
  0
LINE
  5
1149
  8
0
 39
11.699999999999999
 10
100.7356921344106
 20
100.57730582882439
 30
0.0
 11
100.4445961344106
 21
100.5893500106426
 31
0.0
  0
LINE
  5
114A
  8
0
 39
11.699999999999999
 10
100.7356921344106
 20
101.4602980106426
 30
0.0
 11
94.411608134410557
 21
101.4602980106425
 31
0.0
  0
LINE
  5
114C
  8
0
 39
11.699999999999999
 10
100.7356921344106
 20
116.4227580106426
 30
0.0
 11
97.735692134410641
 21
116.4227580106426
 31
0.0
  0
LINE
  5
114D
  8
0
 39
11.699999999999999
 10
98.157948134410674
 20
86.265508010642606
 30
0.0
 11
98.157948134410674
 21
86.265508010642606
 31
0.0
  0
LINE
  5
114E
  8
0
 39
11.699999999999999
 10
98.157948134410674
 20
86.265508010642606
 30
0.0
 11
97.952496134410694
 21
86.2762720106426
 31
0.0
  0
LINE
  5
114F
  8
0
 39
11.699999999999999
 10
97.952496134410694
 20
86.2762720106426
 30
0.0
 11
97.752426134410726
 21
86.306926010642627
 31
0.0
  0
LINE
  5
1150
  8
0
 39
11.699999999999999
 10
97.752426134410726
 20
86.306926010642627
 30
0.0
 11
97.55961013441069
 21
86.357236010642623
 31
0.0
  0
LINE
  5
1151
  8
0
 39
11.699999999999999
 10
97.55961013441069
 20
86.357236010642623
 30
0.0
 11
97.374048134410671
 21
86.425096010642605
 31
0.0
  0
LINE
  5
1152
  8
0
 39
11.699999999999999
 10
97.374048134410671
 20
86.425096010642605
 30
0.0
 11
97.197846134410696
 21
86.510506010642615
 31
0.0
  0
LINE
  5
1153
  8
0
 39
11.699999999999999
 10
97.197846134410696
 20
86.510506010642615
 30
0.0
 11
97.031238134410671
 21
86.611828010642625
 31
0.0
  0
LINE
  5
1154
  8
0
 39
11.699999999999999
 10
97.031238134410671
 20
86.611828010642625
 30
0.0
 11
96.875628134410675
 21
86.728594010642624
 31
0.0
  0
LINE
  5
1155
  8
0
 39
11.699999999999999
 10
96.875628134410675
 20
86.728594010642624
 30
0.0
 11
96.73171813441067
 21
86.858932010642619
 31
0.0
  0
LINE
  5
1156
  8
0
 39
11.699999999999999
 10
96.73171813441067
 20
86.858932010642619
 30
0.0
 11
96.601380134410661
 21
87.002842010642624
 31
0.0
  0
LINE
  5
1157
  8
0
 39
11.699999999999999
 10
96.601380134410661
 20
87.002842010642624
 30
0.0
 11
96.484614134410691
 21
87.158452010642634
 31
0.0
  0
LINE
  5
1158
  8
0
 39
11.699999999999999
 10
96.484614134410691
 20
87.158452010642634
 30
0.0
 11
96.383292134410681
 21
87.325060010642645
 31
0.0
  0
LINE
  5
1159
  8
0
 39
11.699999999999999
 10
96.383292134410681
 20
87.325060010642645
 30
0.0
 11
96.297882134410699
 21
87.501262010642634
 31
0.0
  0
LINE
  5
115A
  8
0
 39
11.699999999999999
 10
96.297882134410699
 20
87.501262010642634
 30
0.0
 11
96.230022134410675
 21
87.68682401064261
 31
0.0
  0
LINE
  5
115B
  8
0
 39
11.699999999999999
 10
96.230022134410675
 20
87.68682401064261
 30
0.0
 11
96.179712134410707
 21
87.879640010642618
 31
0.0
  0
LINE
  5
115C
  8
0
 39
11.699999999999999
 10
96.179712134410707
 20
87.879640010642618
 30
0.0
 11
96.149058134410694
 21
88.079710010642614
 31
0.0
  0
LINE
  5
115D
  8
0
 39
11.699999999999999
 10
96.149058134410694
 20
88.079710010642614
 30
0.0
 11
96.138294134410671
 21
88.285162010642622
 31
0.0
  0
LINE
  5
115E
  8
0
 39
11.699999999999999
 10
94.324092134410606
 20
100.1417080106426
 30
0.0
 11
94.11864013441064
 21
100.1520040106426
 31
0.0
  0
LINE
  5
115F
  8
0
 39
11.699999999999999
 10
94.524162134410616
 20
100.1110540106425
 30
0.0
 11
94.324092134410606
 21
100.1417080106426
 31
0.0
  0
LINE
  5
1160
  8
0
 39
11.699999999999999
 10
94.716978134410624
 20
100.06121201064261
 30
0.0
 11
94.524162134410616
 21
100.1110540106425
 31
0.0
  0
LINE
  5
1161
  8
0
 39
11.699999999999999
 10
94.902540134410629
 20
99.992884010642626
 30
0.0
 11
94.716978134410624
 21
100.06121201064261
 31
0.0
  0
LINE
  5
1162
  8
0
 39
11.699999999999999
 10
95.078742134410632
 20
99.907708010642608
 30
0.0
 11
94.902540134410629
 21
99.992884010642626
 31
0.0
  0
LINE
  5
1163
  8
0
 39
11.699999999999999
 10
95.245350134410657
 20
99.806152010642634
 30
0.0
 11
95.078742134410632
 21
99.907708010642608
 31
0.0
  0
LINE
  5
1164
  8
0
 39
11.699999999999999
 10
95.400960134410653
 20
99.68985401064262
 30
0.0
 11
95.245350134410657
 21
99.806152010642634
 31
0.0
  0
LINE
  5
1165
  8
0
 39
11.699999999999999
 10
95.544870134410644
 20
99.559048010642627
 30
0.0
 11
95.400960134410653
 21
99.68985401064262
 31
0.0
  0
LINE
  5
1166
  8
0
 39
11.699999999999999
 10
95.675208134410624
 20
99.415606010642634
 30
0.0
 11
95.544870134410644
 21
99.559048010642627
 31
0.0
  0
LINE
  5
1167
  8
0
 39
11.699999999999999
 10
95.791974134410637
 20
99.259996010642624
 30
0.0
 11
95.675208134410624
 21
99.415606010642634
 31
0.0
  0
LINE
  5
1168
  8
0
 39
11.699999999999999
 10
95.893296134410633
 20
99.093388010642613
 30
0.0
 11
95.791974134410637
 21
99.259996010642624
 31
0.0
  0
LINE
  5
1169
  8
0
 39
11.699999999999999
 10
95.978706134410615
 20
98.916718010642626
 30
0.0
 11
95.893296134410633
 21
99.093388010642613
 31
0.0
  0
LINE
  5
116A
  8
0
 39
11.699999999999999
 10
96.046566134410625
 20
98.731624010642605
 30
0.0
 11
95.978706134410615
 21
98.916718010642626
 31
0.0
  0
LINE
  5
116B
  8
0
 39
11.699999999999999
 10
96.096876134410621
 20
98.538340010642614
 30
0.0
 11
96.046566134410625
 21
98.731624010642605
 31
0.0
  0
LINE
  5
116C
  8
0
 39
11.699999999999999
 10
96.127530134410634
 20
98.338504010642623
 30
0.0
 11
96.096876134410621
 21
98.538340010642614
 31
0.0
  0
LINE
  5
116D
  8
0
 39
11.699999999999999
 10
96.138294134410671
 20
98.132350010642597
 30
0.0
 11
96.127530134410634
 21
98.338504010642623
 31
0.0
  0
LINE
  5
116E
  8
0
 39
11.699999999999999
 10
96.138294134410671
 20
98.132350010642597
 30
0.0
 11
96.138294134410671
 21
98.132350010642597
 31
0.0
  0
LINE
  5
116F
  8
0
 39
11.699999999999999
 10
96.138294134410671
 20
88.285162010642622
 30
0.0
 11
96.138294134410671
 21
98.132350010642597
 31
0.0
  0
LINE
  5
1170
  8
0
 39
11.699999999999999
 10
96.127530134410634
 20
88.079710010642614
 30
0.0
 11
96.138294134410671
 21
88.285162010642622
 31
0.0
  0
LINE
  5
1171
  8
0
 39
11.699999999999999
 10
96.096876134410621
 20
87.879640010642618
 30
0.0
 11
96.127530134410634
 21
88.079710010642614
 31
0.0
  0
LINE
  5
1172
  8
0
 39
11.699999999999999
 10
96.046566134410625
 20
87.68682401064261
 30
0.0
 11
96.096876134410621
 21
87.879640010642618
 31
0.0
  0
LINE
  5
1173
  8
0
 39
11.699999999999999
 10
95.978706134410615
 20
87.501262010642634
 30
0.0
 11
96.046566134410625
 21
87.68682401064261
 31
0.0
  0
LINE
  5
1174
  8
0
 39
11.699999999999999
 10
95.893296134410633
 20
87.325060010642645
 30
0.0
 11
95.978706134410615
 21
87.501262010642634
 31
0.0
  0
LINE
  5
1175
  8
0
 39
11.699999999999999
 10
95.791974134410637
 20
87.158452010642634
 30
0.0
 11
95.893296134410633
 21
87.325060010642645
 31
0.0
  0
LINE
  5
1176
  8
0
 39
11.699999999999999
 10
95.675208134410624
 20
87.002842010642624
 30
0.0
 11
95.791974134410637
 21
87.158452010642634
 31
0.0
  0
LINE
  5
1177
  8
0
 39
11.699999999999999
 10
95.544870134410644
 20
86.858932010642619
 30
0.0
 11
95.675208134410624
 21
87.002842010642624
 31
0.0
  0
LINE
  5
1178
  8
0
 39
11.699999999999999
 10
95.400960134410653
 20
86.728594010642624
 30
0.0
 11
95.544870134410644
 21
86.858932010642619
 31
0.0
  0
LINE
  5
1179
  8
0
 39
11.699999999999999
 10
95.245350134410657
 20
86.611828010642625
 30
0.0
 11
95.400960134410653
 21
86.728594010642624
 31
0.0
  0
LINE
  5
117A
  8
0
 39
11.699999999999999
 10
95.078742134410632
 20
86.510506010642615
 30
0.0
 11
95.245350134410657
 21
86.611828010642625
 31
0.0
  0
LINE
  5
117B
  8
0
 39
11.699999999999999
 10
94.902540134410629
 20
86.425096010642605
 30
0.0
 11
95.078742134410632
 21
86.510506010642615
 31
0.0
  0
LINE
  5
117C
  8
0
 39
11.699999999999999
 10
94.716978134410624
 20
86.357236010642623
 30
0.0
 11
94.902540134410629
 21
86.425096010642605
 31
0.0
  0
LINE
  5
117D
  8
0
 39
11.699999999999999
 10
94.524162134410616
 20
86.306926010642627
 30
0.0
 11
94.716978134410624
 21
86.357236010642623
 31
0.0
  0
LINE
  5
117E
  8
0
 39
11.699999999999999
 10
94.324092134410606
 20
86.2762720106426
 30
0.0
 11
94.524162134410616
 21
86.306926010642627
 31
0.0
  0
LINE
  5
117F
  8
0
 39
11.699999999999999
 10
94.11864013441064
 20
86.265508010642606
 30
0.0
 11
94.324092134410606
 21
86.2762720106426
 31
0.0
  0
LINE
  5
1180
  8
0
 39
11.699999999999999
 10
94.11864013441064
 20
86.265508010642606
 30
0.0
 11
94.11864013441064
 21
86.265508010642606
 31
0.0
  0
LINE
  5
1181
  8
0
 39
11.699999999999999
 10
92.677200134410626
 20
86.265508010642606
 30
0.0
 11
94.11864013441064
 21
86.265508010642606
 31
0.0
  0
LINE
  5
1182
  8
0
 39
11.699999999999999
 10
92.471046134410628
 20
86.2762720106426
 30
0.0
 11
92.677200134410626
 21
86.265508010642606
 31
0.0
  0
LINE
  5
1183
  8
0
 39
11.699999999999999
 10
92.271210134410651
 20
86.306926010642627
 30
0.0
 11
92.471046134410628
 21
86.2762720106426
 31
0.0
  0
LINE
  5
1184
  8
0
 39
11.699999999999999
 10
92.077926134410646
 20
86.357236010642623
 30
0.0
 11
92.271210134410651
 21
86.306926010642627
 31
0.0
  0
LINE
  5
1185
  8
0
 39
11.699999999999999
 10
91.892832134410654
 20
86.425096010642605
 30
0.0
 11
92.077926134410646
 21
86.357236010642623
 31
0.0
  0
LINE
  5
1186
  8
0
 39
11.699999999999999
 10
91.716162134410638
 20
86.510506010642615
 30
0.0
 11
91.892832134410654
 21
86.425096010642605
 31
0.0
  0
LINE
  5
1187
  8
0
 39
11.699999999999999
 10
91.549554134410627
 20
86.611828010642625
 30
0.0
 11
91.716162134410638
 21
86.510506010642615
 31
0.0
  0
LINE
  5
1188
  8
0
 39
11.699999999999999
 10
91.393944134410646
 20
86.728594010642624
 30
0.0
 11
91.549554134410627
 21
86.611828010642625
 31
0.0
  0
LINE
  5
1189
  8
0
 39
11.699999999999999
 10
91.250502134410624
 20
86.858932010642619
 30
0.0
 11
91.393944134410646
 21
86.728594010642624
 31
0.0
  0
LINE
  5
118A
  8
0
 39
11.699999999999999
 10
91.119696134410674
 20
87.002842010642624
 30
0.0
 11
91.250502134410624
 21
86.858932010642619
 31
0.0
  0
LINE
  5
118B
  8
0
 39
11.699999999999999
 10
91.003398134410645
 20
87.158452010642634
 30
0.0
 11
91.119696134410674
 21
87.002842010642624
 31
0.0
  0
LINE
  5
118C
  8
0
 39
11.699999999999999
 10
90.901842134410643
 20
87.325060010642645
 30
0.0
 11
91.003398134410645
 21
87.158452010642634
 31
0.0
  0
LINE
  5
118D
  8
0
 39
11.699999999999999
 10
90.816666134410625
 20
87.501262010642634
 30
0.0
 11
90.901842134410643
 21
87.325060010642645
 31
0.0
  0
LINE
  5
118E
  8
0
 39
11.699999999999999
 10
90.748338134410631
 20
87.68682401064261
 30
0.0
 11
90.816666134410625
 21
87.501262010642634
 31
0.0
  0
LINE
  5
118F
  8
0
 39
11.699999999999999
 10
90.735692134410641
 20
87.735745625666056
 30
0.0
 11
90.748338134410631
 21
87.68682401064261
 31
0.0
  0
LINE
  5
1192
  8
0
 39
11.699999999999999
 10
90.657546134410609
 20
88.285162010642622
 30
0.0
 11
90.657546134410609
 21
88.285162010642622
 31
0.0
  0
LINE
  5
1196
  8
0
 39
11.699999999999999
 10
90.748338134410631
 20
98.731624010642605
 30
0.0
 11
90.735692134410641
 21
98.682583653835124
 31
0.0
  0
LINE
  5
1197
  8
0
 39
11.699999999999999
 10
90.816666134410625
 20
98.916718010642626
 30
0.0
 11
90.748338134410631
 21
98.731624010642605
 31
0.0
  0
LINE
  5
1198
  8
0
 39
11.699999999999999
 10
90.901842134410643
 20
99.093388010642613
 30
0.0
 11
90.816666134410625
 21
98.916718010642626
 31
0.0
  0
LINE
  5
1199
  8
0
 39
11.699999999999999
 10
91.003398134410645
 20
99.259996010642624
 30
0.0
 11
90.901842134410643
 21
99.093388010642613
 31
0.0
  0
LINE
  5
119A
  8
0
 39
11.699999999999999
 10
91.119696134410674
 20
99.415606010642634
 30
0.0
 11
91.003398134410645
 21
99.259996010642624
 31
0.0
  0
LINE
  5
119B
  8
0
 39
11.699999999999999
 10
91.250502134410624
 20
99.559048010642627
 30
0.0
 11
91.119696134410674
 21
99.415606010642634
 31
0.0
  0
LINE
  5
119C
  8
0
 39
11.699999999999999
 10
91.393944134410646
 20
99.68985401064262
 30
0.0
 11
91.250502134410624
 21
99.559048010642627
 31
0.0
  0
LINE
  5
119D
  8
0
 39
11.699999999999999
 10
91.549554134410627
 20
99.806152010642634
 30
0.0
 11
91.393944134410646
 21
99.68985401064262
 31
0.0
  0
LINE
  5
119E
  8
0
 39
11.699999999999999
 10
91.716162134410638
 20
99.907708010642608
 30
0.0
 11
91.549554134410627
 21
99.806152010642634
 31
0.0
  0
LINE
  5
119F
  8
0
 39
11.699999999999999
 10
91.892832134410654
 20
99.992884010642626
 30
0.0
 11
91.716162134410638
 21
99.907708010642608
 31
0.0
  0
LINE
  5
11A0
  8
0
 39
11.699999999999999
 10
92.077926134410646
 20
100.06121201064261
 30
0.0
 11
91.892832134410654
 21
99.992884010642626
 31
0.0
  0
LINE
  5
11A1
  8
0
 39
11.699999999999999
 10
92.271210134410651
 20
100.1110540106425
 30
0.0
 11
92.077926134410646
 21
100.06121201064261
 31
0.0
  0
LINE
  5
11A2
  8
0
 39
11.699999999999999
 10
92.471046134410628
 20
100.1417080106426
 30
0.0
 11
92.271210134410651
 21
100.1110540106425
 31
0.0
  0
LINE
  5
11A3
  8
0
 39
11.699999999999999
 10
92.677200134410626
 20
100.1520040106426
 30
0.0
 11
92.471046134410628
 21
100.1417080106426
 31
0.0
  0
LINE
  5
11A4
  8
0
 39
11.699999999999999
 10
92.677200134410626
 20
100.1520040106426
 30
0.0
 11
92.677200134410626
 21
100.1520040106426
 31
0.0
  0
LINE
  5
11A5
  8
0
 39
11.699999999999999
 10
94.11864013441064
 20
100.1520040106426
 30
0.0
 11
92.677200134410626
 21
100.1520040106426
 31
0.0
  0
LINE
  5
11A6
  8
0
 39
11.699999999999999
 10
96.138294134410671
 20
98.750344010642635
 30
0.0
 11
96.138294134410671
 21
88.285162010642622
 31
0.0
  0
LINE
  5
11A7
  8
0
 39
11.699999999999999
 10
96.234702134410654
 20
99.181372010642647
 30
0.0
 11
96.138294134410671
 21
98.750344010642635
 31
0.0
  0
LINE
  5
11A8
  8
0
 39
11.699999999999999
 10
96.508248134410636
 20
99.555772010642627
 30
0.0
 11
96.234702134410654
 21
99.181372010642647
 31
0.0
  0
LINE
  5
11A9
  8
0
 39
11.699999999999999
 10
96.932724134410634
 20
99.873076010642635
 30
0.0
 11
96.508248134410636
 21
99.555772010642627
 31
0.0
  0
LINE
  5
11AA
  8
0
 39
11.699999999999999
 10
97.483794134410644
 20
100.13258201064259
 30
0.0
 11
96.932724134410634
 21
99.873076010642635
 31
0.0
  0
LINE
  5
11AB
  8
0
 39
11.699999999999999
 10
98.135250134410654
 20
100.3347580106426
 30
0.0
 11
97.483794134410644
 21
100.13258201064259
 31
0.0
  0
LINE
  5
11AC
  8
0
 39
11.699999999999999
 10
98.862990134410666
 20
100.4784340106426
 30
0.0
 11
98.135250134410654
 21
100.3347580106426
 31
0.0
  0
LINE
  5
11AD
  8
0
 39
11.699999999999999
 10
99.640806134410639
 20
100.56361001064261
 30
0.0
 11
98.862990134410666
 21
100.4784340106426
 31
0.0
  0
LINE
  5
11AE
  8
0
 39
11.699999999999999
 10
100.4445961344106
 20
100.5893500106426
 30
0.0
 11
99.640806134410639
 21
100.56361001064261
 31
0.0
  0
LINE
  5
11AF
  8
0
 39
11.699999999999999
 10
92.735232134410623
 20
86.265508010642606
 30
0.0
 11
92.735232134410623
 21
84.422758010642625
 31
0.0
  0
LINE
  5
11B2
  8
1
 10
94.617528134410691
 20
44.422758010642639
 30
0.0
 11
94.617528134410634
 21
16.422758010642621
 31
0.0
  0
LINE
  5
11B3
  8
1
 10
93.872706134410649
 20
44.422758010642639
 30
0.0
 11
93.872706134410649
 21
16.422758010642621
 31
0.0
  0
LINE
  5
11B4
  8
1
 10
93.127884134410621
 20
44.422758010642639
 30
0.0
 11
93.127884134410621
 21
16.422758010642621
 31
0.0
  0
LINE
  5
11B5
  8
1
 10
100.7356921344106
 20
16.422758010642621
 30
0.0
 11
93.69567413441068
 21
16.422758010642621
 31
0.0
  0
LINE
  5
11B6
  8
1
 10
92.950852134410695
 20
16.422758010642621
 30
0.0
 11
91.045858134410665
 21
16.422758010642621
 31
0.0
  0
LINE
  5
11B8
  8
1
 10
94.617528134410691
 20
44.422758010642639
 30
0.0
 11
93.127884134410621
 21
44.422758010642639
 31
0.0
  0
LINE
  5
11B9
  8
0
 10
93.127884134410621
 20
44.422758010642639
 30
0.0
 11
90.735692134410641
 21
46.002507444604937
 31
0.0
  0
LINE
  5
11BC
  8
0
 10
86.765474040701946
 20
70.676915360655812
 30
0.0
 11
100.7356921344106
 21
70.676915360655812
 31
0.0
  0
LINE
  5
11BD
  8
0
 10
86.762536643502287
 20
80.676915360655812
 30
0.0
 11
100.7356921344107
 21
80.676915360655812
 31
0.0
  0
LINE
  5
11BF
  8
0
 10
94.411608134410628
 20
111.5415180106426
 30
0.0
 11
94.411608134410628
 21
101.4602980106425
 31
0.0
  0
LINE
  5
11C0
  8
0
 10
92.735232134410623
 20
84.422758010642625
 30
0.0
 11
100.7356921344106
 21
84.422758010642625
 31
0.0
  0
LINE
  5
11C1
  8
0
 10
92.677200134410626
 20
86.265508010642606
 30
0.0
 11
100.7356921344106
 21
86.265508010642606
 31
0.0
  0
LINE
  5
11C2
  8
0
 10
92.735232134410623
 20
84.422758010642625
 30
0.0
 11
90.735692134410641
 21
82.741881971946071
 31
0.0
  0
LINE
  5
11C3
  8
0
 10
91.761701241308344
 20
99.929663288670113
 30
0.0
 11
94.411608134410628
 21
101.4602980106426
 31
0.0
  0
LINE
  5
11FB
  8
0
 10
97.735692134410641
 20
116.4227580106426
 30
0.0
 11
97.735692134410641
 21
112.61885401064259
 31
0.0
  0
LINE
  5
11FD
  8
0
 10
90.735692134410641
 20
98.682583653835124
 30
0.0
 11
90.735692134410641
 21
87.735745625666056
 31
0.0
  0
LINE
  5
1242
  8
0
 10
90.735692134410641
 20
82.741881971946071
 30
0.0
 11
90.735692134410641
 21
80.676915360655812
 31
0.0
  0
LINE
  5
1244
  8
0
 10
100.7356921344106
 20
82.741881971946071
 30
0.0
 11
90.735692134410641
 21
82.741881971946071
 31
0.0
  0
LINE
  5
1246
  8
0
 10
90.735692134410655
 20
70.676915360655826
 30
0.0
 11
90.735692134410613
 21
65.676915360655812
 31
0.0
  0
LINE
  5
1248
  8
0
 10
90.735692134410641
 20
55.676915360655812
 30
0.0
 11
90.735692134410641
 21
46.002507444604937
 31
0.0
  0
LINE
  5
1249
  8
0
 10
100.7356921344106
 20
46.002507444604937
 30
0.0
 11
90.735692134410641
 21
46.002507444604937
 31
0.0
  0
LINE
  5
124D
  8
0
 10
83.735692134410627
 20
78.401105577412551
 30
0.0
 11
83.735692134410627
 21
72.953592220305424
 31
0.0
  0
LINE
  5
12B1
  8
0
 39
9.4185000000000016
 10
83.735692134410542
 20
57.953592220305417
 30
0.0
 11
83.74985871070183
 21
57.898739510655808
 31
0.0
  0
LINE
  5
12B2
  8
0
 39
9.4185000000000016
 10
83.74985871070183
 20
63.455992505845472
 30
0.0
 11
83.735692134410542
 21
63.401105577412551
 31
0.0
  0
LINE
  5
12B3
  8
0
 39
9.4185000000000016
 10
97.913721164410546
 20
55.699750818705539
 30
0.0
 11
98.230583105915159
 21
55.676915360655812
 31
0.0
  0
LINE
  5
12B4
  8
0
 39
9.4185000000000016
 10
96.455172254410542
 20
55.876441878705521
 30
0.0
 11
97.913721164410546
 21
55.699750818705539
 31
0.0
  0
LINE
  5
12B5
  8
0
 39
9.4185000000000016
 10
95.053134344410537
 20
56.122453098705527
 30
0.0
 11
96.455172254410542
 21
55.876441878705521
 31
0.0
  0
LINE
  5
12B6
  8
0
 39
9.4185000000000016
 10
93.726632804410542
 20
56.439103068705528
 30
0.0
 11
95.053134344410537
 21
56.122453098705527
 31
0.0
  0
LINE
  5
12B7
  8
0
 39
9.4185000000000016
 10
92.496199964410536
 20
56.826956898705518
 30
0.0
 11
93.726632804410542
 21
56.439103068705528
 31
0.0
  0
LINE
  5
12B8
  8
0
 39
9.4185000000000016
 10
91.380861194410528
 20
57.286768068705541
 30
0.0
 11
92.496199964410536
 21
56.826956898705518
 31
0.0
  0
LINE
  5
12B9
  8
0
 39
9.4185000000000016
 10
90.400960454410509
 20
57.819478428705523
 30
0.0
 11
91.380861194410528
 21
57.286768068705541
 31
0.0
  0
LINE
  5
12BA
  8
0
 39
9.4185000000000016
 10
90.400960454410509
 20
57.819478428705523
 30
0.0
 11
90.400960454410509
 21
57.819478428705523
 31
0.0
  0
LINE
  5
12BB
  8
0
 39
9.4185000000000016
 10
90.343750560701835
 20
57.608838080655801
 30
0.0
 11
90.417842695485945
 21
57.810300616756038
 31
0.0
  0
LINE
  5
12BC
  8
0
 39
9.4185000000000016
 10
90.21019623070184
 20
57.3330644006558
 30
0.0
 11
90.343750560701835
 21
57.608838080655801
 31
0.0
  0
LINE
  5
12BD
  8
0
 39
9.4185000000000016
 10
90.051588690701834
 20
57.072548690655793
 30
0.0
 11
90.21019623070184
 21
57.3330644006558
 31
0.0
  0
LINE
  5
12BE
  8
0
 39
9.4185000000000016
 10
89.869246530701815
 20
56.829363020655819
 30
0.0
 11
90.051588690701834
 21
57.072548690655793
 31
0.0
  0
LINE
  5
12BF
  8
0
 39
9.4185000000000016
 10
89.665430190701827
 20
56.604637610655772
 30
0.0
 11
89.869246530701815
 21
56.829363020655819
 31
0.0
  0
LINE
  5
12C0
  8
0
 39
9.4185000000000016
 10
89.440704780701836
 20
56.400821270655818
 30
0.0
 11
89.665430190701827
 21
56.604637610655772
 31
0.0
  0
LINE
  5
12C1
  8
0
 39
9.4185000000000016
 10
89.197519110701833
 20
56.218479110655821
 30
0.0
 11
89.440704780701836
 21
56.400821270655818
 31
0.0
  0
LINE
  5
12C2
  8
0
 39
9.4185000000000016
 10
88.937003400701826
 20
56.059871570655801
 30
0.0
 11
89.197519110701833
 21
56.218479110655821
 31
0.0
  0
LINE
  5
12C3
  8
0
 39
9.4185000000000016
 10
88.661229720701826
 20
55.92631724065582
 30
0.0
 11
88.937003400701826
 21
56.059871570655801
 31
0.0
  0
LINE
  5
12C4
  8
0
 39
9.4185000000000016
 10
88.371328290701825
 20
55.819699820655813
 30
0.0
 11
88.661229720701826
 21
55.92631724065582
 31
0.0
  0
LINE
  5
12C5
  8
0
 39
9.4185000000000016
 10
88.069371180701822
 20
55.741526270655811
 30
0.0
 11
88.371328290701825
 21
55.819699820655813
 31
0.0
  0
LINE
  5
12C6
  8
0
 39
9.4185000000000016
 10
87.756676980701826
 20
55.693491920655788
 30
0.0
 11
88.069371180701822
 21
55.741526270655811
 31
0.0
  0
LINE
  5
12C7
  8
0
 39
9.4185000000000016
 10
87.435317760701835
 20
55.676915360655812
 30
0.0
 11
87.756676980701826
 21
55.693491920655788
 31
0.0
  0
LINE
  5
12C8
  8
0
 39
9.4185000000000016
 10
86.765474040701847
 20
55.676915360655812
 30
0.0
 11
87.435317760701835
 21
55.676915360655812
 31
0.0
  0
LINE
  5
12C9
  8
0
 39
9.4185000000000016
 10
86.443549710701816
 20
55.693491920655788
 30
0.0
 11
86.765474040701847
 21
55.676915360655812
 31
0.0
  0
LINE
  5
12CA
  8
0
 39
9.4185000000000016
 10
86.130855510701835
 20
55.741526270655811
 30
0.0
 11
86.443549710701816
 21
55.693491920655788
 31
0.0
  0
LINE
  5
12CB
  8
0
 39
9.4185000000000016
 10
85.828710030701828
 20
55.819699820655813
 30
0.0
 11
86.130855510701835
 21
55.741526270655811
 31
0.0
  0
LINE
  5
12CC
  8
0
 39
9.4185000000000016
 10
85.538996970701845
 20
55.92631724065582
 30
0.0
 11
85.828710030701828
 21
55.819699820655813
 31
0.0
  0
LINE
  5
12CD
  8
0
 39
9.4185000000000016
 10
85.262846550701823
 20
56.059871570655801
 30
0.0
 11
85.538996970701845
 21
55.92631724065582
 31
0.0
  0
LINE
  5
12CE
  8
0
 39
9.4185000000000016
 10
85.002519210701834
 20
56.218479110655821
 30
0.0
 11
85.262846550701823
 21
56.059871570655801
 31
0.0
  0
LINE
  5
12CF
  8
0
 39
9.4185000000000016
 10
84.759145170701856
 20
56.400821270655818
 30
0.0
 11
85.002519210701834
 21
56.218479110655821
 31
0.0
  0
LINE
  5
12D0
  8
0
 39
9.4185000000000016
 10
84.534984870701834
 20
56.604637610655772
 30
0.0
 11
84.759145170701856
 21
56.400821270655818
 31
0.0
  0
LINE
  5
12D1
  8
0
 39
9.4185000000000016
 10
84.330603420701834
 20
56.829363020655819
 30
0.0
 11
84.534984870701834
 21
56.604637610655772
 31
0.0
  0
LINE
  5
12D2
  8
0
 39
9.4185000000000016
 10
84.148449630701833
 20
57.072548690655793
 30
0.0
 11
84.330603420701834
 21
56.829363020655819
 31
0.0
  0
LINE
  5
12D3
  8
0
 39
9.4185000000000016
 10
83.989842090701828
 20
57.3330644006558
 30
0.0
 11
84.148449630701833
 21
57.072548690655793
 31
0.0
  0
LINE
  5
12D4
  8
0
 39
9.4185000000000016
 10
83.856664500701797
 20
57.608838080655801
 30
0.0
 11
83.989842090701828
 21
57.3330644006558
 31
0.0
  0
LINE
  5
12D5
  8
0
 39
9.4185000000000016
 10
83.74985871070183
 20
57.898739510655808
 30
0.0
 11
83.856664500701797
 21
57.608838080655801
 31
0.0
  0
LINE
  5
12D6
  8
0
 39
9.4185000000000016
 10
90.400960454410509
 20
63.590248292834978
 30
0.0
 11
90.400960454410509
 21
57.819478428705523
 31
0.0
  0
LINE
  5
12D8
  8
0
 39
9.4185000000000016
 10
87.435317760701835
 20
65.67706317584549
 30
0.0
 11
86.765474040701847
 21
65.67706317584549
 31
0.0
  0
LINE
  5
12D9
  8
0
 39
9.4185000000000016
 10
86.765474040701847
 20
65.67706317584549
 30
0.0
 11
86.765474040701847
 21
65.67706317584549
 31
0.0
  0
LINE
  5
12DA
  8
0
 39
9.4185000000000016
 10
86.765474040701847
 20
65.67706317584549
 30
0.0
 11
86.443549710701816
 21
65.660863355845493
 31
0.0
  0
LINE
  5
12DB
  8
0
 39
9.4185000000000016
 10
86.443549710701816
 20
65.660863355845493
 30
0.0
 11
86.130855510701835
 21
65.612829005845484
 31
0.0
  0
LINE
  5
12DC
  8
0
 39
9.4185000000000016
 10
86.130855510701835
 20
65.612829005845484
 30
0.0
 11
85.828710030701828
 21
65.534843825845485
 31
0.0
  0
LINE
  5
12DD
  8
0
 39
9.4185000000000016
 10
85.828710030701828
 20
65.534843825845485
 30
0.0
 11
85.538996970701845
 21
65.428038035845475
 31
0.0
  0
LINE
  5
12DE
  8
0
 39
9.4185000000000016
 10
85.538996970701845
 20
65.428038035845475
 30
0.0
 11
85.262846550701823
 21
65.294860445845501
 31
0.0
  0
LINE
  5
12DF
  8
0
 39
9.4185000000000016
 10
85.262846550701823
 20
65.294860445845501
 30
0.0
 11
85.002519210701834
 21
65.136252905845481
 31
0.0
  0
LINE
  5
12E0
  8
0
 39
9.4185000000000016
 10
84.759145170701856
 20
64.95409911584548
 30
0.0
 11
84.534984870701834
 21
64.749717665845495
 31
0.0
  0
LINE
  5
12E1
  8
0
 39
9.4185000000000016
 10
84.534984870701834
 20
64.749717665845495
 30
0.0
 11
84.330603420701834
 21
64.525557365845486
 31
0.0
  0
LINE
  5
12E2
  8
0
 39
9.4185000000000016
 10
84.330603420701834
 20
64.525557365845486
 30
0.0
 11
84.148449630701833
 21
64.282183325845494
 31
0.0
  0
LINE
  5
12E3
  8
0
 39
9.4185000000000016
 10
84.148449630701833
 20
64.282183325845494
 30
0.0
 11
83.989842090701828
 21
64.021855985845477
 31
0.0
  0
LINE
  5
12E4
  8
0
 39
9.4185000000000016
 10
83.989842090701828
 20
64.021855985845477
 30
0.0
 11
83.856664500701797
 21
63.745705565845448
 31
0.0
  0
LINE
  5
12E5
  8
0
 39
9.4185000000000016
 10
83.856664500701797
 20
63.745705565845448
 30
0.0
 11
83.74985871070183
 21
63.455992505845472
 31
0.0
  0
LINE
  5
12E6
  8
0
 39
9.4185000000000016
 10
93.726632804410542
 20
64.933793577416424
 30
0.0
 11
95.053134344410537
 21
65.25044354741641
 31
0.0
  0
LINE
  5
12E7
  8
0
 39
9.4185000000000016
 10
92.496199964410536
 20
64.545939747416426
 30
0.0
 11
93.726632804410542
 21
64.933793577416424
 31
0.0
  0
LINE
  5
12E8
  8
0
 39
9.4185000000000016
 10
91.380861194410528
 20
64.086128577416403
 30
0.0
 11
92.496199964410536
 21
64.545939747416426
 31
0.0
  0
LINE
  5
12E9
  8
0
 39
9.4185000000000016
 10
90.400960454410509
 20
63.553418217416421
 30
0.0
 11
91.380861194410528
 21
64.086128577416403
 31
0.0
  0
LINE
  5
12EA
  8
0
 39
9.4185000000000016
 10
90.400960454410509
 20
63.553418217416421
 30
0.0
 11
90.400960454410509
 21
63.553418217416421
 31
0.0
  0
LINE
  5
12EB
  8
0
 39
9.4185000000000016
 10
96.455172254410542
 20
65.496454767416424
 30
0.0
 11
97.913721164410546
 21
65.67314582741642
 31
0.0
  0
LINE
  5
12EC
  8
0
 39
9.4185000000000016
 10
95.053134344410537
 20
65.25044354741641
 30
0.0
 11
96.455172254410542
 21
65.496454767416424
 31
0.0
  0
LINE
  5
12ED
  8
0
 39
9.4185000000000016
 10
93.726632804410542
 20
64.933793577416424
 30
0.0
 11
95.053134344410537
 21
65.25044354741641
 31
0.0
  0
LINE
  5
12EE
  8
0
 39
9.4185000000000016
 10
92.496199964410536
 20
64.545939747416426
 30
0.0
 11
93.726632804410542
 21
64.933793577416424
 31
0.0
  0
LINE
  5
12EF
  8
0
 39
9.4185000000000016
 10
91.380861194410528
 20
64.086128577416403
 30
0.0
 11
92.496199964410536
 21
64.545939747416426
 31
0.0
  0
LINE
  5
12F0
  8
0
 39
9.4185000000000016
 10
90.400960454410509
 20
63.553418217416421
 30
0.0
 11
91.380861194410528
 21
64.086128577416403
 31
0.0
  0
LINE
  5
12F1
  8
0
 39
9.4185000000000016
 10
90.400960454410509
 20
63.553418217416421
 30
0.0
 11
90.400960454410509
 21
63.553418217416421
 31
0.0
  0
LINE
  5
12F2
  8
0
 39
9.4185000000000016
 10
97.913721164410546
 20
65.67314582741642
 30
0.0
 11
97.966026733153626
 21
65.676915360655812
 31
0.0
  0
LINE
  5
12F3
  8
0
 39
9.4185000000000016
 10
85.002519210701834
 20
65.136252905845481
 30
0.0
 11
84.759145170701856
 21
64.95409911584548
 31
0.0
  0
LINE
  5
12F4
  8
0
 10
86.765474040701847
 20
55.676915360655812
 30
0.0
 11
100.7356921344105
 21
55.676915360655812
 31
0.0
  0
LINE
  5
12F5
  8
0
 10
83.735692134410542
 20
63.401105577412551
 30
0.0
 11
83.735692134410542
 21
57.953592220305417
 31
0.0
  0
LINE
  5
12F6
  8
0
 10
86.762536643502173
 20
65.676915360655812
 30
0.0
 11
100.7356921344106
 21
65.676915360655812
 31
0.0
  0
POLYLINE
  5
131E
  8
2
 66
     1
 10
0.0
 20
0.0
 30
0.0
 39
58.5
  0
VERTEX
  5
163C
  8
2
 10
108.9972961344106
 20
70.676915360655812
 30
0.0
  0
VERTEX
  5
163D
  8
2
 10
108.9972961344106
 20
65.676915360655812
 30
0.0
  0
SEQEND
  5
163E
  8
2
  0
POLYLINE
  5
131F
  8
2
 66
     1
 10
0.0
 20
0.0
 30
0.0
 39
58.5
  0
VERTEX
  5
163F
  8
2
 10
108.9972961344106
 20
55.676915360655812
 30
0.0
  0
VERTEX
  5
1640
  8
2
 10
108.9972961344106
 20
44.854510086114331
 30
0.0
  0
SEQEND
  5
1641
  8
2
  0
POLYLINE
  5
1320
  8
2
 66
     1
 10
0.0
 20
0.0
 30
0.0
 39
58.5
  0
VERTEX
  5
1642
  8
2
 10
108.9972961344106
 20
84.203232173575444
 30
0.0
  0
VERTEX
  5
1643
  8
2
 10
108.9972961344106
 20
80.676915360655784
 30
0.0
  0
SEQEND
  5
1644
  8
2
  0
LINE
  5
1321
  8
1
 10
106.85385613441051
 20
44.422758010642639
 30
0.0
 11
106.85385613441061
 21
16.422758010642621
 31
0.0
  0
LINE
  5
1322
  8
1
 10
108.3435001344106
 20
44.422758010642639
 30
0.0
 11
108.3435001344106
 21
16.422758010642621
 31
0.0
  0
LINE
  5
1323
  8
1
 10
107.5986781344106
 20
44.422758010642639
 30
0.0
 11
107.5986781344106
 21
16.422758010642621
 31
0.0
  0
LINE
  5
1324
  8
0
 39
11.699999999999999
 10
106.6198561344106
 20
44.422758010642639
 30
0.0
 11
106.6198561344106
 21
16.42172989113471
 31
0.0
  0
LINE
  5
1325
  8
0
 39
11.699999999999999
 10
105.2639541344106
 20
16.422758010642621
 30
0.0
 11
105.2639541344106
 21
16.422758010642621
 31
0.0
  0
LINE
  5
1326
  8
0
 39
11.699999999999999
 10
105.2639541344106
 20
16.422758010642621
 30
0.0
 11
105.36527613441061
 21
16.415738010642642
 31
0.0
  0
LINE
  5
1327
  8
0
 39
11.699999999999999
 10
105.36527613441061
 20
16.415738010642642
 30
0.0
 11
105.4633221344106
 21
16.394678010642629
 31
0.0
  0
LINE
  5
1328
  8
0
 39
11.699999999999999
 10
105.4633221344106
 20
16.394678010642629
 30
0.0
 11
105.55832613441061
 21
16.36028001064259
 31
0.0
  0
LINE
  5
1329
  8
0
 39
11.699999999999999
 10
105.55832613441061
 20
16.36028001064259
 30
0.0
 11
105.6491181344106
 21
16.31301201064262
 31
0.0
  0
LINE
  5
132A
  8
0
 39
11.699999999999999
 10
105.6491181344106
 20
16.31301201064262
 30
0.0
 11
105.7359321344106
 21
16.254278010642601
 31
0.0
  0
LINE
  5
132B
  8
0
 39
11.699999999999999
 10
105.7359321344106
 20
16.254278010642601
 30
0.0
 11
105.8173641344106
 21
16.184078010642601
 31
0.0
  0
LINE
  5
132C
  8
0
 39
11.699999999999999
 10
105.8173641344106
 20
16.184078010642601
 30
0.0
 11
105.8938821344106
 21
16.10358201064259
 31
0.0
  0
LINE
  5
132D
  8
0
 39
11.699999999999999
 10
105.8938821344106
 20
16.10358201064259
 30
0.0
 11
105.9640821344106
 21
16.013258010642581
 31
0.0
  0
LINE
  5
132E
  8
0
 39
11.699999999999999
 10
105.9640821344106
 20
16.013258010642581
 30
0.0
 11
106.02843213441059
 21
15.914276010642601
 31
0.0
  0
LINE
  5
132F
  8
0
 39
11.699999999999999
 10
106.02843213441059
 20
15.914276010642601
 30
0.0
 11
106.08552813441059
 21
15.80687001064258
 31
0.0
  0
LINE
  5
1330
  8
0
 39
11.699999999999999
 10
106.08552813441059
 20
15.80687001064258
 30
0.0
 11
106.1356041344106
 21
15.69174201064261
 31
0.0
  0
LINE
  5
1331
  8
0
 39
11.699999999999999
 10
106.1356041344106
 20
15.69174201064261
 30
0.0
 11
106.17702213441061
 21
15.569828010642601
 31
0.0
  0
LINE
  5
1332
  8
0
 39
11.699999999999999
 10
106.17702213441061
 20
15.569828010642601
 30
0.0
 11
106.2107181344106
 21
15.442064010642619
 31
0.0
  0
LINE
  5
1333
  8
0
 39
11.699999999999999
 10
106.2107181344106
 20
15.442064010642619
 30
0.0
 11
106.2350541344106
 21
15.3084500106426
 31
0.0
  0
LINE
  5
1334
  8
0
 39
11.699999999999999
 10
106.2350541344106
 20
15.3084500106426
 30
0.0
 11
106.25003013441059
 21
15.1701560106426
 31
0.0
  0
LINE
  5
1335
  8
0
 39
11.699999999999999
 10
106.25003013441059
 20
15.1701560106426
 30
0.0
 11
106.25494413441049
 21
15.0278840106426
 31
0.0
  0
LINE
  5
1336
  8
0
 39
11.699999999999999
 10
100.7356921344106
 20
16.422758010642621
 30
0.0
 11
105.2639541344106
 21
16.422758010642621
 31
0.0
  0
LINE
  5
1337
  8
0
 39
11.699999999999999
 10
106.25494413441049
 20
2.845010010642639
 30
0.0
 11
106.25494413441049
 21
2.845010010642639
 31
0.0
  0
LINE
  5
1338
  8
0
 39
11.699999999999999
 10
106.25494413441049
 20
2.845010010642639
 30
0.0
 11
106.25003013441059
 21
2.7034400106426379
 31
0.0
  0
LINE
  5
1339
  8
0
 39
11.699999999999999
 10
106.25003013441059
 20
2.7034400106426379
 30
0.0
 11
106.2350541344106
 21
2.565146010642636
 31
0.0
  0
LINE
  5
133A
  8
0
 39
11.699999999999999
 10
106.2350541344106
 20
2.565146010642636
 30
0.0
 11
106.2107181344106
 21
2.4320000106426249
 31
0.0
  0
LINE
  5
133B
  8
0
 39
11.699999999999999
 10
106.2107181344106
 20
2.4320000106426249
 30
0.0
 11
106.17702213441061
 21
2.3037680106426279
 31
0.0
  0
LINE
  5
133C
  8
0
 39
11.699999999999999
 10
106.17702213441061
 20
2.3037680106426279
 30
0.0
 11
106.1356041344106
 21
2.182088010642659
 31
0.0
  0
LINE
  5
133D
  8
0
 39
11.699999999999999
 10
106.1356041344106
 20
2.182088010642659
 30
0.0
 11
106.08552813441059
 21
2.06696001064266
 31
0.0
  0
LINE
  5
133E
  8
0
 39
11.699999999999999
 10
106.08552813441059
 20
2.06696001064266
 30
0.0
 11
106.02843213441059
 21
1.959554010642635
 31
0.0
  0
LINE
  5
133F
  8
0
 39
11.699999999999999
 10
106.02843213441059
 20
1.959554010642635
 30
0.0
 11
105.9640821344106
 21
1.8601040106426441
 31
0.0
  0
LINE
  5
1340
  8
0
 39
11.699999999999999
 10
105.9640821344106
 20
1.8601040106426441
 30
0.0
 11
105.8938821344106
 21
1.770248010642647
 31
0.0
  0
LINE
  5
1341
  8
0
 39
11.699999999999999
 10
105.8938821344106
 20
1.770248010642647
 30
0.0
 11
105.8173641344106
 21
1.6895180106426011
 31
0.0
  0
LINE
  5
1342
  8
0
 39
11.699999999999999
 10
105.8173641344106
 20
1.6895180106426011
 30
0.0
 11
105.7359321344106
 21
1.619552010642636
 31
0.0
  0
LINE
  5
1343
  8
0
 39
11.699999999999999
 10
105.7359321344106
 20
1.619552010642636
 30
0.0
 11
105.6491181344106
 21
1.5603500106426089
 31
0.0
  0
LINE
  5
1344
  8
0
 39
11.699999999999999
 10
105.6491181344106
 20
1.5603500106426089
 30
0.0
 11
105.55832613441061
 21
1.5135500106426181
 31
0.0
  0
LINE
  5
1345
  8
0
 39
11.699999999999999
 10
105.55832613441061
 20
1.5135500106426181
 30
0.0
 11
105.4633221344106
 21
1.478684010642624
 31
0.0
  0
LINE
  5
1346
  8
0
 39
11.699999999999999
 10
105.66420013441061
 20
-7.5772419893573746
 30
0.0
 11
107.2001761344106
 21
-6.4072419893573871
 31
0.0
  0
LINE
  5
1347
  8
0
 39
11.699999999999999
 10
107.2001761344106
 20
-6.4072419893573871
 30
0.0
 11
107.2001761344106
 21
1.422758010642625
 31
0.0
  0
LINE
  5
1348
  8
0
 39
11.699999999999999
 10
105.4633221344106
 20
1.478684010642624
 30
0.0
 11
105.20295553441061
 21
1.4227580106426529
 31
0.0
  0
LINE
  5
1349
  8
0
 39
11.699999999999999
 10
100.7356921344106
 20
-7.5772419893573746
 30
0.0
 11
105.66420013441061
 21
-7.5772419893573746
 31
0.0
  0
LINE
  5
134B
  8
0
 39
11.699999999999999
 10
106.25494413441049
 20
15.0278840106426
 30
0.0
 11
106.25494413441049
 21
2.845010010642639
 31
0.0
  0
LINE
  5
134C
  8
1
 10
100.7356921344106
 20
16.422758010642621
 30
0.0
 11
107.7757101344106
 21
16.422758010642621
 31
0.0
  0
LINE
  5
134D
  8
0
 10
110.4255261344106
 20
1.422758010642625
 30
0.0
 11
100.7356921344106
 21
1.422758010642625
 31
0.0
  0
LINE
  5
134E
  8
0
 10
107.2001761344106
 20
-6.4072419893573871
 30
0.0
 11
100.7356921344106
 21
-6.4072419893573871
 31
0.0
  0
LINE
  5
134F
  8
1
 10
108.5205321344105
 20
16.422758010642621
 30
0.0
 11
110.4255261344106
 21
16.422758010642621
 31
0.0
  0
LINE
  5
1350
  8
2
 10
106.0301761344106
 20
1.422758010642621
 30
0.0
 11
106.0301761344106
 21
-7.2984668522458227
 31
0.0
  0
LINE
  5
1351
  8
0
 39
9.4185000000000016
 10
106.4182499244107
 20
65.25044354741641
 30
0.0
 11
105.0162120144107
 21
65.496454767416424
 31
0.0
  0
LINE
  5
1352
  8
0
 39
9.4185000000000016
 10
115.6426742381194
 20
65.534843825845485
 30
0.0
 11
115.93238729811939
 21
65.428038035845475
 31
0.0
  0
LINE
  5
1354
  8
0
 39
9.4185000000000016
 10
116.46886505811941
 20
65.136252905845481
 30
0.0
 11
116.7122390981194
 21
64.95409911584548
 31
0.0
  0
LINE
  5
1355
  8
0
 39
9.4185000000000016
 10
111.0704238144107
 20
63.553418217416421
 30
0.0
 11
111.0704238144107
 21
63.553418217416421
 31
0.0
  0
LINE
  5
1356
  8
0
 39
9.4185000000000016
 10
111.0704238144107
 20
63.553418217416421
 30
0.0
 11
110.0905230744107
 21
64.086128577416403
 31
0.0
  0
LINE
  5
1357
  8
0
 39
9.4185000000000016
 10
110.0905230744107
 20
64.086128577416403
 30
0.0
 11
108.9751843044107
 21
64.545939747416426
 31
0.0
  0
LINE
  5
1358
  8
0
 39
9.4185000000000016
 10
108.9751843044107
 20
64.545939747416426
 30
0.0
 11
107.7447514644107
 21
64.933793577416424
 31
0.0
  0
LINE
  5
1359
  8
0
 39
9.4185000000000016
 10
107.7447514644107
 20
64.933793577416424
 30
0.0
 11
106.4182499244107
 21
65.25044354741641
 31
0.0
  0
LINE
  5
135A
  8
0
 39
9.4185000000000016
 10
111.0704238144107
 20
63.553418217416421
 30
0.0
 11
111.0704238144107
 21
63.553418217416421
 31
0.0
  0
LINE
  5
135B
  8
0
 39
9.4185000000000016
 10
111.0704238144107
 20
63.553418217416421
 30
0.0
 11
110.0905230744107
 21
64.086128577416403
 31
0.0
  0
LINE
  5
135C
  8
0
 39
9.4185000000000016
 10
110.0905230744107
 20
64.086128577416403
 30
0.0
 11
108.9751843044107
 21
64.545939747416426
 31
0.0
  0
LINE
  5
135D
  8
0
 39
9.4185000000000016
 10
108.9751843044107
 20
64.545939747416426
 30
0.0
 11
107.7447514644107
 21
64.933793577416424
 31
0.0
  0
LINE
  5
135E
  8
0
 39
9.4185000000000016
 10
107.7447514644107
 20
64.933793577416424
 30
0.0
 11
106.4182499244107
 21
65.25044354741641
 31
0.0
  0
LINE
  5
135F
  8
0
 39
9.4185000000000016
 10
117.6147197681194
 20
63.745705565845448
 30
0.0
 11
117.7215255581194
 21
63.455992505845472
 31
0.0
  0
LINE
  5
1360
  8
0
 39
9.4185000000000016
 10
117.4815421781194
 20
64.021855985845477
 30
0.0
 11
117.6147197681194
 21
63.745705565845448
 31
0.0
  0
LINE
  5
1361
  8
0
 39
9.4185000000000016
 10
117.32293463811941
 20
64.282183325845494
 30
0.0
 11
117.4815421781194
 21
64.021855985845477
 31
0.0
  0
LINE
  5
1362
  8
0
 39
9.4185000000000016
 10
117.14078084811941
 20
64.525557365845486
 30
0.0
 11
117.32293463811941
 21
64.282183325845494
 31
0.0
  0
LINE
  5
1363
  8
0
 39
9.4185000000000016
 10
116.93639939811941
 20
64.749717665845495
 30
0.0
 11
117.14078084811941
 21
64.525557365845486
 31
0.0
  0
LINE
  5
1364
  8
0
 39
9.4185000000000016
 10
116.7122390981194
 20
64.95409911584548
 30
0.0
 11
116.93639939811941
 21
64.749717665845495
 31
0.0
  0
LINE
  5
1365
  8
0
 39
9.4185000000000016
 10
116.2085377181194
 20
65.294860445845501
 30
0.0
 11
116.46886505811941
 21
65.136252905845481
 31
0.0
  0
LINE
  5
1366
  8
0
 39
9.4185000000000016
 10
115.93238729811939
 20
65.428038035845475
 30
0.0
 11
116.2085377181194
 21
65.294860445845501
 31
0.0
  0
LINE
  5
1367
  8
0
 39
9.4185000000000016
 10
111.0704238144107
 20
63.590248292834978
 30
0.0
 11
111.0704238144107
 21
57.819478428705523
 31
0.0
  0
LINE
  5
1368
  8
0
 39
9.4185000000000016
 10
117.7215255581194
 20
57.898739510655808
 30
0.0
 11
117.6147197681194
 21
57.608838080655801
 31
0.0
  0
LINE
  5
1369
  8
0
 39
9.4185000000000016
 10
117.6147197681194
 20
57.608838080655801
 30
0.0
 11
117.4815421781194
 21
57.3330644006558
 31
0.0
  0
LINE
  5
136A
  8
0
 39
9.4185000000000016
 10
117.4815421781194
 20
57.3330644006558
 30
0.0
 11
117.32293463811941
 21
57.072548690655793
 31
0.0
  0
LINE
  5
136B
  8
0
 39
9.4185000000000016
 10
117.32293463811941
 20
57.072548690655793
 30
0.0
 11
117.14078084811941
 21
56.829363020655819
 31
0.0
  0
LINE
  5
136C
  8
0
 39
9.4185000000000016
 10
117.14078084811941
 20
56.829363020655819
 30
0.0
 11
116.93639939811941
 21
56.604637610655772
 31
0.0
  0
LINE
  5
136D
  8
0
 39
9.4185000000000016
 10
116.93639939811941
 20
56.604637610655772
 30
0.0
 11
116.7122390981194
 21
56.400821270655818
 31
0.0
  0
LINE
  5
136E
  8
0
 39
9.4185000000000016
 10
116.7122390981194
 20
56.400821270655818
 30
0.0
 11
116.46886505811941
 21
56.218479110655821
 31
0.0
  0
LINE
  5
136F
  8
0
 39
9.4185000000000016
 10
116.46886505811941
 20
56.218479110655821
 30
0.0
 11
116.2085377181194
 21
56.059871570655801
 31
0.0
  0
LINE
  5
1370
  8
0
 39
9.4185000000000016
 10
116.2085377181194
 20
56.059871570655801
 30
0.0
 11
115.93238729811939
 21
55.92631724065582
 31
0.0
  0
LINE
  5
1371
  8
0
 39
9.4185000000000016
 10
115.93238729811939
 20
55.92631724065582
 30
0.0
 11
115.6426742381194
 21
55.819699820655813
 31
0.0
  0
LINE
  5
1372
  8
0
 39
9.4185000000000016
 10
115.6426742381194
 20
55.819699820655813
 30
0.0
 11
115.3405287581194
 21
55.741526270655811
 31
0.0
  0
LINE
  5
1373
  8
0
 39
9.4185000000000016
 10
115.3405287581194
 20
55.741526270655811
 30
0.0
 11
115.02783455811939
 21
55.693491920655788
 31
0.0
  0
LINE
  5
1374
  8
0
 39
9.4185000000000016
 10
115.02783455811939
 20
55.693491920655788
 30
0.0
 11
114.70591022811939
 21
55.676915360655812
 31
0.0
  0
LINE
  5
1375
  8
0
 39
9.4185000000000016
 10
114.70591022811939
 20
55.676915360655812
 30
0.0
 11
114.0360665081194
 21
55.676915360655812
 31
0.0
  0
LINE
  5
1376
  8
0
 39
9.4185000000000016
 10
114.0360665081194
 20
55.676915360655812
 30
0.0
 11
113.7147072881194
 21
55.693491920655788
 31
0.0
  0
LINE
  5
1377
  8
0
 39
9.4185000000000016
 10
113.7147072881194
 20
55.693491920655788
 30
0.0
 11
113.4020130881194
 21
55.741526270655811
 31
0.0
  0
LINE
  5
1378
  8
0
 39
9.4185000000000016
 10
113.4020130881194
 20
55.741526270655811
 30
0.0
 11
113.1000559781194
 21
55.819699820655813
 31
0.0
  0
LINE
  5
1379
  8
0
 39
9.4185000000000016
 10
113.1000559781194
 20
55.819699820655813
 30
0.0
 11
112.8101545481194
 21
55.92631724065582
 31
0.0
  0
LINE
  5
137A
  8
0
 39
9.4185000000000016
 10
112.8101545481194
 20
55.92631724065582
 30
0.0
 11
112.5343808681194
 21
56.059871570655801
 31
0.0
  0
LINE
  5
137B
  8
0
 39
9.4185000000000016
 10
112.5343808681194
 20
56.059871570655801
 30
0.0
 11
112.27386515811941
 21
56.218479110655821
 31
0.0
  0
LINE
  5
137C
  8
0
 39
9.4185000000000016
 10
112.27386515811941
 20
56.218479110655821
 30
0.0
 11
112.0306794881194
 21
56.400821270655818
 31
0.0
  0
LINE
  5
137D
  8
0
 39
9.4185000000000016
 10
112.0306794881194
 20
56.400821270655818
 30
0.0
 11
111.8059540781194
 21
56.604637610655772
 31
0.0
  0
LINE
  5
137E
  8
0
 39
9.4185000000000016
 10
111.8059540781194
 20
56.604637610655772
 30
0.0
 11
111.6021377381194
 21
56.829363020655819
 31
0.0
  0
LINE
  5
137F
  8
0
 39
9.4185000000000016
 10
111.6021377381194
 20
56.829363020655819
 30
0.0
 11
111.41979557811941
 21
57.072548690655793
 31
0.0
  0
LINE
  5
1380
  8
0
 39
9.4185000000000016
 10
111.41979557811941
 20
57.072548690655793
 30
0.0
 11
111.2611880381194
 21
57.3330644006558
 31
0.0
  0
LINE
  5
1381
  8
0
 39
9.4185000000000016
 10
111.2611880381194
 20
57.3330644006558
 30
0.0
 11
111.1276337081194
 21
57.608838080655801
 31
0.0
  0
LINE
  5
1382
  8
0
 39
9.4185000000000016
 10
111.1276337081194
 20
57.608838080655801
 30
0.0
 11
111.05354157333529
 21
57.810300616756038
 31
0.0
  0
LINE
  5
1383
  8
0
 39
9.4185000000000016
 10
111.0704238144107
 20
57.819478428705523
 30
0.0
 11
111.0704238144107
 21
57.819478428705523
 31
0.0
  0
LINE
  5
1384
  8
0
 39
9.4185000000000016
 10
111.0704238144107
 20
57.819478428705523
 30
0.0
 11
110.0905230744107
 21
57.286768068705541
 31
0.0
  0
LINE
  5
1385
  8
0
 39
9.4185000000000016
 10
110.0905230744107
 20
57.286768068705541
 30
0.0
 11
108.9751843044107
 21
56.826956898705518
 31
0.0
  0
LINE
  5
1386
  8
0
 39
9.4185000000000016
 10
108.9751843044107
 20
56.826956898705518
 30
0.0
 11
107.7447514644107
 21
56.439103068705528
 31
0.0
  0
LINE
  5
1387
  8
0
 39
9.4185000000000016
 10
107.7447514644107
 20
56.439103068705528
 30
0.0
 11
106.4182499244107
 21
56.122453098705527
 31
0.0
  0
LINE
  5
1388
  8
0
 39
9.4185000000000016
 10
106.4182499244107
 20
56.122453098705527
 30
0.0
 11
105.0162120144107
 21
55.876441878705521
 31
0.0
  0
LINE
  5
1389
  8
0
 39
9.4185000000000016
 10
105.0162120144107
 20
55.876441878705521
 30
0.0
 11
103.55766310441069
 21
55.699750818705539
 31
0.0
  0
LINE
  5
138A
  8
0
 39
9.4185000000000016
 10
103.55766310441069
 20
55.699750818705539
 30
0.0
 11
103.2408011629061
 21
55.676915360655812
 31
0.0
  0
LINE
  5
138B
  8
0
 39
9.4185000000000016
 10
117.7215255581194
 20
63.455992505845472
 30
0.0
 11
117.7356921344107
 21
63.401105577412551
 31
0.0
  0
LINE
  5
138C
  8
0
 39
9.4185000000000016
 10
117.7356921344107
 20
57.953592220305417
 30
0.0
 11
117.7215255581194
 21
57.898739510655808
 31
0.0
  0
LINE
  5
138D
  8
0
 39
11.699999999999999
 10
108.3435001344106
 20
44.422758010642639
 30
0.0
 11
100.7356921344106
 21
44.422758010642639
 31
0.0
  0
LINE
  5
138E
  8
0
 10
100.7356921344106
 20
46.002507444604937
 30
0.0
 11
110.7356921344106
 21
46.002507444604937
 31
0.0
  0
LINE
  5
138F
  8
0
 10
114.70591022811939
 20
55.676915360655812
 30
0.0
 11
100.7356921344107
 21
55.676915360655812
 31
0.0
  0
LINE
  5
1390
  8
0
 10
110.7356921344106
 20
55.676915360655812
 30
0.0
 11
110.7356921344106
 21
46.002507444604937
 31
0.0
  0
LINE
  5
1391
  8
0
 10
108.3435001344106
 20
44.422758010642639
 30
0.0
 11
110.7356921344106
 21
46.002507444604937
 31
0.0
  0
LINE
  5
1392
  8
1
 10
106.85385613441051
 20
44.422758010642639
 30
0.0
 11
108.3435001344106
 21
44.422758010642639
 31
0.0
  0
LINE
  5
1393
  8
0
 10
117.7356921344107
 20
63.401105577412551
 30
0.0
 11
117.7356921344107
 21
57.953592220305417
 31
0.0
  0
LINE
  5
1394
  8
0
 39
11.699999999999999
 10
100.7356921344106
 20
116.4227580106426
 30
0.0
 11
103.7356921344106
 21
116.4227580106426
 31
0.0
  0
LINE
  5
1395
  8
0
 39
9.4185000000000016
 10
103.55766310441069
 20
65.67314582741642
 30
0.0
 11
103.5053575356676
 21
65.676915360655812
 31
0.0
  0
LINE
  5
1396
  8
0
 39
9.4185000000000016
 10
105.0162120144107
 20
65.496454767416424
 30
0.0
 11
103.55766310441069
 21
65.67314582741642
 31
0.0
  0
LINE
  5
1397
  8
0
 39
9.4185000000000016
 10
115.3405287581194
 20
65.612829005845484
 30
0.0
 11
115.6426742381194
 21
65.534843825845485
 31
0.0
  0
LINE
  5
1398
  8
0
 39
9.4185000000000016
 10
115.02783455811939
 20
65.660863355845493
 30
0.0
 11
115.3405287581194
 21
65.612829005845484
 31
0.0
  0
LINE
  5
1399
  8
0
 39
9.4185000000000016
 10
114.70591022811939
 20
65.67706317584549
 30
0.0
 11
115.02783455811939
 21
65.660863355845493
 31
0.0
  0
LINE
  5
139A
  8
0
 39
9.4185000000000016
 10
114.70591022811939
 20
65.67706317584549
 30
0.0
 11
114.70591022811939
 21
65.67706317584549
 31
0.0
  0
LINE
  5
139B
  8
0
 39
9.4185000000000016
 10
114.0360665081194
 20
65.67706317584549
 30
0.0
 11
114.70591022811939
 21
65.67706317584549
 31
0.0
  0
LINE
  5
139C
  8
0
 39
11.699999999999999
 10
108.7361521344106
 20
86.265508010642606
 30
0.0
 11
108.7361521344106
 21
84.422758010642625
 31
0.0
  0
LINE
  5
139D
  8
0
 39
11.699999999999999
 10
101.02678813441059
 20
100.5893500106426
 30
0.0
 11
101.8305781344106
 21
100.56361001064261
 31
0.0
  0
LINE
  5
139E
  8
0
 39
11.699999999999999
 10
101.8305781344106
 20
100.56361001064261
 30
0.0
 11
102.6083941344106
 21
100.4784340106426
 31
0.0
  0
LINE
  5
139F
  8
0
 39
11.699999999999999
 10
102.6083941344106
 20
100.4784340106426
 30
0.0
 11
103.3361341344106
 21
100.3347580106426
 31
0.0
  0
LINE
  5
13A0
  8
0
 39
11.699999999999999
 10
103.3361341344106
 20
100.3347580106426
 30
0.0
 11
103.9875901344106
 21
100.13258201064259
 31
0.0
  0
LINE
  5
13A1
  8
0
 39
11.699999999999999
 10
103.9875901344106
 20
100.13258201064259
 30
0.0
 11
104.53866013441061
 21
99.873076010642635
 31
0.0
  0
LINE
  5
13A2
  8
0
 39
11.699999999999999
 10
104.53866013441061
 20
99.873076010642635
 30
0.0
 11
104.9631361344106
 21
99.555772010642627
 31
0.0
  0
LINE
  5
13A3
  8
0
 39
11.699999999999999
 10
104.9631361344106
 20
99.555772010642627
 30
0.0
 11
105.2366821344106
 21
99.181372010642647
 31
0.0
  0
LINE
  5
13A4
  8
0
 39
11.699999999999999
 10
105.2366821344106
 20
99.181372010642647
 30
0.0
 11
105.3330901344106
 21
98.750344010642635
 31
0.0
  0
LINE
  5
13A5
  8
0
 39
11.699999999999999
 10
105.3330901344106
 20
98.750344010642635
 30
0.0
 11
105.3330901344106
 21
88.285162010642622
 31
0.0
  0
LINE
  5
13A6
  8
0
 39
11.699999999999999
 10
107.3527441344106
 20
100.1520040106426
 30
0.0
 11
108.7941841344106
 21
100.1520040106426
 31
0.0
  0
LINE
  5
13A7
  8
0
 39
11.699999999999999
 10
108.7941841344106
 20
100.1520040106426
 30
0.0
 11
108.7941841344106
 21
100.1520040106426
 31
0.0
  0
LINE
  5
13A8
  8
0
 39
11.699999999999999
 10
108.7941841344106
 20
100.1520040106426
 30
0.0
 11
109.0003381344106
 21
100.1417080106426
 31
0.0
  0
LINE
  5
13A9
  8
0
 39
11.699999999999999
 10
109.0003381344106
 20
100.1417080106426
 30
0.0
 11
109.2001741344106
 21
100.1110540106425
 31
0.0
  0
LINE
  5
13AA
  8
0
 39
11.699999999999999
 10
109.2001741344106
 20
100.1110540106425
 30
0.0
 11
109.39345813441059
 21
100.06121201064261
 31
0.0
  0
LINE
  5
13AB
  8
0
 39
11.699999999999999
 10
109.39345813441059
 20
100.06121201064261
 30
0.0
 11
109.5785521344106
 21
99.992884010642626
 31
0.0
  0
LINE
  5
13AC
  8
0
 39
11.699999999999999
 10
109.5785521344106
 20
99.992884010642626
 30
0.0
 11
109.7552221344106
 21
99.907708010642608
 31
0.0
  0
LINE
  5
13AD
  8
0
 39
11.699999999999999
 10
109.7552221344106
 20
99.907708010642608
 30
0.0
 11
109.9218301344106
 21
99.806152010642634
 31
0.0
  0
LINE
  5
13AE
  8
0
 39
11.699999999999999
 10
109.9218301344106
 20
99.806152010642634
 30
0.0
 11
110.07744013441059
 21
99.68985401064262
 31
0.0
  0
LINE
  5
13AF
  8
0
 39
11.699999999999999
 10
110.07744013441059
 20
99.68985401064262
 30
0.0
 11
110.2208821344106
 21
99.559048010642627
 31
0.0
  0
LINE
  5
13B0
  8
0
 39
11.699999999999999
 10
110.2208821344106
 20
99.559048010642627
 30
0.0
 11
110.35168813441059
 21
99.415606010642634
 31
0.0
  0
LINE
  5
13B1
  8
0
 39
11.699999999999999
 10
110.35168813441059
 20
99.415606010642634
 30
0.0
 11
110.46798613441059
 21
99.259996010642624
 31
0.0
  0
LINE
  5
13B2
  8
0
 39
11.699999999999999
 10
110.46798613441059
 20
99.259996010642624
 30
0.0
 11
110.5695421344106
 21
99.093388010642613
 31
0.0
  0
LINE
  5
13B3
  8
0
 39
11.699999999999999
 10
110.5695421344106
 20
99.093388010642613
 30
0.0
 11
110.6547181344106
 21
98.916718010642626
 31
0.0
  0
LINE
  5
13B4
  8
0
 39
11.699999999999999
 10
110.6547181344106
 20
98.916718010642626
 30
0.0
 11
110.72304613441059
 21
98.731624010642605
 31
0.0
  0
LINE
  5
13B5
  8
0
 39
11.699999999999999
 10
110.72304613441059
 20
98.731624010642605
 30
0.0
 11
110.7356921344106
 21
98.682583653835124
 31
0.0
  0
LINE
  5
13B6
  8
0
 39
11.699999999999999
 10
110.8138381344106
 20
88.285162010642622
 30
0.0
 11
110.8138381344106
 21
88.285162010642622
 31
0.0
  0
LINE
  5
13B7
  8
0
 39
11.699999999999999
 10
110.7356921344106
 20
87.735745625666056
 30
0.0
 11
110.72304613441059
 21
87.68682401064261
 31
0.0
  0
LINE
  5
13B8
  8
0
 39
11.699999999999999
 10
110.72304613441059
 20
87.68682401064261
 30
0.0
 11
110.6547181344106
 21
87.501262010642634
 31
0.0
  0
LINE
  5
13B9
  8
0
 39
11.699999999999999
 10
110.6547181344106
 20
87.501262010642634
 30
0.0
 11
110.5695421344106
 21
87.325060010642645
 31
0.0
  0
LINE
  5
13BA
  8
0
 39
11.699999999999999
 10
110.5695421344106
 20
87.325060010642645
 30
0.0
 11
110.46798613441059
 21
87.158452010642634
 31
0.0
  0
LINE
  5
13BB
  8
0
 39
11.699999999999999
 10
110.46798613441059
 20
87.158452010642634
 30
0.0
 11
110.35168813441059
 21
87.002842010642624
 31
0.0
  0
LINE
  5
13BC
  8
0
 39
11.699999999999999
 10
110.35168813441059
 20
87.002842010642624
 30
0.0
 11
110.2208821344106
 21
86.858932010642619
 31
0.0
  0
LINE
  5
13BD
  8
0
 39
11.699999999999999
 10
110.2208821344106
 20
86.858932010642619
 30
0.0
 11
110.07744013441059
 21
86.728594010642624
 31
0.0
  0
LINE
  5
13BE
  8
0
 39
11.699999999999999
 10
110.07744013441059
 20
86.728594010642624
 30
0.0
 11
109.9218301344106
 21
86.611828010642625
 31
0.0
  0
LINE
  5
13BF
  8
0
 39
11.699999999999999
 10
109.9218301344106
 20
86.611828010642625
 30
0.0
 11
109.7552221344106
 21
86.510506010642615
 31
0.0
  0
LINE
  5
13C0
  8
0
 39
11.699999999999999
 10
109.7552221344106
 20
86.510506010642615
 30
0.0
 11
109.5785521344106
 21
86.425096010642605
 31
0.0
  0
LINE
  5
13C1
  8
0
 39
11.699999999999999
 10
109.5785521344106
 20
86.425096010642605
 30
0.0
 11
109.39345813441059
 21
86.357236010642623
 31
0.0
  0
LINE
  5
13C2
  8
0
 39
11.699999999999999
 10
109.39345813441059
 20
86.357236010642623
 30
0.0
 11
109.2001741344106
 21
86.306926010642627
 31
0.0
  0
LINE
  5
13C3
  8
0
 39
11.699999999999999
 10
109.2001741344106
 20
86.306926010642627
 30
0.0
 11
109.0003381344106
 21
86.2762720106426
 31
0.0
  0
LINE
  5
13C4
  8
0
 39
11.699999999999999
 10
109.0003381344106
 20
86.2762720106426
 30
0.0
 11
108.7941841344106
 21
86.265508010642606
 31
0.0
  0
LINE
  5
13C5
  8
0
 39
11.699999999999999
 10
108.7941841344106
 20
86.265508010642606
 30
0.0
 11
107.3527441344106
 21
86.265508010642606
 31
0.0
  0
LINE
  5
13C6
  8
0
 39
11.699999999999999
 10
107.3527441344106
 20
86.265508010642606
 30
0.0
 11
107.3527441344106
 21
86.265508010642606
 31
0.0
  0
LINE
  5
13C7
  8
0
 39
11.699999999999999
 10
107.3527441344106
 20
86.265508010642606
 30
0.0
 11
107.14729213441061
 21
86.2762720106426
 31
0.0
  0
LINE
  5
13C8
  8
0
 39
11.699999999999999
 10
107.14729213441061
 20
86.2762720106426
 30
0.0
 11
106.94722213441059
 21
86.306926010642627
 31
0.0
  0
LINE
  5
13C9
  8
0
 39
11.699999999999999
 10
106.94722213441059
 20
86.306926010642627
 30
0.0
 11
106.7544061344106
 21
86.357236010642623
 31
0.0
  0
LINE
  5
13CA
  8
0
 39
11.699999999999999
 10
106.7544061344106
 20
86.357236010642623
 30
0.0
 11
106.5688441344106
 21
86.425096010642605
 31
0.0
  0
LINE
  5
13CB
  8
0
 39
11.699999999999999
 10
106.5688441344106
 20
86.425096010642605
 30
0.0
 11
106.39264213441059
 21
86.510506010642615
 31
0.0
  0
LINE
  5
13CC
  8
0
 39
11.699999999999999
 10
106.39264213441059
 20
86.510506010642615
 30
0.0
 11
106.2260341344106
 21
86.611828010642625
 31
0.0
  0
LINE
  5
13CD
  8
0
 39
11.699999999999999
 10
106.2260341344106
 20
86.611828010642625
 30
0.0
 11
106.0704241344106
 21
86.728594010642624
 31
0.0
  0
LINE
  5
13CE
  8
0
 39
11.699999999999999
 10
106.0704241344106
 20
86.728594010642624
 30
0.0
 11
105.9265141344106
 21
86.858932010642619
 31
0.0
  0
LINE
  5
13CF
  8
0
 39
11.699999999999999
 10
105.9265141344106
 20
86.858932010642619
 30
0.0
 11
105.7961761344106
 21
87.002842010642624
 31
0.0
  0
LINE
  5
13D0
  8
0
 39
11.699999999999999
 10
105.7961761344106
 20
87.002842010642624
 30
0.0
 11
105.6794101344106
 21
87.158452010642634
 31
0.0
  0
LINE
  5
13D1
  8
0
 39
11.699999999999999
 10
105.6794101344106
 20
87.158452010642634
 30
0.0
 11
105.57808813441061
 21
87.325060010642645
 31
0.0
  0
LINE
  5
13D2
  8
0
 39
11.699999999999999
 10
105.57808813441061
 20
87.325060010642645
 30
0.0
 11
105.4926781344106
 21
87.501262010642634
 31
0.0
  0
LINE
  5
13D3
  8
0
 39
11.699999999999999
 10
105.4926781344106
 20
87.501262010642634
 30
0.0
 11
105.4248181344106
 21
87.68682401064261
 31
0.0
  0
LINE
  5
13D4
  8
0
 39
11.699999999999999
 10
105.4248181344106
 20
87.68682401064261
 30
0.0
 11
105.3745081344106
 21
87.879640010642618
 31
0.0
  0
LINE
  5
13D5
  8
0
 39
11.699999999999999
 10
105.3745081344106
 20
87.879640010642618
 30
0.0
 11
105.34385413441061
 21
88.079710010642614
 31
0.0
  0
LINE
  5
13D6
  8
0
 39
11.699999999999999
 10
105.34385413441061
 20
88.079710010642614
 30
0.0
 11
105.3330901344106
 21
88.285162010642622
 31
0.0
  0
LINE
  5
13D7
  8
0
 39
11.699999999999999
 10
105.3330901344106
 20
88.285162010642622
 30
0.0
 11
105.3330901344106
 21
98.132350010642597
 31
0.0
  0
LINE
  5
13D8
  8
0
 39
11.699999999999999
 10
105.3330901344106
 20
98.132350010642597
 30
0.0
 11
105.3330901344106
 21
98.132350010642597
 31
0.0
  0
LINE
  5
13D9
  8
0
 39
11.699999999999999
 10
105.3330901344106
 20
98.132350010642597
 30
0.0
 11
105.34385413441061
 21
98.338504010642623
 31
0.0
  0
LINE
  5
13DA
  8
0
 39
11.699999999999999
 10
105.34385413441061
 20
98.338504010642623
 30
0.0
 11
105.3745081344106
 21
98.538340010642614
 31
0.0
  0
LINE
  5
13DB
  8
0
 39
11.699999999999999
 10
105.3745081344106
 20
98.538340010642614
 30
0.0
 11
105.4248181344106
 21
98.731624010642605
 31
0.0
  0
LINE
  5
13DC
  8
0
 39
11.699999999999999
 10
105.4248181344106
 20
98.731624010642605
 30
0.0
 11
105.4926781344106
 21
98.916718010642626
 31
0.0
  0
LINE
  5
13DD
  8
0
 39
11.699999999999999
 10
105.4926781344106
 20
98.916718010642626
 30
0.0
 11
105.57808813441061
 21
99.093388010642613
 31
0.0
  0
LINE
  5
13DE
  8
0
 39
11.699999999999999
 10
105.57808813441061
 20
99.093388010642613
 30
0.0
 11
105.6794101344106
 21
99.259996010642624
 31
0.0
  0
LINE
  5
13DF
  8
0
 39
11.699999999999999
 10
105.6794101344106
 20
99.259996010642624
 30
0.0
 11
105.7961761344106
 21
99.415606010642634
 31
0.0
  0
LINE
  5
13E0
  8
0
 39
11.699999999999999
 10
105.7961761344106
 20
99.415606010642634
 30
0.0
 11
105.9265141344106
 21
99.559048010642627
 31
0.0
  0
LINE
  5
13E1
  8
0
 39
11.699999999999999
 10
105.9265141344106
 20
99.559048010642627
 30
0.0
 11
106.0704241344106
 21
99.68985401064262
 31
0.0
  0
LINE
  5
13E2
  8
0
 39
11.699999999999999
 10
106.0704241344106
 20
99.68985401064262
 30
0.0
 11
106.2260341344106
 21
99.806152010642634
 31
0.0
  0
LINE
  5
13E3
  8
0
 39
11.699999999999999
 10
106.2260341344106
 20
99.806152010642634
 30
0.0
 11
106.39264213441059
 21
99.907708010642608
 31
0.0
  0
LINE
  5
13E4
  8
0
 39
11.699999999999999
 10
106.39264213441059
 20
99.907708010642608
 30
0.0
 11
106.5688441344106
 21
99.992884010642626
 31
0.0
  0
LINE
  5
13E5
  8
0
 39
11.699999999999999
 10
106.5688441344106
 20
99.992884010642626
 30
0.0
 11
106.7544061344106
 21
100.06121201064261
 31
0.0
  0
LINE
  5
13E6
  8
0
 39
11.699999999999999
 10
106.7544061344106
 20
100.06121201064261
 30
0.0
 11
106.94722213441059
 21
100.1110540106425
 31
0.0
  0
LINE
  5
13E7
  8
0
 39
11.699999999999999
 10
106.94722213441059
 20
100.1110540106425
 30
0.0
 11
107.14729213441061
 21
100.1417080106426
 31
0.0
  0
LINE
  5
13E8
  8
0
 39
11.699999999999999
 10
107.14729213441061
 20
100.1417080106426
 30
0.0
 11
107.3527441344106
 21
100.1520040106426
 31
0.0
  0
LINE
  5
13E9
  8
0
 39
11.699999999999999
 10
105.3223261344105
 20
88.079710010642614
 30
0.0
 11
105.3330901344106
 21
88.285162010642622
 31
0.0
  0
LINE
  5
13EA
  8
0
 39
11.699999999999999
 10
105.2916721344105
 20
87.879640010642618
 30
0.0
 11
105.3223261344105
 21
88.079710010642614
 31
0.0
  0
LINE
  5
13EB
  8
0
 39
11.699999999999999
 10
105.24136213441049
 20
87.68682401064261
 30
0.0
 11
105.2916721344105
 21
87.879640010642618
 31
0.0
  0
LINE
  5
13EC
  8
0
 39
11.699999999999999
 10
105.1735021344105
 20
87.501262010642634
 30
0.0
 11
105.24136213441049
 21
87.68682401064261
 31
0.0
  0
LINE
  5
13ED
  8
0
 39
11.699999999999999
 10
105.0880921344105
 20
87.325060010642645
 30
0.0
 11
105.1735021344105
 21
87.501262010642634
 31
0.0
  0
LINE
  5
13EE
  8
0
 39
11.699999999999999
 10
104.98677013441061
 20
87.158452010642634
 30
0.0
 11
105.0880921344105
 21
87.325060010642645
 31
0.0
  0
LINE
  5
13EF
  8
0
 39
11.699999999999999
 10
104.87000413441061
 20
87.002842010642624
 30
0.0
 11
104.98677013441061
 21
87.158452010642634
 31
0.0
  0
LINE
  5
13F0
  8
0
 39
11.699999999999999
 10
104.7396661344106
 20
86.858932010642619
 30
0.0
 11
104.87000413441061
 21
87.002842010642624
 31
0.0
  0
LINE
  5
13F1
  8
0
 39
11.699999999999999
 10
104.59575613441061
 20
86.728594010642624
 30
0.0
 11
104.7396661344106
 21
86.858932010642619
 31
0.0
  0
LINE
  5
13F2
  8
0
 39
11.699999999999999
 10
104.4401461344106
 20
86.611828010642625
 30
0.0
 11
104.59575613441061
 21
86.728594010642624
 31
0.0
  0
LINE
  5
13F3
  8
0
 39
11.699999999999999
 10
104.2735381344106
 20
86.510506010642615
 30
0.0
 11
104.4401461344106
 21
86.611828010642625
 31
0.0
  0
LINE
  5
13F4
  8
0
 39
11.699999999999999
 10
104.0973361344106
 20
86.425096010642605
 30
0.0
 11
104.2735381344106
 21
86.510506010642615
 31
0.0
  0
LINE
  5
13F5
  8
0
 39
11.699999999999999
 10
103.91177413441051
 20
86.357236010642623
 30
0.0
 11
104.0973361344106
 21
86.425096010642605
 31
0.0
  0
LINE
  5
13F6
  8
0
 39
11.699999999999999
 10
103.7189581344105
 20
86.306926010642627
 30
0.0
 11
103.91177413441051
 21
86.357236010642623
 31
0.0
  0
LINE
  5
13F7
  8
0
 39
11.699999999999999
 10
103.5188881344105
 20
86.2762720106426
 30
0.0
 11
103.7189581344105
 21
86.306926010642627
 31
0.0
  0
LINE
  5
13F8
  8
0
 39
11.699999999999999
 10
103.31343613441059
 20
86.265508010642606
 30
0.0
 11
103.5188881344105
 21
86.2762720106426
 31
0.0
  0
LINE
  5
13F9
  8
0
 39
11.699999999999999
 10
103.31343613441059
 20
86.265508010642606
 30
0.0
 11
103.31343613441059
 21
86.265508010642606
 31
0.0
  0
LINE
  5
13FB
  8
0
 39
11.699999999999999
 10
100.7356921344106
 20
101.4602980106426
 30
0.0
 11
107.0597761344107
 21
101.4602980106425
 31
0.0
  0
LINE
  5
13FC
  8
0
 39
11.699999999999999
 10
100.7356921344106
 20
100.57730582882439
 30
0.0
 11
101.02678813441059
 21
100.5893500106426
 31
0.0
  0
LINE
  5
13FE
  8
0
 39
9.4185000000000016
 10
114.0360665081193
 20
80.677063175845504
 30
0.0
 11
114.70591022811929
 21
80.677063175845504
 31
0.0
  0
LINE
  5
13FF
  8
0
 39
9.4185000000000016
 10
114.70591022811929
 20
80.677063175845504
 30
0.0
 11
114.70591022811929
 21
80.677063175845504
 31
0.0
  0
LINE
  5
1400
  8
0
 39
9.4185000000000016
 10
114.70591022811929
 20
80.677063175845504
 30
0.0
 11
115.0278345581193
 21
80.660863355845478
 31
0.0
  0
LINE
  5
1401
  8
0
 39
9.4185000000000016
 10
115.0278345581193
 20
80.660863355845478
 30
0.0
 11
115.34052875811931
 21
80.612829005845484
 31
0.0
  0
LINE
  5
1402
  8
0
 39
9.4185000000000016
 10
115.34052875811931
 20
80.612829005845484
 30
0.0
 11
115.6426742381193
 21
80.534843825845485
 31
0.0
  0
LINE
  5
1403
  8
0
 39
9.4185000000000016
 10
115.6426742381193
 20
80.534843825845485
 30
0.0
 11
115.93238729811929
 21
80.428038035845475
 31
0.0
  0
LINE
  5
1404
  8
0
 39
9.4185000000000016
 10
115.93238729811929
 20
80.428038035845475
 30
0.0
 11
116.2085377181193
 21
80.294860445845487
 31
0.0
  0
LINE
  5
1405
  8
0
 39
9.4185000000000016
 10
116.2085377181193
 20
80.294860445845487
 30
0.0
 11
116.46886505811931
 21
80.136252905845467
 31
0.0
  0
LINE
  5
1406
  8
0
 39
9.4185000000000016
 10
116.46886505811931
 20
80.136252905845467
 30
0.0
 11
116.7122390981193
 21
79.95409911584548
 31
0.0
  0
LINE
  5
1407
  8
0
 39
9.4185000000000016
 10
116.7122390981193
 20
79.95409911584548
 30
0.0
 11
116.93639939811931
 21
79.749717665845495
 31
0.0
  0
LINE
  5
1408
  8
0
 39
9.4185000000000016
 10
116.93639939811931
 20
79.749717665845495
 30
0.0
 11
117.14078084811931
 21
79.525557365845486
 31
0.0
  0
LINE
  5
1409
  8
0
 39
9.4185000000000016
 10
117.14078084811931
 20
79.525557365845486
 30
0.0
 11
117.32293463811931
 21
79.282183325845494
 31
0.0
  0
LINE
  5
140A
  8
0
 39
9.4185000000000016
 10
117.32293463811931
 20
79.282183325845494
 30
0.0
 11
117.4815421781193
 21
79.021855985845477
 31
0.0
  0
LINE
  5
140B
  8
0
 39
9.4185000000000016
 10
117.4815421781193
 20
79.021855985845477
 30
0.0
 11
117.6147197681193
 21
78.745705565845455
 31
0.0
  0
LINE
  5
140C
  8
0
 39
9.4185000000000016
 10
117.6147197681193
 20
78.745705565845455
 30
0.0
 11
117.7215255581193
 21
78.455992505845472
 31
0.0
  0
LINE
  5
140D
  8
0
 39
9.4185000000000016
 10
117.7215255581193
 20
78.455992505845472
 30
0.0
 11
117.7356921344106
 21
78.401105577412551
 31
0.0
  0
LINE
  5
140E
  8
0
 39
9.4185000000000016
 10
117.7356921344106
 20
72.953592220305424
 30
0.0
 11
117.7215255581193
 21
72.898739510655815
 31
0.0
  0
LINE
  5
140F
  8
0
 39
9.4185000000000016
 10
117.7215255581193
 20
72.898739510655815
 30
0.0
 11
117.6147197681193
 21
72.608838080655801
 31
0.0
  0
LINE
  5
1410
  8
0
 39
9.4185000000000016
 10
117.6147197681193
 20
72.608838080655801
 30
0.0
 11
117.4815421781193
 21
72.3330644006558
 31
0.0
  0
LINE
  5
1411
  8
0
 39
9.4185000000000016
 10
117.4815421781193
 20
72.3330644006558
 30
0.0
 11
117.32293463811931
 21
72.072548690655793
 31
0.0
  0
LINE
  5
1412
  8
0
 39
9.4185000000000016
 10
117.32293463811931
 20
72.072548690655793
 30
0.0
 11
117.14078084811931
 21
71.829363020655819
 31
0.0
  0
LINE
  5
1413
  8
0
 39
9.4185000000000016
 10
117.14078084811931
 20
71.829363020655819
 30
0.0
 11
116.93639939811931
 21
71.604637610655772
 31
0.0
  0
LINE
  5
1414
  8
0
 39
9.4185000000000016
 10
116.93639939811931
 20
71.604637610655772
 30
0.0
 11
116.7122390981193
 21
71.400821270655825
 31
0.0
  0
LINE
  5
1415
  8
0
 39
9.4185000000000016
 10
116.7122390981193
 20
71.400821270655825
 30
0.0
 11
116.46886505811931
 21
71.218479110655821
 31
0.0
  0
LINE
  5
1416
  8
0
 39
9.4185000000000016
 10
116.46886505811931
 20
71.218479110655821
 30
0.0
 11
116.2085377181193
 21
71.059871570655801
 31
0.0
  0
LINE
  5
1417
  8
0
 39
9.4185000000000016
 10
116.2085377181193
 20
71.059871570655801
 30
0.0
 11
115.93238729811929
 21
70.92631724065582
 31
0.0
  0
LINE
  5
1418
  8
0
 39
9.4185000000000016
 10
115.93238729811929
 20
70.92631724065582
 30
0.0
 11
115.6426742381193
 21
70.819699820655813
 31
0.0
  0
LINE
  5
1419
  8
0
 39
9.4185000000000016
 10
115.6426742381193
 20
70.819699820655813
 30
0.0
 11
115.34052875811931
 21
70.741526270655811
 31
0.0
  0
LINE
  5
141A
  8
0
 39
9.4185000000000016
 10
115.34052875811931
 20
70.741526270655811
 30
0.0
 11
115.0278345581193
 21
70.693491920655788
 31
0.0
  0
LINE
  5
141B
  8
0
 39
9.4185000000000016
 10
115.0278345581193
 20
70.693491920655788
 30
0.0
 11
114.70591022811929
 21
70.676915360655812
 31
0.0
  0
LINE
  5
141C
  8
0
 39
9.4185000000000016
 10
114.70591022811929
 20
70.676915360655812
 30
0.0
 11
114.0360665081193
 21
70.676915360655812
 31
0.0
  0
LINE
  5
141D
  8
0
 39
9.4185000000000016
 10
114.0360665081193
 20
70.676915360655812
 30
0.0
 11
113.7147072881193
 21
70.693491920655788
 31
0.0
  0
LINE
  5
141E
  8
0
 39
9.4185000000000016
 10
113.7147072881193
 20
70.693491920655788
 30
0.0
 11
113.4020130881193
 21
70.741526270655811
 31
0.0
  0
LINE
  5
141F
  8
0
 39
9.4185000000000016
 10
113.4020130881193
 20
70.741526270655811
 30
0.0
 11
113.1000559781193
 21
70.819699820655813
 31
0.0
  0
LINE
  5
1420
  8
0
 39
9.4185000000000016
 10
113.1000559781193
 20
70.819699820655813
 30
0.0
 11
112.8101545481193
 21
70.92631724065582
 31
0.0
  0
LINE
  5
1421
  8
0
 39
9.4185000000000016
 10
112.8101545481193
 20
70.92631724065582
 30
0.0
 11
112.5343808681193
 21
71.059871570655801
 31
0.0
  0
LINE
  5
1422
  8
0
 39
9.4185000000000016
 10
112.5343808681193
 20
71.059871570655801
 30
0.0
 11
112.27386515811931
 21
71.218479110655821
 31
0.0
  0
LINE
  5
1423
  8
0
 39
9.4185000000000016
 10
112.27386515811931
 20
71.218479110655821
 30
0.0
 11
112.0306794881193
 21
71.400821270655825
 31
0.0
  0
LINE
  5
1424
  8
0
 39
9.4185000000000016
 10
112.0306794881193
 20
71.400821270655825
 30
0.0
 11
111.8059540781193
 21
71.604637610655772
 31
0.0
  0
LINE
  5
1425
  8
0
 39
9.4185000000000016
 10
111.8059540781193
 20
71.604637610655772
 30
0.0
 11
111.6021377381193
 21
71.829363020655819
 31
0.0
  0
LINE
  5
1426
  8
0
 39
9.4185000000000016
 10
111.6021377381193
 20
71.829363020655819
 30
0.0
 11
111.41979557811931
 21
72.072548690655793
 31
0.0
  0
LINE
  5
1427
  8
0
 39
9.4185000000000016
 10
111.41979557811931
 20
72.072548690655793
 30
0.0
 11
111.2611880381193
 21
72.3330644006558
 31
0.0
  0
LINE
  5
1428
  8
0
 39
9.4185000000000016
 10
111.2611880381193
 20
72.3330644006558
 30
0.0
 11
111.1276337081193
 21
72.608838080655801
 31
0.0
  0
LINE
  5
1429
  8
0
 39
9.4185000000000016
 10
111.1276337081193
 20
72.608838080655801
 30
0.0
 11
111.0535415733352
 21
72.810300616756038
 31
0.0
  0
LINE
  5
142A
  8
0
 39
9.4185000000000016
 10
111.0704238144106
 20
72.819478428705523
 30
0.0
 11
111.0704238144106
 21
72.819478428705523
 31
0.0
  0
LINE
  5
142B
  8
0
 39
9.4185000000000016
 10
111.0704238144106
 20
72.819478428705523
 30
0.0
 11
110.0905230744106
 21
72.286768068705541
 31
0.0
  0
LINE
  5
142C
  8
0
 39
9.4185000000000016
 10
110.0905230744106
 20
72.286768068705541
 30
0.0
 11
108.9751843044106
 21
71.826956898705518
 31
0.0
  0
LINE
  5
142D
  8
0
 39
9.4185000000000016
 10
108.9751843044106
 20
71.826956898705518
 30
0.0
 11
107.7447514644106
 21
71.439103068705535
 31
0.0
  0
LINE
  5
142E
  8
0
 39
9.4185000000000016
 10
107.7447514644106
 20
71.439103068705535
 30
0.0
 11
106.4182499244106
 21
71.122453098705535
 31
0.0
  0
LINE
  5
142F
  8
0
 39
9.4185000000000016
 10
106.4182499244106
 20
71.122453098705535
 30
0.0
 11
105.0162120144106
 21
70.876441878705521
 31
0.0
  0
LINE
  5
1430
  8
0
 39
9.4185000000000016
 10
105.0162120144106
 20
70.876441878705521
 30
0.0
 11
103.55766310441059
 21
70.699750818705539
 31
0.0
  0
LINE
  5
1431
  8
0
 39
9.4185000000000016
 10
107.7447514644106
 20
79.933793577416424
 30
0.0
 11
106.4182499244106
 21
80.25044354741641
 31
0.0
  0
LINE
  5
1432
  8
0
 39
9.4185000000000016
 10
108.9751843044106
 20
79.545939747416426
 30
0.0
 11
107.7447514644106
 21
79.933793577416424
 31
0.0
  0
LINE
  5
1433
  8
0
 39
9.4185000000000016
 10
110.0905230744106
 20
79.086128577416403
 30
0.0
 11
108.9751843044106
 21
79.545939747416426
 31
0.0
  0
LINE
  5
1434
  8
0
 39
9.4185000000000016
 10
111.0704238144106
 20
78.553418217416421
 30
0.0
 11
110.0905230744106
 21
79.086128577416403
 31
0.0
  0
LINE
  5
1435
  8
0
 39
9.4185000000000016
 10
111.0704238144106
 20
78.553418217416421
 30
0.0
 11
111.0704238144106
 21
78.553418217416421
 31
0.0
  0
LINE
  5
1436
  8
0
 39
9.4185000000000016
 10
111.0704238144106
 20
78.590248292834985
 30
0.0
 11
111.0704238144106
 21
72.819478428705523
 31
0.0
  0
LINE
  5
1437
  8
0
 39
9.4185000000000016
 10
103.55766310441059
 20
70.699750818705539
 30
0.0
 11
103.240801162906
 21
70.676915360655812
 31
0.0
  0
LINE
  5
1438
  8
0
 39
9.4185000000000016
 10
105.0162120144106
 20
80.496454767416424
 30
0.0
 11
103.55766310441059
 21
80.673145827416434
 31
0.0
  0
LINE
  5
1439
  8
0
 39
9.4185000000000016
 10
106.4182499244106
 20
80.25044354741641
 30
0.0
 11
105.0162120144106
 21
80.496454767416424
 31
0.0
  0
LINE
  5
143A
  8
0
 39
9.4185000000000016
 10
107.7447514644106
 20
79.933793577416424
 30
0.0
 11
106.4182499244106
 21
80.25044354741641
 31
0.0
  0
LINE
  5
143B
  8
0
 39
9.4185000000000016
 10
108.9751843044106
 20
79.545939747416426
 30
0.0
 11
107.7447514644106
 21
79.933793577416424
 31
0.0
  0
LINE
  5
143C
  8
0
 39
9.4185000000000016
 10
110.0905230744106
 20
79.086128577416403
 30
0.0
 11
108.9751843044106
 21
79.545939747416426
 31
0.0
  0
LINE
  5
143D
  8
0
 39
9.4185000000000016
 10
111.0704238144106
 20
78.553418217416421
 30
0.0
 11
110.0905230744106
 21
79.086128577416403
 31
0.0
  0
LINE
  5
143E
  8
0
 39
9.4185000000000016
 10
111.0704238144106
 20
78.553418217416421
 30
0.0
 11
111.0704238144106
 21
78.553418217416421
 31
0.0
  0
LINE
  5
143F
  8
0
 39
9.4185000000000016
 10
103.55766310441059
 20
80.673145827416434
 30
0.0
 11
103.5053575356675
 21
80.676915360655812
 31
0.0
  0
LINE
  5
1440
  8
0
 10
110.7356921344106
 20
98.682583653835124
 30
0.0
 11
110.7356921344106
 21
87.735745625666056
 31
0.0
  0
LINE
  5
1441
  8
0
 10
100.7356921344106
 20
82.741881971946071
 30
0.0
 11
110.7356921344106
 21
82.741881971946071
 31
0.0
  0
LINE
  5
1442
  8
0
 10
114.708847625319
 20
65.676915360655812
 30
0.0
 11
100.7356921344106
 21
65.676915360655812
 31
0.0
  0
LINE
  5
1443
  8
0
 10
108.7941841344106
 20
86.265508010642606
 30
0.0
 11
100.7356921344106
 21
86.265508010642606
 31
0.0
  0
LINE
  5
1444
  8
0
 10
108.7361521344106
 20
84.422758010642625
 30
0.0
 11
100.7356921344106
 21
84.422758010642625
 31
0.0
  0
LINE
  5
1445
  8
0
 10
114.7088476253189
 20
80.676915360655812
 30
0.0
 11
100.7356921344105
 21
80.676915360655812
 31
0.0
  0
LINE
  5
1446
  8
0
 10
114.70591022811929
 20
70.676915360655812
 30
0.0
 11
100.7356921344106
 21
70.676915360655812
 31
0.0
  0
LINE
  5
1447
  8
0
 10
117.7356921344106
 20
78.401105577412551
 30
0.0
 11
117.7356921344106
 21
72.953592220305424
 31
0.0
  0
LINE
  5
1448
  8
0
 10
110.7356921344106
 20
70.676915360655826
 30
0.0
 11
110.7356921344106
 21
65.676915360655812
 31
0.0
  0
LINE
  5
1449
  8
0
 10
108.7361521344106
 20
84.422758010642625
 30
0.0
 11
110.7356921344106
 21
82.741881971946071
 31
0.0
  0
LINE
  5
144A
  8
0
 10
110.7356921344106
 20
82.741881971946071
 30
0.0
 11
110.7356921344106
 21
80.676915360655812
 31
0.0
  0
LINE
  5
144B
  8
0
 10
107.0597761344106
 20
111.5415180106426
 30
0.0
 11
107.0597761344106
 21
101.4602980106425
 31
0.0
  0
LINE
  5
144C
  8
0
 10
109.7096830275129
 20
99.929663288670113
 30
0.0
 11
107.0597761344106
 21
101.4602980106426
 31
0.0
  0
LINE
  5
144D
  8
0
 10
103.7356921344106
 20
116.4227580106426
 30
0.0
 11
103.7356921344106
 21
112.61885401064259
 31
0.0
  0
LINE
  5
1473
  8
1
 10
100.7356921344106
 20
-7.5772419893573764
 30
0.0
 11
100.7356921344106
 21
116.9227580106426
 31
0.0
  0
DIMENSION
  5
1480
  8
2
  2
*D1
 10
133.1028732886017
 20
84.422758010642625
 30
0.0
 11
131.22787328860159
 21
100.4227580106426
 31
0.0
 70
     0
 13
103.7356921344106
 23
116.4227580106426
 33
0.0
 14
108.7361521344106
 24
84.422758010642625
 34
0.0
 50
90.0
  0
DIMENSION
  5
148D
  8
2
  2
*D2
 10
133.10287328860159
 20
44.422758010642632
 30
0.0
 11
131.22787328860159
 21
64.422758010642639
 31
0.0
 70
     0
 13
108.7361521344106
 23
84.422758010642625
 33
0.0
 14
108.3435001344106
 24
44.422758010642639
 34
0.0
 50
90.0
  0
DIMENSION
  5
149A
  8
2
  2
*D3
 10
133.10287328860159
 20
16.422758010642621
 30
0.0
 11
131.22787328860159
 21
30.422758010642639
 31
0.0
 70
     0
 13
133.10287328860159
 23
44.422758010642632
 33
0.0
 14
110.4255261344106
 24
16.422758010642621
 34
0.0
 50
90.0
  0
DIMENSION
  5
14B5
  8
2
  2
*D4
 10
133.10287328860159
 20
1.422758010642619
 30
0.0
 11
131.22787328860159
 21
8.9227580106426405
 31
0.0
 70
     0
 13
133.10287328860159
 23
16.422758010642621
 33
0.0
 14
110.4255261344103
 24
1.422758010642625
 34
0.0
 50
90.0
  0
DIMENSION
  5
14C2
  8
2
  2
*D5
 10
133.10287328860159
 20
-7.5772419893573826
 30
0.0
 11
131.22787328860159
 21
-3.0772419893573599
 31
0.0
 70
     0
 13
133.10287328860159
 23
1.422758010642619
 33
0.0
 14
105.66420013441061
 24
-7.5772419893573746
 34
0.0
 50
90.0
  0
DIMENSION
  5
14D0
  8
2
  2
*D6
 10
144.4629404465025
 20
-7.577241989357387
 30
0.0
 11
142.5879404465025
 21
54.422758010642639
 31
0.0
 70
     0
  1
(<>)
 13
134.3528732886017
 23
116.4227580106426
 33
0.0
 14
134.35287328860159
 24
-7.5772419893573844
 34
0.0
 50
90.0
  0
TEXT
  5
14FA
  8
2
 10
67.777043788002288
 20
96.016444800740317
 30
0.0
 40
2.5
  1
H17
  0
TEXT
  5
14FE
  8
2
 10
67.475371234194753
 20
82.493162507177587
 30
0.0
 40
2.5
  1
H30
  0
TEXT
  5
14FF
  8
2
 10
67.475371234194753
 20
48.046277311551869
 30
0.0
 40
2.5
  1
M20
  0
TEXT
  5
1500
  8
2
 10
67.650241214241646
 20
11.83915762897459
 30
0.0
 40
2.5
  1
H20
  0
TEXT
  5
1501
  8
2
 10
67.300500240773204
 20
-6.4972720648266309
 30
0.0
 40
2.5
  1
G1/4
  0
POLYLINE
  8
2
  5
1645
  66
     1
 10
0.000000
 20
0.000000
 30
0.000000
  70
     8
  0
VERTEX
  8
2
  5
1646
 10
90.7357
 20
93.2092
 30
0.000000
  70
    32
  0
VERTEX
  8
2
  5
1647
 10
74.1921
 20
95.5181
 30
0.000000
  70
    32
  0
VERTEX
  8
2
  5
1648
 10
67.0481
 20
95.5221
 30
0.000000
  70
    32
  0
SEQEND
  8
2
  5
1649
  0
POLYLINE
  8
2
  5
164A
  66
     1
 10
0.000000
 20
0.000000
 30
0.000000
  70
     8
  0
VERTEX
  8
2
  5
164B
 10
83.7499
 20
78.4560
 30
0.000000
  70
    32
  0
VERTEX
  8
2
  5
164C
 10
74.1315
 20
82.1924
 30
0.000000
  70
    32
  0
VERTEX
  8
2
  5
164D
 10
66.9157
 20
82.1924
 30
0.000000
  70
    32
  0
SEQEND
  8
2
  5
164E
  0
POLYLINE
  8
2
  5
164F
  66
     1
 10
0.000000
 20
0.000000
 30
0.000000
  70
     8
  0
VERTEX
  8
2
  5
1650
 10
90.7357
 20
50.8397
 30
0.000000
  70
    32
  0
VERTEX
  8
2
  5
1651
 10
74.1315
 20
47.5851
 30
0.000000
  70
    32
  0
VERTEX
  8
2
  5
1652
 10
66.8495
 20
47.5851
 30
0.000000
  70
    32
  0
SEQEND
  8
2
  5
1653
  0
POLYLINE
  8
2
  5
1654
  66
     1
 10
0.000000
 20
0.000000
 30
0.000000
  70
     8
  0
VERTEX
  8
2
  5
1655
 10
89.7357
 20
8.92276
 30
0.000000
  70
    32
  0
VERTEX
  8
2
  5
1656
 10
74.3301
 20
11.5797
 30
0.000000
  70
    32
  0
VERTEX
  8
2
  5
1657
 10
66.9819
 20
11.5797
 30
0.000000
  70
    32
  0
SEQEND
  8
2
  5
1658
  0
POLYLINE
  8
2
  5
1659
  66
     1
 10
0.000000
 20
0.000000
 30
0.000000
  70
     8
  0
VERTEX
  8
2
  5
165A
 10
94.2712
 20
-2.49224
 30
0.000000
  70
    32
  0
VERTEX
  8
2
  5
165B
 10
75.7203
 20
-7.18058
 30
0.000000
  70
    32
  0
VERTEX
  8
2
  5
165C
 10
66.9819
 20
-7.18058
 30
0.000000
  70
    32
  0
SEQEND
  8
2
  5
165D
  0
LINE
  5
1509
  8
2
 10
85.072730820083621
 20
27.422758010642639
 30
0.0
 11
89.003297473852285
 21
27.422758010642639
 31
0.0
  0
DIMENSION
  5
150D
  8
2
  2
*D7
 10
61.696205280051231
 20
27.422758010642639
 30
0.0
 11
59.821205280051217
 21
35.922758010642653
 31
0.0
 70
     0
 13
94.851528134410657
 23
44.422758010642639
 33
0.0
 14
85.072730820083621
 24
27.422758010642639
 34
0.0
 50
90.0
  0
LINE
  5
152B
  8
0
 39
9.4185000000000016
 10
111.0704238144106
 20
78.5902482928349
 30
0.0
 11
111.1276337081193
 21
78.745705565845455
 31
0.0
  0
LINE
  5
152C
  8
0
 39
9.4185000000000016
 10
111.1276337081193
 20
78.745705565845455
 30
0.0
 11
111.2611880381193
 21
79.021855985845477
 31
0.0
  0
LINE
  5
152D
  8
0
 39
9.4185000000000016
 10
111.2611880381193
 20
79.021855985845477
 30
0.0
 11
111.41979557811931
 21
79.282183325845494
 31
0.0
  0
LINE
  5
152E
  8
0
 39
9.4185000000000016
 10
111.41979557811931
 20
79.282183325845494
 30
0.0
 11
111.6021377381193
 21
79.525557365845486
 31
0.0
  0
LINE
  5
152F
  8
0
 39
9.4185000000000016
 10
111.6021377381193
 20
79.525557365845486
 30
0.0
 11
111.8059540781193
 21
79.74971766584548
 31
0.0
  0
LINE
  5
1530
  8
0
 39
9.4185000000000016
 10
111.8059540781193
 20
79.74971766584548
 30
0.0
 11
112.0306794881193
 21
79.95409911584548
 31
0.0
  0
LINE
  5
1531
  8
0
 39
9.4185000000000016
 10
112.0306794881193
 20
79.95409911584548
 30
0.0
 11
112.27386515811931
 21
80.136252905845467
 31
0.0
  0
LINE
  5
1532
  8
0
 39
9.4185000000000016
 10
112.27386515811931
 20
80.136252905845467
 30
0.0
 11
112.5343808681193
 21
80.294860445845487
 31
0.0
  0
LINE
  5
1533
  8
0
 39
9.4185000000000016
 10
112.5343808681193
 20
80.294860445845487
 30
0.0
 11
112.8101545481193
 21
80.428038035845475
 31
0.0
  0
LINE
  5
1534
  8
0
 39
9.4185000000000016
 10
112.8101545481193
 20
80.428038035845475
 30
0.0
 11
113.1000559781193
 21
80.534843825845485
 31
0.0
  0
LINE
  5
1535
  8
0
 39
9.4185000000000016
 10
113.1000559781193
 20
80.534843825845485
 30
0.0
 11
113.4020130881193
 21
80.61282900584547
 31
0.0
  0
LINE
  5
1536
  8
0
 39
9.4185000000000016
 10
113.4020130881193
 20
80.61282900584547
 30
0.0
 11
113.7147072881193
 21
80.660863355845478
 31
0.0
  0
LINE
  5
1537
  8
0
 39
9.4185000000000016
 10
113.7147072881193
 20
80.660863355845478
 30
0.0
 11
114.0360665081193
 21
80.677063175845504
 31
0.0
  0
LINE
  5
1538
  8
0
 39
9.4185000000000016
 10
90.400960454410622
 20
78.5902482928349
 30
0.0
 11
90.343750560701935
 21
78.745705565845455
 31
0.0
  0
LINE
  5
1539
  8
0
 39
9.4185000000000016
 10
90.343750560701935
 20
78.745705565845455
 30
0.0
 11
90.210196230701953
 21
79.021855985845477
 31
0.0
  0
LINE
  5
153A
  8
0
 39
9.4185000000000016
 10
90.210196230701953
 20
79.021855985845477
 30
0.0
 11
90.051588690701934
 21
79.282183325845494
 31
0.0
  0
LINE
  5
153B
  8
0
 39
9.4185000000000016
 10
90.051588690701934
 20
79.282183325845494
 30
0.0
 11
89.869246530701929
 21
79.525557365845486
 31
0.0
  0
LINE
  5
153C
  8
0
 39
9.4185000000000016
 10
89.869246530701929
 20
79.525557365845486
 30
0.0
 11
89.665430190701926
 21
79.74971766584548
 31
0.0
  0
LINE
  5
153D
  8
0
 39
9.4185000000000016
 10
89.665430190701926
 20
79.74971766584548
 30
0.0
 11
89.440704780701935
 21
79.95409911584548
 31
0.0
  0
LINE
  5
153E
  8
0
 39
9.4185000000000016
 10
89.440704780701935
 20
79.95409911584548
 30
0.0
 11
89.197519110701947
 21
80.136252905845467
 31
0.0
  0
LINE
  5
153F
  8
0
 39
9.4185000000000016
 10
89.197519110701947
 20
80.136252905845467
 30
0.0
 11
88.937003400701911
 21
80.294860445845487
 31
0.0
  0
LINE
  5
1540
  8
0
 39
9.4185000000000016
 10
88.937003400701911
 20
80.294860445845487
 30
0.0
 11
88.661229720701925
 21
80.428038035845475
 31
0.0
  0
LINE
  5
1541
  8
0
 39
9.4185000000000016
 10
88.661229720701925
 20
80.428038035845475
 30
0.0
 11
88.371328290701925
 21
80.534843825845485
 31
0.0
  0
LINE
  5
1542
  8
0
 39
9.4185000000000016
 10
88.371328290701925
 20
80.534843825845485
 30
0.0
 11
88.069371180701935
 21
80.61282900584547
 31
0.0
  0
LINE
  5
1543
  8
0
 39
9.4185000000000016
 10
88.069371180701935
 20
80.61282900584547
 30
0.0
 11
87.756676980701926
 21
80.660863355845478
 31
0.0
  0
LINE
  5
1544
  8
0
 39
9.4185000000000016
 10
87.756676980701926
 20
80.660863355845478
 30
0.0
 11
87.435317760701935
 21
80.677063175845504
 31
0.0
  0
LINE
  5
1545
  8
0
 39
9.4185000000000016
 10
111.0704238144107
 20
63.5902482928349
 30
0.0
 11
111.1276337081194
 21
63.745705565845448
 31
0.0
  0
LINE
  5
1546
  8
0
 39
9.4185000000000016
 10
111.1276337081194
 20
63.745705565845448
 30
0.0
 11
111.2611880381194
 21
64.021855985845477
 31
0.0
  0
LINE
  5
1547
  8
0
 39
9.4185000000000016
 10
111.2611880381194
 20
64.021855985845477
 30
0.0
 11
111.41979557811941
 21
64.282183325845494
 31
0.0
  0
LINE
  5
1548
  8
0
 39
9.4185000000000016
 10
111.41979557811941
 20
64.282183325845494
 30
0.0
 11
111.6021377381194
 21
64.525557365845486
 31
0.0
  0
LINE
  5
1549
  8
0
 39
9.4185000000000016
 10
111.6021377381194
 20
64.525557365845486
 30
0.0
 11
111.8059540781194
 21
64.74971766584548
 31
0.0
  0
LINE
  5
154A
  8
0
 39
9.4185000000000016
 10
111.8059540781194
 20
64.74971766584548
 30
0.0
 11
112.0306794881194
 21
64.95409911584548
 31
0.0
  0
LINE
  5
154B
  8
0
 39
9.4185000000000016
 10
112.0306794881194
 20
64.95409911584548
 30
0.0
 11
112.27386515811941
 21
65.136252905845481
 31
0.0
  0
LINE
  5
154C
  8
0
 39
9.4185000000000016
 10
112.27386515811941
 20
65.136252905845481
 30
0.0
 11
112.5343808681194
 21
65.294860445845501
 31
0.0
  0
LINE
  5
154D
  8
0
 39
9.4185000000000016
 10
112.5343808681194
 20
65.294860445845501
 30
0.0
 11
112.8101545481194
 21
65.428038035845475
 31
0.0
  0
LINE
  5
154E
  8
0
 39
9.4185000000000016
 10
112.8101545481194
 20
65.428038035845475
 30
0.0
 11
113.1000559781194
 21
65.534843825845485
 31
0.0
  0
LINE
  5
154F
  8
0
 39
9.4185000000000016
 10
113.1000559781194
 20
65.534843825845485
 30
0.0
 11
113.4020130881194
 21
65.61282900584547
 31
0.0
  0
LINE
  5
1550
  8
0
 39
9.4185000000000016
 10
113.4020130881194
 20
65.61282900584547
 30
0.0
 11
113.7147072881194
 21
65.660863355845493
 31
0.0
  0
LINE
  5
1551
  8
0
 39
9.4185000000000016
 10
113.7147072881194
 20
65.660863355845493
 30
0.0
 11
114.0360665081194
 21
65.67706317584549
 31
0.0
  0
LINE
  5
1552
  8
0
 39
9.4185000000000016
 10
90.400960454410509
 20
63.5902482928349
 30
0.0
 11
90.343750560701835
 21
63.745705565845448
 31
0.0
  0
LINE
  5
1553
  8
0
 39
9.4185000000000016
 10
90.343750560701835
 20
63.745705565845448
 30
0.0
 11
90.210196230701854
 21
64.021855985845477
 31
0.0
  0
LINE
  5
1554
  8
0
 39
9.4185000000000016
 10
90.210196230701854
 20
64.021855985845477
 30
0.0
 11
90.051588690701834
 21
64.282183325845494
 31
0.0
  0
LINE
  5
1555
  8
0
 39
9.4185000000000016
 10
90.051588690701834
 20
64.282183325845494
 30
0.0
 11
89.869246530701815
 21
64.525557365845486
 31
0.0
  0
LINE
  5
1556
  8
0
 39
9.4185000000000016
 10
89.869246530701815
 20
64.525557365845486
 30
0.0
 11
89.665430190701827
 21
64.74971766584548
 31
0.0
  0
LINE
  5
1557
  8
0
 39
9.4185000000000016
 10
89.665430190701827
 20
64.74971766584548
 30
0.0
 11
89.440704780701836
 21
64.95409911584548
 31
0.0
  0
LINE
  5
1558
  8
0
 39
9.4185000000000016
 10
89.440704780701836
 20
64.95409911584548
 30
0.0
 11
89.197519110701833
 21
65.136252905845481
 31
0.0
  0
LINE
  5
1559
  8
0
 39
9.4185000000000016
 10
89.197519110701833
 20
65.136252905845481
 30
0.0
 11
88.937003400701798
 21
65.294860445845501
 31
0.0
  0
LINE
  5
155A
  8
0
 39
9.4185000000000016
 10
88.937003400701798
 20
65.294860445845501
 30
0.0
 11
88.661229720701812
 21
65.428038035845475
 31
0.0
  0
LINE
  5
155B
  8
0
 39
9.4185000000000016
 10
88.661229720701812
 20
65.428038035845475
 30
0.0
 11
88.371328290701825
 21
65.534843825845485
 31
0.0
  0
LINE
  5
155C
  8
0
 39
9.4185000000000016
 10
88.371328290701825
 20
65.534843825845485
 30
0.0
 11
88.069371180701822
 21
65.61282900584547
 31
0.0
  0
LINE
  5
155D
  8
0
 39
9.4185000000000016
 10
88.069371180701822
 20
65.61282900584547
 30
0.0
 11
87.756676980701826
 21
65.660863355845493
 31
0.0
  0
LINE
  5
155E
  8
0
 39
9.4185000000000016
 10
87.756676980701826
 20
65.660863355845493
 30
0.0
 11
87.435317760701835
 21
65.67706317584549
 31
0.0
  0
LINE
  5
155F
  8
0
 39
11.699999999999999
 10
93.906274134410694
 20
16.422758010642621
 30
0.0
 11
91.045858134410665
 21
16.422758010642621
 31
0.0
  0
LINE
  5
1560
  8
0
 39
11.699999999999999
 10
91.045858134410665
 20
16.422758010642621
 30
0.0
 11
91.045858134410665
 21
16.422758010642621
 31
0.0
  0
LINE
  5
1561
  8
0
 39
11.699999999999999
 10
91.045858134410665
 20
16.422758010642621
 30
0.0
 11
90.91201013441065
 21
16.41690801064259
 31
0.0
  0
LINE
  5
1562
  8
0
 39
11.699999999999999
 10
90.91201013441065
 20
16.41690801064259
 30
0.0
 11
90.782374134410674
 21
16.399358010642612
 31
0.0
  0
LINE
  5
1563
  8
0
 39
11.699999999999999
 10
90.782374134410674
 20
16.399358010642612
 30
0.0
 11
90.656950134410664
 21
16.370576010642619
 31
0.0
  0
LINE
  5
1564
  8
0
 39
11.699999999999999
 10
90.656950134410664
 20
16.370576010642619
 30
0.0
 11
90.536908134410666
 21
16.331264010642609
 31
0.0
  0
LINE
  5
1565
  8
0
 39
11.699999999999999
 10
90.536908134410666
 20
16.331264010642609
 30
0.0
 11
90.42224813441068
 21
16.282358010642611
 31
0.0
  0
LINE
  5
1566
  8
0
 39
11.699999999999999
 10
90.42224813441068
 20
16.282358010642611
 30
0.0
 11
90.314374134410656
 21
16.223858010642601
 31
0.0
  0
LINE
  5
1567
  8
0
 39
11.699999999999999
 10
90.314374134410656
 20
16.223858010642601
 30
0.0
 11
90.213286134410666
 21
16.156934010642608
 31
0.0
  0
LINE
  5
1568
  8
0
 39
11.699999999999999
 10
90.213286134410666
 20
16.156934010642608
 30
0.0
 11
90.120388134410646
 21
16.081586010642599
 31
0.0
  0
LINE
  5
1569
  8
0
 39
11.699999999999999
 10
90.120388134410646
 20
16.081586010642599
 30
0.0
 11
90.035446134410705
 21
15.99921801064259
 31
0.0
  0
LINE
  5
156A
  8
0
 39
11.699999999999999
 10
90.035446134410705
 20
15.99921801064259
 30
0.0
 11
89.959864134410665
 21
15.909596010642611
 31
0.0
  0
LINE
  5
156B
  8
0
 39
11.699999999999999
 10
89.959864134410665
 20
15.909596010642611
 30
0.0
 11
89.893876134410647
 21
15.813656010642619
 31
0.0
  0
LINE
  5
156C
  8
0
 39
11.699999999999999
 10
89.893876134410647
 20
15.813656010642619
 30
0.0
 11
89.838886134410672
 21
15.7118660106426
 31
0.0
  0
LINE
  5
156D
  8
0
 39
11.699999999999999
 10
89.838886134410672
 20
15.7118660106426
 30
0.0
 11
89.794426134410671
 21
15.605396010642581
 31
0.0
  0
LINE
  5
156E
  8
0
 39
11.699999999999999
 10
89.794426134410671
 20
15.605396010642581
 30
0.0
 11
89.762134134410644
 21
15.494012010642621
 31
0.0
  0
LINE
  5
156F
  8
0
 39
11.699999999999999
 10
89.762134134410644
 20
15.494012010642621
 30
0.0
 11
89.742244134410655
 21
15.37888401064262
 31
0.0
  0
LINE
  5
1570
  8
0
 39
11.699999999999999
 10
89.742244134410655
 20
15.37888401064262
 30
0.0
 11
89.735692134410655
 21
15.2602460106426
 31
0.0
  0
LINE
  5
1571
  8
0
 39
11.699999999999999
 10
89.735692134410655
 20
15.2602460106426
 30
0.0
 11
89.735692134410655
 21
2.585270010642617
 31
0.0
  0
LINE
  5
1572
  8
0
 39
11.699999999999999
 10
89.735692134410655
 20
2.585270010642617
 30
0.0
 11
89.735692134410655
 21
2.585270010642617
 31
0.0
  0
LINE
  5
1573
  8
0
 39
11.699999999999999
 10
89.735692134410655
 20
2.585270010642617
 30
0.0
 11
89.742244134410655
 21
2.4671000106426249
 31
0.0
  0
LINE
  5
1574
  8
0
 39
11.699999999999999
 10
89.742244134410655
 20
2.4671000106426249
 30
0.0
 11
89.762134134410644
 21
2.3519720106426272
 31
0.0
  0
LINE
  5
1575
  8
0
 39
11.699999999999999
 10
89.762134134410644
 20
2.3519720106426272
 30
0.0
 11
89.794426134410671
 21
2.2410560106426378
 31
0.0
  0
LINE
  5
1576
  8
0
 39
11.699999999999999
 10
89.794426134410671
 20
2.2410560106426378
 30
0.0
 11
89.838886134410672
 21
2.1341180106426449
 31
0.0
  0
LINE
  5
1577
  8
0
 39
11.699999999999999
 10
89.838886134410672
 20
2.1341180106426449
 30
0.0
 11
89.893876134410647
 21
2.032796010642635
 31
0.0
  0
LINE
  5
1578
  8
0
 39
11.699999999999999
 10
89.893876134410647
 20
2.032796010642635
 30
0.0
 11
89.959864134410665
 21
1.9368560106426149
 31
0.0
  0
LINE
  5
1579
  8
0
 39
11.699999999999999
 10
89.959864134410665
 20
1.9368560106426149
 30
0.0
 11
90.035446134410705
 21
1.847234010642631
 31
0.0
  0
LINE
  5
157A
  8
0
 39
11.699999999999999
 10
90.035446134410705
 20
1.847234010642631
 30
0.0
 11
90.120388134410646
 21
1.764398010642644
 31
0.0
  0
LINE
  5
157B
  8
0
 39
11.699999999999999
 10
90.120388134410646
 20
1.764398010642644
 30
0.0
 11
90.213286134410666
 21
1.689518010642616
 31
0.0
  0
LINE
  5
157C
  8
0
 39
11.699999999999999
 10
90.213286134410666
 20
1.689518010642616
 30
0.0
 11
90.314374134410656
 21
1.622360010642617
 31
0.0
  0
LINE
  5
157D
  8
0
 39
11.699999999999999
 10
90.314374134410656
 20
1.622360010642617
 30
0.0
 11
90.42224813441068
 21
1.564094010642642
 31
0.0
  0
LINE
  5
157E
  8
0
 39
11.699999999999999
 10
90.42224813441068
 20
1.564094010642642
 30
0.0
 11
90.536908134410666
 21
1.514720010642634
 31
0.0
  0
LINE
  5
157F
  8
0
 39
11.699999999999999
 10
90.536908134410666
 20
1.514720010642634
 30
0.0
 11
90.656950134410664
 21
1.4756420106426309
 31
0.0
  0
LINE
  5
1580
  8
0
 39
11.699999999999999
 10
90.656950134410664
 20
1.4756420106426309
 30
0.0
 11
90.782374134410674
 21
1.4466260106426321
 31
0.0
  0
LINE
  5
1581
  8
0
 39
11.699999999999999
 10
90.782374134410674
 20
1.4466260106426321
 30
0.0
 11
90.91201013441065
 21
1.4290760106426179
 31
0.0
  0
LINE
  5
1582
  8
0
 39
11.699999999999999
 10
90.91201013441065
 20
1.4290760106426179
 30
0.0
 11
91.045858134410665
 21
1.422758010642639
 31
0.0
  0
LINE
  5
1583
  8
0
 39
11.699999999999999
 10
91.045858134410665
 20
1.422758010642639
 30
0.0
 11
93.906274134410694
 21
1.422758010642639
 31
0.0
  0
LINE
  5
1584
  8
0
 39
11.699999999999999
 10
93.906274134410694
 20
1.422758010642639
 30
0.0
 11
93.906274134410694
 21
1.422758010642639
 31
0.0
  0
LINE
  5
1585
  8
0
 39
11.699999999999999
 10
93.906274134410694
 20
1.422758010642639
 30
0.0
 11
94.039420134410648
 21
1.4290760106426179
 31
0.0
  0
LINE
  5
1586
  8
0
 39
11.699999999999999
 10
94.039420134410648
 20
1.4290760106426179
 30
0.0
 11
94.169290134410645
 21
1.4466260106426321
 31
0.0
  0
LINE
  5
1587
  8
0
 39
11.699999999999999
 10
94.169290134410645
 20
1.4466260106426321
 30
0.0
 11
94.29424613441067
 21
1.4756420106426309
 31
0.0
  0
LINE
  5
1588
  8
0
 39
11.699999999999999
 10
94.29424613441067
 20
1.4756420106426309
 30
0.0
 11
94.414756134410695
 21
1.514720010642634
 31
0.0
  0
LINE
  5
1589
  8
0
 39
11.699999999999999
 10
94.414756134410695
 20
1.514720010642634
 30
0.0
 11
94.528948134410669
 21
1.564094010642642
 31
0.0
  0
LINE
  5
158A
  8
0
 39
11.699999999999999
 10
94.528948134410669
 20
1.564094010642642
 30
0.0
 11
94.63705613441067
 21
1.622360010642617
 31
0.0
  0
LINE
  5
158B
  8
0
 39
11.699999999999999
 10
94.63705613441067
 20
1.622360010642617
 30
0.0
 11
94.738144134410675
 21
1.689518010642616
 31
0.0
  0
LINE
  5
158C
  8
0
 39
11.699999999999999
 10
94.738144134410675
 20
1.689518010642616
 30
0.0
 11
94.831510134410678
 21
1.764398010642644
 31
0.0
  0
LINE
  5
158D
  8
0
 39
11.699999999999999
 10
94.831510134410678
 20
1.764398010642644
 30
0.0
 11
94.915750134410672
 21
1.847234010642631
 31
0.0
  0
LINE
  5
158E
  8
0
 39
11.699999999999999
 10
94.915750134410672
 20
1.847234010642631
 30
0.0
 11
94.991566134410675
 21
1.9368560106426149
 31
0.0
  0
LINE
  5
158F
  8
0
 39
11.699999999999999
 10
94.991566134410675
 20
1.9368560106426149
 30
0.0
 11
95.057320134410659
 21
2.032796010642635
 31
0.0
  0
LINE
  5
1590
  8
0
 39
11.699999999999999
 10
95.057320134410659
 20
2.032796010642635
 30
0.0
 11
95.112778134410675
 21
2.1341180106426449
 31
0.0
  0
LINE
  5
1591
  8
0
 39
11.699999999999999
 10
95.112778134410675
 20
2.1341180106426449
 30
0.0
 11
95.156770134410678
 21
2.2410560106426378
 31
0.0
  0
LINE
  5
1592
  8
0
 39
11.699999999999999
 10
95.156770134410678
 20
2.2410560106426378
 30
0.0
 11
95.18953013441066
 21
2.3519720106426272
 31
0.0
  0
LINE
  5
1593
  8
0
 39
11.699999999999999
 10
95.18953013441066
 20
2.3519720106426272
 30
0.0
 11
95.209420134410635
 21
2.4671000106426249
 31
0.0
  0
LINE
  5
1594
  8
0
 39
11.699999999999999
 10
95.209420134410635
 20
2.4671000106426249
 30
0.0
 11
95.216440134410675
 21
2.585270010642617
 31
0.0
  0
LINE
  5
1595
  8
0
 39
11.699999999999999
 10
95.216440134410675
 20
2.585270010642617
 30
0.0
 11
95.216440134410675
 21
15.2602460106426
 31
0.0
  0
LINE
  5
1596
  8
0
 39
11.699999999999999
 10
95.216440134410675
 20
15.2602460106426
 30
0.0
 11
95.216440134410675
 21
15.2602460106426
 31
0.0
  0
LINE
  5
1597
  8
0
 39
11.699999999999999
 10
95.216440134410675
 20
15.2602460106426
 30
0.0
 11
95.209420134410635
 21
15.37888401064262
 31
0.0
  0
LINE
  5
1598
  8
0
 39
11.699999999999999
 10
95.209420134410635
 20
15.37888401064262
 30
0.0
 11
95.18953013441066
 21
15.494012010642621
 31
0.0
  0
LINE
  5
1599
  8
0
 39
11.699999999999999
 10
95.18953013441066
 20
15.494012010642621
 30
0.0
 11
95.156770134410678
 21
15.605396010642581
 31
0.0
  0
LINE
  5
159A
  8
0
 39
11.699999999999999
 10
95.156770134410678
 20
15.605396010642581
 30
0.0
 11
95.112778134410675
 21
15.7118660106426
 31
0.0
  0
LINE
  5
159B
  8
0
 39
11.699999999999999
 10
95.112778134410675
 20
15.7118660106426
 30
0.0
 11
95.057320134410659
 21
15.813656010642619
 31
0.0
  0
LINE
  5
159C
  8
0
 39
11.699999999999999
 10
95.057320134410659
 20
15.813656010642619
 30
0.0
 11
94.991566134410675
 21
15.909596010642611
 31
0.0
  0
LINE
  5
159D
  8
0
 39
11.699999999999999
 10
94.991566134410675
 20
15.909596010642611
 30
0.0
 11
94.915750134410672
 21
15.99921801064259
 31
0.0
  0
LINE
  5
159E
  8
0
 39
11.699999999999999
 10
94.915750134410672
 20
15.99921801064259
 30
0.0
 11
94.831510134410678
 21
16.081586010642599
 31
0.0
  0
LINE
  5
159F
  8
0
 39
11.699999999999999
 10
94.831510134410678
 20
16.081586010642599
 30
0.0
 11
94.738144134410675
 21
16.156934010642608
 31
0.0
  0
LINE
  5
15A0
  8
0
 39
11.699999999999999
 10
94.738144134410675
 20
16.156934010642608
 30
0.0
 11
94.63705613441067
 21
16.223858010642601
 31
0.0
  0
LINE
  5
15A1
  8
0
 39
11.699999999999999
 10
94.63705613441067
 20
16.223858010642601
 30
0.0
 11
94.528948134410669
 21
16.282358010642611
 31
0.0
  0
LINE
  5
15A2
  8
0
 39
11.699999999999999
 10
94.528948134410669
 20
16.282358010642611
 30
0.0
 11
94.414756134410695
 21
16.331264010642609
 31
0.0
  0
LINE
  5
15A3
  8
0
 39
11.699999999999999
 10
94.414756134410695
 20
16.331264010642609
 30
0.0
 11
94.29424613441067
 21
16.370576010642619
 31
0.0
  0
LINE
  5
15A4
  8
0
 39
11.699999999999999
 10
94.29424613441067
 20
16.370576010642619
 30
0.0
 11
94.169290134410645
 21
16.399358010642612
 31
0.0
  0
LINE
  5
15A5
  8
0
 39
11.699999999999999
 10
94.169290134410645
 20
16.399358010642612
 30
0.0
 11
94.039420134410648
 21
16.41690801064259
 31
0.0
  0
LINE
  5
15A6
  8
0
 39
11.699999999999999
 10
94.039420134410648
 20
16.41690801064259
 30
0.0
 11
93.906274134410694
 21
16.422758010642621
 31
0.0
  0
LINE
  5
15A7
  8
0
 39
11.699999999999999
 10
107.5651101344105
 20
16.422758010642621
 30
0.0
 11
110.4255261344106
 21
16.422758010642621
 31
0.0
  0
LINE
  5
15A8
  8
0
 39
11.699999999999999
 10
110.4255261344106
 20
16.422758010642621
 30
0.0
 11
110.4255261344106
 21
16.422758010642621
 31
0.0
  0
LINE
  5
15A9
  8
0
 39
11.699999999999999
 10
110.4255261344106
 20
16.422758010642621
 30
0.0
 11
110.5593741344106
 21
16.41690801064259
 31
0.0
  0
LINE
  5
15AA
  8
0
 39
11.699999999999999
 10
110.5593741344106
 20
16.41690801064259
 30
0.0
 11
110.68901013441059
 21
16.399358010642612
 31
0.0
  0
LINE
  5
15AB
  8
0
 39
11.699999999999999
 10
110.68901013441059
 20
16.399358010642612
 30
0.0
 11
110.8144341344106
 21
16.370576010642619
 31
0.0
  0
LINE
  5
15AC
  8
0
 39
11.699999999999999
 10
110.8144341344106
 20
16.370576010642619
 30
0.0
 11
110.9344761344106
 21
16.331264010642609
 31
0.0
  0
LINE
  5
15AD
  8
0
 39
11.699999999999999
 10
110.9344761344106
 20
16.331264010642609
 30
0.0
 11
111.0491361344106
 21
16.282358010642611
 31
0.0
  0
LINE
  5
15AE
  8
0
 39
11.699999999999999
 10
111.0491361344106
 20
16.282358010642611
 30
0.0
 11
111.1570101344106
 21
16.223858010642601
 31
0.0
  0
LINE
  5
15AF
  8
0
 39
11.699999999999999
 10
111.1570101344106
 20
16.223858010642601
 30
0.0
 11
111.2580981344106
 21
16.156934010642608
 31
0.0
  0
LINE
  5
15B0
  8
0
 39
11.699999999999999
 10
111.2580981344106
 20
16.156934010642608
 30
0.0
 11
111.35099613441059
 21
16.081586010642599
 31
0.0
  0
LINE
  5
15B1
  8
0
 39
11.699999999999999
 10
111.35099613441059
 20
16.081586010642599
 30
0.0
 11
111.43593813441051
 21
15.99921801064259
 31
0.0
  0
LINE
  5
15B2
  8
0
 39
11.699999999999999
 10
111.43593813441051
 20
15.99921801064259
 30
0.0
 11
111.5115201344106
 21
15.909596010642611
 31
0.0
  0
LINE
  5
15B3
  8
0
 39
11.699999999999999
 10
111.5115201344106
 20
15.909596010642611
 30
0.0
 11
111.57750813441061
 21
15.813656010642619
 31
0.0
  0
LINE
  5
15B4
  8
0
 39
11.699999999999999
 10
111.57750813441061
 20
15.813656010642619
 30
0.0
 11
111.6324981344106
 21
15.7118660106426
 31
0.0
  0
LINE
  5
15B5
  8
0
 39
11.699999999999999
 10
111.6324981344106
 20
15.7118660106426
 30
0.0
 11
111.6769581344106
 21
15.605396010642581
 31
0.0
  0
LINE
  5
15B6
  8
0
 39
11.699999999999999
 10
111.6769581344106
 20
15.605396010642581
 30
0.0
 11
111.7092501344106
 21
15.494012010642621
 31
0.0
  0
LINE
  5
15B7
  8
0
 39
11.699999999999999
 10
111.7092501344106
 20
15.494012010642621
 30
0.0
 11
111.7291401344106
 21
15.37888401064262
 31
0.0
  0
LINE
  5
15B8
  8
0
 39
11.699999999999999
 10
111.7291401344106
 20
15.37888401064262
 30
0.0
 11
111.7356921344106
 21
15.2602460106426
 31
0.0
  0
LINE
  5
15B9
  8
0
 39
11.699999999999999
 10
111.7356921344106
 20
15.2602460106426
 30
0.0
 11
111.7356921344106
 21
2.585270010642617
 31
0.0
  0
LINE
  5
15BA
  8
0
 39
11.699999999999999
 10
111.7356921344106
 20
2.585270010642617
 30
0.0
 11
111.7356921344106
 21
2.585270010642617
 31
0.0
  0
LINE
  5
15BB
  8
0
 39
11.699999999999999
 10
111.7356921344106
 20
2.585270010642617
 30
0.0
 11
111.7291401344106
 21
2.4671000106426249
 31
0.0
  0
LINE
  5
15BC
  8
0
 39
11.699999999999999
 10
111.7291401344106
 20
2.4671000106426249
 30
0.0
 11
111.7092501344106
 21
2.3519720106426272
 31
0.0
  0
LINE
  5
15BD
  8
0
 39
11.699999999999999
 10
111.7092501344106
 20
2.3519720106426272
 30
0.0
 11
111.6769581344106
 21
2.2410560106426378
 31
0.0
  0
LINE
  5
15BE
  8
0
 39
11.699999999999999
 10
111.6769581344106
 20
2.2410560106426378
 30
0.0
 11
111.6324981344106
 21
2.1341180106426449
 31
0.0
  0
LINE
  5
15BF
  8
0
 39
11.699999999999999
 10
111.6324981344106
 20
2.1341180106426449
 30
0.0
 11
111.57750813441061
 21
2.032796010642635
 31
0.0
  0
LINE
  5
15C0
  8
0
 39
11.699999999999999
 10
111.57750813441061
 20
2.032796010642635
 30
0.0
 11
111.5115201344106
 21
1.9368560106426149
 31
0.0
  0
LINE
  5
15C1
  8
0
 39
11.699999999999999
 10
111.5115201344106
 20
1.9368560106426149
 30
0.0
 11
111.43593813441051
 21
1.847234010642631
 31
0.0
  0
LINE
  5
15C2
  8
0
 39
11.699999999999999
 10
111.43593813441051
 20
1.847234010642631
 30
0.0
 11
111.35099613441059
 21
1.764398010642644
 31
0.0
  0
LINE
  5
15C3
  8
0
 39
11.699999999999999
 10
111.35099613441059
 20
1.764398010642644
 30
0.0
 11
111.2580981344106
 21
1.689518010642616
 31
0.0
  0
LINE
  5
15C4
  8
0
 39
11.699999999999999
 10
111.2580981344106
 20
1.689518010642616
 30
0.0
 11
111.1570101344106
 21
1.622360010642617
 31
0.0
  0
LINE
  5
15C5
  8
0
 39
11.699999999999999
 10
111.1570101344106
 20
1.622360010642617
 30
0.0
 11
111.0491361344106
 21
1.564094010642642
 31
0.0
  0
LINE
  5
15C6
  8
0
 39
11.699999999999999
 10
111.0491361344106
 20
1.564094010642642
 30
0.0
 11
110.9344761344106
 21
1.514720010642634
 31
0.0
  0
LINE
  5
15C7
  8
0
 39
11.699999999999999
 10
110.9344761344106
 20
1.514720010642634
 30
0.0
 11
110.8144341344106
 21
1.4756420106426309
 31
0.0
  0
LINE
  5
15C8
  8
0
 39
11.699999999999999
 10
110.8144341344106
 20
1.4756420106426309
 30
0.0
 11
110.68901013441059
 21
1.4466260106426321
 31
0.0
  0
LINE
  5
15C9
  8
0
 39
11.699999999999999
 10
110.68901013441059
 20
1.4466260106426321
 30
0.0
 11
110.5593741344106
 21
1.4290760106426179
 31
0.0
  0
LINE
  5
15CA
  8
0
 39
11.699999999999999
 10
110.5593741344106
 20
1.4290760106426179
 30
0.0
 11
110.4255261344106
 21
1.422758010642639
 31
0.0
  0
LINE
  5
15CB
  8
0
 39
11.699999999999999
 10
110.4255261344106
 20
1.422758010642639
 30
0.0
 11
107.5651101344105
 21
1.422758010642639
 31
0.0
  0
LINE
  5
15CC
  8
0
 39
11.699999999999999
 10
107.5651101344105
 20
1.422758010642639
 30
0.0
 11
107.5651101344105
 21
1.422758010642639
 31
0.0
  0
LINE
  5
15CD
  8
0
 39
11.699999999999999
 10
107.5651101344105
 20
1.422758010642639
 30
0.0
 11
107.43196413441061
 21
1.4290760106426179
 31
0.0
  0
LINE
  5
15CE
  8
0
 39
11.699999999999999
 10
107.43196413441061
 20
1.4290760106426179
 30
0.0
 11
107.30209413441059
 21
1.4466260106426321
 31
0.0
  0
LINE
  5
15CF
  8
0
 39
11.699999999999999
 10
107.30209413441059
 20
1.4466260106426321
 30
0.0
 11
107.1771381344106
 21
1.4756420106426309
 31
0.0
  0
LINE
  5
15D0
  8
0
 39
11.699999999999999
 10
107.1771381344106
 20
1.4756420106426309
 30
0.0
 11
107.0566281344106
 21
1.514720010642634
 31
0.0
  0
LINE
  5
15D1
  8
0
 39
11.699999999999999
 10
107.0566281344106
 20
1.514720010642634
 30
0.0
 11
106.9424361344106
 21
1.564094010642642
 31
0.0
  0
LINE
  5
15D2
  8
0
 39
11.699999999999999
 10
106.9424361344106
 20
1.564094010642642
 30
0.0
 11
106.8343281344106
 21
1.622360010642617
 31
0.0
  0
LINE
  5
15D3
  8
0
 39
11.699999999999999
 10
106.8343281344106
 20
1.622360010642617
 30
0.0
 11
106.73324013441059
 21
1.689518010642616
 31
0.0
  0
LINE
  5
15D4
  8
0
 39
11.699999999999999
 10
106.73324013441059
 20
1.689518010642616
 30
0.0
 11
106.6398741344106
 21
1.764398010642644
 31
0.0
  0
LINE
  5
15D5
  8
0
 39
11.699999999999999
 10
106.6398741344106
 20
1.764398010642644
 30
0.0
 11
106.5556341344106
 21
1.847234010642631
 31
0.0
  0
LINE
  5
15D6
  8
0
 39
11.699999999999999
 10
106.5556341344106
 20
1.847234010642631
 30
0.0
 11
106.47981813441061
 21
1.9368560106426149
 31
0.0
  0
LINE
  5
15D7
  8
0
 39
11.699999999999999
 10
106.47981813441061
 20
1.9368560106426149
 30
0.0
 11
106.41406413441059
 21
2.032796010642635
 31
0.0
  0
LINE
  5
15D8
  8
0
 39
11.699999999999999
 10
106.41406413441059
 20
2.032796010642635
 30
0.0
 11
106.35860613441061
 21
2.1341180106426449
 31
0.0
  0
LINE
  5
15D9
  8
0
 39
11.699999999999999
 10
106.35860613441061
 20
2.1341180106426449
 30
0.0
 11
106.3146141344106
 21
2.2410560106426378
 31
0.0
  0
LINE
  5
15DA
  8
0
 39
11.699999999999999
 10
106.3146141344106
 20
2.2410560106426378
 30
0.0
 11
106.28185413441059
 21
2.3519720106426272
 31
0.0
  0
LINE
  5
15DB
  8
0
 39
11.699999999999999
 10
106.28185413441059
 20
2.3519720106426272
 30
0.0
 11
106.2619641344106
 21
2.4671000106426249
 31
0.0
  0
LINE
  5
15DC
  8
0
 39
11.699999999999999
 10
106.2619641344106
 20
2.4671000106426249
 30
0.0
 11
106.25494413441049
 21
2.585270010642617
 31
0.0
  0
LINE
  5
15DD
  8
0
 39
11.699999999999999
 10
106.25494413441049
 20
2.585270010642617
 30
0.0
 11
106.25494413441049
 21
15.2602460106426
 31
0.0
  0
LINE
  5
15DE
  8
0
 39
11.699999999999999
 10
106.25494413441049
 20
15.2602460106426
 30
0.0
 11
106.25494413441049
 21
15.2602460106426
 31
0.0
  0
LINE
  5
15DF
  8
0
 39
11.699999999999999
 10
106.25494413441049
 20
15.2602460106426
 30
0.0
 11
106.2619641344106
 21
15.37888401064262
 31
0.0
  0
LINE
  5
15E0
  8
0
 39
11.699999999999999
 10
106.2619641344106
 20
15.37888401064262
 30
0.0
 11
106.28185413441059
 21
15.494012010642621
 31
0.0
  0
LINE
  5
15E1
  8
0
 39
11.699999999999999
 10
106.28185413441059
 20
15.494012010642621
 30
0.0
 11
106.3146141344106
 21
15.605396010642581
 31
0.0
  0
LINE
  5
15E2
  8
0
 39
11.699999999999999
 10
106.3146141344106
 20
15.605396010642581
 30
0.0
 11
106.35860613441061
 21
15.7118660106426
 31
0.0
  0
LINE
  5
15E3
  8
0
 39
11.699999999999999
 10
106.35860613441061
 20
15.7118660106426
 30
0.0
 11
106.41406413441059
 21
15.813656010642619
 31
0.0
  0
LINE
  5
15E4
  8
0
 39
11.699999999999999
 10
106.41406413441059
 20
15.813656010642619
 30
0.0
 11
106.47981813441061
 21
15.909596010642611
 31
0.0
  0
LINE
  5
15E5
  8
0
 39
11.699999999999999
 10
106.47981813441061
 20
15.909596010642611
 30
0.0
 11
106.5556341344106
 21
15.99921801064259
 31
0.0
  0
LINE
  5
15E6
  8
0
 39
11.699999999999999
 10
106.5556341344106
 20
15.99921801064259
 30
0.0
 11
106.6398741344106
 21
16.081586010642599
 31
0.0
  0
LINE
  5
15E7
  8
0
 39
11.699999999999999
 10
106.6398741344106
 20
16.081586010642599
 30
0.0
 11
106.73324013441059
 21
16.156934010642608
 31
0.0
  0
LINE
  5
15E8
  8
0
 39
11.699999999999999
 10
106.73324013441059
 20
16.156934010642608
 30
0.0
 11
106.8343281344106
 21
16.223858010642601
 31
0.0
  0
LINE
  5
15E9
  8
0
 39
11.699999999999999
 10
106.8343281344106
 20
16.223858010642601
 30
0.0
 11
106.9424361344106
 21
16.282358010642611
 31
0.0
  0
LINE
  5
15EA
  8
0
 39
11.699999999999999
 10
106.9424361344106
 20
16.282358010642611
 30
0.0
 11
107.0566281344106
 21
16.331264010642609
 31
0.0
  0
LINE
  5
15EB
  8
0
 39
11.699999999999999
 10
107.0566281344106
 20
16.331264010642609
 30
0.0
 11
107.1771381344106
 21
16.370576010642619
 31
0.0
  0
LINE
  5
15EC
  8
0
 39
11.699999999999999
 10
107.1771381344106
 20
16.370576010642619
 30
0.0
 11
107.30209413441059
 21
16.399358010642612
 31
0.0
  0
LINE
  5
15ED
  8
0
 39
11.699999999999999
 10
107.30209413441059
 20
16.399358010642612
 30
0.0
 11
107.43196413441061
 21
16.41690801064259
 31
0.0
  0
LINE
  5
15EE
  8
0
 39
11.699999999999999
 10
107.43196413441061
 20
16.41690801064259
 30
0.0
 11
107.5651101344105
 21
16.422758010642621
 31
0.0
  0
LINE
  5
15FC
  8
0
 39
11.699999999999999
 10
100.7356921344106
 20
112.61885401064259
 30
0.0
 11
105.8116201344106
 21
112.61885401064259
 31
0.0
  0
LINE
  5
15FD
  8
0
 39
11.699999999999999
 10
105.8116201344106
 20
112.61885401064259
 30
0.0
 11
105.8116201344106
 21
112.61885401064259
 31
0.0
  0
LINE
  5
15FE
  8
0
 39
11.699999999999999
 10
105.8116201344106
 20
112.61885401064259
 30
0.0
 11
105.99063013441059
 21
112.60013401064261
 31
0.0
  0
LINE
  5
15FF
  8
0
 39
11.699999999999999
 10
105.99063013441059
 20
112.60013401064261
 30
0.0
 11
106.1483461344106
 21
112.5765000106426
 31
0.0
  0
LINE
  5
1600
  8
0
 39
11.699999999999999
 10
106.1483461344106
 20
112.5765000106426
 30
0.0
 11
106.28734213441059
 21
112.5481860106426
 31
0.0
  0
LINE
  5
1601
  8
0
 39
11.699999999999999
 10
106.28734213441059
 20
112.5481860106426
 30
0.0
 11
106.4080861344106
 21
112.51402201064261
 31
0.0
  0
LINE
  5
1602
  8
0
 39
11.699999999999999
 10
106.4080861344106
 20
112.51402201064261
 30
0.0
 11
106.5133861344106
 21
112.4744760106426
 31
0.0
  0
LINE
  5
1603
  8
0
 39
11.699999999999999
 10
106.5133861344106
 20
112.4744760106426
 30
0.0
 11
106.6039441344106
 21
112.4283780106426
 31
0.0
  0
LINE
  5
1604
  8
0
 39
11.699999999999999
 10
106.6039441344106
 20
112.4283780106426
 30
0.0
 11
106.68163213441061
 21
112.3757280106426
 31
0.0
  0
LINE
  5
1605
  8
0
 39
11.699999999999999
 10
106.68163213441061
 20
112.3757280106426
 30
0.0
 11
106.7478541344106
 21
112.31605801064261
 31
0.0
  0
LINE
  5
1606
  8
0
 39
11.699999999999999
 10
106.7478541344106
 20
112.31605801064261
 30
0.0
 11
106.8049501344106
 21
112.2493680106426
 31
0.0
  0
LINE
  5
1607
  8
0
 39
11.699999999999999
 10
106.8049501344106
 20
112.2493680106426
 30
0.0
 11
106.8531541344106
 21
112.1747220106426
 31
0.0
  0
LINE
  5
1608
  8
0
 39
11.699999999999999
 10
106.8531541344106
 20
112.1747220106426
 30
0.0
 11
106.8952741344106
 21
112.0921200106426
 31
0.0
  0
LINE
  5
1609
  8
0
 39
11.699999999999999
 10
106.8952741344106
 20
112.0921200106426
 30
0.0
 11
106.93177813441061
 21
112.00062601064261
 31
0.0
  0
LINE
  5
160A
  8
0
 39
11.699999999999999
 10
106.93177813441061
 20
112.00062601064261
 30
0.0
 11
106.96524013441061
 21
111.9004740106426
 31
0.0
  0
LINE
  5
160B
  8
0
 39
11.699999999999999
 10
106.96524013441061
 20
111.9004740106426
 30
0.0
 11
106.99659613441059
 21
111.7907280106426
 31
0.0
  0
LINE
  5
160C
  8
0
 39
11.699999999999999
 10
106.99659613441059
 20
111.7907280106426
 30
0.0
 11
107.02771813441061
 21
111.6713880106426
 31
0.0
  0
LINE
  5
160D
  8
0
 39
11.699999999999999
 10
107.02771813441061
 20
111.6713880106426
 30
0.0
 11
107.0597761344106
 21
111.5415180106426
 31
0.0
  0
LINE
  5
160E
  8
0
 39
11.699999999999999
 10
100.7356921344106
 20
112.61885401064259
 30
0.0
 11
95.659764134410636
 21
112.61885401064259
 31
0.0
  0
LINE
  5
160F
  8
0
 39
11.699999999999999
 10
95.659764134410636
 20
112.61885401064259
 30
0.0
 11
95.659764134410636
 21
112.61885401064259
 31
0.0
  0
LINE
  5
1610
  8
0
 39
11.699999999999999
 10
95.659764134410636
 20
112.61885401064259
 30
0.0
 11
95.480754134410645
 21
112.60013401064261
 31
0.0
  0
LINE
  5
1611
  8
0
 39
11.699999999999999
 10
95.480754134410645
 20
112.60013401064261
 30
0.0
 11
95.323038134410623
 21
112.5765000106426
 31
0.0
  0
LINE
  5
1612
  8
0
 39
11.699999999999999
 10
95.323038134410623
 20
112.5765000106426
 30
0.0
 11
95.184042134410646
 21
112.5481860106426
 31
0.0
  0
LINE
  5
1613
  8
0
 39
11.699999999999999
 10
95.184042134410646
 20
112.5481860106426
 30
0.0
 11
95.063298134410616
 21
112.51402201064261
 31
0.0
  0
LINE
  5
1614
  8
0
 39
11.699999999999999
 10
95.063298134410616
 20
112.51402201064261
 30
0.0
 11
94.957998134410644
 21
112.4744760106426
 31
0.0
  0
LINE
  5
1615
  8
0
 39
11.699999999999999
 10
94.957998134410644
 20
112.4744760106426
 30
0.0
 11
94.867440134410629
 21
112.4283780106426
 31
0.0
  0
LINE
  5
1616
  8
0
 39
11.699999999999999
 10
94.867440134410629
 20
112.4283780106426
 30
0.0
 11
94.789752134410634
 21
112.3757280106426
 31
0.0
  0
LINE
  5
1617
  8
0
 39
11.699999999999999
 10
94.789752134410634
 20
112.3757280106426
 30
0.0
 11
94.723530134410652
 21
112.31605801064261
 31
0.0
  0
LINE
  5
1618
  8
0
 39
11.699999999999999
 10
94.723530134410652
 20
112.31605801064261
 30
0.0
 11
94.666434134410594
 21
112.2493680106426
 31
0.0
  0
LINE
  5
1619
  8
0
 39
11.699999999999999
 10
94.666434134410594
 20
112.2493680106426
 30
0.0
 11
94.618230134410638
 21
112.1747220106426
 31
0.0
  0
LINE
  5
161A
  8
0
 39
11.699999999999999
 10
94.618230134410638
 20
112.1747220106426
 30
0.0
 11
94.576110134410655
 21
112.0921200106426
 31
0.0
  0
LINE
  5
161B
  8
0
 39
11.699999999999999
 10
94.576110134410655
 20
112.0921200106426
 30
0.0
 11
94.539606134410647
 21
112.00062601064261
 31
0.0
  0
LINE
  5
161C
  8
0
 39
11.699999999999999
 10
94.539606134410647
 20
112.00062601064261
 30
0.0
 11
94.506144134410604
 21
111.9004740106426
 31
0.0
  0
LINE
  5
161D
  8
0
 39
11.699999999999999
 10
94.506144134410604
 20
111.9004740106426
 30
0.0
 11
94.474788134410645
 21
111.7907280106426
 31
0.0
  0
LINE
  5
161E
  8
0
 39
11.699999999999999
 10
94.474788134410645
 20
111.7907280106426
 30
0.0
 11
94.443666134410606
 21
111.6713880106426
 31
0.0
  0
LINE
  5
161F
  8
0
 39
11.699999999999999
 10
94.443666134410606
 20
111.6713880106426
 30
0.0
 11
94.411608134410628
 21
111.5415180106426
 31
0.0
  0
ENDSEC
  0
EOF
