  0
SECTION
  2
HEADER
  9
$ACADVER
  1
AC1009
  9
$INSBASE
 10
0.0
 20
0.0
 30
0.0
  9
$EXTMIN
 10
61.930000170906958
 20
41.579999987822838
 30
0.0
  9
$EXTMAX
 10
109.4587379383004
 20
107.44008085510249
 30
5.0
  9
$LIMMIN
 10
0.0
 20
0.0
  9
$LIMMAX
 10
420.0
 20
297.0
  9
$ORTHOMODE
 70
     0
  9
$REGENMODE
 70
     1
  9
$FILLMODE
 70
     1
  9
$QTEXTMODE
 70
     0
  9
$MIRRTEXT
 70
     1
  9
$DRAGMODE
 70
     2
  9
$LTSCALE
 40
0.3
  9
$OSMODE
 70
    37
  9
$ATTMODE
 70
     1
  9
$TEXTSIZE
 40
2.5
  9
$TRACEWID
 40
1.0
  9
$TEXTSTYLE
  7
STANDARD
  9
$CLAYER
  8
3
  9
$CELTYPE
  6
BYLAYER
  9
$CECOLOR
 62
   256
  9
$DIMSCALE
 40
1.0
  9
$DIMASZ
 40
2.5
  9
$DIMEXO
 40
0.625
  9
$DIMDLI
 40
3.75
  9
$DIMRND
 40
0.0
  9
$DIMDLE
 40
0.0
  9
$DIMEXE
 40
1.25
  9
$DIMTP
 40
0.0
  9
$DIMTM
 40
0.0
  9
$DIMTXT
 40
2.5
  9
$DIMCEN
 40
2.5
  9
$DIMTSZ
 40
0.0
  9
$DIMTOL
 70
     0
  9
$DIMLIM
 70
     0
  9
$DIMTIH
 70
     0
  9
$DIMTOH
 70
     0
  9
$DIMSE1
 70
     0
  9
$DIMSE2
 70
     0
  9
$DIMTAD
 70
     1
  9
$DIMZIN
 70
     8
  9
$DIMBLK
  1

  9
$DIMASO
 70
     1
  9
$DIMSHO
 70
     1
  9
$DIMPOST
  1

  9
$DIMAPOST
  1

  9
$DIMALT
 70
     0
  9
$DIMALTD
 70
     3
  9
$DIMALTF
 40
0.03937007874016
  9
$DIMLFAC
 40
1.0
  9
$DIMTOFL
 70
     1
  9
$DIMTVP
 40
0.0
  9
$DIMTIX
 70
     0
  9
$DIMSOXD
 70
     0
  9
$DIMSAH
 70
     0
  9
$DIMBLK1
  1

  9
$DIMBLK2
  1

  9
$DIMSTYLE
  2
ISO-25
  9
$DIMCLRD
 70
     0
  9
$DIMCLRE
 70
     0
  9
$DIMCLRT
 70
     0
  9
$DIMTFAC
 40
1.0
  9
$DIMGAP
 40
0.625
  9
$LUNITS
 70
     2
  9
$LUPREC
 70
     4
  9
$SKETCHINC
 40
1.0
  9
$FILLETRAD
 40
10.0
  9
$AUNITS
 70
     0
  9
$AUPREC
 70
     0
  9
$MENU
  1
.
  9
$ELEVATION
 40
0.0
  9
$PELEVATION
 40
0.0
  9
$THICKNESS
 40
0.0
  9
$LIMCHECK
 70
     0
  9
$BLIPMODE
 70
     0
  9
$CHAMFERA
 40
10.0
  9
$CHAMFERB
 40
10.0
  9
$SKPOLY
 70
     0
  9
$TDCREATE
 40
2453513.0145165971
  9
$TDUPDATE
 40
2453551.9322203011
  9
$TDINDWG
 40
0.0046525231
  9
$TDUSRTIMER
 40
0.0046525231
  9
$USRTIMER
 70
     1
  9
$ANGBASE
 50
0.0
  9
$ANGDIR
 70
     0
  9
$PDMODE
 70
     0
  9
$PDSIZE
 40
0.0
  9
$PLINEWID
 40
0.0
  9
$COORDS
 70
     1
  9
$SPLFRAME
 70
     0
  9
$SPLINETYPE
 70
     6
  9
$SPLINESEGS
 70
     8
  9
$ATTDIA
 70
     0
  9
$ATTREQ
 70
     1
  9
$HANDLING
 70
-16383
  9
$HANDSEED
  5
5EA
  9
$SURFTAB1
 70
     6
  9
$SURFTAB2
 70
     6
  9
$SURFTYPE
 70
     6
  9
$SURFU
 70
     6
  9
$SURFV
 70
     6
  9
$UCSNAME
  2

  9
$UCSORG
 10
0.0
 20
0.0
 30
0.0
  9
$UCSXDIR
 10
1.0
 20
0.0
 30
0.0
  9
$UCSYDIR
 10
0.0
 20
1.0
 30
0.0
  9
$PUCSNAME
  2

  9
$PUCSORG
 10
0.0
 20
0.0
 30
0.0
  9
$PUCSXDIR
 10
1.0
 20
0.0
 30
0.0
  9
$PUCSYDIR
 10
0.0
 20
1.0
 30
0.0
  9
$USERI1
 70
     0
  9
$USERI2
 70
     0
  9
$USERI3
 70
     0
  9
$USERI4
 70
     0
  9
$USERI5
 70
     0
  9
$USERR1
 40
0.0
  9
$USERR2
 40
0.0
  9
$USERR3
 40
0.0
  9
$USERR4
 40
0.0
  9
$USERR5
 40
0.0
  9
$WORLDVIEW
 70
     1
  9
$SHADEDGE
 70
     3
  9
$SHADEDIF
 70
    70
  9
$TILEMODE
 70
     1
  9
$MAXACTVP
 70
    64
  9
$PLIMCHECK
 70
     0
  9
$PEXTMIN
 10
1.0000000000000000E+020
 20
1.0000000000000000E+020
 30
1.0000000000000000E+020
  9
$PEXTMAX
 10
-1.0000000000000000E+020
 20
-1.0000000000000000E+020
 30
-1.0000000000000000E+020
  9
$PLIMMIN
 10
0.0
 20
0.0
  9
$PLIMMAX
 10
420.0
 20
297.0
  9
$UNITMODE
 70
     0
  9
$VISRETAIN
 70
     1
  9
$PLINEGEN
 70
     0
  9
$PSLTSCALE
 70
     1
  0
ENDSEC
  0
SECTION
  2
TABLES
  0
TABLE
  2
VPORT
 70
     2
  0
VPORT
  2
*ACTIVE
 70
     0
 10
0.0
 20
0.0
 11
1.0
 21
1.0
 12
100.4716436943732
 22
66.446812442931758
 13
0.0
 23
0.0
 14
10.0
 24
10.0
 15
10.0
 25
10.0
 16
0.0
 26
0.0
 36
1.0
 17
0.0
 27
0.0
 37
0.0
 40
98.735109836450036
 41
2.5392405063291141
 42
50.0
 43
0.0
 44
0.0
 50
0.0
 51
0.0
 71
     0
 72
   100
 73
     1
 74
     3
 75
     0
 76
     0
 77
     0
 78
     0
  0
ENDTAB
  0
TABLE
  2
LTYPE
 70
     3
  0
LTYPE
  2
CONTINUOUS
 70
     0
  3
Solid line
 72
    65
 73
     0
 40
0.0
  0
LTYPE
  2
CENTER
 70
     0
  3
Center ____ _ ____ _ ____ _ ____ _ ____ _ ____
 72
    65
 73
     4
 40
50.799999999999997
 49
31.75
 49
-6.3499999999999988
 49
6.3499999999999988
 49
-6.3499999999999988
  0
LTYPE
  2
DASHED2
 70
     0
  3
Dashed (.5x) _ _ _ _ _ _ _ _ _ _ _ _ _ _ _ _ _
 72
    65
 73
     2
 40
9.5249999999999986
 49
6.3499999999999988
 49
-3.1749999999999989
  0
ENDTAB
  0
TABLE
  2
LAYER
 70
     5
  0
LAYER
  2
0
 70
     0
 62
     7
  6
CONTINUOUS
  0
LAYER
  2
1
 70
     0
 62
     7
  6
CENTER
  0
LAYER
  2
2
 70
     0
 62
     7
  6
CONTINUOUS
  0
LAYER
  2
3
 70
     0
 62
     7
  6
DASHED2
  0
LAYER
  2
DEFPOINTS
 70
     0
 62
     7
  6
CONTINUOUS
  0
ENDTAB
  0
TABLE
  2
STYLE
 70
     2
  0
STYLE
  2
STANDARD
 70
     0
 40
0.0
 41
1.0
 50
0.0
 71
     0
 42
2.5
  3
txt
  4

  0
STYLE
  2
\U+00C9L\U+00C9R_\U+00C2S\U+00C2V\U+00C2B\U+00C2N
 70
     0
 40
1.0
 41
1.0
 50
0.0
 71
     0
 42
1.0
  3
\U+00E9l\U+00E9r \U+00E2S\U+00E2V\U+00E2b\U+00E2N
  4

  0
ENDTAB
  0
TABLE
  2
VIEW
 70
     0
  0
ENDTAB
  0
TABLE
  2
UCS
 70
     0
  0
ENDTAB
  0
TABLE
  2
APPID
 70
     1
  0
APPID
  2
ACAD
 70
     0
  0
ENDTAB
  0
TABLE
  2
DIMSTYLE
 70
     1
  0
DIMSTYLE
  2
ISO-25
 70
     0
  3

  4

  5

  6

  7

 40
1.0
 41
2.5
 42
0.625
 43
3.75
 44
1.25
 45
0.0
 46
0.0
 47
0.0
 48
0.0
140
2.5
141
2.5
142
0.0
143
0.03937007874016
144
1.0
145
0.0
146
1.0
147
0.625
 71
     0
 72
     0
 73
     0
 74
     0
 75
     0
 76
     0
 77
     1
 78
     8
170
     0
171
     3
172
     1
173
     0
174
     0
175
     0
176
     0
177
     0
178
     0
  0
ENDTAB
  0
ENDSEC
  0
SECTION
  2
BLOCKS
  0
BLOCK
  8
0
  2
$MODEL_SPACE
 70
     0
 10
0.0
 20
0.0
 30
0.0
  3
$MODEL_SPACE
  1

  0
ENDBLK
  5
21
  8
0
  0
BLOCK
 67
     1
  8
0
  2
$PAPER_SPACE
 70
     0
 10
0.0
 20
0.0
 30
0.0
  3
$PAPER_SPACE
  1

  0
ENDBLK
  5
1D
 67
     1
  8
0
  0
BLOCK
  8
0
  2
*D1
 70
     1
 10
0.0
 20
0.0
 30
0.0
  3
*D1
  1

  0
LINE
  5
57D
  8
2
 62
     0
 10
101.8108054429799
 20
105.8668874407131
 30
0.0
 11
109.4587379383004
 21
105.8668874407131
 31
0.0
  0
LINE
  5
57E
  8
2
 62
     0
 10
101.8108054429799
 20
58.866887440713157
 30
0.0
 11
109.4587379383004
 21
58.866887440713157
 31
0.0
  0
LINE
  5
57F
  8
2
 62
     0
 10
108.2087379383005
 20
103.3668874407131
 30
0.0
 11
108.2087379383004
 21
61.366887440713157
 31
0.0
  0
SOLID
  5
580
  8
2
 62
     0
 10
107.7920712716338
 20
103.3668874407131
 30
0.0
 11
108.6254046049671
 21
103.3668874407131
 31
0.0
 12
108.2087379383005
 22
105.8668874407131
 32
0.0
 13
108.2087379383005
 23
105.8668874407131
 33
0.0
  0
SOLID
  5
581
  8
2
 62
     0
 10
107.7920712716338
 20
61.366887440713157
 30
0.0
 11
108.6254046049671
 21
61.366887440713157
 31
0.0
 12
108.2087379383004
 22
58.866887440713157
 32
0.0
 13
108.2087379383004
 23
58.866887440713157
 33
0.0
  0
TEXT
  5
582
  8
3
 62
     0
 10
107.5837379383004
 20
78.616887440713185
 30
0.0
 40
2.5
  1
(47)
 50
90.0
  0
POINT
  5
583
  8
DEFPOINTS
 62
     0
 10
101.1858054429799
 20
105.8668874407131
 30
0.0
  0
POINT
  5
584
  8
DEFPOINTS
 62
     0
 10
101.1858054429799
 20
58.866887440713157
 30
0.0
  0
POINT
  5
585
  8
DEFPOINTS
 62
     0
 10
108.2087379383004
 20
58.866887440713157
 30
0.0
  0
ENDBLK
  5
54C
  8
0
  0
BLOCK
  8
0
  2
*D2
 70
     1
 10
0.0
 20
0.0
 30
0.0
  3
*D2
  1

  0
LINE
  5
586
  8
2
 62
     0
 10
100.5608054429799
 20
96.366887440713157
 30
0.0
 11
99.935805442979927
 21
96.366887440713157
 31
0.0
  0
LINE
  5
587
  8
2
 62
     0
 10
89.614954683423534
 20
81.366887440713157
 30
0.0
 11
102.4358054429799
 21
81.366887440713143
 31
0.0
  0
LINE
  5
588
  8
2
 62
     0
 10
101.1858054429799
 20
93.866887440713157
 30
0.0
 11
101.1858054429799
 21
83.866887440713143
 31
0.0
  0
SOLID
  5
589
  8
2
 62
     0
 10
100.7691387763132
 20
93.866887440713157
 30
0.0
 11
101.6024721096465
 21
93.866887440713157
 31
0.0
 12
101.1858054429799
 22
96.366887440713157
 32
0.0
 13
101.1858054429799
 23
96.366887440713157
 33
0.0
  0
SOLID
  5
58A
  8
2
 62
     0
 10
100.7691387763132
 20
83.866887440713143
 30
0.0
 11
101.6024721096465
 21
83.866887440713143
 31
0.0
 12
101.1858054429799
 22
81.366887440713143
 32
0.0
 13
101.1858054429799
 23
81.366887440713143
 33
0.0
  0
TEXT
  5
58B
  8
3
 62
     0
 10
100.5608054429798
 20
87.200220774046514
 30
0.0
 40
2.5
  1
15
 50
90.0
  0
POINT
  5
58C
  8
DEFPOINTS
 62
     0
 10
101.1858054429799
 20
96.366887440713157
 30
0.0
  0
POINT
  5
58D
  8
DEFPOINTS
 62
     0
 10
88.989954683423534
 20
81.366887440713157
 30
0.0
  0
POINT
  5
58E
  8
DEFPOINTS
 62
     0
 10
101.1858054429799
 20
81.366887440713143
 30
0.0
  0
ENDBLK
  5
558
  8
0
  0
BLOCK
  8
0
  2
*D3
 70
     1
 10
0.0
 20
0.0
 30
0.0
  3
*D3
  1

  0
LINE
  5
58F
  8
2
 62
     0
 10
100.5608054429799
 20
81.366887440713157
 30
0.0
 11
99.935805442979913
 21
81.366887440713157
 31
0.0
  0
LINE
  5
590
  8
2
 62
     0
 10
87.957954683423523
 20
58.866887440713157
 30
0.0
 11
102.4358054429799
 21
58.866887440713157
 31
0.0
  0
LINE
  5
591
  8
2
 62
     0
 10
101.1858054429799
 20
78.866887440713157
 30
0.0
 11
101.1858054429799
 21
61.366887440713157
 31
0.0
  0
SOLID
  5
592
  8
2
 62
     0
 10
100.7691387763132
 20
78.866887440713157
 30
0.0
 11
101.6024721096465
 21
78.866887440713157
 31
0.0
 12
101.1858054429799
 22
81.366887440713157
 32
0.0
 13
101.1858054429799
 23
81.366887440713157
 33
0.0
  0
SOLID
  5
593
  8
2
 62
     0
 10
100.7691387763132
 20
61.366887440713157
 30
0.0
 11
101.6024721096465
 21
61.366887440713157
 31
0.0
 12
101.1858054429799
 22
58.866887440713157
 32
0.0
 13
101.1858054429799
 23
58.866887440713157
 33
0.0
  0
TEXT
  5
594
  8
3
 62
     0
 10
100.5608054429798
 20
66.366887440713185
 30
0.0
 40
2.5
  1
22.5
 50
90.0
  0
POINT
  5
595
  8
DEFPOINTS
 62
     0
 10
101.1858054429799
 20
81.366887440713157
 30
0.0
  0
POINT
  5
596
  8
DEFPOINTS
 62
     0
 10
87.332954683423523
 20
58.866887440713157
 30
0.0
  0
POINT
  5
597
  8
DEFPOINTS
 62
     0
 10
101.1858054429799
 20
58.866887440713157
 30
0.0
  0
ENDBLK
  5
564
  8
0
  0
BLOCK
  8
0
  2
*D4
 70
     1
 10
0.0
 20
0.0
 30
0.0
  3
*D4
  1

  0
LINE
  5
598
  8
2
 62
     0
 10
78.364954683423548
 20
81.366887440713157
 30
0.0
 11
72.065588872051293
 21
81.366887440713157
 31
0.0
  0
LINE
  5
599
  8
2
 62
     0
 10
74.526129634248491
 20
71.366887440713157
 30
0.0
 11
72.065588872051293
 21
71.366887440713157
 31
0.0
  0
LINE
  5
59A
  8
2
 62
     0
 10
73.315588872051293
 20
78.866887440713157
 30
0.0
 11
73.315588872051293
 21
73.866887440713157
 31
0.0
  0
SOLID
  5
59B
  8
2
 62
     0
 10
72.898922205384636
 20
78.866887440713157
 30
0.0
 11
73.732255538717965
 21
78.866887440713157
 31
0.0
 12
73.315588872051293
 22
81.366887440713157
 32
0.0
 13
73.315588872051293
 23
81.366887440713157
 33
0.0
  0
SOLID
  5
59C
  8
2
 62
     0
 10
72.898922205384636
 20
73.866887440713157
 30
0.0
 11
73.732255538717965
 21
73.866887440713157
 31
0.0
 12
73.315588872051293
 22
71.366887440713157
 32
0.0
 13
73.315588872051293
 23
71.366887440713157
 33
0.0
  0
TEXT
  5
59D
  8
3
 62
     0
 10
72.690588872051293
 20
74.908554107379842
 30
0.0
 40
2.5
  1
10
 50
90.0
  0
POINT
  5
59E
  8
DEFPOINTS
 62
     0
 10
78.989954683423548
 20
81.366887440713157
 30
0.0
  0
POINT
  5
59F
  8
DEFPOINTS
 62
     0
 10
75.151129634248491
 20
71.366887440713157
 30
0.0
  0
POINT
  5
5A0
  8
DEFPOINTS
 62
     0
 10
73.315588872051293
 20
71.366887440713157
 30
0.0
  0
ENDBLK
  5
570
  8
0
  0
BLOCK
  8
0
  2
*D5
 70
     1
 10
0.0
 20
0.0
 30
0.0
  3
*D5
  1

  0
LINE
  5
5A1
  8
2
 62
     0
 10
88.125806535275444
 20
105.8668874407131
 30
0.0
 11
102.4358054429799
 21
105.8668874407131
 31
0.0
  0
LINE
  5
5A2
  8
2
 62
     0
 10
89.614954683423534
 20
96.366887440713157
 30
0.0
 11
102.4358054429799
 21
96.366887440713143
 31
0.0
  0
LINE
  5
5A3
  8
2
 62
     0
 10
101.1858054429799
 20
103.3668874407131
 30
0.0
 11
101.1858054429799
 21
98.866887440713143
 31
0.0
  0
SOLID
  5
5A4
  8
2
 62
     0
 10
100.7691387763132
 20
103.3668874407131
 30
0.0
 11
101.6024721096465
 21
103.3668874407131
 31
0.0
 12
101.1858054429799
 22
105.8668874407131
 32
0.0
 13
101.1858054429799
 23
105.8668874407131
 33
0.0
  0
SOLID
  5
5A5
  8
2
 62
     0
 10
100.7691387763132
 20
98.866887440713143
 30
0.0
 11
101.6024721096465
 21
98.866887440713143
 31
0.0
 12
101.1858054429799
 22
96.366887440713143
 32
0.0
 13
101.1858054429799
 23
96.366887440713143
 33
0.0
  0
TEXT
  5
5A6
  8
3
 62
     0
 10
100.5608054429798
 20
98.616887440713171
 30
0.0
 40
2.5
  1
9.5
 50
90.0
  0
POINT
  5
5A7
  8
DEFPOINTS
 62
     0
 10
87.500806535275444
 20
105.8668874407131
 30
0.0
  0
POINT
  5
5A8
  8
DEFPOINTS
 62
     0
 10
88.989954683423534
 20
96.366887440713157
 30
0.0
  0
POINT
  5
5A9
  8
DEFPOINTS
 62
     0
 10
101.1858054429799
 20
96.366887440713143
 30
0.0
  0
ENDBLK
  5
57C
  8
0
  0
ENDSEC
  0
SECTION
  2
ENTITIES
  0
LINE
  5
2DB
  8
0
 39
5.0
 10
84.139742852969022
 20
105.8668874407131
 30
0.0
 11
84.230354683423556
 21
105.8638835893144
 31
0.0
  0
LINE
  5
2DC
  8
0
 39
5.0
 10
85.899254683423564
 20
105.3095835893144
 30
0.0
 11
86.032354683423563
 21
105.1362835893143
 31
0.0
  0
LINE
  5
2DD
  8
0
 39
5.0
 10
85.711254683423576
 20
105.45968358931439
 30
0.0
 11
85.899254683423564
 21
105.3095835893144
 31
0.0
  0
LINE
  5
2DE
  8
0
 39
5.0
 10
85.476254683423562
 20
105.58678358931439
 30
0.0
 11
85.711254683423576
 21
105.45968358931439
 31
0.0
  0
LINE
  5
2DF
  8
0
 39
5.0
 10
85.202554683423557
 20
105.6906835893144
 30
0.0
 11
85.476254683423562
 21
105.58678358931439
 31
0.0
  0
LINE
  5
2E0
  8
0
 39
5.0
 10
84.898154683423556
 20
105.7715835893143
 30
0.0
 11
85.202554683423557
 21
105.6906835893144
 31
0.0
  0
LINE
  5
2E1
  8
0
 39
5.0
 10
84.571454683423553
 20
105.8292835893144
 30
0.0
 11
84.898154683423556
 21
105.7715835893143
 31
0.0
  0
LINE
  5
2E2
  8
0
 39
5.0
 10
84.230354683423556
 20
105.8638835893144
 30
0.0
 11
84.571454683423553
 21
105.8292835893144
 31
0.0
  0
LINE
  5
2E3
  8
0
 39
5.0
 10
86.032354683423563
 20
105.2324874407131
 30
0.0
 11
86.032354683423563
 21
105.2324874407131
 31
0.0
  0
LINE
  5
2E4
  8
0
 39
5.0
 10
86.032354683423563
 20
105.2324874407131
 30
0.0
 11
86.035654683423559
 21
105.2995874407131
 31
0.0
  0
LINE
  5
2E5
  8
0
 39
5.0
 10
86.035654683423559
 20
105.2995874407131
 30
0.0
 11
86.045654683423564
 21
105.36458744071309
 31
0.0
  0
LINE
  5
2E6
  8
0
 39
5.0
 10
86.045654683423564
 20
105.36458744071309
 30
0.0
 11
86.061854683423562
 21
105.4275874407131
 31
0.0
  0
LINE
  5
2E7
  8
0
 39
5.0
 10
86.061854683423562
 20
105.4275874407131
 30
0.0
 11
86.08405468342356
 21
105.48778744071311
 31
0.0
  0
LINE
  5
2E8
  8
0
 39
5.0
 10
86.08405468342356
 20
105.48778744071311
 30
0.0
 11
86.111754683423555
 21
105.5452874407131
 31
0.0
  0
LINE
  5
2E9
  8
0
 39
5.0
 10
86.322454683423558
 20
105.7770874407131
 30
0.0
 11
86.376554683423564
 21
105.8100874407131
 31
0.0
  0
LINE
  5
2EA
  8
0
 39
5.0
 10
86.376554683423564
 20
105.8100874407131
 30
0.0
 11
86.434054683423554
 21
105.8377874407131
 31
0.0
  0
LINE
  5
2EB
  8
0
 39
5.0
 10
86.434054683423554
 20
105.8377874407131
 30
0.0
 11
86.494254683423549
 21
105.8599874407131
 31
0.0
  0
LINE
  5
2EC
  8
0
 39
5.0
 10
86.494254683423549
 20
105.8599874407131
 30
0.0
 11
86.521088016756849
 21
105.8668874407131
 31
0.0
  0
LINE
  5
2ED
  8
0
 39
5.0
 10
87.500806535275444
 20
105.8668874407131
 30
0.0
 11
83.989954683423534
 21
105.8668874407131
 31
0.0
  0
LINE
  5
2EE
  8
0
 39
5.0
 10
87.986454683423545
 20
105.2995874407131
 30
0.0
 11
87.989954683423534
 21
105.2324874407131
 31
0.0
  0
LINE
  5
2EF
  8
0
 39
5.0
 10
87.97645468342354
 20
105.36458744071309
 30
0.0
 11
87.986454683423545
 21
105.2995874407131
 31
0.0
  0
LINE
  5
2F0
  8
0
 39
5.0
 10
87.960154683423525
 20
105.4275874407131
 30
0.0
 11
87.97645468342354
 21
105.36458744071309
 31
0.0
  0
LINE
  5
2F1
  8
0
 39
5.0
 10
87.938054683423545
 20
105.48778744071311
 30
0.0
 11
87.960154683423525
 21
105.4275874407131
 31
0.0
  0
LINE
  5
2F2
  8
0
 39
5.0
 10
87.910154683423542
 20
105.5452874407131
 30
0.0
 11
87.938054683423545
 21
105.48778744071311
 31
0.0
  0
LINE
  5
2F3
  8
0
 39
5.0
 10
87.877254683423544
 20
105.5993874407131
 30
0.0
 11
87.910154683423542
 21
105.5452874407131
 31
0.0
  0
LINE
  5
2F4
  8
0
 39
5.0
 10
87.839254683423547
 20
105.6499874407131
 30
0.0
 11
87.877254683423544
 21
105.5993874407131
 31
0.0
  0
LINE
  5
2F5
  8
0
 39
5.0
 10
87.796954683423536
 20
105.6965874407131
 30
0.0
 11
87.839254683423547
 21
105.6499874407131
 31
0.0
  0
LINE
  5
2F6
  8
0
 39
5.0
 10
87.750154683423546
 20
105.7391874407131
 30
0.0
 11
87.796954683423536
 21
105.6965874407131
 31
0.0
  0
LINE
  5
2F7
  8
0
 39
5.0
 10
87.699554683423543
 20
105.7770874407131
 30
0.0
 11
87.750154683423546
 21
105.7391874407131
 31
0.0
  0
LINE
  5
2F8
  8
0
 39
5.0
 10
87.645254683423545
 20
105.8100874407131
 30
0.0
 11
87.699554683423543
 21
105.7770874407131
 31
0.0
  0
LINE
  5
2F9
  8
0
 39
5.0
 10
87.587954683423547
 20
105.8377874407131
 30
0.0
 11
87.645254683423545
 21
105.8100874407131
 31
0.0
  0
LINE
  5
2FA
  8
0
 39
5.0
 10
87.527554683423546
 20
105.8599874407131
 30
0.0
 11
87.587954683423547
 21
105.8377874407131
 31
0.0
  0
LINE
  5
2FB
  8
0
 39
5.0
 10
87.500806535275444
 20
105.8668874407131
 30
0.0
 11
87.527554683423546
 21
105.8599874407131
 31
0.0
  0
LINE
  5
2FC
  8
0
 39
5.0
 10
87.893854683423555
 20
91.768862284267612
 30
0.0
 11
87.475354683423561
 21
91.661487440713159
 31
0.0
  0
LINE
  5
2FD
  8
0
 39
5.0
 10
84.935854683423557
 20
91.333087440713157
 30
0.0
 11
84.488854683423554
 21
91.326187440713156
 31
0.0
  0
LINE
  5
2FE
  8
0
 39
5.0
 10
85.37615468342355
 20
91.353687440713159
 30
0.0
 11
84.935854683423557
 21
91.333087440713157
 31
0.0
  0
LINE
  5
2FF
  8
0
 39
5.0
 10
85.809554683423556
 20
91.387887440713158
 30
0.0
 11
85.37615468342355
 21
91.353687440713159
 31
0.0
  0
LINE
  5
300
  8
0
 39
5.0
 10
86.236354683423556
 20
91.435687440713139
 30
0.0
 11
85.809554683423556
 21
91.387887440713158
 31
0.0
  0
LINE
  5
301
  8
0
 39
5.0
 10
86.656054683423562
 20
91.497287440713166
 30
0.0
 11
86.236354683423556
 21
91.435687440713139
 31
0.0
  0
LINE
  5
302
  8
0
 39
5.0
 10
87.069154683423577
 20
91.572587440713164
 30
0.0
 11
86.656054683423562
 21
91.497287440713166
 31
0.0
  0
LINE
  5
303
  8
0
 39
5.0
 10
87.475354683423561
 20
91.661487440713159
 30
0.0
 11
87.069154683423577
 21
91.572587440713164
 31
0.0
  0
LINE
  5
304
  8
0
 39
5.0
 10
87.482954683423543
 20
93.618787440713163
 30
0.0
 11
87.893854683423555
 21
93.515987440713147
 31
0.0
  0
LINE
  5
305
  8
0
 39
5.0
 10
87.069354683423555
 20
93.707687440713158
 30
0.0
 11
87.482954683423543
 21
93.618787440713163
 31
0.0
  0
LINE
  5
306
  8
0
 39
5.0
 10
86.652454683423557
 20
93.782987440713171
 30
0.0
 11
87.069354683423555
 21
93.707687440713158
 31
0.0
  0
LINE
  5
307
  8
0
 39
5.0
 10
86.231854683423563
 20
93.844487440713166
 30
0.0
 11
86.652454683423557
 21
93.782987440713171
 31
0.0
  0
LINE
  5
308
  8
0
 39
5.0
 10
85.806554683423556
 20
93.892487440713154
 30
0.0
 11
86.231854683423563
 21
93.844487440713166
 31
0.0
  0
LINE
  5
309
  8
0
 39
5.0
 10
85.376354683423557
 20
93.926687440713167
 30
0.0
 11
85.806554683423556
 21
93.892487440713154
 31
0.0
  0
LINE
  5
30A
  8
0
 39
5.0
 10
84.940454683423539
 20
93.947287440713168
 30
0.0
 11
85.376354683423557
 21
93.926687440713167
 31
0.0
  0
LINE
  5
30B
  8
0
 39
5.0
 10
84.498454683423546
 20
93.953987440713163
 30
0.0
 11
84.940454683423539
 21
93.947287440713168
 31
0.0
  0
LINE
  5
30C
  8
0
 39
5.0
 10
84.353058977673143
 20
93.951818321967835
 30
0.0
 11
84.498454683423546
 21
93.953987440713163
 31
0.0
  0
LINE
  5
30D
  8
0
 39
5.0
 10
87.893854683423555
 20
93.515987440713147
 30
0.0
 11
87.893854683423555
 21
93.515987440713147
 31
0.0
  0
LINE
  5
30E
  8
0
 39
5.0
 10
87.893854683423555
 20
93.515987440713147
 30
0.0
 11
88.204654683423556
 21
93.618787440713163
 31
0.0
  0
LINE
  5
30F
  8
0
 39
5.0
 10
88.204654683423556
 20
93.618787440713163
 30
0.0
 11
88.508954683423553
 21
93.707687440713158
 31
0.0
  0
LINE
  5
310
  8
0
 39
5.0
 10
88.508954683423553
 20
93.707687440713158
 30
0.0
 11
88.806954683423555
 21
93.782987440713171
 31
0.0
  0
LINE
  5
311
  8
0
 39
5.0
 10
88.806954683423555
 20
93.782987440713171
 30
0.0
 11
89.099254683423567
 21
93.844487440713166
 31
0.0
  0
LINE
  5
312
  8
0
 39
5.0
 10
89.099254683423567
 20
93.844487440713166
 30
0.0
 11
89.385754683423556
 21
93.892487440713154
 31
0.0
  0
LINE
  5
313
  8
0
 39
5.0
 10
89.385754683423556
 20
93.892487440713154
 30
0.0
 11
89.66725468342355
 21
93.926687440713167
 31
0.0
  0
LINE
  5
314
  8
0
 39
5.0
 10
89.66725468342355
 20
93.926687440713167
 30
0.0
 11
89.943854683423567
 21
93.947287440713168
 31
0.0
  0
LINE
  5
315
  8
0
 39
5.0
 10
89.935054683423544
 20
91.333087440713157
 30
0.0
 11
89.655754683423567
 21
91.353687440713159
 31
0.0
  0
LINE
  5
316
  8
0
 39
5.0
 10
89.655754683423567
 20
91.353687440713159
 30
0.0
 11
89.372354683423566
 21
91.387887440713158
 31
0.0
  0
LINE
  5
317
  8
0
 39
5.0
 10
89.372354683423566
 20
91.387887440713158
 30
0.0
 11
89.084954683423575
 21
91.435687440713139
 31
0.0
  0
LINE
  5
318
  8
0
 39
5.0
 10
89.084954683423575
 20
91.435687440713139
 30
0.0
 11
88.793354683423559
 21
91.497287440713166
 31
0.0
  0
LINE
  5
319
  8
0
 39
5.0
 10
88.793354683423559
 20
91.497287440713166
 30
0.0
 11
88.497654683423562
 21
91.572587440713164
 31
0.0
  0
LINE
  5
31A
  8
0
 39
5.0
 10
88.497654683423562
 20
91.572587440713164
 30
0.0
 11
88.197754683423554
 21
91.661487440713159
 31
0.0
  0
LINE
  5
31B
  8
0
 39
5.0
 10
88.197754683423554
 20
91.661487440713159
 30
0.0
 11
87.893854683423555
 21
91.763987440713166
 31
0.0
  0
LINE
  5
31C
  8
0
 39
5.0
 10
91.989954683423548
 20
91.768856296557857
 30
0.0
 11
91.736354683423556
 21
91.661487440713159
 31
0.0
  0
LINE
  5
31D
  8
0
 39
5.0
 10
89.926354683423554
 20
91.326187440713156
 30
0.0
 11
89.935054683423544
 21
91.333087440713157
 31
0.0
  0
LINE
  5
31E
  8
0
 39
5.0
 10
91.740854683423535
 20
93.618787440713163
 30
0.0
 11
91.989954683423548
 21
93.515987440713147
 31
0.0
  0
LINE
  5
31F
  8
0
 39
5.0
 10
91.490254683423558
 20
93.707687440713158
 30
0.0
 11
91.740854683423535
 21
93.618787440713163
 31
0.0
  0
LINE
  5
320
  8
0
 39
5.0
 10
91.237554683423554
 20
93.782987440713171
 30
0.0
 11
91.490254683423558
 21
93.707687440713158
 31
0.0
  0
LINE
  5
321
  8
0
 39
5.0
 10
90.982654683423533
 20
93.844487440713166
 30
0.0
 11
91.237554683423554
 21
93.782987440713171
 31
0.0
  0
LINE
  5
322
  8
0
 39
5.0
 10
90.724854683423544
 20
93.892487440713154
 30
0.0
 11
90.982654683423533
 21
93.844487440713166
 31
0.0
  0
LINE
  5
323
  8
0
 39
5.0
 10
90.464154683423558
 20
93.926687440713167
 30
0.0
 11
90.724854683423544
 21
93.892487440713154
 31
0.0
  0
LINE
  5
324
  8
0
 39
5.0
 10
90.199954683423556
 20
93.947287440713168
 30
0.0
 11
90.464154683423558
 21
93.926687440713167
 31
0.0
  0
LINE
  5
325
  8
0
 39
5.0
 10
89.932154683423533
 20
93.953987440713163
 30
0.0
 11
90.199954683423556
 21
93.947287440713168
 31
0.0
  0
LINE
  5
326
  8
0
 39
5.0
 10
89.943854683423567
 20
93.947287440713168
 30
0.0
 11
89.932154683423533
 21
93.953987440713163
 31
0.0
  0
LINE
  5
327
  8
0
 39
5.0
 10
90.197254683423566
 20
91.333087440713157
 30
0.0
 11
89.926354683423554
 21
91.326187440713156
 31
0.0
  0
LINE
  5
328
  8
0
 39
5.0
 10
90.464054683423555
 20
91.353687440713159
 30
0.0
 11
90.197254683423566
 21
91.333087440713157
 31
0.0
  0
LINE
  5
329
  8
0
 39
5.0
 10
90.72675468342355
 20
91.387887440713158
 30
0.0
 11
90.464054683423555
 21
91.353687440713159
 31
0.0
  0
LINE
  5
32A
  8
0
 39
5.0
 10
90.985354683423552
 20
91.435687440713139
 30
0.0
 11
90.72675468342355
 21
91.387887440713158
 31
0.0
  0
LINE
  5
32B
  8
0
 39
5.0
 10
91.239754683423556
 20
91.497287440713166
 30
0.0
 11
90.985354683423552
 21
91.435687440713139
 31
0.0
  0
LINE
  5
32C
  8
0
 39
5.0
 10
91.490154683423555
 20
91.572587440713164
 30
0.0
 11
91.239754683423556
 21
91.497287440713166
 31
0.0
  0
LINE
  5
32D
  8
0
 39
5.0
 10
91.736354683423556
 20
91.661487440713159
 30
0.0
 11
91.490154683423555
 21
91.572587440713164
 31
0.0
  0
LINE
  5
32E
  8
0
 39
5.0
 10
91.978454683423564
 20
91.763987440713166
 30
0.0
 11
91.978454683423564
 21
91.763987440713166
 31
0.0
  0
LINE
  5
32F
  8
0
 39
5.0
 10
87.893854683423555
 20
91.763987440713166
 30
0.0
 11
87.893854683423584
 21
93.515987440713147
 31
0.0
  0
LINE
  5
330
  8
0
 39
5.0
 10
87.893854683423555
 20
85.763987440713166
 30
0.0
 11
87.893854683423584
 21
87.515987440713161
 31
0.0
  0
LINE
  5
331
  8
0
 39
5.0
 10
91.978454683423564
 20
85.763987440713166
 30
0.0
 11
91.978454683423564
 21
85.763987440713166
 31
0.0
  0
LINE
  5
332
  8
0
 39
5.0
 10
91.736354683423556
 20
85.661487440713159
 30
0.0
 11
91.490154683423555
 21
85.572587440713164
 31
0.0
  0
LINE
  5
333
  8
0
 39
5.0
 10
91.490154683423555
 20
85.572587440713164
 30
0.0
 11
91.239754683423556
 21
85.497287440713137
 31
0.0
  0
LINE
  5
334
  8
0
 39
5.0
 10
91.239754683423556
 20
85.497287440713137
 30
0.0
 11
90.985354683423552
 21
85.435687440713153
 31
0.0
  0
LINE
  5
335
  8
0
 39
5.0
 10
90.985354683423552
 20
85.435687440713153
 30
0.0
 11
90.72675468342355
 21
85.387887440713158
 31
0.0
  0
LINE
  5
336
  8
0
 39
5.0
 10
90.72675468342355
 20
85.387887440713158
 30
0.0
 11
90.464054683423555
 21
85.353687440713159
 31
0.0
  0
LINE
  5
337
  8
0
 39
5.0
 10
90.464054683423555
 20
85.353687440713159
 30
0.0
 11
90.197254683423566
 21
85.333087440713157
 31
0.0
  0
LINE
  5
338
  8
0
 39
5.0
 10
90.197254683423566
 20
85.333087440713157
 30
0.0
 11
89.926354683423554
 21
85.326187440713156
 31
0.0
  0
LINE
  5
339
  8
0
 39
5.0
 10
89.943854683423567
 20
87.947287440713168
 30
0.0
 11
89.932154683423533
 21
87.953987440713163
 31
0.0
  0
LINE
  5
33A
  8
0
 39
5.0
 10
89.932154683423533
 20
87.953987440713163
 30
0.0
 11
90.199954683423556
 21
87.947287440713168
 31
0.0
  0
LINE
  5
33B
  8
0
 39
5.0
 10
90.199954683423556
 20
87.947287440713168
 30
0.0
 11
90.464154683423558
 21
87.926687440713167
 31
0.0
  0
LINE
  5
33C
  8
0
 39
5.0
 10
90.464154683423558
 20
87.926687440713167
 30
0.0
 11
90.724854683423544
 21
87.892487440713168
 31
0.0
  0
LINE
  5
33D
  8
0
 39
5.0
 10
90.724854683423544
 20
87.892487440713168
 30
0.0
 11
90.982654683423533
 21
87.844487440713166
 31
0.0
  0
LINE
  5
33E
  8
0
 39
5.0
 10
90.982654683423533
 20
87.844487440713166
 30
0.0
 11
91.237554683423554
 21
87.782987440713171
 31
0.0
  0
LINE
  5
33F
  8
0
 39
5.0
 10
91.237554683423554
 20
87.782987440713171
 30
0.0
 11
91.490254683423558
 21
87.707687440713158
 31
0.0
  0
LINE
  5
340
  8
0
 39
5.0
 10
91.490254683423558
 20
87.707687440713158
 30
0.0
 11
91.740854683423535
 21
87.618787440713149
 31
0.0
  0
LINE
  5
341
  8
0
 39
5.0
 10
91.740854683423535
 20
87.618787440713149
 30
0.0
 11
91.989954683423548
 21
87.515987440713161
 31
0.0
  0
LINE
  5
342
  8
0
 39
5.0
 10
89.926354683423554
 20
85.326187440713156
 30
0.0
 11
89.935054683423544
 21
85.333087440713157
 31
0.0
  0
LINE
  5
343
  8
0
 39
5.0
 10
91.989954683423548
 20
85.768856296557857
 30
0.0
 11
91.736354683423556
 21
85.661487440713159
 31
0.0
  0
LINE
  5
344
  8
0
 39
5.0
 10
88.197754683423554
 20
85.661487440713159
 30
0.0
 11
87.893854683423555
 21
85.763987440713166
 31
0.0
  0
LINE
  5
345
  8
0
 39
5.0
 10
88.497654683423562
 20
85.572587440713164
 30
0.0
 11
88.197754683423554
 21
85.661487440713159
 31
0.0
  0
LINE
  5
346
  8
0
 39
5.0
 10
88.793354683423559
 20
85.497287440713137
 30
0.0
 11
88.497654683423562
 21
85.572587440713164
 31
0.0
  0
LINE
  5
347
  8
0
 39
5.0
 10
89.084954683423575
 20
85.435687440713153
 30
0.0
 11
88.793354683423559
 21
85.497287440713137
 31
0.0
  0
LINE
  5
348
  8
0
 39
5.0
 10
89.372354683423566
 20
85.387887440713158
 30
0.0
 11
89.084954683423575
 21
85.435687440713153
 31
0.0
  0
LINE
  5
349
  8
0
 39
5.0
 10
89.655754683423567
 20
85.353687440713159
 30
0.0
 11
89.372354683423566
 21
85.387887440713158
 31
0.0
  0
LINE
  5
34A
  8
0
 39
5.0
 10
89.935054683423544
 20
85.333087440713157
 30
0.0
 11
89.655754683423567
 21
85.353687440713159
 31
0.0
  0
LINE
  5
34B
  8
0
 39
5.0
 10
89.66725468342355
 20
87.926687440713167
 30
0.0
 11
89.943854683423567
 21
87.947287440713168
 31
0.0
  0
LINE
  5
34C
  8
0
 39
5.0
 10
89.385754683423556
 20
87.892487440713168
 30
0.0
 11
89.66725468342355
 21
87.926687440713167
 31
0.0
  0
LINE
  5
34D
  8
0
 39
5.0
 10
89.099254683423567
 20
87.844487440713166
 30
0.0
 11
89.385754683423556
 21
87.892487440713168
 31
0.0
  0
LINE
  5
34E
  8
0
 39
5.0
 10
88.806954683423555
 20
87.782987440713171
 30
0.0
 11
89.099254683423567
 21
87.844487440713166
 31
0.0
  0
LINE
  5
34F
  8
0
 39
5.0
 10
88.508954683423553
 20
87.707687440713158
 30
0.0
 11
88.806954683423555
 21
87.782987440713171
 31
0.0
  0
LINE
  5
350
  8
0
 39
5.0
 10
88.204654683423556
 20
87.618787440713149
 30
0.0
 11
88.508954683423553
 21
87.707687440713158
 31
0.0
  0
LINE
  5
351
  8
0
 39
5.0
 10
87.893854683423555
 20
87.515987440713161
 30
0.0
 11
88.204654683423556
 21
87.618787440713149
 31
0.0
  0
LINE
  5
352
  8
0
 39
5.0
 10
87.893854683423555
 20
87.515987440713161
 30
0.0
 11
87.893854683423555
 21
87.515987440713161
 31
0.0
  0
LINE
  5
353
  8
0
 39
5.0
 10
84.353058977673143
 20
87.951818321967835
 30
0.0
 11
84.498454683423546
 21
87.953987440713163
 31
0.0
  0
LINE
  5
354
  8
0
 39
5.0
 10
84.498454683423546
 20
87.953987440713163
 30
0.0
 11
84.940454683423539
 21
87.947287440713168
 31
0.0
  0
LINE
  5
355
  8
0
 39
5.0
 10
84.940454683423539
 20
87.947287440713168
 30
0.0
 11
85.376354683423557
 21
87.926687440713167
 31
0.0
  0
LINE
  5
356
  8
0
 39
5.0
 10
85.376354683423557
 20
87.926687440713167
 30
0.0
 11
85.806554683423556
 21
87.892487440713168
 31
0.0
  0
LINE
  5
357
  8
0
 39
5.0
 10
85.806554683423556
 20
87.892487440713168
 30
0.0
 11
86.231854683423563
 21
87.844487440713166
 31
0.0
  0
LINE
  5
358
  8
0
 39
5.0
 10
86.231854683423563
 20
87.844487440713166
 30
0.0
 11
86.652454683423557
 21
87.782987440713171
 31
0.0
  0
LINE
  5
359
  8
0
 39
5.0
 10
86.652454683423557
 20
87.782987440713171
 30
0.0
 11
87.069354683423555
 21
87.707687440713158
 31
0.0
  0
LINE
  5
35A
  8
0
 39
5.0
 10
87.069354683423555
 20
87.707687440713158
 30
0.0
 11
87.482954683423543
 21
87.618787440713149
 31
0.0
  0
LINE
  5
35B
  8
0
 39
5.0
 10
87.482954683423543
 20
87.618787440713149
 30
0.0
 11
87.893854683423555
 21
87.515987440713161
 31
0.0
  0
LINE
  5
35C
  8
0
 39
5.0
 10
87.475354683423561
 20
85.661487440713159
 30
0.0
 11
87.069154683423577
 21
85.572587440713164
 31
0.0
  0
LINE
  5
35D
  8
0
 39
5.0
 10
87.069154683423577
 20
85.572587440713164
 30
0.0
 11
86.656054683423562
 21
85.497287440713137
 31
0.0
  0
LINE
  5
35E
  8
0
 39
5.0
 10
86.656054683423562
 20
85.497287440713137
 30
0.0
 11
86.236354683423556
 21
85.435687440713153
 31
0.0
  0
LINE
  5
35F
  8
0
 39
5.0
 10
86.236354683423556
 20
85.435687440713153
 30
0.0
 11
85.809554683423556
 21
85.387887440713158
 31
0.0
  0
LINE
  5
360
  8
0
 39
5.0
 10
85.809554683423556
 20
85.387887440713158
 30
0.0
 11
85.37615468342355
 21
85.353687440713159
 31
0.0
  0
LINE
  5
361
  8
0
 39
5.0
 10
85.37615468342355
 20
85.353687440713159
 30
0.0
 11
84.935854683423557
 21
85.333087440713157
 31
0.0
  0
LINE
  5
362
  8
0
 39
5.0
 10
84.935854683423557
 20
85.333087440713157
 30
0.0
 11
84.488854683423554
 21
85.326187440713156
 31
0.0
  0
LINE
  5
363
  8
0
 39
5.0
 10
87.893854683423555
 20
85.768862284267612
 30
0.0
 11
87.475354683423561
 21
85.661487440713159
 31
0.0
  0
LINE
  5
364
  8
2
 39
5.0
 10
88.740554683423554
 20
91.326187440713127
 30
0.0
 11
88.740554683423554
 21
87.951818321967821
 31
0.0
  0
LINE
  5
365
  8
2
 39
5.0
 10
88.740554683423568
 20
96.366887440713171
 30
0.0
 11
88.740554683423554
 21
93.951818321967835
 31
0.0
  0
LINE
  5
366
  8
0
 39
5.0
 10
87.989954683423534
 20
105.2324874407131
 30
0.0
 11
87.989954683423534
 21
97.023787440713164
 31
0.0
  0
LINE
  5
367
  8
0
 39
5.0
 10
87.989954683423534
 20
97.023787440713164
 30
0.0
 11
87.989954683423534
 21
97.023787440713164
 31
0.0
  0
LINE
  5
368
  8
0
 39
5.0
 10
86.032354683423563
 20
97.023787440713164
 30
0.0
 11
86.032354683423563
 21
105.2324874407131
 31
0.0
  0
LINE
  5
369
  8
0
 39
5.0
 10
86.032354683423563
 20
105.1362835893143
 30
0.0
 11
86.032354683423563
 21
96.984583589314397
 31
0.0
  0
LINE
  5
36A
  8
0
 39
5.0
 10
87.989954683423534
 20
97.023787440713164
 30
0.0
 11
87.986454683423545
 21
96.956987440713135
 31
0.0
  0
LINE
  5
36B
  8
0
 39
5.0
 10
87.986454683423545
 20
96.956987440713135
 30
0.0
 11
87.97645468342354
 21
96.891987440713152
 31
0.0
  0
LINE
  5
36C
  8
0
 39
5.0
 10
87.97645468342354
 20
96.891987440713152
 30
0.0
 11
87.960154683423525
 21
96.829187440713156
 31
0.0
  0
LINE
  5
36D
  8
0
 39
5.0
 10
87.960154683423525
 20
96.829187440713156
 30
0.0
 11
87.938054683423545
 21
96.768787440713155
 31
0.0
  0
LINE
  5
36E
  8
0
 39
5.0
 10
87.938054683423545
 20
96.768787440713155
 30
0.0
 11
87.910154683423542
 21
96.711487440713171
 31
0.0
  0
LINE
  5
36F
  8
0
 39
5.0
 10
87.910154683423542
 20
96.711487440713171
 30
0.0
 11
87.877254683423544
 21
96.657187440713145
 31
0.0
  0
LINE
  5
370
  8
0
 39
5.0
 10
87.877254683423544
 20
96.657187440713145
 30
0.0
 11
87.839254683423547
 21
96.606587440713156
 31
0.0
  0
LINE
  5
371
  8
0
 39
5.0
 10
87.839254683423547
 20
96.606587440713156
 30
0.0
 11
87.796954683423536
 21
96.559787440713151
 31
0.0
  0
LINE
  5
372
  8
0
 39
5.0
 10
87.796954683423536
 20
96.559787440713151
 30
0.0
 11
87.750154683423546
 21
96.517487440713154
 31
0.0
  0
LINE
  5
373
  8
0
 39
5.0
 10
87.750154683423546
 20
96.517487440713154
 30
0.0
 11
87.699554683423543
 21
96.479487440713157
 31
0.0
  0
LINE
  5
374
  8
0
 39
5.0
 10
87.699554683423543
 20
96.479487440713157
 30
0.0
 11
87.645254683423545
 21
96.446587440713145
 31
0.0
  0
LINE
  5
375
  8
0
 39
5.0
 10
87.645254683423545
 20
96.446587440713145
 30
0.0
 11
87.587954683423547
 21
96.418687440713171
 31
0.0
  0
LINE
  5
376
  8
0
 39
5.0
 10
87.587954683423547
 20
96.418687440713171
 30
0.0
 11
87.527554683423546
 21
96.396587440713176
 31
0.0
  0
LINE
  5
377
  8
0
 39
5.0
 10
87.527554683423546
 20
96.396587440713176
 30
0.0
 11
87.464754683423536
 21
96.380287440713161
 31
0.0
  0
LINE
  5
378
  8
0
 39
5.0
 10
87.464754683423536
 20
96.380287440713161
 30
0.0
 11
87.399754683423538
 21
96.370287440713156
 31
0.0
  0
LINE
  5
379
  8
0
 39
5.0
 10
87.399754683423538
 20
96.370287440713156
 30
0.0
 11
87.334863254851925
 21
96.366887440713157
 31
0.0
  0
LINE
  5
37A
  8
0
 39
5.0
 10
84.343154683423563
 20
96.383483589314395
 30
0.0
 11
83.996429741024684
 21
96.366887440713143
 31
0.0
  0
LINE
  5
37B
  8
0
 39
5.0
 10
86.687437540566435
 20
96.366887440713157
 30
0.0
 11
86.622254683423563
 21
96.370287440713156
 31
0.0
  0
LINE
  5
37C
  8
0
 39
5.0
 10
86.035654683423559
 20
96.956987440713135
 30
0.0
 11
86.032354683423563
 21
97.023787440713164
 31
0.0
  0
LINE
  5
37D
  8
0
 39
5.0
 10
86.045654683423564
 20
96.891987440713152
 30
0.0
 11
86.035654683423559
 21
96.956987440713135
 31
0.0
  0
LINE
  5
37E
  8
0
 39
5.0
 10
86.061854683423562
 20
96.829187440713156
 30
0.0
 11
86.045654683423564
 21
96.891987440713152
 31
0.0
  0
LINE
  5
37F
  8
0
 39
5.0
 10
86.08405468342356
 20
96.768787440713155
 30
0.0
 11
86.061854683423562
 21
96.829187440713156
 31
0.0
  0
LINE
  5
380
  8
0
 39
5.0
 10
86.111754683423555
 20
96.711487440713171
 30
0.0
 11
86.08405468342356
 21
96.768787440713155
 31
0.0
  0
LINE
  5
381
  8
0
 39
5.0
 10
86.144754683423557
 20
96.657187440713145
 30
0.0
 11
86.111754683423555
 21
96.711487440713171
 31
0.0
  0
LINE
  5
382
  8
0
 39
5.0
 10
86.182654683423564
 20
96.606587440713156
 30
0.0
 11
86.144754683423557
 21
96.657187440713145
 31
0.0
  0
LINE
  5
383
  8
0
 39
5.0
 10
86.225254683423557
 20
96.559787440713151
 30
0.0
 11
86.182654683423564
 21
96.606587440713156
 31
0.0
  0
LINE
  5
384
  8
0
 39
5.0
 10
86.271854683423555
 20
96.517487440713154
 30
0.0
 11
86.225254683423557
 21
96.559787440713151
 31
0.0
  0
LINE
  5
385
  8
0
 39
5.0
 10
86.322454683423558
 20
96.479487440713157
 30
0.0
 11
86.271854683423555
 21
96.517487440713154
 31
0.0
  0
LINE
  5
386
  8
0
 39
5.0
 10
86.376554683423564
 20
96.446587440713145
 30
0.0
 11
86.322454683423558
 21
96.479487440713157
 31
0.0
  0
LINE
  5
387
  8
0
 39
5.0
 10
86.434054683423554
 20
96.418687440713171
 30
0.0
 11
86.376554683423564
 21
96.446587440713145
 31
0.0
  0
LINE
  5
388
  8
0
 39
5.0
 10
86.494254683423549
 20
96.396587440713176
 30
0.0
 11
86.434054683423554
 21
96.418687440713171
 31
0.0
  0
LINE
  5
389
  8
0
 39
5.0
 10
86.557254683423551
 20
96.380287440713161
 30
0.0
 11
86.494254683423549
 21
96.396587440713176
 31
0.0
  0
LINE
  5
38A
  8
0
 39
5.0
 10
86.622254683423563
 20
96.370287440713156
 30
0.0
 11
86.557254683423551
 21
96.380287440713161
 31
0.0
  0
LINE
  5
38B
  8
0
 39
5.0
 10
86.689354683423559
 20
96.366787440713154
 30
0.0
 11
86.689354683423559
 21
96.366787440713154
 31
0.0
  0
LINE
  5
38C
  8
0
 39
5.0
 10
86.032354683423563
 20
96.984583589314397
 30
0.0
 11
86.032354683423563
 21
96.984583589314397
 31
0.0
  0
LINE
  5
38D
  8
0
 39
5.0
 10
86.032354683423563
 20
96.984583589314397
 30
0.0
 11
85.875654683423562
 21
96.848783589314422
 31
0.0
  0
LINE
  5
38E
  8
0
 39
5.0
 10
85.875654683423562
 20
96.848783589314422
 30
0.0
 11
85.682854683423557
 21
96.7286835893144
 31
0.0
  0
LINE
  5
38F
  8
0
 39
5.0
 10
85.682854683423557
 20
96.7286835893144
 30
0.0
 11
85.458454683423554
 21
96.624983589314397
 31
0.0
  0
LINE
  5
390
  8
0
 39
5.0
 10
85.458454683423554
 20
96.624983589314397
 30
0.0
 11
85.207654683423556
 21
96.538083589314425
 31
0.0
  0
LINE
  5
391
  8
0
 39
5.0
 10
85.207654683423556
 20
96.538083589314425
 30
0.0
 11
84.934754683423563
 21
96.468583589314406
 31
0.0
  0
LINE
  5
392
  8
0
 39
5.0
 10
84.934754683423563
 20
96.468583589314406
 30
0.0
 11
84.645054683423552
 21
96.416883589314395
 31
0.0
  0
LINE
  5
393
  8
0
 39
5.0
 10
84.645054683423552
 20
96.416883589314395
 30
0.0
 11
84.343154683423563
 21
96.383483589314395
 31
0.0
  0
LINE
  5
394
  8
2
 39
5.0
 10
88.740554683423554
 20
85.326187440713142
 30
0.0
 11
88.740554683423554
 21
81.366887440713157
 31
0.0
  0
LINE
  5
395
  8
0
 39
5.0
 10
88.989954683423534
 20
81.366887440713157
 30
0.0
 11
83.989954683423534
 21
81.366887440713157
 31
0.0
  0
LINE
  5
396
  8
0
 39
5.0
 10
84.343154683423563
 20
58.875631037866427
 30
0.0
 11
84.099594301460385
 21
58.866887440713157
 31
0.0
  0
LINE
  5
397
  8
0
 39
5.0
 10
86.926954683423546
 20
81.366887440713157
 30
0.0
 11
86.926954683423546
 21
65.774287440713167
 31
0.0
  0
LINE
  5
398
  8
0
 39
5.0
 10
84.645054683423552
 20
58.900731037866443
 30
0.0
 11
84.343154683423563
 21
58.875631037866427
 31
0.0
  0
LINE
  5
399
  8
0
 39
5.0
 10
84.934754683423563
 20
58.939631037866427
 30
0.0
 11
84.645054683423552
 21
58.900731037866443
 31
0.0
  0
LINE
  5
39A
  8
0
 39
5.0
 10
85.207654683423556
 20
58.991631037866419
 30
0.0
 11
84.934754683423563
 21
58.939631037866427
 31
0.0
  0
LINE
  5
39B
  8
0
 39
5.0
 10
85.458454683423554
 20
59.056831037866431
 30
0.0
 11
85.207654683423556
 21
58.991631037866419
 31
0.0
  0
LINE
  5
39C
  8
0
 39
5.0
 10
85.682854683423557
 20
59.134531037866431
 30
0.0
 11
85.458454683423554
 21
59.056831037866431
 31
0.0
  0
LINE
  5
39D
  8
0
 39
5.0
 10
85.875654683423562
 20
59.22463103786643
 30
0.0
 11
85.682854683423557
 21
59.134531037866431
 31
0.0
  0
LINE
  5
39E
  8
0
 39
5.0
 10
86.032354683423563
 20
59.326431037866421
 30
0.0
 11
85.875654683423562
 21
59.22463103786643
 31
0.0
  0
LINE
  5
39F
  8
0
 39
5.0
 10
86.032354683423563
 20
59.326431037866421
 30
0.0
 11
86.032354683423563
 21
59.326431037866421
 31
0.0
  0
LINE
  5
3A1
  8
0
 39
5.0
 10
87.464754683423536
 20
65.754887440713162
 30
0.0
 11
87.527554683423546
 21
65.742787440713158
 31
0.0
  0
LINE
  5
3A2
  8
0
 39
5.0
 10
87.527554683423546
 20
65.742787440713158
 30
0.0
 11
87.587954683423547
 21
65.726087440713158
 31
0.0
  0
LINE
  5
3A3
  8
0
 39
5.0
 10
87.587954683423547
 20
65.726087440713158
 30
0.0
 11
87.645254683423545
 21
65.705387440713153
 31
0.0
  0
LINE
  5
3A4
  8
0
 39
5.0
 10
87.645254683423545
 20
65.705387440713153
 30
0.0
 11
87.699554683423543
 21
65.680587440713154
 31
0.0
  0
LINE
  5
3A5
  8
0
 39
5.0
 10
87.699554683423543
 20
65.680587440713154
 30
0.0
 11
87.750154683423546
 21
65.652187440713163
 31
0.0
  0
LINE
  5
3A6
  8
0
 39
5.0
 10
87.750154683423546
 20
65.652187440713163
 30
0.0
 11
87.796954683423536
 21
65.620187440713167
 31
0.0
  0
LINE
  5
3A7
  8
0
 39
5.0
 10
87.796954683423536
 20
65.620187440713167
 30
0.0
 11
87.839254683423547
 21
65.585287440713159
 31
0.0
  0
LINE
  5
3A8
  8
0
 39
5.0
 10
87.839254683423547
 20
65.585287440713159
 30
0.0
 11
87.877254683423544
 21
65.547287440713163
 31
0.0
  0
LINE
  5
3A9
  8
0
 39
5.0
 10
87.877254683423544
 20
65.547287440713163
 30
0.0
 11
87.910154683423542
 21
65.506787440713154
 31
0.0
  0
LINE
  5
3AA
  8
0
 39
5.0
 10
87.910154683423542
 20
65.506787440713154
 30
0.0
 11
87.938054683423545
 21
65.463587440713155
 31
0.0
  0
LINE
  5
3AB
  8
0
 39
5.0
 10
87.938054683423545
 20
65.463587440713155
 30
0.0
 11
87.960154683423525
 21
65.418387440713161
 31
0.0
  0
LINE
  5
3AC
  8
0
 39
5.0
 10
87.960154683423525
 20
65.418387440713161
 30
0.0
 11
87.97645468342354
 21
65.371187440713157
 31
0.0
  0
LINE
  5
3AD
  8
0
 39
5.0
 10
87.97645468342354
 20
65.371187440713157
 30
0.0
 11
87.986454683423545
 21
65.322387440713158
 31
0.0
  0
LINE
  5
3AE
  8
0
 39
5.0
 10
87.986454683423545
 20
65.322387440713158
 30
0.0
 11
87.989954683423534
 21
65.272087440713165
 31
0.0
  0
LINE
  5
3AF
  8
0
 39
5.0
 10
87.989954683423534
 20
65.272087440713165
 30
0.0
 11
87.989954683423534
 21
59.359587440713149
 31
0.0
  0
LINE
  5
3B0
  8
0
 39
5.0
 10
87.989954683423534
 20
59.359587440713149
 30
0.0
 11
87.989954683423534
 21
59.359587440713149
 31
0.0
  0
LINE
  5
3B1
  8
0
 39
5.0
 10
87.989954683423534
 20
59.359587440713149
 30
0.0
 11
87.986454683423545
 21
59.309587440713159
 31
0.0
  0
LINE
  5
3B2
  8
0
 39
5.0
 10
87.986454683423545
 20
59.309587440713159
 30
0.0
 11
87.97645468342354
 21
59.260787440713159
 31
0.0
  0
LINE
  5
3B3
  8
0
 39
5.0
 10
87.97645468342354
 20
59.260787440713159
 30
0.0
 11
87.960154683423525
 21
59.213687440713151
 31
0.0
  0
LINE
  5
3B4
  8
0
 39
5.0
 10
87.960154683423525
 20
59.213687440713151
 30
0.0
 11
87.938054683423545
 21
59.168387440713161
 31
0.0
  0
LINE
  5
3B5
  8
0
 39
5.0
 10
87.938054683423545
 20
59.168387440713161
 30
0.0
 11
87.910154683423542
 21
59.125487440713151
 31
0.0
  0
LINE
  5
3B6
  8
0
 39
5.0
 10
87.910154683423542
 20
59.125487440713151
 30
0.0
 11
87.877254683423544
 21
59.084787440713157
 31
0.0
  0
LINE
  5
3B7
  8
0
 39
5.0
 10
87.877254683423544
 20
59.084787440713157
 30
0.0
 11
87.839254683423547
 21
59.046887440713157
 31
0.0
  0
LINE
  5
3B8
  8
0
 39
5.0
 10
87.839254683423547
 20
59.046887440713157
 30
0.0
 11
87.796954683423536
 21
59.01168744071316
 31
0.0
  0
LINE
  5
3B9
  8
0
 39
5.0
 10
87.796954683423536
 20
59.01168744071316
 30
0.0
 11
87.750154683423546
 21
58.979987440713153
 31
0.0
  0
LINE
  5
3BA
  8
0
 39
5.0
 10
87.750154683423546
 20
58.979987440713153
 30
0.0
 11
87.699554683423543
 21
58.951487440713173
 31
0.0
  0
LINE
  5
3BB
  8
0
 39
5.0
 10
87.699554683423543
 20
58.951487440713173
 30
0.0
 11
87.645254683423545
 21
58.926787440713149
 31
0.0
  0
LINE
  5
3BC
  8
0
 39
5.0
 10
87.645254683423545
 20
58.926787440713149
 30
0.0
 11
87.587954683423547
 21
58.905887440713151
 31
0.0
  0
LINE
  5
3BD
  8
0
 39
5.0
 10
87.587954683423547
 20
58.905887440713151
 30
0.0
 11
87.527554683423546
 21
58.889387440713172
 31
0.0
  0
LINE
  5
3BE
  8
0
 39
5.0
 10
87.527554683423546
 20
58.889387440713172
 30
0.0
 11
87.464754683423536
 21
58.877087440713147
 31
0.0
  0
LINE
  5
3BF
  8
0
 39
5.0
 10
87.464754683423536
 20
58.877087440713147
 30
0.0
 11
87.399754683423538
 21
58.869587440713161
 31
0.0
  0
LINE
  5
3C0
  8
0
 39
5.0
 10
83.989954683423534
 20
58.866887440713157
 30
0.0
 11
87.004454683423546
 21
58.866887440713157
 31
0.0
  0
LINE
  5
3C1
  8
0
 39
5.0
 10
87.399754683423538
 20
58.869587440713161
 30
0.0
 11
87.332954683423523
 21
58.866887440713157
 31
0.0
  0
LINE
  5
3C2
  8
0
 39
5.0
 10
87.332954683423523
 20
58.866887440713157
 30
0.0
 11
86.689354683423559
 21
58.866887440713157
 31
0.0
  0
LINE
  5
3C3
  8
0
 39
5.0
 10
86.494254683423549
 20
65.742787440713158
 30
0.0
 11
86.557254683423551
 21
65.754887440713162
 31
0.0
  0
LINE
  5
3C4
  8
0
 39
5.0
 10
86.434054683423554
 20
65.726087440713158
 30
0.0
 11
86.494254683423549
 21
65.742787440713158
 31
0.0
  0
LINE
  5
3C5
  8
0
 39
5.0
 10
86.376554683423564
 20
65.705387440713153
 30
0.0
 11
86.434054683423554
 21
65.726087440713158
 31
0.0
  0
LINE
  5
3C6
  8
0
 39
5.0
 10
86.322454683423558
 20
65.680587440713154
 30
0.0
 11
86.376554683423564
 21
65.705387440713153
 31
0.0
  0
LINE
  5
3C7
  8
0
 39
5.0
 10
86.271854683423555
 20
65.652187440713163
 30
0.0
 11
86.322454683423558
 21
65.680587440713154
 31
0.0
  0
LINE
  5
3C8
  8
0
 39
5.0
 10
86.225254683423557
 20
65.620187440713167
 30
0.0
 11
86.271854683423555
 21
65.652187440713163
 31
0.0
  0
LINE
  5
3C9
  8
0
 39
5.0
 10
86.182654683423564
 20
65.585287440713159
 30
0.0
 11
86.225254683423557
 21
65.620187440713167
 31
0.0
  0
LINE
  5
3CA
  8
0
 39
5.0
 10
86.144754683423557
 20
65.547287440713163
 30
0.0
 11
86.182654683423564
 21
65.585287440713159
 31
0.0
  0
LINE
  5
3CB
  8
0
 39
5.0
 10
86.111754683423555
 20
65.506787440713154
 30
0.0
 11
86.144754683423557
 21
65.547287440713163
 31
0.0
  0
LINE
  5
3CC
  8
0
 39
5.0
 10
86.08405468342356
 20
65.463587440713155
 30
0.0
 11
86.111754683423555
 21
65.506787440713154
 31
0.0
  0
LINE
  5
3CD
  8
0
 39
5.0
 10
86.061854683423562
 20
65.418387440713161
 30
0.0
 11
86.08405468342356
 21
65.463587440713155
 31
0.0
  0
LINE
  5
3CE
  8
0
 39
5.0
 10
86.045654683423564
 20
65.371187440713157
 30
0.0
 11
86.061854683423562
 21
65.418387440713161
 31
0.0
  0
LINE
  5
3CF
  8
0
 39
5.0
 10
86.035654683423559
 20
65.322387440713158
 30
0.0
 11
86.045654683423564
 21
65.371187440713157
 31
0.0
  0
LINE
  5
3D0
  8
0
 39
5.0
 10
86.032354683423563
 20
65.272087440713165
 30
0.0
 11
86.035654683423559
 21
65.322387440713158
 31
0.0
  0
LINE
  5
3D1
  8
0
 39
5.0
 10
86.032354683423563
 20
65.272087440713165
 30
0.0
 11
86.032354683423563
 21
65.272087440713165
 31
0.0
  0
LINE
  5
3D2
  8
0
 39
5.0
 10
86.032354683423563
 20
59.359587440713149
 30
0.0
 11
86.032354683423563
 21
65.272087440713165
 31
0.0
  0
LINE
  5
3D3
  8
0
 39
5.0
 10
86.035654683423559
 20
59.309587440713159
 30
0.0
 11
86.032354683423563
 21
59.359587440713149
 31
0.0
  0
LINE
  5
3D4
  8
0
 39
5.0
 10
86.045654683423564
 20
59.260787440713159
 30
0.0
 11
86.035654683423559
 21
59.309587440713159
 31
0.0
  0
LINE
  5
3D5
  8
0
 39
5.0
 10
86.061854683423562
 20
59.213687440713151
 30
0.0
 11
86.045654683423564
 21
59.260787440713159
 31
0.0
  0
LINE
  5
3D6
  8
0
 39
5.0
 10
86.08405468342356
 20
59.168387440713161
 30
0.0
 11
86.061854683423562
 21
59.213687440713151
 31
0.0
  0
LINE
  5
3D7
  8
0
 39
5.0
 10
86.111754683423555
 20
59.125487440713151
 30
0.0
 11
86.08405468342356
 21
59.168387440713161
 31
0.0
  0
LINE
  5
3D8
  8
0
 39
5.0
 10
86.144754683423557
 20
59.084787440713157
 30
0.0
 11
86.111754683423555
 21
59.125487440713151
 31
0.0
  0
LINE
  5
3D9
  8
0
 39
5.0
 10
86.182654683423564
 20
59.046887440713157
 30
0.0
 11
86.144754683423557
 21
59.084787440713157
 31
0.0
  0
LINE
  5
3DA
  8
0
 39
5.0
 10
86.225254683423557
 20
59.01168744071316
 30
0.0
 11
86.182654683423564
 21
59.046887440713157
 31
0.0
  0
LINE
  5
3DB
  8
0
 39
5.0
 10
86.271854683423555
 20
58.979987440713153
 30
0.0
 11
86.225254683423557
 21
59.01168744071316
 31
0.0
  0
LINE
  5
3DC
  8
0
 39
5.0
 10
86.322454683423558
 20
58.951487440713173
 30
0.0
 11
86.271854683423555
 21
58.979987440713153
 31
0.0
  0
LINE
  5
3DD
  8
0
 39
5.0
 10
86.376554683423564
 20
58.926787440713149
 30
0.0
 11
86.322454683423558
 21
58.951487440713173
 31
0.0
  0
LINE
  5
3DE
  8
0
 39
5.0
 10
86.434054683423554
 20
58.905887440713151
 30
0.0
 11
86.376554683423564
 21
58.926787440713149
 31
0.0
  0
LINE
  5
3DF
  8
0
 39
5.0
 10
86.494254683423549
 20
58.889387440713172
 30
0.0
 11
86.434054683423554
 21
58.905887440713151
 31
0.0
  0
LINE
  5
3E0
  8
0
 39
5.0
 10
86.557254683423551
 20
58.877087440713147
 30
0.0
 11
86.494254683423549
 21
58.889387440713172
 31
0.0
  0
LINE
  5
3E1
  8
0
 39
5.0
 10
86.622254683423563
 20
58.869587440713161
 30
0.0
 11
86.557254683423551
 21
58.877087440713147
 31
0.0
  0
LINE
  5
3E2
  8
0
 39
5.0
 10
86.689354683423559
 20
58.866887440713157
 30
0.0
 11
86.622254683423563
 21
58.869587440713161
 31
0.0
  0
LINE
  5
3E3
  8
0
 39
5.0
 10
86.689354683423559
 20
58.866887440713157
 30
0.0
 11
86.689354683423559
 21
58.866887440713157
 31
0.0
  0
LINE
  5
3E4
  8
0
 39
5.0
 10
84.062334797943805
 20
65.754887440713162
 30
0.0
 11
84.571454683423553
 21
65.715931037866426
 31
0.0
  0
LINE
  5
3E5
  8
0
 39
5.0
 10
86.032354683423563
 20
65.196231037866426
 30
0.0
 11
86.032354683423563
 21
59.326431037866421
 31
0.0
  0
LINE
  5
3E6
  8
0
 39
5.0
 10
85.899254683423564
 20
65.326331037866424
 30
0.0
 11
86.032354683423563
 21
65.196231037866426
 31
0.0
  0
LINE
  5
3E7
  8
0
 39
5.0
 10
85.711254683423576
 20
65.438831037866436
 30
0.0
 11
85.899254683423564
 21
65.326331037866424
 31
0.0
  0
LINE
  5
3E8
  8
0
 39
5.0
 10
85.476254683423562
 20
65.534231037866434
 30
0.0
 11
85.711254683423576
 21
65.438831037866436
 31
0.0
  0
LINE
  5
3E9
  8
0
 39
5.0
 10
85.202554683423557
 20
65.61203103786643
 30
0.0
 11
85.476254683423562
 21
65.534231037866434
 31
0.0
  0
LINE
  5
3EA
  8
0
 39
5.0
 10
84.898154683423556
 20
65.672731037866427
 30
0.0
 11
85.202554683423557
 21
65.61203103786643
 31
0.0
  0
LINE
  5
3EB
  8
0
 39
5.0
 10
84.571454683423553
 20
65.715931037866426
 30
0.0
 11
84.898154683423556
 21
65.672731037866427
 31
0.0
  0
LINE
  5
3EC
  8
0
 39
5.0
 10
83.636754683423533
 20
58.875631037866427
 30
0.0
 11
83.880315065386725
 21
58.866887440713157
 31
0.0
  0
LINE
  5
3ED
  8
0
 39
5.0
 10
83.334854683423544
 20
58.900731037866443
 30
0.0
 11
83.636754683423533
 21
58.875631037866427
 31
0.0
  0
LINE
  5
3EE
  8
0
 39
5.0
 10
83.045154683423533
 20
58.939631037866427
 30
0.0
 11
83.334854683423544
 21
58.900731037866443
 31
0.0
  0
LINE
  5
3EF
  8
0
 39
5.0
 10
82.77225468342354
 20
58.991631037866419
 30
0.0
 11
83.045154683423533
 21
58.939631037866427
 31
0.0
  0
LINE
  5
3F0
  8
0
 39
5.0
 10
82.521454683423528
 20
59.056831037866431
 30
0.0
 11
82.77225468342354
 21
58.991631037866419
 31
0.0
  0
LINE
  5
3F1
  8
0
 39
5.0
 10
82.297054683423539
 20
59.134531037866431
 30
0.0
 11
82.521454683423528
 21
59.056831037866431
 31
0.0
  0
LINE
  5
3F2
  8
0
 39
5.0
 10
82.104254683423534
 20
59.22463103786643
 30
0.0
 11
82.297054683423539
 21
59.134531037866431
 31
0.0
  0
LINE
  5
3F3
  8
0
 39
5.0
 10
81.947554683423533
 20
59.326431037866421
 30
0.0
 11
82.104254683423534
 21
59.22463103786643
 31
0.0
  0
LINE
  5
3F4
  8
0
 39
5.0
 10
81.947554683423533
 20
59.326431037866421
 30
0.0
 11
81.947554683423533
 21
59.326431037866421
 31
0.0
  0
LINE
  5
3F5
  8
0
 39
5.0
 10
81.485654683423519
 20
65.742787440713158
 30
0.0
 11
81.422654683423545
 21
65.754887440713162
 31
0.0
  0
LINE
  5
3F6
  8
0
 39
5.0
 10
81.545854683423542
 20
65.726087440713158
 30
0.0
 11
81.485654683423519
 21
65.742787440713158
 31
0.0
  0
LINE
  5
3F7
  8
0
 39
5.0
 10
81.603354683423532
 20
65.705387440713153
 30
0.0
 11
81.545854683423542
 21
65.726087440713158
 31
0.0
  0
LINE
  5
3F8
  8
0
 39
5.0
 10
81.657454683423538
 20
65.680587440713154
 30
0.0
 11
81.603354683423532
 21
65.705387440713153
 31
0.0
  0
LINE
  5
3F9
  8
0
 39
5.0
 10
81.708054683423541
 20
65.652187440713163
 30
0.0
 11
81.657454683423538
 21
65.680587440713154
 31
0.0
  0
LINE
  5
3FA
  8
0
 39
5.0
 10
81.754654683423539
 20
65.620187440713167
 30
0.0
 11
81.708054683423541
 21
65.652187440713163
 31
0.0
  0
LINE
  5
3FB
  8
0
 39
5.0
 10
81.797254683423546
 20
65.585287440713159
 30
0.0
 11
81.754654683423539
 21
65.620187440713167
 31
0.0
  0
LINE
  5
3FC
  8
0
 39
5.0
 10
81.835154683423539
 20
65.547287440713163
 30
0.0
 11
81.797254683423546
 21
65.585287440713159
 31
0.0
  0
LINE
  5
3FD
  8
0
 39
5.0
 10
81.868154683423541
 20
65.506787440713154
 30
0.0
 11
81.835154683423539
 21
65.547287440713163
 31
0.0
  0
LINE
  5
3FE
  8
0
 39
5.0
 10
81.895854683423536
 20
65.463587440713155
 30
0.0
 11
81.868154683423541
 21
65.506787440713154
 31
0.0
  0
LINE
  5
3FF
  8
0
 39
5.0
 10
81.918054683423534
 20
65.418387440713161
 30
0.0
 11
81.895854683423536
 21
65.463587440713155
 31
0.0
  0
LINE
  5
400
  8
0
 39
5.0
 10
81.934254683423546
 20
65.371187440713157
 30
0.0
 11
81.918054683423534
 21
65.418387440713161
 31
0.0
  0
LINE
  5
401
  8
0
 39
5.0
 10
81.944254683423537
 20
65.322387440713158
 30
0.0
 11
81.934254683423546
 21
65.371187440713157
 31
0.0
  0
LINE
  5
402
  8
0
 39
5.0
 10
81.947554683423533
 20
65.272087440713165
 30
0.0
 11
81.944254683423537
 21
65.322387440713158
 31
0.0
  0
LINE
  5
403
  8
0
 39
5.0
 10
81.947554683423533
 20
65.272087440713165
 30
0.0
 11
81.947554683423533
 21
65.272087440713165
 31
0.0
  0
LINE
  5
404
  8
0
 39
5.0
 10
81.947554683423533
 20
59.359587440713149
 30
0.0
 11
81.947554683423533
 21
65.272087440713165
 31
0.0
  0
LINE
  5
405
  8
0
 39
5.0
 10
81.944254683423537
 20
59.309587440713159
 30
0.0
 11
81.947554683423533
 21
59.359587440713149
 31
0.0
  0
LINE
  5
406
  8
0
 39
5.0
 10
81.934254683423546
 20
59.260787440713159
 30
0.0
 11
81.944254683423537
 21
59.309587440713159
 31
0.0
  0
LINE
  5
407
  8
0
 39
5.0
 10
81.918054683423534
 20
59.213687440713151
 30
0.0
 11
81.934254683423546
 21
59.260787440713159
 31
0.0
  0
LINE
  5
408
  8
0
 39
5.0
 10
81.895854683423536
 20
59.168387440713161
 30
0.0
 11
81.918054683423534
 21
59.213687440713151
 31
0.0
  0
LINE
  5
409
  8
0
 39
5.0
 10
81.868154683423541
 20
59.125487440713151
 30
0.0
 11
81.895854683423536
 21
59.168387440713161
 31
0.0
  0
LINE
  5
40A
  8
0
 39
5.0
 10
81.835154683423539
 20
59.084787440713157
 30
0.0
 11
81.868154683423541
 21
59.125487440713151
 31
0.0
  0
LINE
  5
40B
  8
0
 39
5.0
 10
81.797254683423546
 20
59.046887440713157
 30
0.0
 11
81.835154683423539
 21
59.084787440713157
 31
0.0
  0
LINE
  5
40C
  8
0
 39
5.0
 10
81.754654683423539
 20
59.01168744071316
 30
0.0
 11
81.797254683423546
 21
59.046887440713157
 31
0.0
  0
LINE
  5
40D
  8
0
 39
5.0
 10
81.708054683423541
 20
58.979987440713153
 30
0.0
 11
81.754654683423539
 21
59.01168744071316
 31
0.0
  0
LINE
  5
40E
  8
0
 39
5.0
 10
81.657454683423538
 20
58.951487440713173
 30
0.0
 11
81.708054683423541
 21
58.979987440713153
 31
0.0
  0
LINE
  5
40F
  8
0
 39
5.0
 10
81.603354683423532
 20
58.926787440713149
 30
0.0
 11
81.657454683423538
 21
58.951487440713173
 31
0.0
  0
LINE
  5
410
  8
0
 39
5.0
 10
81.545854683423542
 20
58.905887440713151
 30
0.0
 11
81.603354683423532
 21
58.926787440713149
 31
0.0
  0
LINE
  5
411
  8
0
 39
5.0
 10
81.485654683423519
 20
58.889387440713172
 30
0.0
 11
81.545854683423542
 21
58.905887440713151
 31
0.0
  0
LINE
  5
412
  8
0
 39
5.0
 10
81.422654683423545
 20
58.877087440713147
 30
0.0
 11
81.485654683423519
 21
58.889387440713172
 31
0.0
  0
LINE
  5
413
  8
0
 39
5.0
 10
81.357654683423533
 20
58.869587440713161
 30
0.0
 11
81.422654683423545
 21
58.877087440713147
 31
0.0
  0
LINE
  5
414
  8
0
 39
5.0
 10
81.290554683423537
 20
58.866887440713157
 30
0.0
 11
81.357654683423533
 21
58.869587440713161
 31
0.0
  0
LINE
  5
415
  8
0
 39
5.0
 10
81.290554683423537
 20
58.866887440713157
 30
0.0
 11
81.290554683423537
 21
58.866887440713157
 31
0.0
  0
LINE
  5
416
  8
0
 39
5.0
 10
80.646954683423544
 20
58.866887440713157
 30
0.0
 11
81.290554683423537
 21
58.866887440713157
 31
0.0
  0
LINE
  5
417
  8
0
 39
5.0
 10
80.580154683423558
 20
58.869587440713161
 30
0.0
 11
80.646954683423544
 21
58.866887440713157
 31
0.0
  0
LINE
  5
418
  8
0
 39
5.0
 10
80.515154683423575
 20
58.877087440713147
 30
0.0
 11
80.580154683423558
 21
58.869587440713161
 31
0.0
  0
LINE
  5
419
  8
0
 39
5.0
 10
80.45235468342355
 20
58.889387440713172
 30
0.0
 11
80.515154683423575
 21
58.877087440713147
 31
0.0
  0
LINE
  5
41A
  8
0
 39
5.0
 10
80.391954683423535
 20
58.905887440713151
 30
0.0
 11
80.45235468342355
 21
58.889387440713172
 31
0.0
  0
LINE
  5
41B
  8
0
 39
5.0
 10
80.334654683423537
 20
58.926787440713149
 30
0.0
 11
80.391954683423535
 21
58.905887440713151
 31
0.0
  0
LINE
  5
41C
  8
0
 39
5.0
 10
80.280354683423553
 20
58.951487440713173
 30
0.0
 11
80.334654683423537
 21
58.926787440713149
 31
0.0
  0
LINE
  5
41D
  8
0
 39
5.0
 10
80.22975468342355
 20
58.979987440713153
 30
0.0
 11
80.280354683423553
 21
58.951487440713173
 31
0.0
  0
LINE
  5
41E
  8
0
 39
5.0
 10
80.182954683423574
 20
59.01168744071316
 30
0.0
 11
80.22975468342355
 21
58.979987440713153
 31
0.0
  0
LINE
  5
41F
  8
0
 39
5.0
 10
80.140654683423548
 20
59.046887440713157
 30
0.0
 11
80.182954683423574
 21
59.01168744071316
 31
0.0
  0
LINE
  5
420
  8
0
 39
5.0
 10
80.102654683423552
 20
59.084787440713157
 30
0.0
 11
80.140654683423548
 21
59.046887440713157
 31
0.0
  0
LINE
  5
421
  8
0
 39
5.0
 10
80.069754683423554
 20
59.125487440713151
 30
0.0
 11
80.102654683423552
 21
59.084787440713157
 31
0.0
  0
LINE
  5
422
  8
0
 39
5.0
 10
80.041854683423537
 20
59.168387440713161
 30
0.0
 11
80.069754683423554
 21
59.125487440713151
 31
0.0
  0
LINE
  5
423
  8
0
 39
5.0
 10
80.019754683423557
 20
59.213687440713151
 30
0.0
 11
80.041854683423537
 21
59.168387440713161
 31
0.0
  0
LINE
  5
424
  8
0
 39
5.0
 10
80.003454683423556
 20
59.260787440713159
 30
0.0
 11
80.019754683423557
 21
59.213687440713151
 31
0.0
  0
LINE
  5
425
  8
0
 39
5.0
 10
79.99345468342355
 20
59.309587440713159
 30
0.0
 11
80.003454683423556
 21
59.260787440713159
 31
0.0
  0
LINE
  5
426
  8
0
 39
5.0
 10
79.989954683423534
 20
59.359587440713149
 30
0.0
 11
79.99345468342355
 21
59.309587440713159
 31
0.0
  0
LINE
  5
427
  8
0
 39
5.0
 10
79.989954683423534
 20
59.359587440713149
 30
0.0
 11
79.989954683423534
 21
59.359587440713149
 31
0.0
  0
LINE
  5
428
  8
0
 39
5.0
 10
79.989954683423534
 20
65.272087440713165
 30
0.0
 11
79.989954683423534
 21
59.359587440713149
 31
0.0
  0
LINE
  5
429
  8
0
 39
5.0
 10
79.99345468342355
 20
65.322387440713158
 30
0.0
 11
79.989954683423534
 21
65.272087440713165
 31
0.0
  0
LINE
  5
42A
  8
0
 39
5.0
 10
80.003454683423556
 20
65.371187440713157
 30
0.0
 11
79.99345468342355
 21
65.322387440713158
 31
0.0
  0
LINE
  5
42B
  8
0
 39
5.0
 10
80.019754683423557
 20
65.418387440713161
 30
0.0
 11
80.003454683423556
 21
65.371187440713157
 31
0.0
  0
LINE
  5
42C
  8
0
 39
5.0
 10
80.041854683423537
 20
65.463587440713155
 30
0.0
 11
80.019754683423557
 21
65.418387440713161
 31
0.0
  0
LINE
  5
42D
  8
0
 39
5.0
 10
80.069754683423554
 20
65.506787440713154
 30
0.0
 11
80.041854683423537
 21
65.463587440713155
 31
0.0
  0
LINE
  5
42E
  8
0
 39
5.0
 10
80.102654683423552
 20
65.547287440713163
 30
0.0
 11
80.069754683423554
 21
65.506787440713154
 31
0.0
  0
LINE
  5
42F
  8
0
 39
5.0
 10
80.140654683423548
 20
65.585287440713159
 30
0.0
 11
80.102654683423552
 21
65.547287440713163
 31
0.0
  0
LINE
  5
430
  8
0
 39
5.0
 10
80.182954683423574
 20
65.620187440713167
 30
0.0
 11
80.140654683423548
 21
65.585287440713159
 31
0.0
  0
LINE
  5
431
  8
0
 39
5.0
 10
80.22975468342355
 20
65.652187440713163
 30
0.0
 11
80.182954683423574
 21
65.620187440713167
 31
0.0
  0
LINE
  5
432
  8
0
 39
5.0
 10
80.280354683423553
 20
65.680587440713154
 30
0.0
 11
80.22975468342355
 21
65.652187440713163
 31
0.0
  0
LINE
  5
433
  8
0
 39
5.0
 10
80.334654683423537
 20
65.705387440713153
 30
0.0
 11
80.280354683423553
 21
65.680587440713154
 31
0.0
  0
LINE
  5
434
  8
0
 39
5.0
 10
80.391954683423535
 20
65.726087440713158
 30
0.0
 11
80.334654683423537
 21
65.705387440713153
 31
0.0
  0
LINE
  5
435
  8
0
 39
5.0
 10
80.45235468342355
 20
65.742787440713158
 30
0.0
 11
80.391954683423535
 21
65.726087440713158
 31
0.0
  0
LINE
  5
436
  8
0
 39
5.0
 10
80.515154683423575
 20
65.754887440713162
 30
0.0
 11
80.45235468342355
 21
65.742787440713158
 31
0.0
  0
LINE
  5
437
  8
2
 39
5.0
 10
79.239354683423542
 20
85.326187440713142
 30
0.0
 11
79.239354683423542
 21
81.366887440713157
 31
0.0
  0
LINE
  5
438
  8
0
 39
5.0
 10
80.086054683423541
 20
85.768862284267612
 30
0.0
 11
80.504554683423535
 21
85.661487440713159
 31
0.0
  0
LINE
  5
439
  8
0
 39
5.0
 10
83.044054683423539
 20
85.333087440713157
 30
0.0
 11
83.491054683423542
 21
85.326187440713156
 31
0.0
  0
LINE
  5
43A
  8
0
 39
5.0
 10
82.603754683423546
 20
85.353687440713159
 30
0.0
 11
83.044054683423539
 21
85.333087440713157
 31
0.0
  0
LINE
  5
43B
  8
0
 39
5.0
 10
82.17035468342354
 20
85.387887440713158
 30
0.0
 11
82.603754683423546
 21
85.353687440713159
 31
0.0
  0
LINE
  5
43C
  8
0
 39
5.0
 10
81.743554683423525
 20
85.435687440713153
 30
0.0
 11
82.17035468342354
 21
85.387887440713158
 31
0.0
  0
LINE
  5
43D
  8
0
 39
5.0
 10
81.323854683423534
 20
85.497287440713137
 30
0.0
 11
81.743554683423525
 21
85.435687440713153
 31
0.0
  0
LINE
  5
43E
  8
0
 39
5.0
 10
80.910754683423534
 20
85.572587440713164
 30
0.0
 11
81.323854683423534
 21
85.497287440713137
 31
0.0
  0
LINE
  5
43F
  8
0
 39
5.0
 10
80.504554683423535
 20
85.661487440713159
 30
0.0
 11
80.910754683423534
 21
85.572587440713164
 31
0.0
  0
LINE
  5
440
  8
0
 39
5.0
 10
80.496954683423539
 20
87.618787440713149
 30
0.0
 11
80.086054683423541
 21
87.515987440713161
 31
0.0
  0
LINE
  5
441
  8
0
 39
5.0
 10
80.910554683423541
 20
87.707687440713158
 30
0.0
 11
80.496954683423539
 21
87.618787440713149
 31
0.0
  0
LINE
  5
442
  8
0
 39
5.0
 10
81.327454683423554
 20
87.782987440713171
 30
0.0
 11
80.910554683423541
 21
87.707687440713158
 31
0.0
  0
LINE
  5
443
  8
0
 39
5.0
 10
81.748054683423547
 20
87.844487440713166
 30
0.0
 11
81.327454683423554
 21
87.782987440713171
 31
0.0
  0
LINE
  5
444
  8
0
 39
5.0
 10
82.173354683423526
 20
87.892487440713168
 30
0.0
 11
81.748054683423547
 21
87.844487440713166
 31
0.0
  0
LINE
  5
445
  8
0
 39
5.0
 10
82.603554683423525
 20
87.926687440713167
 30
0.0
 11
82.173354683423526
 21
87.892487440713168
 31
0.0
  0
LINE
  5
446
  8
0
 39
5.0
 10
83.039454683423529
 20
87.947287440713168
 30
0.0
 11
82.603554683423525
 21
87.926687440713167
 31
0.0
  0
LINE
  5
447
  8
0
 39
5.0
 10
83.48145468342355
 20
87.953987440713163
 30
0.0
 11
83.039454683423529
 21
87.947287440713168
 31
0.0
  0
LINE
  5
448
  8
0
 39
5.0
 10
83.626850389173967
 20
87.951818321967835
 30
0.0
 11
83.48145468342355
 21
87.953987440713163
 31
0.0
  0
LINE
  5
449
  8
0
 39
5.0
 10
80.086054683423541
 20
87.515987440713161
 30
0.0
 11
80.086054683423541
 21
87.515987440713161
 31
0.0
  0
LINE
  5
44A
  8
0
 39
5.0
 10
80.086054683423541
 20
87.515987440713161
 30
0.0
 11
79.77525468342354
 21
87.618787440713149
 31
0.0
  0
LINE
  5
44B
  8
0
 39
5.0
 10
79.77525468342354
 20
87.618787440713149
 30
0.0
 11
79.470954683423543
 21
87.707687440713158
 31
0.0
  0
LINE
  5
44C
  8
0
 39
5.0
 10
79.470954683423543
 20
87.707687440713158
 30
0.0
 11
79.172954683423541
 21
87.782987440713171
 31
0.0
  0
LINE
  5
44D
  8
0
 39
5.0
 10
79.172954683423541
 20
87.782987440713171
 30
0.0
 11
78.880654683423543
 21
87.844487440713166
 31
0.0
  0
LINE
  5
44E
  8
0
 39
5.0
 10
78.880654683423543
 20
87.844487440713166
 30
0.0
 11
78.59415468342354
 21
87.892487440713168
 31
0.0
  0
LINE
  5
44F
  8
0
 39
5.0
 10
78.59415468342354
 20
87.892487440713168
 30
0.0
 11
78.312654683423546
 21
87.926687440713167
 31
0.0
  0
LINE
  5
450
  8
0
 39
5.0
 10
78.312654683423546
 20
87.926687440713167
 30
0.0
 11
78.036054683423544
 21
87.947287440713168
 31
0.0
  0
LINE
  5
451
  8
0
 39
5.0
 10
78.044854683423523
 20
85.333087440713157
 30
0.0
 11
78.324154683423544
 21
85.353687440713159
 31
0.0
  0
LINE
  5
452
  8
0
 39
5.0
 10
78.324154683423544
 20
85.353687440713159
 30
0.0
 11
78.607554683423544
 21
85.387887440713158
 31
0.0
  0
LINE
  5
453
  8
0
 39
5.0
 10
78.607554683423544
 20
85.387887440713158
 30
0.0
 11
78.894954683423535
 21
85.435687440713153
 31
0.0
  0
LINE
  5
454
  8
0
 39
5.0
 10
78.894954683423535
 20
85.435687440713153
 30
0.0
 11
79.186554683423537
 21
85.497287440713137
 31
0.0
  0
LINE
  5
455
  8
0
 39
5.0
 10
79.186554683423537
 20
85.497287440713137
 30
0.0
 11
79.482254683423534
 21
85.572587440713164
 31
0.0
  0
LINE
  5
456
  8
0
 39
5.0
 10
79.482254683423534
 20
85.572587440713164
 30
0.0
 11
79.782154683423542
 21
85.661487440713159
 31
0.0
  0
LINE
  5
457
  8
0
 39
5.0
 10
79.782154683423542
 20
85.661487440713159
 30
0.0
 11
80.086054683423541
 21
85.763987440713166
 31
0.0
  0
LINE
  5
458
  8
0
 39
5.0
 10
75.989954683423548
 20
85.768856296557857
 30
0.0
 11
76.24355468342354
 21
85.661487440713159
 31
0.0
  0
LINE
  5
459
  8
0
 39
5.0
 10
78.053554683423542
 20
85.326187440713156
 30
0.0
 11
78.044854683423523
 21
85.333087440713157
 31
0.0
  0
LINE
  5
45A
  8
0
 39
5.0
 10
76.239054683423547
 20
87.618787440713149
 30
0.0
 11
75.989954683423548
 21
87.515987440713161
 31
0.0
  0
LINE
  5
45B
  8
0
 39
5.0
 10
76.489654683423524
 20
87.707687440713158
 30
0.0
 11
76.239054683423547
 21
87.618787440713149
 31
0.0
  0
LINE
  5
45C
  8
0
 39
5.0
 10
76.742354683423542
 20
87.782987440713171
 30
0.0
 11
76.489654683423524
 21
87.707687440713158
 31
0.0
  0
LINE
  5
45D
  8
0
 39
5.0
 10
76.997254683423549
 20
87.844487440713166
 30
0.0
 11
76.742354683423542
 21
87.782987440713171
 31
0.0
  0
LINE
  5
45E
  8
0
 39
5.0
 10
77.255054683423538
 20
87.892487440713168
 30
0.0
 11
76.997254683423549
 21
87.844487440713166
 31
0.0
  0
LINE
  5
45F
  8
0
 39
5.0
 10
77.515754683423538
 20
87.926687440713167
 30
0.0
 11
77.255054683423538
 21
87.892487440713168
 31
0.0
  0
LINE
  5
460
  8
0
 39
5.0
 10
77.77995468342354
 20
87.947287440713168
 30
0.0
 11
77.515754683423538
 21
87.926687440713167
 31
0.0
  0
LINE
  5
461
  8
0
 39
5.0
 10
78.047754683423548
 20
87.953987440713163
 30
0.0
 11
77.77995468342354
 21
87.947287440713168
 31
0.0
  0
LINE
  5
462
  8
0
 39
5.0
 10
78.036054683423544
 20
87.947287440713168
 30
0.0
 11
78.047754683423548
 21
87.953987440713163
 31
0.0
  0
LINE
  5
463
  8
0
 39
5.0
 10
77.782654683423544
 20
85.333087440713157
 30
0.0
 11
78.053554683423542
 21
85.326187440713156
 31
0.0
  0
LINE
  5
464
  8
0
 39
5.0
 10
77.515854683423541
 20
85.353687440713159
 30
0.0
 11
77.782654683423544
 21
85.333087440713157
 31
0.0
  0
LINE
  5
465
  8
0
 39
5.0
 10
77.253154683423546
 20
85.387887440713158
 30
0.0
 11
77.515854683423541
 21
85.353687440713159
 31
0.0
  0
LINE
  5
466
  8
0
 39
5.0
 10
76.994554683423544
 20
85.435687440713153
 30
0.0
 11
77.253154683423546
 21
85.387887440713158
 31
0.0
  0
LINE
  5
467
  8
0
 39
5.0
 10
76.74015468342354
 20
85.497287440713137
 30
0.0
 11
76.994554683423544
 21
85.435687440713153
 31
0.0
  0
LINE
  5
468
  8
0
 39
5.0
 10
76.489754683423541
 20
85.572587440713164
 30
0.0
 11
76.74015468342354
 21
85.497287440713137
 31
0.0
  0
LINE
  5
469
  8
0
 39
5.0
 10
76.24355468342354
 20
85.661487440713159
 30
0.0
 11
76.489754683423541
 21
85.572587440713164
 31
0.0
  0
LINE
  5
46A
  8
0
 39
5.0
 10
76.001454683423546
 20
85.763987440713166
 30
0.0
 11
76.001454683423546
 21
85.763987440713166
 31
0.0
  0
LINE
  5
46B
  8
0
 39
5.0
 10
80.086054683423541
 20
85.763987440713166
 30
0.0
 11
80.086054683423527
 21
87.515987440713161
 31
0.0
  0
LINE
  5
46C
  8
0
 39
5.0
 10
80.086054683423541
 20
91.763987440713166
 30
0.0
 11
80.086054683423527
 21
93.515987440713147
 31
0.0
  0
LINE
  5
46D
  8
0
 39
5.0
 10
79.782154683423542
 20
91.661487440713159
 30
0.0
 11
80.086054683423541
 21
91.763987440713166
 31
0.0
  0
LINE
  5
46E
  8
0
 39
5.0
 10
79.482254683423534
 20
91.572587440713164
 30
0.0
 11
79.782154683423542
 21
91.661487440713159
 31
0.0
  0
LINE
  5
46F
  8
0
 39
5.0
 10
79.186554683423537
 20
91.497287440713166
 30
0.0
 11
79.482254683423534
 21
91.572587440713164
 31
0.0
  0
LINE
  5
470
  8
0
 39
5.0
 10
78.894954683423535
 20
91.435687440713139
 30
0.0
 11
79.186554683423537
 21
91.497287440713166
 31
0.0
  0
LINE
  5
471
  8
0
 39
5.0
 10
78.607554683423544
 20
91.387887440713158
 30
0.0
 11
78.894954683423535
 21
91.435687440713139
 31
0.0
  0
LINE
  5
472
  8
0
 39
5.0
 10
78.324154683423544
 20
91.353687440713159
 30
0.0
 11
78.607554683423544
 21
91.387887440713158
 31
0.0
  0
LINE
  5
473
  8
0
 39
5.0
 10
78.044854683423523
 20
91.333087440713157
 30
0.0
 11
78.324154683423544
 21
91.353687440713159
 31
0.0
  0
LINE
  5
474
  8
0
 39
5.0
 10
78.053554683423542
 20
91.326187440713156
 30
0.0
 11
78.044854683423523
 21
91.333087440713157
 31
0.0
  0
LINE
  5
475
  8
0
 39
5.0
 10
77.782654683423544
 20
91.333087440713157
 30
0.0
 11
78.053554683423542
 21
91.326187440713156
 31
0.0
  0
LINE
  5
476
  8
0
 39
5.0
 10
77.515854683423541
 20
91.353687440713159
 30
0.0
 11
77.782654683423544
 21
91.333087440713157
 31
0.0
  0
LINE
  5
477
  8
0
 39
5.0
 10
77.253154683423546
 20
91.387887440713158
 30
0.0
 11
77.515854683423541
 21
91.353687440713159
 31
0.0
  0
LINE
  5
478
  8
0
 39
5.0
 10
76.994554683423544
 20
91.435687440713139
 30
0.0
 11
77.253154683423546
 21
91.387887440713158
 31
0.0
  0
LINE
  5
479
  8
0
 39
5.0
 10
76.74015468342354
 20
91.497287440713166
 30
0.0
 11
76.994554683423544
 21
91.435687440713139
 31
0.0
  0
LINE
  5
47A
  8
0
 39
5.0
 10
76.489754683423541
 20
91.572587440713164
 30
0.0
 11
76.74015468342354
 21
91.497287440713166
 31
0.0
  0
LINE
  5
47B
  8
0
 39
5.0
 10
76.24355468342354
 20
91.661487440713159
 30
0.0
 11
76.489754683423541
 21
91.572587440713164
 31
0.0
  0
LINE
  5
47C
  8
0
 39
5.0
 10
75.989954683423548
 20
91.768856296557857
 30
0.0
 11
76.24355468342354
 21
91.661487440713159
 31
0.0
  0
LINE
  5
47D
  8
0
 39
5.0
 10
76.001454683423546
 20
91.763987440713166
 30
0.0
 11
76.001454683423546
 21
91.763987440713166
 31
0.0
  0
LINE
  5
47E
  8
0
 39
5.0
 10
76.239054683423547
 20
93.618787440713163
 30
0.0
 11
75.989954683423548
 21
93.515987440713147
 31
0.0
  0
LINE
  5
47F
  8
0
 39
5.0
 10
76.489654683423524
 20
93.707687440713158
 30
0.0
 11
76.239054683423547
 21
93.618787440713163
 31
0.0
  0
LINE
  5
480
  8
0
 39
5.0
 10
76.742354683423542
 20
93.782987440713171
 30
0.0
 11
76.489654683423524
 21
93.707687440713158
 31
0.0
  0
LINE
  5
481
  8
0
 39
5.0
 10
76.997254683423549
 20
93.844487440713166
 30
0.0
 11
76.742354683423542
 21
93.782987440713171
 31
0.0
  0
LINE
  5
482
  8
0
 39
5.0
 10
77.255054683423538
 20
93.892487440713154
 30
0.0
 11
76.997254683423549
 21
93.844487440713166
 31
0.0
  0
LINE
  5
483
  8
0
 39
5.0
 10
77.515754683423538
 20
93.926687440713167
 30
0.0
 11
77.255054683423538
 21
93.892487440713154
 31
0.0
  0
LINE
  5
484
  8
0
 39
5.0
 10
77.77995468342354
 20
93.947287440713168
 30
0.0
 11
77.515754683423538
 21
93.926687440713167
 31
0.0
  0
LINE
  5
485
  8
0
 39
5.0
 10
78.047754683423548
 20
93.953987440713163
 30
0.0
 11
77.77995468342354
 21
93.947287440713168
 31
0.0
  0
LINE
  5
486
  8
0
 39
5.0
 10
78.036054683423544
 20
93.947287440713168
 30
0.0
 11
78.047754683423548
 21
93.953987440713163
 31
0.0
  0
LINE
  5
487
  8
0
 39
5.0
 10
78.312654683423546
 20
93.926687440713167
 30
0.0
 11
78.036054683423544
 21
93.947287440713168
 31
0.0
  0
LINE
  5
488
  8
0
 39
5.0
 10
78.59415468342354
 20
93.892487440713154
 30
0.0
 11
78.312654683423546
 21
93.926687440713167
 31
0.0
  0
LINE
  5
489
  8
0
 39
5.0
 10
78.880654683423543
 20
93.844487440713166
 30
0.0
 11
78.59415468342354
 21
93.892487440713154
 31
0.0
  0
LINE
  5
48A
  8
0
 39
5.0
 10
79.172954683423541
 20
93.782987440713171
 30
0.0
 11
78.880654683423543
 21
93.844487440713166
 31
0.0
  0
LINE
  5
48B
  8
0
 39
5.0
 10
79.470954683423543
 20
93.707687440713158
 30
0.0
 11
79.172954683423541
 21
93.782987440713171
 31
0.0
  0
LINE
  5
48C
  8
0
 39
5.0
 10
79.77525468342354
 20
93.618787440713163
 30
0.0
 11
79.470954683423543
 21
93.707687440713158
 31
0.0
  0
LINE
  5
48D
  8
0
 39
5.0
 10
80.086054683423541
 20
93.515987440713147
 30
0.0
 11
79.77525468342354
 21
93.618787440713163
 31
0.0
  0
LINE
  5
48E
  8
0
 39
5.0
 10
80.086054683423541
 20
93.515987440713147
 30
0.0
 11
80.086054683423541
 21
93.515987440713147
 31
0.0
  0
LINE
  5
48F
  8
0
 39
5.0
 10
81.485654683423519
 20
105.8599874407131
 30
0.0
 11
81.458821350090247
 21
105.8668874407131
 31
0.0
  0
LINE
  5
490
  8
0
 39
5.0
 10
81.545854683423542
 20
105.8377874407131
 30
0.0
 11
81.485654683423519
 21
105.8599874407131
 31
0.0
  0
LINE
  5
491
  8
0
 39
5.0
 10
81.603354683423532
 20
105.8100874407131
 30
0.0
 11
81.545854683423542
 21
105.8377874407131
 31
0.0
  0
LINE
  5
492
  8
0
 39
5.0
 10
81.657454683423538
 20
105.7770874407131
 30
0.0
 11
81.603354683423532
 21
105.8100874407131
 31
0.0
  0
LINE
  5
493
  8
0
 39
5.0
 10
81.895854683423536
 20
105.48778744071311
 30
0.0
 11
81.868154683423541
 21
105.5452874407131
 31
0.0
  0
LINE
  5
494
  8
0
 39
5.0
 10
81.918054683423534
 20
105.4275874407131
 30
0.0
 11
81.895854683423536
 21
105.48778744071311
 31
0.0
  0
LINE
  5
495
  8
0
 39
5.0
 10
81.934254683423546
 20
105.36458744071309
 30
0.0
 11
81.918054683423534
 21
105.4275874407131
 31
0.0
  0
LINE
  5
496
  8
0
 39
5.0
 10
81.944254683423537
 20
105.2995874407131
 30
0.0
 11
81.934254683423546
 21
105.36458744071309
 31
0.0
  0
LINE
  5
497
  8
0
 39
5.0
 10
81.947554683423533
 20
105.2324874407131
 30
0.0
 11
81.944254683423537
 21
105.2995874407131
 31
0.0
  0
LINE
  5
498
  8
0
 39
5.0
 10
81.947554683423533
 20
105.2324874407131
 30
0.0
 11
81.947554683423533
 21
105.2324874407131
 31
0.0
  0
LINE
  5
499
  8
0
 39
5.0
 10
81.947554683423533
 20
97.023787440713164
 30
0.0
 11
81.947554683423533
 21
105.2324874407131
 31
0.0
  0
LINE
  5
49A
  8
0
 39
5.0
 10
81.944254683423537
 20
96.956987440713135
 30
0.0
 11
81.947554683423533
 21
97.023787440713164
 31
0.0
  0
LINE
  5
49B
  8
0
 39
5.0
 10
81.934254683423546
 20
96.891987440713152
 30
0.0
 11
81.944254683423537
 21
96.956987440713135
 31
0.0
  0
LINE
  5
49C
  8
0
 39
5.0
 10
81.918054683423534
 20
96.829187440713156
 30
0.0
 11
81.934254683423546
 21
96.891987440713152
 31
0.0
  0
LINE
  5
49D
  8
0
 39
5.0
 10
81.895854683423536
 20
96.768787440713155
 30
0.0
 11
81.918054683423534
 21
96.829187440713156
 31
0.0
  0
LINE
  5
49E
  8
0
 39
5.0
 10
81.868154683423541
 20
96.711487440713171
 30
0.0
 11
81.895854683423536
 21
96.768787440713155
 31
0.0
  0
LINE
  5
49F
  8
0
 39
5.0
 10
81.835154683423539
 20
96.657187440713145
 30
0.0
 11
81.868154683423541
 21
96.711487440713171
 31
0.0
  0
LINE
  5
4A0
  8
0
 39
5.0
 10
81.797254683423546
 20
96.606587440713156
 30
0.0
 11
81.835154683423539
 21
96.657187440713145
 31
0.0
  0
LINE
  5
4A1
  8
0
 39
5.0
 10
81.754654683423539
 20
96.559787440713151
 30
0.0
 11
81.797254683423546
 21
96.606587440713156
 31
0.0
  0
LINE
  5
4A2
  8
0
 39
5.0
 10
81.708054683423541
 20
96.517487440713154
 30
0.0
 11
81.754654683423539
 21
96.559787440713151
 31
0.0
  0
LINE
  5
4A3
  8
0
 39
5.0
 10
81.657454683423538
 20
96.479487440713157
 30
0.0
 11
81.708054683423541
 21
96.517487440713154
 31
0.0
  0
LINE
  5
4A4
  8
0
 39
5.0
 10
81.603354683423532
 20
96.446587440713145
 30
0.0
 11
81.657454683423538
 21
96.479487440713157
 31
0.0
  0
LINE
  5
4A5
  8
0
 39
5.0
 10
81.545854683423542
 20
96.418687440713171
 30
0.0
 11
81.603354683423532
 21
96.446587440713145
 31
0.0
  0
LINE
  5
4A6
  8
0
 39
5.0
 10
81.485654683423519
 20
96.396587440713176
 30
0.0
 11
81.545854683423542
 21
96.418687440713171
 31
0.0
  0
LINE
  5
4A7
  8
0
 39
5.0
 10
81.422654683423545
 20
96.380287440713161
 30
0.0
 11
81.485654683423519
 21
96.396587440713176
 31
0.0
  0
LINE
  5
4A8
  8
0
 39
5.0
 10
81.357654683423533
 20
96.370287440713156
 30
0.0
 11
81.422654683423545
 21
96.380287440713161
 31
0.0
  0
LINE
  5
4A9
  8
0
 39
5.0
 10
81.292471826280661
 20
96.366887440713157
 30
0.0
 11
81.357654683423533
 21
96.370287440713156
 31
0.0
  0
LINE
  5
4AA
  8
0
 39
5.0
 10
81.290554683423537
 20
96.366787440713154
 30
0.0
 11
81.290554683423537
 21
96.366787440713154
 31
0.0
  0
LINE
  5
4AB
  8
0
 39
5.0
 10
80.580154683423558
 20
96.370287440713156
 30
0.0
 11
80.645046111995171
 21
96.366887440713157
 31
0.0
  0
LINE
  5
4AC
  8
0
 39
5.0
 10
80.515154683423575
 20
96.380287440713161
 30
0.0
 11
80.580154683423558
 21
96.370287440713156
 31
0.0
  0
LINE
  5
4AD
  8
0
 39
5.0
 10
80.45235468342355
 20
96.396587440713176
 30
0.0
 11
80.515154683423575
 21
96.380287440713161
 31
0.0
  0
LINE
  5
4AE
  8
0
 39
5.0
 10
80.391954683423535
 20
96.418687440713171
 30
0.0
 11
80.45235468342355
 21
96.396587440713176
 31
0.0
  0
LINE
  5
4AF
  8
0
 39
5.0
 10
80.334654683423537
 20
96.446587440713145
 30
0.0
 11
80.391954683423535
 21
96.418687440713171
 31
0.0
  0
LINE
  5
4B0
  8
0
 39
5.0
 10
80.280354683423553
 20
96.479487440713157
 30
0.0
 11
80.334654683423537
 21
96.446587440713145
 31
0.0
  0
LINE
  5
4B1
  8
0
 39
5.0
 10
80.22975468342355
 20
96.517487440713154
 30
0.0
 11
80.280354683423553
 21
96.479487440713157
 31
0.0
  0
LINE
  5
4B2
  8
0
 39
5.0
 10
80.182954683423574
 20
96.559787440713151
 30
0.0
 11
80.22975468342355
 21
96.517487440713154
 31
0.0
  0
LINE
  5
4B3
  8
0
 39
5.0
 10
80.140654683423548
 20
96.606587440713156
 30
0.0
 11
80.182954683423574
 21
96.559787440713151
 31
0.0
  0
LINE
  5
4B4
  8
0
 39
5.0
 10
80.102654683423552
 20
96.657187440713145
 30
0.0
 11
80.140654683423548
 21
96.606587440713156
 31
0.0
  0
LINE
  5
4B5
  8
0
 39
5.0
 10
80.069754683423554
 20
96.711487440713171
 30
0.0
 11
80.102654683423552
 21
96.657187440713145
 31
0.0
  0
LINE
  5
4B6
  8
0
 39
5.0
 10
80.041854683423537
 20
96.768787440713155
 30
0.0
 11
80.069754683423554
 21
96.711487440713171
 31
0.0
  0
LINE
  5
4B7
  8
0
 39
5.0
 10
80.019754683423557
 20
96.829187440713156
 30
0.0
 11
80.041854683423537
 21
96.768787440713155
 31
0.0
  0
LINE
  5
4B8
  8
0
 39
5.0
 10
80.003454683423556
 20
96.891987440713152
 30
0.0
 11
80.019754683423557
 21
96.829187440713156
 31
0.0
  0
LINE
  5
4B9
  8
0
 39
5.0
 10
79.99345468342355
 20
96.956987440713135
 30
0.0
 11
80.003454683423556
 21
96.891987440713152
 31
0.0
  0
LINE
  5
4BA
  8
0
 39
5.0
 10
79.989954683423534
 20
97.023787440713164
 30
0.0
 11
79.99345468342355
 21
96.956987440713135
 31
0.0
  0
LINE
  5
4BB
  8
0
 39
5.0
 10
79.989954683423534
 20
97.023787440713164
 30
0.0
 11
79.989954683423534
 21
97.023787440713164
 31
0.0
  0
LINE
  5
4BC
  8
0
 39
5.0
 10
79.989954683423534
 20
105.2324874407131
 30
0.0
 11
79.989954683423534
 21
97.023787440713164
 31
0.0
  0
LINE
  5
4BD
  8
0
 39
5.0
 10
79.99345468342355
 20
105.2995874407131
 30
0.0
 11
79.989954683423534
 21
105.2324874407131
 31
0.0
  0
LINE
  5
4BE
  8
0
 39
5.0
 10
80.003454683423556
 20
105.36458744071309
 30
0.0
 11
79.99345468342355
 21
105.2995874407131
 31
0.0
  0
LINE
  5
4BF
  8
0
 39
5.0
 10
80.019754683423557
 20
105.4275874407131
 30
0.0
 11
80.003454683423556
 21
105.36458744071309
 31
0.0
  0
LINE
  5
4C0
  8
0
 39
5.0
 10
80.041854683423537
 20
105.48778744071311
 30
0.0
 11
80.019754683423557
 21
105.4275874407131
 31
0.0
  0
LINE
  5
4C1
  8
0
 39
5.0
 10
80.069754683423554
 20
105.5452874407131
 30
0.0
 11
80.041854683423537
 21
105.48778744071311
 31
0.0
  0
LINE
  5
4C2
  8
0
 39
5.0
 10
80.102654683423552
 20
105.5993874407131
 30
0.0
 11
80.069754683423554
 21
105.5452874407131
 31
0.0
  0
LINE
  5
4C3
  8
0
 39
5.0
 10
80.140654683423548
 20
105.6499874407131
 30
0.0
 11
80.102654683423552
 21
105.5993874407131
 31
0.0
  0
LINE
  5
4C4
  8
0
 39
5.0
 10
80.182954683423574
 20
105.6965874407131
 30
0.0
 11
80.140654683423548
 21
105.6499874407131
 31
0.0
  0
LINE
  5
4C5
  8
0
 39
5.0
 10
80.22975468342355
 20
105.7391874407131
 30
0.0
 11
80.182954683423574
 21
105.6965874407131
 31
0.0
  0
LINE
  5
4C6
  8
0
 39
5.0
 10
80.280354683423553
 20
105.7770874407131
 30
0.0
 11
80.22975468342355
 21
105.7391874407131
 31
0.0
  0
LINE
  5
4C7
  8
0
 39
5.0
 10
80.334654683423537
 20
105.8100874407131
 30
0.0
 11
80.280354683423553
 21
105.7770874407131
 31
0.0
  0
LINE
  5
4C8
  8
0
 39
5.0
 10
80.391954683423535
 20
105.8377874407131
 30
0.0
 11
80.334654683423537
 21
105.8100874407131
 31
0.0
  0
LINE
  5
4C9
  8
0
 39
5.0
 10
80.45235468342355
 20
105.8599874407131
 30
0.0
 11
80.391954683423535
 21
105.8377874407131
 31
0.0
  0
LINE
  5
4CA
  8
0
 39
5.0
 10
80.479102831571652
 20
105.8668874407131
 30
0.0
 11
80.45235468342355
 21
105.8599874407131
 31
0.0
  0
LINE
  5
4CB
  8
0
 39
5.0
 10
81.947554683423533
 20
65.196231037866426
 30
0.0
 11
81.947554683423533
 21
59.326431037866421
 31
0.0
  0
LINE
  5
4CC
  8
0
 39
5.0
 10
82.080654683423546
 20
65.326331037866424
 30
0.0
 11
81.947554683423533
 21
65.196231037866426
 31
0.0
  0
LINE
  5
4CD
  8
0
 39
5.0
 10
82.268654683423534
 20
65.438831037866436
 30
0.0
 11
82.080654683423546
 21
65.326331037866424
 31
0.0
  0
LINE
  5
4CE
  8
0
 39
5.0
 10
82.503654683423534
 20
65.534231037866434
 30
0.0
 11
82.268654683423534
 21
65.438831037866436
 31
0.0
  0
LINE
  5
4CF
  8
0
 39
5.0
 10
82.777354683423539
 20
65.61203103786643
 30
0.0
 11
82.503654683423534
 21
65.534231037866434
 31
0.0
  0
LINE
  5
4D0
  8
0
 39
5.0
 10
83.081754683423526
 20
65.672731037866427
 30
0.0
 11
82.777354683423539
 21
65.61203103786643
 31
0.0
  0
LINE
  5
4D1
  8
0
 39
5.0
 10
83.408454683423543
 20
65.715931037866426
 30
0.0
 11
83.081754683423526
 21
65.672731037866427
 31
0.0
  0
LINE
  5
4D2
  8
0
 39
5.0
 10
83.917574568903305
 20
65.754887440713162
 30
0.0
 11
83.408454683423543
 21
65.715931037866426
 31
0.0
  0
LINE
  5
4D3
  8
0
 39
5.0
 10
81.052954683423536
 20
81.366887440713157
 30
0.0
 11
81.052954683423536
 21
65.774287440713167
 31
0.0
  0
LINE
  5
4D4
  8
0
 39
5.0
 10
78.989954683423548
 20
81.366887440713157
 30
0.0
 11
83.989954683423534
 21
81.366887440713157
 31
0.0
  0
LINE
  5
4D5
  8
2
 39
5.0
 10
79.239354683423542
 20
91.326187440713127
 30
0.0
 11
79.239354683423542
 21
87.951818321967821
 31
0.0
  0
LINE
  5
4D6
  8
0
 39
5.0
 10
83.626850389173967
 20
93.951818321967835
 30
0.0
 11
83.48145468342355
 21
93.953987440713163
 31
0.0
  0
LINE
  5
4D7
  8
0
 39
5.0
 10
83.48145468342355
 20
93.953987440713163
 30
0.0
 11
83.039454683423529
 21
93.947287440713168
 31
0.0
  0
LINE
  5
4D8
  8
0
 39
5.0
 10
83.039454683423529
 20
93.947287440713168
 30
0.0
 11
82.603554683423525
 21
93.926687440713167
 31
0.0
  0
LINE
  5
4D9
  8
0
 39
5.0
 10
82.603554683423525
 20
93.926687440713167
 30
0.0
 11
82.173354683423526
 21
93.892487440713154
 31
0.0
  0
LINE
  5
4DA
  8
0
 39
5.0
 10
82.173354683423526
 20
93.892487440713154
 30
0.0
 11
81.748054683423547
 21
93.844487440713166
 31
0.0
  0
LINE
  5
4DB
  8
0
 39
5.0
 10
81.748054683423547
 20
93.844487440713166
 30
0.0
 11
81.327454683423554
 21
93.782987440713171
 31
0.0
  0
LINE
  5
4DC
  8
0
 39
5.0
 10
81.327454683423554
 20
93.782987440713171
 30
0.0
 11
80.910554683423541
 21
93.707687440713158
 31
0.0
  0
LINE
  5
4DD
  8
0
 39
5.0
 10
80.910554683423541
 20
93.707687440713158
 30
0.0
 11
80.496954683423539
 21
93.618787440713163
 31
0.0
  0
LINE
  5
4DE
  8
0
 39
5.0
 10
80.496954683423539
 20
93.618787440713163
 30
0.0
 11
80.086054683423541
 21
93.515987440713147
 31
0.0
  0
LINE
  5
4DF
  8
0
 39
5.0
 10
80.504554683423535
 20
91.661487440713159
 30
0.0
 11
80.910754683423534
 21
91.572587440713164
 31
0.0
  0
LINE
  5
4E0
  8
0
 39
5.0
 10
80.910754683423534
 20
91.572587440713164
 30
0.0
 11
81.323854683423534
 21
91.497287440713166
 31
0.0
  0
LINE
  5
4E1
  8
0
 39
5.0
 10
81.323854683423534
 20
91.497287440713166
 30
0.0
 11
81.743554683423525
 21
91.435687440713139
 31
0.0
  0
LINE
  5
4E2
  8
0
 39
5.0
 10
81.743554683423525
 20
91.435687440713139
 30
0.0
 11
82.17035468342354
 21
91.387887440713158
 31
0.0
  0
LINE
  5
4E3
  8
0
 39
5.0
 10
82.17035468342354
 20
91.387887440713158
 30
0.0
 11
82.603754683423546
 21
91.353687440713159
 31
0.0
  0
LINE
  5
4E4
  8
0
 39
5.0
 10
82.603754683423546
 20
91.353687440713159
 30
0.0
 11
83.044054683423539
 21
91.333087440713157
 31
0.0
  0
LINE
  5
4E5
  8
0
 39
5.0
 10
83.044054683423539
 20
91.333087440713157
 30
0.0
 11
83.491054683423542
 21
91.326187440713156
 31
0.0
  0
LINE
  5
4E6
  8
0
 39
5.0
 10
80.086054683423541
 20
91.768862284267612
 30
0.0
 11
80.504554683423535
 21
91.661487440713159
 31
0.0
  0
LINE
  5
4E7
  8
2
 39
5.0
 10
79.239354683423528
 20
96.366887440713171
 30
0.0
 11
79.239354683423542
 21
93.951818321967835
 31
0.0
  0
LINE
  5
4E8
  8
0
 39
5.0
 10
81.947554683423533
 20
96.984583589314397
 30
0.0
 11
81.947554683423533
 21
96.984583589314397
 31
0.0
  0
LINE
  5
4E9
  8
0
 39
5.0
 10
81.947554683423533
 20
96.984583589314397
 30
0.0
 11
82.104254683423534
 21
96.848783589314422
 31
0.0
  0
LINE
  5
4EA
  8
0
 39
5.0
 10
82.104254683423534
 20
96.848783589314422
 30
0.0
 11
82.297054683423539
 21
96.7286835893144
 31
0.0
  0
LINE
  5
4EB
  8
0
 39
5.0
 10
82.297054683423539
 20
96.7286835893144
 30
0.0
 11
82.521454683423528
 21
96.624983589314397
 31
0.0
  0
LINE
  5
4EC
  8
0
 39
5.0
 10
82.521454683423528
 20
96.624983589314397
 30
0.0
 11
82.77225468342354
 21
96.538083589314425
 31
0.0
  0
LINE
  5
4ED
  8
0
 39
5.0
 10
82.77225468342354
 20
96.538083589314425
 30
0.0
 11
83.045154683423533
 21
96.468583589314406
 31
0.0
  0
LINE
  5
4EE
  8
0
 39
5.0
 10
83.045154683423533
 20
96.468583589314406
 30
0.0
 11
83.334854683423544
 21
96.416883589314395
 31
0.0
  0
LINE
  5
4EF
  8
0
 39
5.0
 10
83.334854683423544
 20
96.416883589314395
 30
0.0
 11
83.636754683423533
 21
96.383483589314395
 31
0.0
  0
LINE
  5
4F0
  8
0
 39
5.0
 10
83.636754683423533
 20
96.383483589314395
 30
0.0
 11
83.983479625822397
 21
96.366887440713143
 31
0.0
  0
LINE
  5
4F1
  8
0
 39
5.0
 10
83.749554683423554
 20
105.8638835893144
 30
0.0
 11
83.408454683423543
 21
105.8292835893144
 31
0.0
  0
LINE
  5
4F2
  8
0
 39
5.0
 10
83.408454683423543
 20
105.8292835893144
 30
0.0
 11
83.081754683423526
 21
105.7715835893143
 31
0.0
  0
LINE
  5
4F3
  8
0
 39
5.0
 10
83.081754683423526
 20
105.7715835893143
 30
0.0
 11
82.777354683423539
 21
105.6906835893144
 31
0.0
  0
LINE
  5
4F4
  8
0
 39
5.0
 10
82.777354683423539
 20
105.6906835893144
 30
0.0
 11
82.503654683423534
 21
105.58678358931439
 31
0.0
  0
LINE
  5
4F5
  8
0
 39
5.0
 10
82.503654683423534
 20
105.58678358931439
 30
0.0
 11
82.268654683423534
 21
105.45968358931439
 31
0.0
  0
LINE
  5
4F6
  8
0
 39
5.0
 10
82.268654683423534
 20
105.45968358931439
 30
0.0
 11
82.080654683423546
 21
105.3095835893144
 31
0.0
  0
LINE
  5
4F7
  8
0
 39
5.0
 10
82.080654683423546
 20
105.3095835893144
 30
0.0
 11
81.947554683423533
 21
105.1362835893143
 31
0.0
  0
LINE
  5
4F8
  8
0
 39
5.0
 10
81.947554683423533
 20
105.1362835893143
 30
0.0
 11
81.947554683423533
 21
96.984583589314397
 31
0.0
  0
LINE
  5
4F9
  8
0
 39
5.0
 10
83.840166513878074
 20
105.8668874407131
 30
0.0
 11
83.749554683423554
 21
105.8638835893144
 31
0.0
  0
LINE
  5
4FA
  8
0
 39
5.0
 10
80.479102831571652
 20
105.8668874407131
 30
0.0
 11
83.989954683423534
 21
105.8668874407131
 31
0.0
  0
LINE
  5
4FB
  8
0
 39
5.0
 10
83.989954683423534
 20
58.866887440713157
 30
0.0
 11
80.97545468342355
 21
58.866887440713157
 31
0.0
  0
POLYLINE
  8
2
  5
5CC
  66
     1
 10
0.000000
 20
0.000000
 30
0.000000
  70
     8
  0
VERTEX
  8
2
  5
5CD
 10
81.4900
 20
61.9395
 30
0.000000
  70
    32
  0
VERTEX
  8
2
  5
5CE
 10
67.1712
 20
56.6408
 30
0.000000
  70
    32
  0
VERTEX
  8
2
  5
5CF
 10
62.5419
 20
56.6408
 30
0.000000
  70
    32
  0
SEQEND
  8
2
  5
5D0
  0
POLYLINE
  8
2
  5
5D1
  66
     1
 10
0.000000
 20
0.000000
 30
0.000000
  70
     8
  0
VERTEX
  8
2
  5
5D2
 10
81.4900
 20
102.601
 30
0.000000
  70
    32
  0
VERTEX
  8
2
  5
5D3
 10
66.7265
 20
104.622
 30
0.000000
  70
    32
  0
VERTEX
  8
2
  5
5D4
 10
61.9300
 20
104.622
 30
0.000000
  70
    32
  0
SEQEND
  8
2
  5
5D5
  0
TEXT
  5
4FF
  8
3
 10
62.81171866456549
 20
56.953160651779498
 30
0.0
 40
2.5
  1
M5
  0
TEXT
  5
500
  8
3
 10
62.202615291810837
 20
104.94008085510239
 30
0.0
 40
2.5
  1
M5
  0
POLYLINE
  8
2
  5
5D6
  66
     1
 10
0.000000
 20
0.000000
 30
0.000000
  70
     8
  0
VERTEX
  8
2
  5
5D7
 10
79.9900
 20
62.3158
 30
0.000000
  70
    32
  0
VERTEX
  8
2
  5
5D8
 10
67.4147
 20
65.9575
 30
0.000000
  70
    32
  0
VERTEX
  8
2
  5
5D9
 10
61.9316
 20
65.9575
 30
0.000000
  70
    32
  0
SEQEND
  8
2
  5
5DA
  0
POLYLINE
  8
2
  5
5DB
  66
     1
 10
0.000000
 20
0.000000
 30
0.000000
  70
     8
  0
VERTEX
  8
2
  5
5DC
 10
78.9900
 20
83.3465
 30
0.000000
  70
    32
  0
VERTEX
  8
2
  5
5DD
 10
71.2625
 20
86.9996
 30
0.000000
  70
    32
  0
VERTEX
  8
2
  5
5DE
 10
62.1240
 20
86.9996
 30
0.000000
  70
    32
  0
SEQEND
  8
2
  5
5DF
  0
POLYLINE
  8
2
  5
5E0
  66
     1
 10
0.000000
 20
0.000000
 30
0.000000
  70
     8
  0
VERTEX
  8
2
  5
5E1
 10
75.9900
 20
92.6424
 30
0.000000
  70
    32
  0
VERTEX
  8
2
  5
5E2
 10
68.7614
 20
91.9369
 30
0.000000
  70
    32
  0
VERTEX
  8
2
  5
5E3
 10
62.2202
 20
91.9369
 30
0.000000
  70
    32
  0
SEQEND
  8
2
  5
5E4
  0
POLYLINE
  8
2
  5
5E5
  66
     1
 10
0.000000
 20
0.000000
 30
0.000000
  70
     8
  0
VERTEX
  8
2
  5
5E6
 10
79.9900
 20
101.128
 30
0.000000
  70
    32
  0
VERTEX
  8
2
  5
5E7
 10
67.5109
 20
98.7575
 30
0.000000
  70
    32
  0
VERTEX
  8
2
  5
5E8
 10
61.9316
 20
98.7575
 30
0.000000
  70
    32
  0
SEQEND
  8
2
  5
5E9
  0
TEXT
  5
505
  8
3
 10
62.865361194865379
 20
66.355257667212726
 30
0.0
 40
2.5
  1
H7
  0
TEXT
  5
506
  8
3
 10
62.672971495821002
 20
87.433606462726814
 30
0.0
 40
2.5
  1
G1/8
  0
TEXT
  5
507
  8
3
 10
62.768316810261013
 20
92.446105929677358
 30
0.0
 40
2.5
  1
H14
  0
TEXT
  5
508
  8
3
 10
62.863662124701023
 20
99.206426798911664
 30
0.0
 40
2.5
  1
H7
  0
TEXT
  5
509
  8
2
 10
71.488451012993863
 20
41.579999987822859
 30
0.0
 40
2.5399440000000002
  1
No. 50.149
 51
-0.0000015352344868
  7
\U+00C9L\U+00C9R_\U+00C2S\U+00C2V\U+00C2B\U+00C2N
  0
DIMENSION
  5
50A
  8
2
  2
*D1
 10
108.2087379383004
 20
58.866887440713157
 30
0.0
 11
106.3337379383004
 21
82.366887440713185
 31
0.0
 70
     0
  1
(<>)
 13
101.1858054429799
 23
105.8668874407131
 33
0.0
 14
101.1858054429799
 24
58.866887440713157
 34
0.0
 50
90.0
  0
DIMENSION
  5
50B
  8
2
  2
*D2
 10
101.1858054429799
 20
81.366887440713143
 30
0.0
 11
99.310805442979913
 21
88.866887440713185
 31
0.0
 70
     0
 13
101.1858054429799
 23
96.366887440713157
 33
0.0
 14
88.989954683423534
 24
81.366887440713157
 34
0.0
 50
90.0
  0
LINE
  5
50C
  8
0
 10
88.989954683423534
 20
91.326187440713156
 30
0.0
 11
88.989954683423534
 21
87.951818321967821
 31
0.0
  0
LINE
  5
50D
  8
0
 10
78.989954683423548
 20
91.326187440713156
 30
0.0
 11
78.989954683423548
 21
87.951818321967821
 31
0.0
  0
LINE
  5
50E
  8
1
 10
83.989954683423534
 20
58.366887440713171
 30
0.0
 11
83.989954683423534
 21
106.3668874407131
 31
0.0
  0
DIMENSION
  5
50F
  8
2
  2
*D3
 10
101.1858054429799
 20
58.866887440713157
 30
0.0
 11
99.310805442979913
 21
70.116887440713185
 31
0.0
 70
     0
 13
101.1858054429799
 23
81.366887440713157
 33
0.0
 14
87.332954683423523
 24
58.866887440713157
 34
0.0
 50
90.0
  0
LINE
  5
510
  8
1
 10
87.126954683423563
 20
81.366887440713157
 30
0.0
 11
87.126954683423563
 21
65.754887440713162
 31
0.0
  0
LINE
  5
511
  8
1
 10
87.326954683423565
 20
81.366887440713157
 30
0.0
 11
87.326954683423565
 21
65.754887440713162
 31
0.0
  0
LINE
  5
512
  8
1
 10
80.652954683423545
 20
81.366887440713157
 30
0.0
 11
80.652954683423545
 21
65.754887440713162
 31
0.0
  0
LINE
  5
513
  8
1
 10
80.852954683423533
 20
81.366887440713157
 30
0.0
 11
80.852954683423533
 21
65.754887440713162
 31
0.0
  0
LINE
  5
515
  8
0
 10
80.515154683423575
 20
65.754887440713162
 30
0.0
 11
83.989954683423534
 21
65.754887440713162
 31
0.0
  0
LINE
  5
516
  8
3
 10
81.689954683423551
 20
65.012087440713159
 30
0.0
 11
81.689954683423551
 21
58.866887440713157
 31
0.0
  0
LINE
  5
517
  8
3
 10
81.489954683423534
 20
65.012087440713159
 30
0.0
 11
81.489954683423534
 21
58.866887440713157
 31
0.0
  0
LINE
  5
518
  8
3
 39
5.0
 10
81.523354683423534
 20
58.866887440713157
 30
0.0
 11
81.523354683423534
 21
58.899720497191552
 31
0.0
  0
LINE
  5
519
  8
3
 10
86.289954683423545
 20
65.012087440713159
 30
0.0
 11
86.289954683423545
 21
58.866887440713157
 31
0.0
  0
LINE
  5
51A
  8
3
 10
86.489954683423534
 20
65.012087440713159
 30
0.0
 11
86.489954683423534
 21
58.866887440713157
 31
0.0
  0
LINE
  5
51B
  8
3
 39
5.0
 10
86.456554683423562
 20
58.866887440713157
 30
0.0
 11
86.456554683423562
 21
58.899720497191552
 31
0.0
  0
LINE
  5
51D
  8
0
 10
87.464754683423536
 20
65.754887440713162
 30
0.0
 11
83.989954683423534
 21
65.754887440713162
 31
0.0
  0
LINE
  5
51E
  8
0
 10
78.053554683423542
 20
85.326187440713156
 30
0.0
 11
83.989954683423534
 21
85.326187440713156
 31
0.0
  0
LINE
  5
51F
  8
0
 10
77.961054683423541
 20
87.951818321967835
 30
0.0
 11
83.989954683423534
 21
87.951818321967835
 31
0.0
  0
DIMENSION
  5
520
  8
2
  2
*D4
 10
73.315588872051293
 20
71.366887440713157
 30
0.0
 11
71.440588872051293
 21
76.366887440713171
 31
0.0
 70
     0
 13
78.989954683423548
 23
81.366887440713157
 33
0.0
 14
75.151129634248491
 24
71.366887440713157
 34
0.0
 50
90.0
  0
LINE
  5
521
  8
2
 10
77.640584340438522
 20
71.366887440713157
 30
0.0
 11
75.151129634248491
 21
71.366887440713157
 31
0.0
  0
LINE
  5
522
  8
0
 10
78.989954683423548
 20
85.326187440713142
 30
0.0
 11
78.989954683423548
 21
81.366887440713157
 31
0.0
  0
LINE
  5
523
  8
0
 10
75.989954683423548
 20
85.768856296557857
 30
0.0
 11
75.989954683423548
 21
87.515987440713161
 31
0.0
  0
LINE
  5
524
  8
1
 10
75.989954683423548
 20
87.515987440713161
 30
0.0
 11
75.989954683423548
 21
86.63998744071317
 31
0.0
  0
LINE
  5
525
  8
0
 10
88.989954683423534
 20
85.326187440713142
 30
0.0
 11
88.989954683423534
 21
81.366887440713157
 31
0.0
  0
LINE
  5
526
  8
0
 10
90.018854683423555
 20
87.951818321967835
 30
0.0
 11
83.989954683423534
 21
87.951818321967835
 31
0.0
  0
LINE
  5
527
  8
0
 10
89.926354683423554
 20
85.326187440713156
 30
0.0
 11
83.989954683423534
 21
85.326187440713156
 31
0.0
  0
LINE
  5
528
  8
1
 10
91.989954683423548
 20
87.515987440713161
 30
0.0
 11
91.989954683423548
 21
86.63998744071317
 31
0.0
  0
LINE
  5
529
  8
0
 10
91.989954683423548
 20
85.768856296557857
 30
0.0
 11
91.989954683423548
 21
87.515987440713161
 31
0.0
  0
DIMENSION
  5
52A
  8
2
  2
*D5
 10
101.1858054429799
 20
96.366887440713143
 30
0.0
 11
99.310805442979913
 21
101.1168874407131
 31
0.0
 70
     0
 13
87.500806535275444
 23
105.8668874407131
 33
0.0
 14
88.989954683423534
 24
96.366887440713157
 34
0.0
 50
90.0
  0
LINE
  5
52D
  8
0
 10
83.989954683423534
 20
96.366887440713157
 30
0.0
 11
78.989954683423548
 21
96.366887440713157
 31
0.0
  0
LINE
  5
52E
  8
0
 10
78.053554683423542
 20
91.326187440713156
 30
0.0
 11
83.989954683423534
 21
91.326187440713156
 31
0.0
  0
LINE
  5
52F
  8
0
 10
77.961054683423541
 20
93.951818321967835
 30
0.0
 11
83.989954683423534
 21
93.951818321967835
 31
0.0
  0
LINE
  5
530
  8
3
 10
81.773354683423534
 20
105.8668874407131
 30
0.0
 11
81.773354683423534
 21
99.335287440713174
 31
0.0
  0
LINE
  5
531
  8
3
 10
81.489954683423534
 20
105.8668874407131
 30
0.0
 11
81.489954683423534
 21
99.335287440713174
 31
0.0
  0
LINE
  5
532
  8
0
 10
78.989954683423548
 20
96.366887440713157
 30
0.0
 11
78.989954683423548
 21
93.951818321967835
 31
0.0
  0
LINE
  5
533
  8
0
 10
75.989954683423548
 20
91.768856296557857
 30
0.0
 11
75.989954683423548
 21
93.515987440713147
 31
0.0
  0
LINE
  5
534
  8
1
 10
75.989954683423548
 20
93.515987440713147
 30
0.0
 11
75.989954683423548
 21
92.63998744071317
 31
0.0
  0
LINE
  5
535
  8
0
 10
81.657454683423538
 20
105.7770874407131
 30
0.0
 11
81.868154683423541
 21
105.5452874407131
 31
0.0
  0
LINE
  5
536
  8
3
 10
86.489954683423534
 20
105.8668874407131
 30
0.0
 11
86.489954683423534
 21
99.335287440713174
 31
0.0
  0
LINE
  5
537
  8
3
 10
86.206554683423562
 20
105.8668874407131
 30
0.0
 11
86.206554683423562
 21
99.335287440713174
 31
0.0
  0
LINE
  5
538
  8
0
 10
88.989954683423534
 20
96.366887440713157
 30
0.0
 11
88.989954683423534
 21
93.951818321967835
 31
0.0
  0
LINE
  5
539
  8
0
 10
89.926354683423554
 20
91.326187440713156
 30
0.0
 11
83.989954683423534
 21
91.326187440713156
 31
0.0
  0
LINE
  5
53A
  8
0
 10
90.018854683423555
 20
93.951818321967835
 30
0.0
 11
83.989954683423534
 21
93.951818321967835
 31
0.0
  0
LINE
  5
53C
  8
0
 10
83.989954683423534
 20
96.366887440713157
 30
0.0
 11
88.989954683423534
 21
96.366887440713157
 31
0.0
  0
LINE
  5
53D
  8
0
 10
91.989954683423548
 20
91.768856296557857
 30
0.0
 11
91.989954683423548
 21
93.515987440713147
 31
0.0
  0
LINE
  5
53E
  8
1
 10
91.989954683423548
 20
93.515987440713147
 30
0.0
 11
91.989954683423548
 21
92.63998744071317
 31
0.0
  0
LINE
  5
53F
  8
0
 10
86.322454683423558
 20
105.7770874407131
 30
0.0
 11
86.111754683423555
 21
105.5452874407131
 31
0.0
  0
LINE
  5
5B5
  8
3
 10
81.489954683423534
 20
99.335287440713174
 30
0.0
 11
86.489954683423534
 21
99.335287440713174
 31
0.0
  0
LINE
  5
5B8
  8
3
 10
86.489954683423534
 20
65.012087440713159
 30
0.0
 11
81.489954683423534
 21
65.012087440713159
 31
0.0
  0
ENDSEC
  0
EOF
