  0
SECTION
  2
HEADER
  9
$ACADVER
  1
AC1009
  9
$INSBASE
 10
0.0
 20
0.0
 30
0.0
  9
$EXTMIN
 10
52.081495695106128
 20
40.543989600593711
 30
0.0
  9
$EXTMAX
 10
99.608664455927425
 20
120.5147369782153
 30
5.0
  9
$LIMMIN
 10
0.0
 20
0.0
  9
$LIMMAX
 10
420.0
 20
297.0
  9
$ORTHOMODE
 70
     0
  9
$REGENMODE
 70
     1
  9
$FILLMODE
 70
     1
  9
$QTEXTMODE
 70
     0
  9
$MIRRTEXT
 70
     1
  9
$DRAGMODE
 70
     2
  9
$LTSCALE
 40
0.3
  9
$OSMODE
 70
    37
  9
$ATTMODE
 70
     1
  9
$TEXTSIZE
 40
2.5
  9
$TRACEWID
 40
1.0
  9
$TEXTSTYLE
  7
STANDARD
  9
$CLAYER
  8
3
  9
$CELTYPE
  6
BYLAYER
  9
$CECOLOR
 62
   256
  9
$DIMSCALE
 40
1.0
  9
$DIMASZ
 40
2.5
  9
$DIMEXO
 40
0.625
  9
$DIMDLI
 40
3.75
  9
$DIMRND
 40
0.0
  9
$DIMDLE
 40
0.0
  9
$DIMEXE
 40
1.25
  9
$DIMTP
 40
0.0
  9
$DIMTM
 40
0.0
  9
$DIMTXT
 40
2.5
  9
$DIMCEN
 40
2.5
  9
$DIMTSZ
 40
0.0
  9
$DIMTOL
 70
     0
  9
$DIMLIM
 70
     0
  9
$DIMTIH
 70
     0
  9
$DIMTOH
 70
     0
  9
$DIMSE1
 70
     0
  9
$DIMSE2
 70
     0
  9
$DIMTAD
 70
     1
  9
$DIMZIN
 70
     8
  9
$DIMBLK
  1

  9
$DIMASO
 70
     1
  9
$DIMSHO
 70
     1
  9
$DIMPOST
  1

  9
$DIMAPOST
  1

  9
$DIMALT
 70
     0
  9
$DIMALTD
 70
     3
  9
$DIMALTF
 40
0.03937007874016
  9
$DIMLFAC
 40
1.0
  9
$DIMTOFL
 70
     1
  9
$DIMTVP
 40
0.0
  9
$DIMTIX
 70
     0
  9
$DIMSOXD
 70
     0
  9
$DIMSAH
 70
     0
  9
$DIMBLK1
  1

  9
$DIMBLK2
  1

  9
$DIMSTYLE
  2
ISO-25
  9
$DIMCLRD
 70
     0
  9
$DIMCLRE
 70
     0
  9
$DIMCLRT
 70
     0
  9
$DIMTFAC
 40
1.0
  9
$DIMGAP
 40
0.625
  9
$LUNITS
 70
     2
  9
$LUPREC
 70
     4
  9
$SKETCHINC
 40
1.0
  9
$FILLETRAD
 40
10.0
  9
$AUNITS
 70
     0
  9
$AUPREC
 70
     0
  9
$MENU
  1
.
  9
$ELEVATION
 40
0.0
  9
$PELEVATION
 40
0.0
  9
$THICKNESS
 40
0.0
  9
$LIMCHECK
 70
     0
  9
$BLIPMODE
 70
     0
  9
$CHAMFERA
 40
10.0
  9
$CHAMFERB
 40
10.0
  9
$SKPOLY
 70
     0
  9
$TDCREATE
 40
2453446.428064317
  9
$TDUPDATE
 40
2453551.9324798258
  9
$TDINDWG
 40
0.0658677546
  9
$TDUSRTIMER
 40
0.0658676389
  9
$USRTIMER
 70
     1
  9
$ANGBASE
 50
0.0
  9
$ANGDIR
 70
     0
  9
$PDMODE
 70
     0
  9
$PDSIZE
 40
0.0
  9
$PLINEWID
 40
0.0
  9
$COORDS
 70
     1
  9
$SPLFRAME
 70
     0
  9
$SPLINETYPE
 70
     6
  9
$SPLINESEGS
 70
     8
  9
$ATTDIA
 70
     0
  9
$ATTREQ
 70
     1
  9
$HANDLING
 70
-16383
  9
$HANDSEED
  5
BCE
  9
$SURFTAB1
 70
     6
  9
$SURFTAB2
 70
     6
  9
$SURFTYPE
 70
     6
  9
$SURFU
 70
     6
  9
$SURFV
 70
     6
  9
$UCSNAME
  2

  9
$UCSORG
 10
0.0
 20
0.0
 30
0.0
  9
$UCSXDIR
 10
1.0
 20
0.0
 30
0.0
  9
$UCSYDIR
 10
0.0
 20
1.0
 30
0.0
  9
$PUCSNAME
  2

  9
$PUCSORG
 10
0.0
 20
0.0
 30
0.0
  9
$PUCSXDIR
 10
1.0
 20
0.0
 30
0.0
  9
$PUCSYDIR
 10
0.0
 20
1.0
 30
0.0
  9
$USERI1
 70
     0
  9
$USERI2
 70
     0
  9
$USERI3
 70
     0
  9
$USERI4
 70
     0
  9
$USERI5
 70
     0
  9
$USERR1
 40
0.0
  9
$USERR2
 40
0.0
  9
$USERR3
 40
0.0
  9
$USERR4
 40
0.0
  9
$USERR5
 40
0.0
  9
$WORLDVIEW
 70
     1
  9
$SHADEDGE
 70
     3
  9
$SHADEDIF
 70
    70
  9
$TILEMODE
 70
     1
  9
$MAXACTVP
 70
    64
  9
$PLIMCHECK
 70
     0
  9
$PEXTMIN
 10
1.0000000000000000E+020
 20
1.0000000000000000E+020
 30
1.0000000000000000E+020
  9
$PEXTMAX
 10
-1.0000000000000000E+020
 20
-1.0000000000000000E+020
 30
-1.0000000000000000E+020
  9
$PLIMMIN
 10
0.0
 20
0.0
  9
$PLIMMAX
 10
420.0
 20
297.0
  9
$UNITMODE
 70
     0
  9
$VISRETAIN
 70
     1
  9
$PLINEGEN
 70
     0
  9
$PSLTSCALE
 70
     1
  0
ENDSEC
  0
SECTION
  2
TABLES
  0
TABLE
  2
VPORT
 70
     2
  0
VPORT
  2
*ACTIVE
 70
     0
 10
0.0
 20
0.0
 11
1.0
 21
1.0
 12
125.8124901356438
 22
77.003233393092529
 13
0.0
 23
0.0
 14
10.0
 24
10.0
 15
10.0
 25
10.0
 16
0.0
 26
0.0
 36
1.0
 17
0.0
 27
0.0
 37
0.0
 40
110.3016759888542
 41
2.5392405063291141
 42
50.0
 43
0.0
 44
0.0
 50
0.0
 51
0.0
 71
     0
 72
   100
 73
     1
 74
     3
 75
     0
 76
     0
 77
     0
 78
     0
  0
ENDTAB
  0
TABLE
  2
LTYPE
 70
     4
  0
LTYPE
  2
CONTINUOUS
 70
     0
  3
Solid line
 72
    65
 73
     0
 40
0.0
  0
LTYPE
  2
CENTER
 70
     0
  3
Center ____ _ ____ _ ____ _ ____ _ ____ _ ____
 72
    65
 73
     4
 40
50.799999999999997
 49
31.75
 49
-6.3499999999999988
 49
6.3499999999999988
 49
-6.3499999999999988
  0
LTYPE
  2
DASHED
 70
     0
  3
Dashed __ __ __ __ __ __ __ __ __ __ __ __ __ _
 72
    65
 73
     2
 40
19.04999999999999
 49
12.699999999999999
 49
-6.3499999999999988
  0
LTYPE
  2
DASHED2
 70
     0
  3
Dashed (.5x) _ _ _ _ _ _ _ _ _ _ _ _ _ _ _ _ _
 72
    65
 73
     2
 40
9.5249999999999986
 49
6.3499999999999988
 49
-3.1749999999999989
  0
ENDTAB
  0
TABLE
  2
LAYER
 70
     5
  0
LAYER
  2
0
 70
     0
 62
     7
  6
CONTINUOUS
  0
LAYER
  2
1
 70
     0
 62
     7
  6
CENTER
  0
LAYER
  2
2
 70
     0
 62
     7
  6
CONTINUOUS
  0
LAYER
  2
3
 70
     0
 62
     7
  6
DASHED2
  0
LAYER
  2
DEFPOINTS
 70
     0
 62
     7
  6
CONTINUOUS
  0
ENDTAB
  0
TABLE
  2
STYLE
 70
     4
  0
STYLE
  2
STANDARD
 70
     0
 40
0.0
 41
1.0
 50
0.0
 71
     0
 42
2.5
  3
txt
  4

  0
STYLE
  2
\U+00C9L\U+00C9R_\U+00C2S\U+00C2V\U+00C2B\U+00C2N
 70
     0
 40
1.0
 41
1.0
 50
0.0
 71
     0
 42
1.0
  3
\U+00E9l\U+00E9r \U+00E2S\U+00E2V\U+00E2b\U+00E2N
  4

  0
STYLE
  2
SWIS721_CN_BT
 70
     0
 40
1.0
 41
1.0
 50
0.0
 71
     0
 42
1.0
  3
Swis721 Cn BT
  4

  0
STYLE
  2

 70
     1
 40
0.0
 41
1.0
 50
0.0
 71
     0
 42
2.5
  3
ltypeshp.shx
  4

  0
ENDTAB
  0
TABLE
  2
VIEW
 70
     0
  0
ENDTAB
  0
TABLE
  2
UCS
 70
     0
  0
ENDTAB
  0
TABLE
  2
APPID
 70
     1
  0
APPID
  2
ACAD
 70
     0
  0
ENDTAB
  0
TABLE
  2
DIMSTYLE
 70
     2
  0
DIMSTYLE
  2
ISO-25
 70
     0
  3

  4

  5

  6

  7

 40
1.0
 41
2.5
 42
0.625
 43
3.75
 44
1.25
 45
0.0
 46
0.0
 47
0.0
 48
0.0
140
2.5
141
2.5
142
0.0
143
0.03937007874016
144
1.0
145
0.0
146
1.0
147
0.625
 71
     0
 72
     0
 73
     0
 74
     0
 75
     0
 76
     0
 77
     1
 78
     8
170
     0
171
     3
172
     1
173
     0
174
     0
175
     0
176
     0
177
     0
178
     0
  0
DIMSTYLE
  2
STANDARD
 70
     0
  3

  4

  5

  6

  7

 40
1.0
 41
0.18
 42
0.0625
 43
0.38
 44
0.18
 45
0.0
 46
0.0
 47
0.0
 48
0.0
140
0.18
141
0.09
142
0.0
143
25.399999999999999
144
1.0
145
0.0
146
1.0
147
0.09
 71
     0
 72
     0
 73
     1
 74
     1
 75
     0
 76
     0
 77
     0
 78
     0
170
     0
171
     2
172
     0
173
     0
174
     0
175
     0
176
     0
177
     0
178
     0
  0
ENDTAB
  0
ENDSEC
  0
SECTION
  2
BLOCKS
  0
BLOCK
  8
0
  2
$MODEL_SPACE
 70
     0
 10
0.0
 20
0.0
 30
0.0
  3
$MODEL_SPACE
  1

  0
ENDBLK
  5
21
  8
0
  0
BLOCK
 67
     1
  8
0
  2
$PAPER_SPACE
 70
     0
 10
0.0
 20
0.0
 30
0.0
  3
$PAPER_SPACE
  1

  0
ENDBLK
  5
1D
 67
     1
  8
0
  0
BLOCK
  8
0
  2
*D1
 70
     1
 10
0.0
 20
0.0
 30
0.0
  3
*D1
  1

  0
LINE
  5
AC4
  8
2
 62
     0
 10
78.275733052902353
 20
117.6256761813524
 30
0.0
 11
92.585731960606836
 21
117.6256761813524
 31
0.0
  0
LINE
  5
AC5
  8
2
 62
     0
 10
79.764881201050457
 20
108.1256761813524
 30
0.0
 11
92.585731960606836
 21
108.1256761813524
 31
0.0
  0
LINE
  5
AC6
  8
2
 62
     0
 10
91.335731960606836
 20
115.1256761813524
 30
0.0
 11
91.335731960606836
 21
110.6256761813524
 31
0.0
  0
SOLID
  5
AC7
  8
2
 62
     0
 10
90.919065293940164
 20
115.1256761813524
 30
0.0
 11
91.752398627273493
 21
115.1256761813524
 31
0.0
 12
91.335731960606836
 22
117.6256761813524
 32
0.0
 13
91.335731960606836
 23
117.6256761813524
 33
0.0
  0
SOLID
  5
AC8
  8
2
 62
     0
 10
90.919065293940164
 20
110.6256761813524
 30
0.0
 11
91.752398627273493
 21
110.6256761813524
 31
0.0
 12
91.335731960606836
 22
108.1256761813524
 32
0.0
 13
91.335731960606836
 23
108.1256761813524
 33
0.0
  0
TEXT
  5
AC9
  8
3
 62
     0
 10
90.710731960606793
 20
110.3756761813524
 30
0.0
 40
2.5
  1
9.5
 50
90.0
  0
POINT
  5
ACA
  8
DEFPOINTS
 62
     0
 10
77.650733052902353
 20
117.6256761813524
 30
0.0
  0
POINT
  5
ACB
  8
DEFPOINTS
 62
     0
 10
79.139881201050457
 20
108.1256761813524
 30
0.0
  0
POINT
  5
ACC
  8
DEFPOINTS
 62
     0
 10
91.335731960606836
 20
108.1256761813524
 30
0.0
  0
ENDBLK
  5
ACE
  8
0
  0
BLOCK
  8
0
  2
*D2
 70
     1
 10
0.0
 20
0.0
 30
0.0
  3
*D2
  1

  0
LINE
  5
AD1
  8
2
 62
     0
 10
90.710731960606836
 20
108.1256761813524
 30
0.0
 11
90.085731960606836
 21
108.1256761813524
 31
0.0
  0
LINE
  5
AD2
  8
2
 62
     0
 10
79.764881201050457
 20
93.125676181352446
 30
0.0
 11
92.585731960606822
 21
93.125676181352446
 31
0.0
  0
LINE
  5
AD3
  8
2
 62
     0
 10
91.335731960606836
 20
105.6256761813524
 30
0.0
 11
91.335731960606822
 21
95.625676181352446
 31
0.0
  0
SOLID
  5
AD4
  8
2
 62
     0
 10
90.919065293940164
 20
105.6256761813524
 30
0.0
 11
91.752398627273493
 21
105.6256761813524
 31
0.0
 12
91.335731960606836
 22
108.1256761813524
 32
0.0
 13
91.335731960606836
 23
108.1256761813524
 33
0.0
  0
SOLID
  5
AD5
  8
2
 62
     0
 10
90.919065293940136
 20
95.625676181352446
 30
0.0
 11
91.752398627273493
 21
95.625676181352446
 31
0.0
 12
91.335731960606822
 22
93.125676181352446
 32
0.0
 13
91.335731960606822
 23
93.125676181352446
 33
0.0
  0
TEXT
  5
AD6
  8
3
 62
     0
 10
90.710731960606793
 20
98.959009514685803
 30
0.0
 40
2.5
  1
15
 50
90.0
  0
POINT
  5
AD7
  8
DEFPOINTS
 62
     0
 10
91.335731960606836
 20
108.1256761813524
 30
0.0
  0
POINT
  5
AD8
  8
DEFPOINTS
 62
     0
 10
79.139881201050457
 20
93.125676181352446
 30
0.0
  0
POINT
  5
AD9
  8
DEFPOINTS
 62
     0
 10
91.335731960606822
 20
93.125676181352446
 30
0.0
  0
ENDBLK
  5
ADB
  8
0
  0
BLOCK
  8
0
  2
*D3
 70
     1
 10
0.0
 20
0.0
 30
0.0
  3
*D3
  1

  0
LINE
  5
B60
  8
2
 62
     0
 10
90.710731960606822
 20
93.125676181352446
 30
0.0
 11
90.085731960606822
 21
93.125676181352446
 31
0.0
  0
LINE
  5
B61
  8
2
 62
     0
 10
78.107881201050446
 20
58.625676181352461
 30
0.0
 11
92.585731960606822
 21
58.625676181352453
 31
0.0
  0
LINE
  5
B62
  8
2
 62
     0
 10
91.335731960606822
 20
90.625676181352446
 30
0.0
 11
91.335731960606822
 21
61.125676181352453
 31
0.0
  0
SOLID
  5
B63
  8
2
 62
     0
 10
90.919065293940136
 20
90.625676181352446
 30
0.0
 11
91.752398627273493
 21
90.625676181352446
 31
0.0
 12
91.335731960606822
 22
93.125676181352446
 32
0.0
 13
91.335731960606822
 23
93.125676181352446
 33
0.0
  0
SOLID
  5
B64
  8
2
 62
     0
 10
90.919065293940136
 20
61.125676181352453
 30
0.0
 11
91.752398627273493
 21
61.125676181352453
 31
0.0
 12
91.335731960606822
 22
58.625676181352453
 32
0.0
 13
91.335731960606822
 23
58.625676181352453
 33
0.0
  0
TEXT
  5
B65
  8
3
 62
     0
 10
90.710731960606793
 20
72.125676181352475
 30
0.0
 40
2.5
  1
34.5
 50
90.0
  0
POINT
  5
B66
  8
DEFPOINTS
 62
     0
 10
91.335731960606822
 20
93.125676181352446
 30
0.0
  0
POINT
  5
B67
  8
DEFPOINTS
 62
     0
 10
77.482881201050446
 20
58.625676181352461
 30
0.0
  0
POINT
  5
B68
  8
DEFPOINTS
 62
     0
 10
91.335731960606822
 20
58.625676181352453
 30
0.0
  0
ENDBLK
  5
AE8
  8
0
  0
BLOCK
  8
0
  2
*D4
 70
     1
 10
0.0
 20
0.0
 30
0.0
  3
*D4
  1

  0
LINE
  5
B57
  8
2
 62
     0
 10
91.960731960606836
 20
117.6256761813524
 30
0.0
 11
99.608664455927425
 21
117.6256761813524
 31
0.0
  0
LINE
  5
B58
  8
2
 62
     0
 10
91.960731960606822
 20
58.625676181352461
 30
0.0
 11
99.608664455927396
 21
58.625676181352461
 31
0.0
  0
LINE
  5
B59
  8
2
 62
     0
 10
98.358664455927425
 20
115.1256761813524
 30
0.0
 11
98.358664455927396
 21
61.125676181352461
 31
0.0
  0
SOLID
  5
B5A
  8
2
 62
     0
 10
97.941997789260739
 20
115.1256761813524
 30
0.0
 11
98.775331122594082
 21
115.1256761813524
 31
0.0
 12
98.358664455927425
 22
117.6256761813524
 32
0.0
 13
98.358664455927425
 23
117.6256761813524
 33
0.0
  0
SOLID
  5
B5B
  8
2
 62
     0
 10
97.941997789260725
 20
61.125676181352461
 30
0.0
 11
98.775331122594054
 21
61.125676181352461
 31
0.0
 12
98.358664455927396
 22
58.625676181352461
 32
0.0
 13
98.358664455927396
 23
58.625676181352461
 33
0.0
  0
TEXT
  5
B5C
  8
3
 62
     0
 10
97.733664455927382
 20
84.375676181352475
 30
0.0
 40
2.5
  1
(59)
 50
90.0
  0
POINT
  5
B5D
  8
DEFPOINTS
 62
     0
 10
91.335731960606836
 20
117.6256761813524
 30
0.0
  0
POINT
  5
B5E
  8
DEFPOINTS
 62
     0
 10
91.335731960606822
 20
58.625676181352461
 30
0.0
  0
POINT
  5
B5F
  8
DEFPOINTS
 62
     0
 10
98.358664455927396
 20
58.625676181352461
 30
0.0
  0
ENDBLK
  5
AF5
  8
0
  0
BLOCK
  8
0
  2
*D5
 70
     1
 10
0.0
 20
0.0
 30
0.0
  3
*D5
  1

  0
LINE
  5
B44
  8
2
 62
     0
 10
68.514881201050457
 20
93.125676181352446
 30
0.0
 11
62.215515389678231
 21
93.125676181352446
 31
0.0
  0
LINE
  5
B45
  8
2
 62
     0
 10
64.6760561518754
 20
73.125676181352461
 30
0.0
 11
62.215515389678217
 21
73.125676181352461
 31
0.0
  0
LINE
  5
B46
  8
2
 62
     0
 10
63.465515389678231
 20
90.625676181352446
 30
0.0
 11
63.465515389678217
 21
75.625676181352461
 31
0.0
  0
SOLID
  5
B47
  8
2
 62
     0
 10
63.04884872301156
 20
90.625676181352446
 30
0.0
 11
63.882182056344888
 21
90.625676181352446
 31
0.0
 12
63.465515389678231
 22
93.125676181352446
 32
0.0
 13
63.465515389678231
 23
93.125676181352446
 33
0.0
  0
SOLID
  5
B48
  8
2
 62
     0
 10
63.048848723011552
 20
75.625676181352461
 30
0.0
 11
63.882182056344881
 21
75.625676181352461
 31
0.0
 12
63.465515389678217
 22
73.125676181352461
 32
0.0
 13
63.465515389678217
 23
73.125676181352461
 33
0.0
  0
TEXT
  5
B49
  8
3
 62
     0
 10
62.84051538967821
 20
81.250676181352475
 30
0.0
 40
2.5
  1
20
 50
90.0
  0
POINT
  5
B4A
  8
DEFPOINTS
 62
     0
 10
69.139881201050457
 20
93.125676181352446
 30
0.0
  0
POINT
  5
B4B
  8
DEFPOINTS
 62
     0
 10
65.3010561518754
 20
73.125676181352461
 30
0.0
  0
POINT
  5
B4C
  8
DEFPOINTS
 62
     0
 10
63.465515389678217
 20
73.125676181352461
 30
0.0
  0
ENDBLK
  5
B13
  8
0
  0
ENDSEC
  0
SECTION
  2
ENTITIES
  0
TEXT
  5
694
  8
2
 10
40.753551954719057
 20
40.543989600593733
 30
0.0
 40
2.5399440000000002
  1
             50.150
 51
-0.0000015352344868
  7
\U+00C9L\U+00C9R_\U+00C2S\U+00C2V\U+00C2B\U+00C2N
  0
LINE
  5
75D
  8
1
 10
74.139881201050457
 20
58.125676181352468
 30
0.0
 11
74.139881201050457
 21
118.1256761813524
 31
0.0
  0
LINE
  5
762
  8
0
 39
5.0
 10
74.139881201050457
 20
58.625676181352461
 30
0.0
 11
71.125381201050459
 21
58.625676181352461
 31
0.0
  0
LINE
  5
765
  8
0
 39
5.0
 10
70.629029349198561
 20
117.6256761813524
 30
0.0
 11
74.139881201050457
 21
117.6256761813524
 31
0.0
  0
LINE
  5
766
  8
0
 39
5.0
 10
73.990093031504983
 20
117.6256761813524
 30
0.0
 11
73.899481201050449
 21
117.6226723299537
 31
0.0
  0
LINE
  5
768
  8
0
 39
5.0
 10
72.097481201050442
 20
116.89507232995371
 30
0.0
 11
72.097481201050442
 21
108.7433723299537
 31
0.0
  0
LINE
  5
769
  8
0
 39
5.0
 10
72.230581201050455
 20
117.0683723299537
 30
0.0
 11
72.097481201050442
 21
116.89507232995371
 31
0.0
  0
LINE
  5
76A
  8
0
 39
5.0
 10
72.418581201050443
 20
117.2184723299537
 30
0.0
 11
72.230581201050455
 21
117.0683723299537
 31
0.0
  0
LINE
  5
76B
  8
0
 39
5.0
 10
72.653581201050443
 20
117.3455723299537
 30
0.0
 11
72.418581201050443
 21
117.2184723299537
 31
0.0
  0
LINE
  5
76C
  8
0
 39
5.0
 10
72.927281201050448
 20
117.44947232995369
 30
0.0
 11
72.653581201050443
 21
117.3455723299537
 31
0.0
  0
LINE
  5
76D
  8
0
 39
5.0
 10
73.231681201050435
 20
117.53037232995371
 30
0.0
 11
72.927281201050448
 21
117.44947232995369
 31
0.0
  0
LINE
  5
76E
  8
0
 39
5.0
 10
73.558381201050452
 20
117.5880723299537
 30
0.0
 11
73.231681201050435
 21
117.53037232995371
 31
0.0
  0
LINE
  5
76F
  8
0
 39
5.0
 10
73.899481201050449
 20
117.6226723299537
 30
0.0
 11
73.558381201050452
 21
117.5880723299537
 31
0.0
  0
LINE
  5
770
  8
0
 39
5.0
 10
73.786681201050442
 20
108.1422723299537
 30
0.0
 11
74.133406143449321
 21
108.1256761813524
 31
0.0
  0
LINE
  5
771
  8
0
 39
5.0
 10
73.484781201050453
 20
108.1756723299537
 30
0.0
 11
73.786681201050442
 21
108.1422723299537
 31
0.0
  0
LINE
  5
772
  8
0
 39
5.0
 10
73.195081201050442
 20
108.2273723299537
 30
0.0
 11
73.484781201050453
 21
108.1756723299537
 31
0.0
  0
LINE
  5
773
  8
0
 39
5.0
 10
72.922181201050449
 20
108.2968723299537
 30
0.0
 11
73.195081201050442
 21
108.2273723299537
 31
0.0
  0
LINE
  5
774
  8
0
 39
5.0
 10
72.671381201050451
 20
108.3837723299537
 30
0.0
 11
72.922181201050449
 21
108.2968723299537
 31
0.0
  0
LINE
  5
775
  8
0
 39
5.0
 10
72.446981201050448
 20
108.4874723299537
 30
0.0
 11
72.671381201050451
 21
108.3837723299537
 31
0.0
  0
LINE
  5
776
  8
0
 39
5.0
 10
72.254181201050443
 20
108.6075723299537
 30
0.0
 11
72.446981201050448
 21
108.4874723299537
 31
0.0
  0
LINE
  5
777
  8
0
 39
5.0
 10
72.097481201050442
 20
108.7433723299537
 30
0.0
 11
72.254181201050443
 21
108.6075723299537
 31
0.0
  0
LINE
  5
778
  8
0
 39
5.0
 10
72.097481201050442
 20
108.7433723299537
 30
0.0
 11
72.097481201050442
 21
108.7433723299537
 31
0.0
  0
LINE
  5
779
  8
2
 39
5.0
 10
69.389281201050423
 20
108.1256761813524
 30
0.0
 11
69.389281201050451
 21
105.7106070626071
 31
0.0
  0
LINE
  5
78B
  8
0
 39
5.0
 10
70.23598120105045
 20
103.5276510249069
 30
0.0
 11
70.654481201050444
 21
103.42027618135241
 31
0.0
  0
LINE
  5
78C
  8
0
 39
5.0
 10
73.193981201050448
 20
103.0918761813524
 30
0.0
 11
73.640981201050451
 21
103.0849761813524
 31
0.0
  0
LINE
  5
78D
  8
0
 39
5.0
 10
72.753681201050455
 20
103.11247618135241
 30
0.0
 11
73.193981201050448
 21
103.0918761813524
 31
0.0
  0
LINE
  5
78E
  8
0
 39
5.0
 10
72.320281201050449
 20
103.1466761813524
 30
0.0
 11
72.753681201050455
 21
103.11247618135241
 31
0.0
  0
LINE
  5
78F
  8
0
 39
5.0
 10
71.893481201050434
 20
103.1944761813524
 30
0.0
 11
72.320281201050449
 21
103.1466761813524
 31
0.0
  0
LINE
  5
790
  8
0
 39
5.0
 10
71.473781201050443
 20
103.2560761813524
 30
0.0
 11
71.893481201050434
 21
103.1944761813524
 31
0.0
  0
LINE
  5
791
  8
0
 39
5.0
 10
71.060681201050443
 20
103.3313761813524
 30
0.0
 11
71.473781201050443
 21
103.2560761813524
 31
0.0
  0
LINE
  5
792
  8
0
 39
5.0
 10
70.654481201050444
 20
103.42027618135241
 30
0.0
 11
71.060681201050443
 21
103.3313761813524
 31
0.0
  0
LINE
  5
793
  8
0
 39
5.0
 10
70.646881201050448
 20
105.3775761813524
 30
0.0
 11
70.23598120105045
 21
105.27477618135239
 31
0.0
  0
LINE
  5
794
  8
0
 39
5.0
 10
71.06048120105045
 20
105.46647618135241
 30
0.0
 11
70.646881201050448
 21
105.3775761813524
 31
0.0
  0
LINE
  5
795
  8
0
 39
5.0
 10
71.477381201050449
 20
105.5417761813524
 30
0.0
 11
71.06048120105045
 21
105.46647618135241
 31
0.0
  0
LINE
  5
796
  8
0
 39
5.0
 10
71.897981201050442
 20
105.6032761813524
 30
0.0
 11
71.477381201050449
 21
105.5417761813524
 31
0.0
  0
LINE
  5
797
  8
0
 39
5.0
 10
72.323281201050435
 20
105.6512761813524
 30
0.0
 11
71.897981201050442
 21
105.6032761813524
 31
0.0
  0
LINE
  5
798
  8
0
 39
5.0
 10
72.753481201050448
 20
105.6854761813524
 30
0.0
 11
72.323281201050435
 21
105.6512761813524
 31
0.0
  0
LINE
  5
799
  8
0
 39
5.0
 10
73.189381201050452
 20
105.7060761813524
 30
0.0
 11
72.753481201050448
 21
105.6854761813524
 31
0.0
  0
LINE
  5
79A
  8
0
 39
5.0
 10
73.631381201050459
 20
105.7127761813524
 30
0.0
 11
73.189381201050452
 21
105.7060761813524
 31
0.0
  0
LINE
  5
79B
  8
0
 39
5.0
 10
73.776776906800862
 20
105.7106070626071
 30
0.0
 11
73.631381201050459
 21
105.7127761813524
 31
0.0
  0
LINE
  5
79D
  8
2
 39
5.0
 10
69.389281201050451
 20
103.0849761813524
 30
0.0
 11
69.389281201050451
 21
99.710607062607124
 31
0.0
  0
LINE
  5
7A0
  8
0
 39
5.0
 10
69.139881201050457
 20
93.125676181352446
 30
0.0
 11
74.139881201050457
 21
93.125676181352446
 31
0.0
  0
LINE
  5
7A1
  8
0
 39
5.0
 10
71.202881201050445
 20
93.125676181352446
 30
0.0
 11
71.202881201050445
 21
65.53307618135247
 31
0.0
  0
LINE
  5
7A8
  8
0
 10
70.665081201050469
 20
65.513676181352466
 30
0.0
 11
74.139881201050457
 21
65.513676181352466
 31
0.0
  0
LINE
  5
7B0
  8
0
 10
68.11098120105045
 20
105.7106070626071
 30
0.0
 11
74.139881201050457
 21
105.7106070626071
 31
0.0
  0
LINE
  5
7B1
  8
0
 10
68.203481201050451
 20
103.0849761813524
 30
0.0
 11
74.139881201050457
 21
103.0849761813524
 31
0.0
  0
LINE
  5
7B3
  8
0
 10
74.139881201050457
 20
108.1256761813524
 30
0.0
 11
69.139881201050457
 21
108.1256761813524
 31
0.0
  0
LINE
  5
7C7
  8
0
 39
5.0
 10
74.0675010865302
 20
65.513676181352466
 30
0.0
 11
73.558381201050452
 21
65.47471977850573
 31
0.0
  0
LINE
  5
7C8
  8
0
 39
5.0
 10
73.558381201050452
 20
65.47471977850573
 30
0.0
 11
73.231681201050435
 21
65.431519778505731
 31
0.0
  0
LINE
  5
7C9
  8
0
 39
5.0
 10
73.231681201050435
 20
65.431519778505731
 30
0.0
 11
72.927281201050448
 21
65.370819778505734
 31
0.0
  0
LINE
  5
7CA
  8
0
 39
5.0
 10
72.927281201050448
 20
65.370819778505734
 30
0.0
 11
72.653581201050443
 21
65.293019778505737
 31
0.0
  0
LINE
  5
7CB
  8
0
 39
5.0
 10
72.653581201050443
 20
65.293019778505737
 30
0.0
 11
72.418581201050443
 21
65.197619778505739
 31
0.0
  0
LINE
  5
7CC
  8
0
 39
5.0
 10
72.418581201050443
 20
65.197619778505739
 30
0.0
 11
72.230581201050455
 21
65.085119778505742
 31
0.0
  0
LINE
  5
7CD
  8
0
 39
5.0
 10
72.230581201050455
 20
65.085119778505742
 30
0.0
 11
72.097481201050442
 21
64.955019778505715
 31
0.0
  0
LINE
  5
7CE
  8
0
 39
5.0
 10
72.097481201050442
 20
64.955019778505715
 30
0.0
 11
72.097481201050442
 21
59.085219778505731
 31
0.0
  0
LINE
  5
7D8
  8
0
 39
5.0
 10
70.629029349198561
 20
117.6256761813524
 30
0.0
 11
70.602281201050459
 21
117.6187761813524
 31
0.0
  0
LINE
  5
7D9
  8
0
 39
5.0
 10
70.602281201050459
 20
117.6187761813524
 30
0.0
 11
70.541881201050444
 21
117.5965761813524
 31
0.0
  0
LINE
  5
7DA
  8
0
 39
5.0
 10
70.541881201050444
 20
117.5965761813524
 30
0.0
 11
70.48458120105046
 21
117.56887618135239
 31
0.0
  0
LINE
  5
7DB
  8
0
 39
5.0
 10
70.48458120105046
 20
117.56887618135239
 30
0.0
 11
70.430281201050462
 21
117.53587618135241
 31
0.0
  0
LINE
  5
7DC
  8
0
 39
5.0
 10
70.430281201050462
 20
117.53587618135241
 30
0.0
 11
70.37968120105046
 21
117.4979761813524
 31
0.0
  0
LINE
  5
7DD
  8
0
 39
5.0
 10
70.37968120105046
 20
117.4979761813524
 30
0.0
 11
70.332881201050469
 21
117.45537618135241
 31
0.0
  0
LINE
  5
7DE
  8
0
 39
5.0
 10
70.332881201050469
 20
117.45537618135241
 30
0.0
 11
70.290581201050443
 21
117.40877618135239
 31
0.0
  0
LINE
  5
7DF
  8
0
 39
5.0
 10
70.290581201050443
 20
117.40877618135239
 30
0.0
 11
70.252581201050461
 21
117.35817618135241
 31
0.0
  0
LINE
  5
7E0
  8
0
 39
5.0
 10
70.252581201050461
 20
117.35817618135241
 30
0.0
 11
70.219681201050463
 21
117.3040761813524
 31
0.0
  0
LINE
  5
7E1
  8
0
 39
5.0
 10
70.219681201050463
 20
117.3040761813524
 30
0.0
 11
70.19178120105046
 21
117.2465761813524
 31
0.0
  0
LINE
  5
7E2
  8
0
 39
5.0
 10
70.19178120105046
 20
117.2465761813524
 30
0.0
 11
70.169681201050466
 21
117.1863761813524
 31
0.0
  0
LINE
  5
7E3
  8
0
 39
5.0
 10
70.169681201050466
 20
117.1863761813524
 30
0.0
 11
70.153381201050465
 21
117.1233761813524
 31
0.0
  0
LINE
  5
7E4
  8
0
 39
5.0
 10
70.153381201050465
 20
117.1233761813524
 30
0.0
 11
70.14338120105046
 21
117.0583761813524
 31
0.0
  0
LINE
  5
7E5
  8
0
 39
5.0
 10
70.14338120105046
 20
117.0583761813524
 30
0.0
 11
70.139881201050457
 21
116.9912761813524
 31
0.0
  0
LINE
  5
7E6
  8
0
 39
5.0
 10
70.139881201050457
 20
116.9912761813524
 30
0.0
 11
70.139881201050457
 21
108.7825761813524
 31
0.0
  0
LINE
  5
7E7
  8
0
 39
5.0
 10
70.139881201050457
 20
108.7825761813524
 30
0.0
 11
70.139881201050457
 21
108.7825761813524
 31
0.0
  0
LINE
  5
7E8
  8
0
 39
5.0
 10
70.139881201050457
 20
108.7825761813524
 30
0.0
 11
70.14338120105046
 21
108.7157761813524
 31
0.0
  0
LINE
  5
7E9
  8
0
 39
5.0
 10
70.14338120105046
 20
108.7157761813524
 30
0.0
 11
70.153381201050465
 21
108.6507761813524
 31
0.0
  0
LINE
  5
7EA
  8
0
 39
5.0
 10
70.153381201050465
 20
108.6507761813524
 30
0.0
 11
70.169681201050466
 21
108.5879761813524
 31
0.0
  0
LINE
  5
7EB
  8
0
 39
5.0
 10
70.169681201050466
 20
108.5879761813524
 30
0.0
 11
70.19178120105046
 21
108.5275761813524
 31
0.0
  0
LINE
  5
7EC
  8
0
 39
5.0
 10
70.19178120105046
 20
108.5275761813524
 30
0.0
 11
70.219681201050463
 21
108.4702761813524
 31
0.0
  0
LINE
  5
7ED
  8
0
 39
5.0
 10
70.219681201050463
 20
108.4702761813524
 30
0.0
 11
70.252581201050461
 21
108.41597618135241
 31
0.0
  0
LINE
  5
7EE
  8
0
 39
5.0
 10
70.252581201050461
 20
108.41597618135241
 30
0.0
 11
70.290581201050443
 21
108.3653761813524
 31
0.0
  0
LINE
  5
7EF
  8
0
 39
5.0
 10
70.290581201050443
 20
108.3653761813524
 30
0.0
 11
70.332881201050469
 21
108.3185761813524
 31
0.0
  0
LINE
  5
7F0
  8
0
 39
5.0
 10
70.332881201050469
 20
108.3185761813524
 30
0.0
 11
70.37968120105046
 21
108.2762761813524
 31
0.0
  0
LINE
  5
7F1
  8
0
 39
5.0
 10
70.37968120105046
 20
108.2762761813524
 30
0.0
 11
70.430281201050462
 21
108.2382761813524
 31
0.0
  0
LINE
  5
7F2
  8
0
 39
5.0
 10
70.430281201050462
 20
108.2382761813524
 30
0.0
 11
70.48458120105046
 21
108.20537618135241
 31
0.0
  0
LINE
  5
7F3
  8
0
 39
5.0
 10
70.48458120105046
 20
108.20537618135241
 30
0.0
 11
70.541881201050444
 21
108.1774761813524
 31
0.0
  0
LINE
  5
7F4
  8
0
 39
5.0
 10
70.541881201050444
 20
108.1774761813524
 30
0.0
 11
70.602281201050459
 21
108.15537618135239
 31
0.0
  0
LINE
  5
7F5
  8
0
 39
5.0
 10
70.602281201050459
 20
108.15537618135239
 30
0.0
 11
70.665081201050469
 21
108.13907618135239
 31
0.0
  0
LINE
  5
7F6
  8
0
 39
5.0
 10
70.665081201050469
 20
108.13907618135239
 30
0.0
 11
70.730081201050467
 21
108.1290761813524
 31
0.0
  0
LINE
  5
7F7
  8
0
 39
5.0
 10
70.730081201050467
 20
108.1290761813524
 30
0.0
 11
70.79497262962208
 21
108.1256761813524
 31
0.0
  0
LINE
  5
7F9
  8
0
 39
5.0
 10
71.440481201050446
 20
108.1255761813524
 30
0.0
 11
71.440481201050446
 21
108.1255761813524
 31
0.0
  0
LINE
  5
7FA
  8
0
 39
5.0
 10
71.44239834390757
 20
108.1256761813524
 30
0.0
 11
71.507581201050442
 21
108.1290761813524
 31
0.0
  0
LINE
  5
7FB
  8
0
 39
5.0
 10
71.507581201050442
 20
108.1290761813524
 30
0.0
 11
71.572581201050454
 21
108.13907618135239
 31
0.0
  0
LINE
  5
7FC
  8
0
 39
5.0
 10
71.572581201050454
 20
108.13907618135239
 30
0.0
 11
71.635581201050442
 21
108.15537618135239
 31
0.0
  0
LINE
  5
7FD
  8
0
 39
5.0
 10
71.635581201050442
 20
108.15537618135239
 30
0.0
 11
71.695781201050451
 21
108.1774761813524
 31
0.0
  0
LINE
  5
7FE
  8
0
 39
5.0
 10
71.695781201050451
 20
108.1774761813524
 30
0.0
 11
71.753281201050441
 21
108.20537618135241
 31
0.0
  0
LINE
  5
7FF
  8
0
 39
5.0
 10
71.753281201050441
 20
108.20537618135241
 30
0.0
 11
71.807381201050447
 21
108.2382761813524
 31
0.0
  0
LINE
  5
800
  8
0
 39
5.0
 10
71.807381201050447
 20
108.2382761813524
 30
0.0
 11
71.85798120105045
 21
108.2762761813524
 31
0.0
  0
LINE
  5
801
  8
0
 39
5.0
 10
71.85798120105045
 20
108.2762761813524
 30
0.0
 11
71.904581201050448
 21
108.3185761813524
 31
0.0
  0
LINE
  5
802
  8
0
 39
5.0
 10
71.904581201050448
 20
108.3185761813524
 30
0.0
 11
71.947181201050455
 21
108.3653761813524
 31
0.0
  0
LINE
  5
803
  8
0
 39
5.0
 10
71.947181201050455
 20
108.3653761813524
 30
0.0
 11
71.985081201050448
 21
108.41597618135241
 31
0.0
  0
LINE
  5
804
  8
0
 39
5.0
 10
71.985081201050448
 20
108.41597618135241
 30
0.0
 11
72.01808120105045
 21
108.4702761813524
 31
0.0
  0
LINE
  5
805
  8
0
 39
5.0
 10
72.01808120105045
 20
108.4702761813524
 30
0.0
 11
72.045781201050445
 21
108.5275761813524
 31
0.0
  0
LINE
  5
806
  8
0
 39
5.0
 10
72.045781201050445
 20
108.5275761813524
 30
0.0
 11
72.067981201050443
 21
108.5879761813524
 31
0.0
  0
LINE
  5
807
  8
0
 39
5.0
 10
72.067981201050443
 20
108.5879761813524
 30
0.0
 11
72.084181201050455
 21
108.6507761813524
 31
0.0
  0
LINE
  5
808
  8
0
 39
5.0
 10
72.084181201050455
 20
108.6507761813524
 30
0.0
 11
72.094181201050446
 21
108.7157761813524
 31
0.0
  0
LINE
  5
809
  8
0
 39
5.0
 10
72.094181201050446
 20
108.7157761813524
 30
0.0
 11
72.097481201050442
 21
108.7825761813524
 31
0.0
  0
LINE
  5
80A
  8
0
 39
5.0
 10
72.097481201050442
 20
108.7825761813524
 30
0.0
 11
72.097481201050442
 21
116.9912761813524
 31
0.0
  0
LINE
  5
80B
  8
0
 39
5.0
 10
72.097481201050442
 20
116.9912761813524
 30
0.0
 11
72.097481201050442
 21
116.9912761813524
 31
0.0
  0
LINE
  5
80C
  8
0
 39
5.0
 10
72.097481201050442
 20
116.9912761813524
 30
0.0
 11
72.094181201050446
 21
117.0583761813524
 31
0.0
  0
LINE
  5
80D
  8
0
 39
5.0
 10
72.094181201050446
 20
117.0583761813524
 30
0.0
 11
72.084181201050455
 21
117.1233761813524
 31
0.0
  0
LINE
  5
80E
  8
0
 39
5.0
 10
72.084181201050455
 20
117.1233761813524
 30
0.0
 11
72.067981201050443
 21
117.1863761813524
 31
0.0
  0
LINE
  5
80F
  8
0
 39
5.0
 10
72.067981201050443
 20
117.1863761813524
 30
0.0
 11
72.045781201050445
 21
117.2465761813524
 31
0.0
  0
LINE
  5
810
  8
0
 39
5.0
 10
72.045781201050445
 20
117.2465761813524
 30
0.0
 11
72.01808120105045
 21
117.3040761813524
 31
0.0
  0
LINE
  5
816
  8
0
 39
5.0
 10
71.807381201050447
 20
117.53587618135241
 30
0.0
 11
71.753281201050441
 21
117.56887618135239
 31
0.0
  0
LINE
  5
817
  8
0
 39
5.0
 10
71.753281201050441
 20
117.56887618135239
 30
0.0
 11
71.695781201050451
 21
117.5965761813524
 31
0.0
  0
LINE
  5
818
  8
0
 39
5.0
 10
71.695781201050451
 20
117.5965761813524
 30
0.0
 11
71.635581201050442
 21
117.6187761813524
 31
0.0
  0
LINE
  5
819
  8
0
 39
5.0
 10
71.635581201050442
 20
117.6187761813524
 30
0.0
 11
71.608747867717156
 21
117.6256761813524
 31
0.0
  0
LINE
  5
840
  8
3
 10
71.639881201050457
 20
117.6256761813524
 30
0.0
 11
71.639881201050457
 21
111.09407618135241
 31
0.0
  0
LINE
  5
842
  8
3
 10
71.923281201050443
 20
117.6256761813524
 30
0.0
 11
71.923281201050443
 21
111.09407618135241
 31
0.0
  0
LINE
  5
846
  8
0
 10
69.139881201050457
 20
108.1256761813524
 30
0.0
 11
69.139881201050457
 21
105.7106070626071
 31
0.0
  0
LINE
  5
84A
  8
0
 10
69.139881201050457
 20
103.0849761813524
 30
0.0
 11
69.139881201050457
 21
99.710607062607124
 31
0.0
  0
LINE
  5
858
  8
1
 10
66.139881201050457
 20
105.27477618135239
 30
0.0
 11
66.139881201050457
 21
104.3987761813524
 31
0.0
  0
LINE
  5
85A
  8
0
 10
66.139881201050457
 20
103.5276450371971
 30
0.0
 11
66.139881201050457
 21
105.27477618135239
 31
0.0
  0
LINE
  5
85B
  8
0
 39
5.0
 10
70.23598120105045
 20
105.27477618135239
 30
0.0
 11
70.23598120105045
 21
105.27477618135239
 31
0.0
  0
LINE
  5
85C
  8
0
 39
5.0
 10
70.23598120105045
 20
105.27477618135239
 30
0.0
 11
69.925181201050449
 21
105.3775761813524
 31
0.0
  0
LINE
  5
85D
  8
0
 39
5.0
 10
69.925181201050449
 20
105.3775761813524
 30
0.0
 11
69.620881201050452
 21
105.46647618135241
 31
0.0
  0
LINE
  5
85E
  8
0
 39
5.0
 10
69.620881201050452
 20
105.46647618135241
 30
0.0
 11
69.32288120105045
 21
105.5417761813524
 31
0.0
  0
LINE
  5
85F
  8
0
 39
5.0
 10
69.32288120105045
 20
105.5417761813524
 30
0.0
 11
69.030581201050452
 21
105.6032761813524
 31
0.0
  0
LINE
  5
860
  8
0
 39
5.0
 10
69.030581201050452
 20
105.6032761813524
 30
0.0
 11
68.744081201050435
 21
105.6512761813524
 31
0.0
  0
LINE
  5
861
  8
0
 39
5.0
 10
68.744081201050435
 20
105.6512761813524
 30
0.0
 11
68.462581201050455
 21
105.6854761813524
 31
0.0
  0
LINE
  5
862
  8
0
 39
5.0
 10
68.462581201050455
 20
105.6854761813524
 30
0.0
 11
68.185981201050453
 21
105.7060761813524
 31
0.0
  0
LINE
  5
863
  8
0
 39
5.0
 10
68.185981201050453
 20
105.7060761813524
 30
0.0
 11
68.197681201050443
 21
105.7127761813524
 31
0.0
  0
LINE
  5
864
  8
0
 39
5.0
 10
68.197681201050443
 20
105.7127761813524
 30
0.0
 11
67.929881201050449
 21
105.7060761813524
 31
0.0
  0
LINE
  5
865
  8
0
 39
5.0
 10
67.929881201050449
 20
105.7060761813524
 30
0.0
 11
67.665681201050447
 21
105.6854761813524
 31
0.0
  0
LINE
  5
866
  8
0
 39
5.0
 10
67.665681201050447
 20
105.6854761813524
 30
0.0
 11
67.404981201050447
 21
105.6512761813524
 31
0.0
  0
LINE
  5
867
  8
0
 39
5.0
 10
67.404981201050447
 20
105.6512761813524
 30
0.0
 11
67.147181201050458
 21
105.6032761813524
 31
0.0
  0
LINE
  5
868
  8
0
 39
5.0
 10
67.147181201050458
 20
105.6032761813524
 30
0.0
 11
66.892281201050452
 21
105.5417761813524
 31
0.0
  0
LINE
  5
869
  8
0
 39
5.0
 10
66.892281201050452
 20
105.5417761813524
 30
0.0
 11
66.639581201050447
 21
105.46647618135241
 31
0.0
  0
LINE
  5
86A
  8
0
 39
5.0
 10
66.639581201050447
 20
105.46647618135241
 30
0.0
 11
66.388981201050456
 21
105.3775761813524
 31
0.0
  0
LINE
  5
86B
  8
0
 39
5.0
 10
66.388981201050456
 20
105.3775761813524
 30
0.0
 11
66.139881201050457
 21
105.27477618135239
 31
0.0
  0
LINE
  5
86D
  8
0
 39
5.0
 10
66.151381201050455
 20
103.5227761813524
 30
0.0
 11
66.151381201050455
 21
103.5227761813524
 31
0.0
  0
LINE
  5
86E
  8
0
 39
5.0
 10
66.139881201050457
 20
103.5276450371971
 30
0.0
 11
66.393481201050449
 21
103.42027618135241
 31
0.0
  0
LINE
  5
86F
  8
0
 39
5.0
 10
66.393481201050449
 20
103.42027618135241
 30
0.0
 11
66.63968120105045
 21
103.3313761813524
 31
0.0
  0
LINE
  5
870
  8
0
 39
5.0
 10
66.63968120105045
 20
103.3313761813524
 30
0.0
 11
66.89008120105045
 21
103.2560761813524
 31
0.0
  0
LINE
  5
871
  8
0
 39
5.0
 10
66.89008120105045
 20
103.2560761813524
 30
0.0
 11
67.144481201050453
 21
103.1944761813524
 31
0.0
  0
LINE
  5
872
  8
0
 39
5.0
 10
67.144481201050453
 20
103.1944761813524
 30
0.0
 11
67.403081201050455
 21
103.1466761813524
 31
0.0
  0
LINE
  5
873
  8
0
 39
5.0
 10
67.403081201050455
 20
103.1466761813524
 30
0.0
 11
67.66578120105045
 21
103.11247618135241
 31
0.0
  0
LINE
  5
874
  8
0
 39
5.0
 10
67.66578120105045
 20
103.11247618135241
 30
0.0
 11
67.932581201050454
 21
103.0918761813524
 31
0.0
  0
LINE
  5
875
  8
0
 39
5.0
 10
67.932581201050454
 20
103.0918761813524
 30
0.0
 11
68.203481201050451
 21
103.0849761813524
 31
0.0
  0
LINE
  5
876
  8
0
 39
5.0
 10
68.203481201050451
 20
103.0849761813524
 30
0.0
 11
68.194781201050446
 21
103.0918761813524
 31
0.0
  0
LINE
  5
877
  8
0
 39
5.0
 10
68.194781201050446
 20
103.0918761813524
 30
0.0
 11
68.474081201050453
 21
103.11247618135241
 31
0.0
  0
LINE
  5
878
  8
0
 39
5.0
 10
68.474081201050453
 20
103.11247618135241
 30
0.0
 11
68.757481201050453
 21
103.1466761813524
 31
0.0
  0
LINE
  5
879
  8
0
 39
5.0
 10
68.757481201050453
 20
103.1466761813524
 30
0.0
 11
69.044881201050444
 21
103.1944761813524
 31
0.0
  0
LINE
  5
87A
  8
0
 39
5.0
 10
69.044881201050444
 20
103.1944761813524
 30
0.0
 11
69.336481201050447
 21
103.2560761813524
 31
0.0
  0
LINE
  5
87B
  8
0
 39
5.0
 10
69.336481201050447
 20
103.2560761813524
 30
0.0
 11
69.632181201050443
 21
103.3313761813524
 31
0.0
  0
LINE
  5
87C
  8
0
 39
5.0
 10
69.632181201050443
 20
103.3313761813524
 30
0.0
 11
69.932081201050451
 21
103.42027618135241
 31
0.0
  0
LINE
  5
87D
  8
0
 39
5.0
 10
69.932081201050451
 20
103.42027618135241
 30
0.0
 11
70.23598120105045
 21
103.5227761813524
 31
0.0
  0
LINE
  5
87E
  8
0
 39
5.0
 10
70.23598120105045
 20
103.5227761813524
 30
0.0
 11
70.235981201050436
 21
105.27477618135239
 31
0.0
  0
LINE
  5
8C7
  8
0
 39
5.0
 10
70.23598120105045
 20
97.522776181352469
 30
0.0
 11
70.235981201050436
 21
99.274776181352465
 31
0.0
  0
LINE
  5
8C8
  8
0
 39
5.0
 10
66.151381201050455
 20
97.522776181352469
 30
0.0
 11
66.151381201050455
 21
97.522776181352469
 31
0.0
  0
LINE
  5
8C9
  8
0
 39
5.0
 10
66.393481201050449
 20
97.420276181352463
 30
0.0
 11
66.63968120105045
 21
97.331376181352468
 31
0.0
  0
LINE
  5
8CA
  8
0
 39
5.0
 10
66.63968120105045
 20
97.331376181352468
 30
0.0
 11
66.89008120105045
 21
97.256076181352455
 31
0.0
  0
LINE
  5
8CB
  8
0
 39
5.0
 10
66.89008120105045
 20
97.256076181352455
 30
0.0
 11
67.144481201050453
 21
97.194476181352456
 31
0.0
  0
LINE
  5
8CC
  8
0
 39
5.0
 10
67.144481201050453
 20
97.194476181352456
 30
0.0
 11
67.403081201050455
 21
97.146676181352461
 31
0.0
  0
LINE
  5
8CD
  8
0
 39
5.0
 10
67.403081201050455
 20
97.146676181352461
 30
0.0
 11
67.66578120105045
 21
97.112476181352463
 31
0.0
  0
LINE
  5
8CE
  8
0
 39
5.0
 10
67.66578120105045
 20
97.112476181352463
 30
0.0
 11
67.932581201050454
 21
97.091876181352461
 31
0.0
  0
LINE
  5
8CF
  8
0
 39
5.0
 10
67.932581201050454
 20
97.091876181352461
 30
0.0
 11
68.203481201050451
 21
97.084976181352474
 31
0.0
  0
LINE
  5
8D0
  8
0
 39
5.0
 10
68.185981201050453
 20
99.706076181352472
 30
0.0
 11
68.197681201050443
 21
99.712776181352453
 31
0.0
  0
LINE
  5
8D1
  8
0
 39
5.0
 10
68.197681201050443
 20
99.712776181352453
 30
0.0
 11
67.929881201050449
 21
99.706076181352472
 31
0.0
  0
LINE
  5
8D2
  8
0
 39
5.0
 10
67.929881201050449
 20
99.706076181352472
 30
0.0
 11
67.665681201050447
 21
99.68547618135247
 31
0.0
  0
LINE
  5
8D3
  8
0
 39
5.0
 10
67.665681201050447
 20
99.68547618135247
 30
0.0
 11
67.404981201050447
 21
99.651276181352486
 31
0.0
  0
LINE
  5
8D4
  8
0
 39
5.0
 10
67.404981201050447
 20
99.651276181352486
 30
0.0
 11
67.147181201050458
 21
99.60327618135247
 31
0.0
  0
LINE
  5
8D5
  8
0
 39
5.0
 10
67.147181201050458
 20
99.60327618135247
 30
0.0
 11
66.892281201050452
 21
99.541776181352475
 31
0.0
  0
LINE
  5
8D6
  8
0
 39
5.0
 10
66.892281201050452
 20
99.541776181352475
 30
0.0
 11
66.639581201050447
 21
99.466476181352462
 31
0.0
  0
LINE
  5
8D7
  8
0
 39
5.0
 10
66.639581201050447
 20
99.466476181352462
 30
0.0
 11
66.388981201050456
 21
99.377576181352467
 31
0.0
  0
LINE
  5
8D8
  8
0
 39
5.0
 10
66.388981201050456
 20
99.377576181352467
 30
0.0
 11
66.139881201050457
 21
99.274776181352465
 31
0.0
  0
LINE
  5
8D9
  8
0
 39
5.0
 10
68.203481201050451
 20
97.084976181352474
 30
0.0
 11
68.194781201050446
 21
97.091876181352461
 31
0.0
  0
LINE
  5
8DA
  8
0
 39
5.0
 10
66.139881201050457
 20
97.527645037197175
 30
0.0
 11
66.393481201050449
 21
97.420276181352463
 31
0.0
  0
LINE
  5
8DB
  8
0
 39
5.0
 10
69.932081201050451
 20
97.420276181352463
 30
0.0
 11
70.23598120105045
 21
97.522776181352469
 31
0.0
  0
LINE
  5
8DC
  8
0
 39
5.0
 10
69.632181201050443
 20
97.331376181352468
 30
0.0
 11
69.932081201050451
 21
97.420276181352463
 31
0.0
  0
LINE
  5
8DD
  8
0
 39
5.0
 10
69.336481201050447
 20
97.256076181352455
 30
0.0
 11
69.632181201050443
 21
97.331376181352468
 31
0.0
  0
LINE
  5
8DE
  8
0
 39
5.0
 10
69.044881201050444
 20
97.194476181352456
 30
0.0
 11
69.336481201050447
 21
97.256076181352455
 31
0.0
  0
LINE
  5
8DF
  8
0
 39
5.0
 10
68.757481201050453
 20
97.146676181352461
 30
0.0
 11
69.044881201050444
 21
97.194476181352456
 31
0.0
  0
LINE
  5
8E0
  8
0
 39
5.0
 10
68.474081201050453
 20
97.112476181352463
 30
0.0
 11
68.757481201050453
 21
97.146676181352461
 31
0.0
  0
LINE
  5
8E1
  8
0
 39
5.0
 10
68.194781201050446
 20
97.091876181352461
 30
0.0
 11
68.474081201050453
 21
97.112476181352463
 31
0.0
  0
LINE
  5
8E2
  8
0
 39
5.0
 10
68.462581201050455
 20
99.68547618135247
 30
0.0
 11
68.185981201050453
 21
99.706076181352472
 31
0.0
  0
LINE
  5
8E3
  8
0
 39
5.0
 10
68.744081201050435
 20
99.651276181352486
 30
0.0
 11
68.462581201050455
 21
99.68547618135247
 31
0.0
  0
LINE
  5
8E4
  8
0
 39
5.0
 10
69.030581201050452
 20
99.60327618135247
 30
0.0
 11
68.744081201050435
 21
99.651276181352486
 31
0.0
  0
LINE
  5
8E5
  8
0
 39
5.0
 10
69.32288120105045
 20
99.541776181352475
 30
0.0
 11
69.030581201050452
 21
99.60327618135247
 31
0.0
  0
LINE
  5
8E6
  8
0
 39
5.0
 10
69.620881201050452
 20
99.466476181352462
 30
0.0
 11
69.32288120105045
 21
99.541776181352475
 31
0.0
  0
LINE
  5
8E7
  8
0
 39
5.0
 10
69.925181201050449
 20
99.377576181352467
 30
0.0
 11
69.620881201050452
 21
99.466476181352462
 31
0.0
  0
LINE
  5
8E8
  8
0
 39
5.0
 10
70.23598120105045
 20
99.274776181352465
 30
0.0
 11
69.925181201050449
 21
99.377576181352467
 31
0.0
  0
LINE
  5
8E9
  8
0
 39
5.0
 10
70.23598120105045
 20
99.274776181352465
 30
0.0
 11
70.23598120105045
 21
99.274776181352465
 31
0.0
  0
LINE
  5
8EA
  8
0
 39
5.0
 10
73.776776906800862
 20
99.710607062607153
 30
0.0
 11
73.631381201050459
 21
99.712776181352453
 31
0.0
  0
LINE
  5
8EB
  8
0
 39
5.0
 10
73.631381201050459
 20
99.712776181352453
 30
0.0
 11
73.189381201050452
 21
99.706076181352472
 31
0.0
  0
LINE
  5
8EC
  8
0
 39
5.0
 10
73.189381201050452
 20
99.706076181352472
 30
0.0
 11
72.753481201050448
 21
99.68547618135247
 31
0.0
  0
LINE
  5
8ED
  8
0
 39
5.0
 10
72.753481201050448
 20
99.68547618135247
 30
0.0
 11
72.323281201050435
 21
99.651276181352486
 31
0.0
  0
LINE
  5
8EE
  8
0
 39
5.0
 10
72.323281201050435
 20
99.651276181352486
 30
0.0
 11
71.897981201050442
 21
99.60327618135247
 31
0.0
  0
LINE
  5
8EF
  8
0
 39
5.0
 10
71.897981201050442
 20
99.60327618135247
 30
0.0
 11
71.477381201050449
 21
99.541776181352475
 31
0.0
  0
LINE
  5
8F0
  8
0
 39
5.0
 10
71.477381201050449
 20
99.541776181352475
 30
0.0
 11
71.06048120105045
 21
99.466476181352462
 31
0.0
  0
LINE
  5
8F1
  8
0
 39
5.0
 10
71.06048120105045
 20
99.466476181352462
 30
0.0
 11
70.646881201050448
 21
99.377576181352467
 31
0.0
  0
LINE
  5
8F2
  8
0
 39
5.0
 10
70.646881201050448
 20
99.377576181352467
 30
0.0
 11
70.23598120105045
 21
99.274776181352465
 31
0.0
  0
LINE
  5
8F3
  8
0
 39
5.0
 10
70.654481201050444
 20
97.420276181352463
 30
0.0
 11
71.060681201050443
 21
97.331376181352468
 31
0.0
  0
LINE
  5
8F4
  8
0
 39
5.0
 10
71.060681201050443
 20
97.331376181352468
 30
0.0
 11
71.473781201050443
 21
97.256076181352455
 31
0.0
  0
LINE
  5
8F5
  8
0
 39
5.0
 10
71.473781201050443
 20
97.256076181352455
 30
0.0
 11
71.893481201050434
 21
97.194476181352456
 31
0.0
  0
LINE
  5
8F6
  8
0
 39
5.0
 10
71.893481201050434
 20
97.194476181352456
 30
0.0
 11
72.320281201050449
 21
97.146676181352461
 31
0.0
  0
LINE
  5
8F7
  8
0
 39
5.0
 10
72.320281201050449
 20
97.146676181352461
 30
0.0
 11
72.753681201050455
 21
97.112476181352463
 31
0.0
  0
LINE
  5
8F8
  8
0
 39
5.0
 10
72.753681201050455
 20
97.112476181352463
 30
0.0
 11
73.193981201050448
 21
97.091876181352461
 31
0.0
  0
LINE
  5
8F9
  8
0
 39
5.0
 10
73.193981201050448
 20
97.091876181352461
 30
0.0
 11
73.640981201050451
 21
97.084976181352474
 31
0.0
  0
LINE
  5
8FA
  8
0
 39
5.0
 10
70.23598120105045
 20
97.527651024906916
 30
0.0
 11
70.654481201050444
 21
97.420276181352463
 31
0.0
  0
LINE
  5
8FB
  8
0
 10
68.11098120105045
 20
99.710607062607153
 30
0.0
 11
74.139881201050457
 21
99.710607062607153
 31
0.0
  0
LINE
  5
8FC
  8
0
 10
68.203481201050451
 20
97.084976181352474
 30
0.0
 11
74.139881201050457
 21
97.084976181352474
 31
0.0
  0
LINE
  5
8FD
  8
1
 10
66.139881201050457
 20
99.274776181352465
 30
0.0
 11
66.139881201050457
 21
98.398776181352474
 31
0.0
  0
LINE
  5
8FE
  8
0
 10
66.139881201050457
 20
97.527645037197175
 30
0.0
 11
66.139881201050457
 21
99.274776181352465
 31
0.0
  0
LINE
  5
8FF
  8
2
 39
5.0
 10
69.389281201050451
 20
97.084976181352445
 30
0.0
 11
69.389281201050451
 21
93.125676181352446
 31
0.0
  0
LINE
  5
900
  8
0
 10
69.139881201050457
 20
97.084976181352445
 30
0.0
 11
69.139881201050457
 21
93.125676181352446
 31
0.0
  0
LINE
  5
90A
  8
0
 39
5.0
 10
70.665081201050469
 20
65.513676181352466
 30
0.0
 11
70.602281201050459
 21
65.501576181352462
 31
0.0
  0
LINE
  5
90B
  8
0
 39
5.0
 10
70.602281201050459
 20
65.501576181352462
 30
0.0
 11
70.541881201050444
 21
65.484876181352462
 31
0.0
  0
LINE
  5
90C
  8
0
 39
5.0
 10
70.541881201050444
 20
65.484876181352462
 30
0.0
 11
70.48458120105046
 21
65.464176181352457
 31
0.0
  0
LINE
  5
90D
  8
0
 39
5.0
 10
70.48458120105046
 20
65.464176181352457
 30
0.0
 11
70.430281201050462
 21
65.439376181352443
 31
0.0
  0
LINE
  5
90E
  8
0
 39
5.0
 10
70.430281201050462
 20
65.439376181352443
 30
0.0
 11
70.37968120105046
 21
65.410976181352467
 31
0.0
  0
LINE
  5
90F
  8
0
 39
5.0
 10
70.37968120105046
 20
65.410976181352467
 30
0.0
 11
70.332881201050469
 21
65.378976181352471
 31
0.0
  0
LINE
  5
910
  8
0
 39
5.0
 10
70.332881201050469
 20
65.378976181352471
 30
0.0
 11
70.290581201050443
 21
65.344076181352463
 31
0.0
  0
LINE
  5
911
  8
0
 39
5.0
 10
70.290581201050443
 20
65.344076181352463
 30
0.0
 11
70.252581201050461
 21
65.306076181352466
 31
0.0
  0
LINE
  5
912
  8
0
 39
5.0
 10
70.252581201050461
 20
65.306076181352466
 30
0.0
 11
70.219681201050463
 21
65.265576181352458
 31
0.0
  0
LINE
  5
913
  8
0
 39
5.0
 10
70.219681201050463
 20
65.265576181352458
 30
0.0
 11
70.19178120105046
 21
65.222376181352459
 31
0.0
  0
LINE
  5
914
  8
0
 39
5.0
 10
70.19178120105046
 20
65.222376181352459
 30
0.0
 11
70.169681201050466
 21
65.177176181352465
 31
0.0
  0
LINE
  5
915
  8
0
 39
5.0
 10
70.169681201050466
 20
65.177176181352465
 30
0.0
 11
70.153381201050465
 21
65.129976181352461
 31
0.0
  0
LINE
  5
916
  8
0
 39
5.0
 10
70.153381201050465
 20
65.129976181352461
 30
0.0
 11
70.14338120105046
 21
65.081176181352461
 31
0.0
  0
LINE
  5
917
  8
0
 39
5.0
 10
70.14338120105046
 20
65.081176181352461
 30
0.0
 11
70.139881201050457
 21
65.030876181352454
 31
0.0
  0
LINE
  5
918
  8
0
 39
5.0
 10
70.139881201050457
 20
65.030876181352454
 30
0.0
 11
70.139881201050457
 21
59.11837618135246
 31
0.0
  0
LINE
  5
919
  8
0
 39
5.0
 10
70.139881201050457
 20
59.11837618135246
 30
0.0
 11
70.139881201050457
 21
59.11837618135246
 31
0.0
  0
LINE
  5
91A
  8
0
 39
5.0
 10
70.139881201050457
 20
59.11837618135246
 30
0.0
 11
70.14338120105046
 21
59.068376181352463
 31
0.0
  0
LINE
  5
91B
  8
0
 39
5.0
 10
70.14338120105046
 20
59.068376181352463
 30
0.0
 11
70.153381201050465
 21
59.019576181352463
 31
0.0
  0
LINE
  5
91C
  8
0
 39
5.0
 10
70.153381201050465
 20
59.019576181352463
 30
0.0
 11
70.169681201050466
 21
58.972476181352462
 31
0.0
  0
LINE
  5
91D
  8
0
 39
5.0
 10
70.169681201050466
 20
58.972476181352462
 30
0.0
 11
70.19178120105046
 21
58.927176181352472
 31
0.0
  0
LINE
  5
91E
  8
0
 39
5.0
 10
70.19178120105046
 20
58.927176181352472
 30
0.0
 11
70.219681201050463
 21
58.884276181352462
 31
0.0
  0
LINE
  5
91F
  8
0
 39
5.0
 10
70.219681201050463
 20
58.884276181352462
 30
0.0
 11
70.252581201050461
 21
58.843576181352461
 31
0.0
  0
LINE
  5
920
  8
0
 39
5.0
 10
70.252581201050461
 20
58.843576181352461
 30
0.0
 11
70.290581201050443
 21
58.805676181352467
 31
0.0
  0
LINE
  5
921
  8
0
 39
5.0
 10
70.290581201050443
 20
58.805676181352467
 30
0.0
 11
70.332881201050469
 21
58.770476181352471
 31
0.0
  0
LINE
  5
922
  8
0
 39
5.0
 10
70.332881201050469
 20
58.770476181352471
 30
0.0
 11
70.37968120105046
 21
58.738776181352463
 31
0.0
  0
LINE
  5
923
  8
0
 39
5.0
 10
70.37968120105046
 20
58.738776181352463
 30
0.0
 11
70.430281201050462
 21
58.710276181352469
 31
0.0
  0
LINE
  5
924
  8
0
 39
5.0
 10
70.430281201050462
 20
58.710276181352469
 30
0.0
 11
70.48458120105046
 21
58.685576181352459
 31
0.0
  0
LINE
  5
925
  8
0
 39
5.0
 10
70.48458120105046
 20
58.685576181352459
 30
0.0
 11
70.541881201050444
 21
58.664676181352462
 31
0.0
  0
LINE
  5
926
  8
0
 39
5.0
 10
70.541881201050444
 20
58.664676181352462
 30
0.0
 11
70.602281201050459
 21
58.648176181352468
 31
0.0
  0
LINE
  5
927
  8
0
 39
5.0
 10
70.602281201050459
 20
58.648176181352468
 30
0.0
 11
70.665081201050469
 21
58.635876181352451
 31
0.0
  0
LINE
  5
928
  8
0
 39
5.0
 10
70.665081201050469
 20
58.635876181352451
 30
0.0
 11
70.730081201050467
 21
58.628376181352458
 31
0.0
  0
LINE
  5
929
  8
0
 39
5.0
 10
70.730081201050467
 20
58.628376181352458
 30
0.0
 11
70.796881201050454
 21
58.625676181352461
 31
0.0
  0
LINE
  5
92A
  8
0
 39
5.0
 10
70.796881201050454
 20
58.625676181352461
 30
0.0
 11
71.440481201050446
 21
58.625676181352461
 31
0.0
  0
LINE
  5
92B
  8
0
 39
5.0
 10
71.440481201050446
 20
58.625676181352461
 30
0.0
 11
71.440481201050446
 21
58.625676181352461
 31
0.0
  0
LINE
  5
92C
  8
0
 39
5.0
 10
71.440481201050446
 20
58.625676181352461
 30
0.0
 11
71.507581201050442
 21
58.628376181352458
 31
0.0
  0
LINE
  5
92D
  8
0
 39
5.0
 10
71.507581201050442
 20
58.628376181352458
 30
0.0
 11
71.572581201050454
 21
58.635876181352451
 31
0.0
  0
LINE
  5
92E
  8
0
 39
5.0
 10
71.572581201050454
 20
58.635876181352451
 30
0.0
 11
71.635581201050442
 21
58.648176181352468
 31
0.0
  0
LINE
  5
92F
  8
0
 39
5.0
 10
71.635581201050442
 20
58.648176181352468
 30
0.0
 11
71.695781201050451
 21
58.664676181352462
 31
0.0
  0
LINE
  5
930
  8
0
 39
5.0
 10
71.695781201050451
 20
58.664676181352462
 30
0.0
 11
71.753281201050441
 21
58.685576181352459
 31
0.0
  0
LINE
  5
931
  8
0
 39
5.0
 10
71.753281201050441
 20
58.685576181352459
 30
0.0
 11
71.807381201050447
 21
58.710276181352469
 31
0.0
  0
LINE
  5
932
  8
0
 39
5.0
 10
71.807381201050447
 20
58.710276181352469
 30
0.0
 11
71.85798120105045
 21
58.738776181352463
 31
0.0
  0
LINE
  5
933
  8
0
 39
5.0
 10
71.85798120105045
 20
58.738776181352463
 30
0.0
 11
71.904581201050448
 21
58.770476181352471
 31
0.0
  0
LINE
  5
934
  8
0
 39
5.0
 10
71.904581201050448
 20
58.770476181352471
 30
0.0
 11
71.947181201050455
 21
58.805676181352467
 31
0.0
  0
LINE
  5
935
  8
0
 39
5.0
 10
71.947181201050455
 20
58.805676181352467
 30
0.0
 11
71.985081201050448
 21
58.843576181352461
 31
0.0
  0
LINE
  5
936
  8
0
 39
5.0
 10
71.985081201050448
 20
58.843576181352461
 30
0.0
 11
72.01808120105045
 21
58.884276181352462
 31
0.0
  0
LINE
  5
937
  8
0
 39
5.0
 10
72.01808120105045
 20
58.884276181352462
 30
0.0
 11
72.045781201050445
 21
58.927176181352472
 31
0.0
  0
LINE
  5
938
  8
0
 39
5.0
 10
72.045781201050445
 20
58.927176181352472
 30
0.0
 11
72.067981201050443
 21
58.972476181352462
 31
0.0
  0
LINE
  5
939
  8
0
 39
5.0
 10
72.067981201050443
 20
58.972476181352462
 30
0.0
 11
72.084181201050455
 21
59.019576181352463
 31
0.0
  0
LINE
  5
93A
  8
0
 39
5.0
 10
72.084181201050455
 20
59.019576181352463
 30
0.0
 11
72.094181201050446
 21
59.068376181352463
 31
0.0
  0
LINE
  5
93B
  8
0
 39
5.0
 10
72.094181201050446
 20
59.068376181352463
 30
0.0
 11
72.097481201050442
 21
59.11837618135246
 31
0.0
  0
LINE
  5
93C
  8
0
 39
5.0
 10
72.097481201050442
 20
59.11837618135246
 30
0.0
 11
72.097481201050442
 21
65.030876181352454
 31
0.0
  0
LINE
  5
93D
  8
0
 39
5.0
 10
72.097481201050442
 20
65.030876181352454
 30
0.0
 11
72.097481201050442
 21
65.030876181352454
 31
0.0
  0
LINE
  5
93E
  8
0
 39
5.0
 10
72.097481201050442
 20
65.030876181352454
 30
0.0
 11
72.094181201050446
 21
65.081176181352461
 31
0.0
  0
LINE
  5
93F
  8
0
 39
5.0
 10
72.094181201050446
 20
65.081176181352461
 30
0.0
 11
72.084181201050455
 21
65.129976181352461
 31
0.0
  0
LINE
  5
940
  8
0
 39
5.0
 10
72.084181201050455
 20
65.129976181352461
 30
0.0
 11
72.067981201050443
 21
65.177176181352465
 31
0.0
  0
LINE
  5
941
  8
0
 39
5.0
 10
72.067981201050443
 20
65.177176181352465
 30
0.0
 11
72.045781201050445
 21
65.222376181352459
 31
0.0
  0
LINE
  5
942
  8
0
 39
5.0
 10
72.045781201050445
 20
65.222376181352459
 30
0.0
 11
72.01808120105045
 21
65.265576181352458
 31
0.0
  0
LINE
  5
943
  8
0
 39
5.0
 10
72.01808120105045
 20
65.265576181352458
 30
0.0
 11
71.985081201050448
 21
65.306076181352466
 31
0.0
  0
LINE
  5
944
  8
0
 39
5.0
 10
71.985081201050448
 20
65.306076181352466
 30
0.0
 11
71.947181201050455
 21
65.344076181352463
 31
0.0
  0
LINE
  5
945
  8
0
 39
5.0
 10
71.947181201050455
 20
65.344076181352463
 30
0.0
 11
71.904581201050448
 21
65.378976181352471
 31
0.0
  0
LINE
  5
946
  8
0
 39
5.0
 10
71.904581201050448
 20
65.378976181352471
 30
0.0
 11
71.85798120105045
 21
65.410976181352467
 31
0.0
  0
LINE
  5
947
  8
0
 39
5.0
 10
71.85798120105045
 20
65.410976181352467
 30
0.0
 11
71.807381201050447
 21
65.439376181352443
 31
0.0
  0
LINE
  5
948
  8
0
 39
5.0
 10
71.807381201050447
 20
65.439376181352443
 30
0.0
 11
71.753281201050441
 21
65.464176181352457
 31
0.0
  0
LINE
  5
949
  8
0
 39
5.0
 10
71.753281201050441
 20
65.464176181352457
 30
0.0
 11
71.695781201050451
 21
65.484876181352462
 31
0.0
  0
LINE
  5
94A
  8
0
 39
5.0
 10
71.695781201050451
 20
65.484876181352462
 30
0.0
 11
71.635581201050442
 21
65.501576181352462
 31
0.0
  0
LINE
  5
94B
  8
0
 39
5.0
 10
71.635581201050442
 20
65.501576181352462
 30
0.0
 11
71.572581201050454
 21
65.513676181352466
 31
0.0
  0
LINE
  5
953
  8
3
 10
71.639881201050457
 20
64.770876181352463
 30
0.0
 11
71.639881201050457
 21
58.625676181352461
 31
0.0
  0
LINE
  5
955
  8
0
 39
5.0
 10
72.097481201050442
 20
59.085219778505731
 30
0.0
 11
72.097481201050442
 21
59.085219778505731
 31
0.0
  0
LINE
  5
956
  8
0
 39
5.0
 10
72.097481201050442
 20
59.085219778505731
 30
0.0
 11
72.254181201050443
 21
58.983419778505741
 31
0.0
  0
LINE
  5
957
  8
0
 39
5.0
 10
72.254181201050443
 20
58.983419778505741
 30
0.0
 11
72.446981201050448
 21
58.893319778505742
 31
0.0
  0
LINE
  5
958
  8
0
 39
5.0
 10
72.446981201050448
 20
58.893319778505742
 30
0.0
 11
72.671381201050451
 21
58.815619778505727
 31
0.0
  0
LINE
  5
959
  8
0
 39
5.0
 10
72.671381201050451
 20
58.815619778505727
 30
0.0
 11
72.922181201050449
 21
58.75041977850573
 31
0.0
  0
LINE
  5
95A
  8
0
 39
5.0
 10
72.922181201050449
 20
58.75041977850573
 30
0.0
 11
73.195081201050442
 21
58.69841977850573
 31
0.0
  0
LINE
  5
95B
  8
0
 39
5.0
 10
73.195081201050442
 20
58.69841977850573
 30
0.0
 11
73.484781201050453
 21
58.659519778505739
 31
0.0
  0
LINE
  5
95C
  8
0
 39
5.0
 10
73.484781201050453
 20
58.659519778505739
 30
0.0
 11
73.786681201050442
 21
58.63441977850573
 31
0.0
  0
LINE
  5
95D
  8
0
 39
5.0
 10
73.786681201050442
 20
58.63441977850573
 30
0.0
 11
74.03024158301362
 21
58.625676181352461
 31
0.0
  0
LINE
  5
95E
  8
3
 10
71.83988120105046
 20
64.770876181352463
 30
0.0
 11
71.83988120105046
 21
58.625676181352461
 31
0.0
  0
LINE
  5
96C
  8
1
 10
71.002881201050442
 20
93.125676181352446
 30
0.0
 11
71.002881201050442
 21
65.513676181352466
 31
0.0
  0
LINE
  5
96D
  8
1
 10
70.80288120105044
 20
93.125676181352446
 30
0.0
 11
70.80288120105044
 21
65.513676181352466
 31
0.0
  0
LINE
  5
971
  8
0
 39
5.0
 10
74.721381201050463
 20
65.47471977850573
 30
0.0
 11
75.048081201050465
 21
65.431519778505731
 31
0.0
  0
LINE
  5
972
  8
0
 39
5.0
 10
75.048081201050465
 20
65.431519778505731
 30
0.0
 11
75.352481201050466
 21
65.370819778505734
 31
0.0
  0
LINE
  5
973
  8
0
 39
5.0
 10
75.352481201050466
 20
65.370819778505734
 30
0.0
 11
75.626181201050471
 21
65.293019778505737
 31
0.0
  0
LINE
  5
974
  8
0
 39
5.0
 10
75.626181201050471
 20
65.293019778505737
 30
0.0
 11
75.861181201050471
 21
65.197619778505739
 31
0.0
  0
LINE
  5
975
  8
0
 39
5.0
 10
75.861181201050471
 20
65.197619778505739
 30
0.0
 11
76.049181201050459
 21
65.085119778505742
 31
0.0
  0
LINE
  5
976
  8
0
 39
5.0
 10
76.049181201050459
 20
65.085119778505742
 30
0.0
 11
76.182281201050472
 21
64.955019778505715
 31
0.0
  0
LINE
  5
977
  8
0
 39
5.0
 10
76.182281201050472
 20
64.955019778505715
 30
0.0
 11
76.182281201050472
 21
59.085219778505731
 31
0.0
  0
LINE
  5
978
  8
0
 39
5.0
 10
74.212261315570714
 20
65.513676181352466
 30
0.0
 11
74.721381201050463
 21
65.47471977850573
 31
0.0
  0
LINE
  5
979
  8
0
 39
5.0
 10
76.839281201050468
 20
58.625676181352461
 30
0.0
 11
76.839281201050468
 21
58.625676181352461
 31
0.0
  0
LINE
  5
97A
  8
0
 39
5.0
 10
76.839281201050468
 20
58.625676181352461
 30
0.0
 11
76.772181201050472
 21
58.628376181352458
 31
0.0
  0
LINE
  5
97B
  8
0
 39
5.0
 10
76.772181201050472
 20
58.628376181352458
 30
0.0
 11
76.70718120105046
 21
58.635876181352451
 31
0.0
  0
LINE
  5
97C
  8
0
 39
5.0
 10
76.70718120105046
 20
58.635876181352451
 30
0.0
 11
76.644181201050472
 21
58.648176181352468
 31
0.0
  0
LINE
  5
97D
  8
0
 39
5.0
 10
76.644181201050472
 20
58.648176181352468
 30
0.0
 11
76.583981201050463
 21
58.664676181352462
 31
0.0
  0
LINE
  5
97E
  8
0
 39
5.0
 10
76.583981201050463
 20
58.664676181352462
 30
0.0
 11
76.526481201050473
 21
58.685576181352459
 31
0.0
  0
LINE
  5
97F
  8
0
 39
5.0
 10
76.526481201050473
 20
58.685576181352459
 30
0.0
 11
76.472381201050467
 21
58.710276181352469
 31
0.0
  0
LINE
  5
980
  8
0
 39
5.0
 10
76.472381201050467
 20
58.710276181352469
 30
0.0
 11
76.421781201050464
 21
58.738776181352463
 31
0.0
  0
LINE
  5
981
  8
0
 39
5.0
 10
76.421781201050464
 20
58.738776181352463
 30
0.0
 11
76.375181201050466
 21
58.770476181352471
 31
0.0
  0
LINE
  5
982
  8
0
 39
5.0
 10
76.375181201050466
 20
58.770476181352471
 30
0.0
 11
76.332581201050459
 21
58.805676181352467
 31
0.0
  0
LINE
  5
983
  8
0
 39
5.0
 10
76.332581201050459
 20
58.805676181352467
 30
0.0
 11
76.294681201050466
 21
58.843576181352461
 31
0.0
  0
LINE
  5
984
  8
0
 39
5.0
 10
76.294681201050466
 20
58.843576181352461
 30
0.0
 11
76.261681201050465
 21
58.884276181352462
 31
0.0
  0
LINE
  5
985
  8
0
 39
5.0
 10
76.261681201050465
 20
58.884276181352462
 30
0.0
 11
76.233981201050469
 21
58.927176181352472
 31
0.0
  0
LINE
  5
986
  8
0
 39
5.0
 10
76.233981201050469
 20
58.927176181352472
 30
0.0
 11
76.211781201050471
 21
58.972476181352462
 31
0.0
  0
LINE
  5
987
  8
0
 39
5.0
 10
76.211781201050471
 20
58.972476181352462
 30
0.0
 11
76.195581201050459
 21
59.019576181352463
 31
0.0
  0
LINE
  5
988
  8
0
 39
5.0
 10
76.195581201050459
 20
59.019576181352463
 30
0.0
 11
76.185581201050454
 21
59.068376181352463
 31
0.0
  0
LINE
  5
989
  8
0
 39
5.0
 10
76.185581201050454
 20
59.068376181352463
 30
0.0
 11
76.182281201050472
 21
59.11837618135246
 31
0.0
  0
LINE
  5
98A
  8
0
 39
5.0
 10
76.182281201050472
 20
59.11837618135246
 30
0.0
 11
76.182281201050472
 21
65.030876181352454
 31
0.0
  0
LINE
  5
98B
  8
0
 39
5.0
 10
76.182281201050472
 20
65.030876181352454
 30
0.0
 11
76.182281201050472
 21
65.030876181352454
 31
0.0
  0
LINE
  5
98C
  8
0
 39
5.0
 10
76.182281201050472
 20
65.030876181352454
 30
0.0
 11
76.185581201050454
 21
65.081176181352461
 31
0.0
  0
LINE
  5
98D
  8
0
 39
5.0
 10
76.185581201050454
 20
65.081176181352461
 30
0.0
 11
76.195581201050459
 21
65.129976181352461
 31
0.0
  0
LINE
  5
98E
  8
0
 39
5.0
 10
76.195581201050459
 20
65.129976181352461
 30
0.0
 11
76.211781201050471
 21
65.177176181352465
 31
0.0
  0
LINE
  5
98F
  8
0
 39
5.0
 10
76.211781201050471
 20
65.177176181352465
 30
0.0
 11
76.233981201050469
 21
65.222376181352459
 31
0.0
  0
LINE
  5
990
  8
0
 39
5.0
 10
76.233981201050469
 20
65.222376181352459
 30
0.0
 11
76.261681201050465
 21
65.265576181352458
 31
0.0
  0
LINE
  5
991
  8
0
 39
5.0
 10
76.261681201050465
 20
65.265576181352458
 30
0.0
 11
76.294681201050466
 21
65.306076181352466
 31
0.0
  0
LINE
  5
992
  8
0
 39
5.0
 10
76.294681201050466
 20
65.306076181352466
 30
0.0
 11
76.332581201050459
 21
65.344076181352463
 31
0.0
  0
LINE
  5
993
  8
0
 39
5.0
 10
76.332581201050459
 20
65.344076181352463
 30
0.0
 11
76.375181201050466
 21
65.378976181352471
 31
0.0
  0
LINE
  5
994
  8
0
 39
5.0
 10
76.375181201050466
 20
65.378976181352471
 30
0.0
 11
76.421781201050464
 21
65.410976181352467
 31
0.0
  0
LINE
  5
995
  8
0
 39
5.0
 10
76.421781201050464
 20
65.410976181352467
 30
0.0
 11
76.472381201050467
 21
65.439376181352443
 31
0.0
  0
LINE
  5
996
  8
0
 39
5.0
 10
76.472381201050467
 20
65.439376181352443
 30
0.0
 11
76.526481201050473
 21
65.464176181352457
 31
0.0
  0
LINE
  5
997
  8
0
 39
5.0
 10
76.526481201050473
 20
65.464176181352457
 30
0.0
 11
76.583981201050463
 21
65.484876181352462
 31
0.0
  0
LINE
  5
998
  8
0
 39
5.0
 10
76.583981201050463
 20
65.484876181352462
 30
0.0
 11
76.644181201050472
 21
65.501576181352462
 31
0.0
  0
LINE
  5
999
  8
0
 39
5.0
 10
76.644181201050472
 20
65.501576181352462
 30
0.0
 11
76.70718120105046
 21
65.513676181352466
 31
0.0
  0
LINE
  5
99A
  8
0
 39
5.0
 10
77.482881201050446
 20
58.625676181352461
 30
0.0
 11
76.839281201050468
 21
58.625676181352461
 31
0.0
  0
LINE
  5
99B
  8
0
 39
5.0
 10
77.549681201050447
 20
58.628376181352458
 30
0.0
 11
77.482881201050446
 21
58.625676181352461
 31
0.0
  0
LINE
  5
99C
  8
0
 39
5.0
 10
74.139881201050457
 20
58.625676181352461
 30
0.0
 11
77.154381201050455
 21
58.625676181352461
 31
0.0
  0
LINE
  5
99D
  8
0
 39
5.0
 10
77.614681201050445
 20
58.635876181352451
 30
0.0
 11
77.549681201050447
 21
58.628376181352458
 31
0.0
  0
LINE
  5
99E
  8
0
 39
5.0
 10
77.677481201050455
 20
58.648176181352468
 30
0.0
 11
77.614681201050445
 21
58.635876181352451
 31
0.0
  0
LINE
  5
99F
  8
0
 39
5.0
 10
77.737881201050456
 20
58.664676181352462
 30
0.0
 11
77.677481201050455
 21
58.648176181352468
 31
0.0
  0
LINE
  5
9A0
  8
0
 39
5.0
 10
77.795181201050454
 20
58.685576181352459
 30
0.0
 11
77.737881201050456
 21
58.664676181352462
 31
0.0
  0
LINE
  5
9A1
  8
0
 39
5.0
 10
77.849481201050452
 20
58.710276181352469
 30
0.0
 11
77.795181201050454
 21
58.685576181352459
 31
0.0
  0
LINE
  5
9A2
  8
0
 39
5.0
 10
77.900081201050455
 20
58.738776181352463
 30
0.0
 11
77.849481201050452
 21
58.710276181352469
 31
0.0
  0
LINE
  5
9A3
  8
0
 39
5.0
 10
77.946881201050445
 20
58.770476181352471
 30
0.0
 11
77.900081201050455
 21
58.738776181352463
 31
0.0
  0
LINE
  5
9A4
  8
0
 39
5.0
 10
77.989181201050457
 20
58.805676181352467
 30
0.0
 11
77.946881201050445
 21
58.770476181352471
 31
0.0
  0
LINE
  5
9A5
  8
0
 39
5.0
 10
78.027181201050453
 20
58.843576181352461
 30
0.0
 11
77.989181201050457
 21
58.805676181352467
 31
0.0
  0
LINE
  5
9A6
  8
0
 39
5.0
 10
78.060081201050451
 20
58.884276181352462
 30
0.0
 11
78.027181201050453
 21
58.843576181352461
 31
0.0
  0
LINE
  5
9A7
  8
0
 39
5.0
 10
78.087981201050454
 20
58.927176181352472
 30
0.0
 11
78.060081201050451
 21
58.884276181352462
 31
0.0
  0
LINE
  5
9A8
  8
0
 39
5.0
 10
78.110081201050448
 20
58.972476181352462
 30
0.0
 11
78.087981201050454
 21
58.927176181352472
 31
0.0
  0
LINE
  5
9A9
  8
0
 39
5.0
 10
78.126381201050449
 20
59.019576181352463
 30
0.0
 11
78.110081201050448
 21
58.972476181352462
 31
0.0
  0
LINE
  5
9AA
  8
0
 39
5.0
 10
78.136381201050455
 20
59.068376181352463
 30
0.0
 11
78.126381201050449
 21
59.019576181352463
 31
0.0
  0
LINE
  5
9AB
  8
0
 39
5.0
 10
78.139881201050457
 20
59.11837618135246
 30
0.0
 11
78.136381201050455
 21
59.068376181352463
 31
0.0
  0
LINE
  5
9AC
  8
0
 39
5.0
 10
78.139881201050457
 20
59.11837618135246
 30
0.0
 11
78.139881201050457
 21
59.11837618135246
 31
0.0
  0
LINE
  5
9AD
  8
0
 39
5.0
 10
78.139881201050457
 20
65.030876181352454
 30
0.0
 11
78.139881201050457
 21
59.11837618135246
 31
0.0
  0
LINE
  5
9AE
  8
0
 39
5.0
 10
78.136381201050455
 20
65.081176181352461
 30
0.0
 11
78.139881201050457
 21
65.030876181352454
 31
0.0
  0
LINE
  5
9AF
  8
0
 39
5.0
 10
78.126381201050449
 20
65.129976181352461
 30
0.0
 11
78.136381201050455
 21
65.081176181352461
 31
0.0
  0
LINE
  5
9B0
  8
0
 39
5.0
 10
78.110081201050448
 20
65.177176181352465
 30
0.0
 11
78.126381201050449
 21
65.129976181352461
 31
0.0
  0
LINE
  5
9B1
  8
0
 39
5.0
 10
78.087981201050454
 20
65.222376181352459
 30
0.0
 11
78.110081201050448
 21
65.177176181352465
 31
0.0
  0
LINE
  5
9B2
  8
0
 39
5.0
 10
78.060081201050451
 20
65.265576181352458
 30
0.0
 11
78.087981201050454
 21
65.222376181352459
 31
0.0
  0
LINE
  5
9B3
  8
0
 39
5.0
 10
78.027181201050453
 20
65.306076181352466
 30
0.0
 11
78.060081201050451
 21
65.265576181352458
 31
0.0
  0
LINE
  5
9B4
  8
0
 39
5.0
 10
77.989181201050457
 20
65.344076181352463
 30
0.0
 11
78.027181201050453
 21
65.306076181352466
 31
0.0
  0
LINE
  5
9B5
  8
0
 39
5.0
 10
77.946881201050445
 20
65.378976181352471
 30
0.0
 11
77.989181201050457
 21
65.344076181352463
 31
0.0
  0
LINE
  5
9B6
  8
0
 39
5.0
 10
77.900081201050455
 20
65.410976181352467
 30
0.0
 11
77.946881201050445
 21
65.378976181352471
 31
0.0
  0
LINE
  5
9B7
  8
0
 39
5.0
 10
77.849481201050452
 20
65.439376181352443
 30
0.0
 11
77.900081201050455
 21
65.410976181352467
 31
0.0
  0
LINE
  5
9B8
  8
0
 39
5.0
 10
77.795181201050454
 20
65.464176181352457
 30
0.0
 11
77.849481201050452
 21
65.439376181352443
 31
0.0
  0
LINE
  5
9B9
  8
0
 39
5.0
 10
77.737881201050456
 20
65.484876181352462
 30
0.0
 11
77.795181201050454
 21
65.464176181352457
 31
0.0
  0
LINE
  5
9BA
  8
0
 39
5.0
 10
77.677481201050455
 20
65.501576181352462
 30
0.0
 11
77.737881201050456
 21
65.484876181352462
 31
0.0
  0
LINE
  5
9BB
  8
0
 39
5.0
 10
77.614681201050445
 20
65.513676181352466
 30
0.0
 11
77.677481201050455
 21
65.501576181352462
 31
0.0
  0
LINE
  5
9BD
  8
0
 39
5.0
 10
76.182281201050472
 20
59.085219778505731
 30
0.0
 11
76.182281201050472
 21
59.085219778505731
 31
0.0
  0
LINE
  5
9BE
  8
0
 39
5.0
 10
76.182281201050472
 20
59.085219778505731
 30
0.0
 11
76.025581201050471
 21
58.983419778505741
 31
0.0
  0
LINE
  5
9BF
  8
0
 39
5.0
 10
76.025581201050471
 20
58.983419778505741
 30
0.0
 11
75.832781201050466
 21
58.893319778505742
 31
0.0
  0
LINE
  5
9C0
  8
0
 39
5.0
 10
75.832781201050466
 20
58.893319778505742
 30
0.0
 11
75.608381201050463
 21
58.815619778505727
 31
0.0
  0
LINE
  5
9C1
  8
0
 39
5.0
 10
75.608381201050463
 20
58.815619778505727
 30
0.0
 11
75.357581201050465
 21
58.75041977850573
 31
0.0
  0
LINE
  5
9C2
  8
0
 39
5.0
 10
75.357581201050465
 20
58.75041977850573
 30
0.0
 11
75.084681201050472
 21
58.69841977850573
 31
0.0
  0
LINE
  5
9C3
  8
0
 39
5.0
 10
75.084681201050472
 20
58.69841977850573
 30
0.0
 11
74.794981201050462
 21
58.659519778505739
 31
0.0
  0
LINE
  5
9C4
  8
0
 39
5.0
 10
74.794981201050462
 20
58.659519778505739
 30
0.0
 11
74.493081201050472
 21
58.63441977850573
 31
0.0
  0
LINE
  5
9C5
  8
0
 39
5.0
 10
77.076881201050455
 20
93.125676181352446
 30
0.0
 11
77.076881201050455
 21
65.53307618135247
 31
0.0
  0
LINE
  5
9C6
  8
0
 39
5.0
 10
74.493081201050472
 20
58.63441977850573
 30
0.0
 11
74.249520819087294
 21
58.625676181352461
 31
0.0
  0
LINE
  5
9C7
  8
0
 39
5.0
 10
79.139881201050457
 20
93.125676181352446
 30
0.0
 11
74.139881201050457
 21
93.125676181352446
 31
0.0
  0
LINE
  5
9C8
  8
2
 39
5.0
 10
78.890481201050463
 20
97.084976181352445
 30
0.0
 11
78.890481201050463
 21
93.125676181352446
 31
0.0
  0
LINE
  5
9C9
  8
0
 39
5.0
 10
74.794981201050462
 20
108.1756723299537
 30
0.0
 11
74.493081201050472
 21
108.1422723299537
 31
0.0
  0
LINE
  5
9CA
  8
0
 39
5.0
 10
75.084681201050472
 20
108.2273723299537
 30
0.0
 11
74.794981201050462
 21
108.1756723299537
 31
0.0
  0
LINE
  5
9CB
  8
0
 39
5.0
 10
75.357581201050465
 20
108.2968723299537
 30
0.0
 11
75.084681201050472
 21
108.2273723299537
 31
0.0
  0
LINE
  5
9CC
  8
0
 39
5.0
 10
75.608381201050463
 20
108.3837723299537
 30
0.0
 11
75.357581201050465
 21
108.2968723299537
 31
0.0
  0
LINE
  5
9CD
  8
0
 39
5.0
 10
75.832781201050466
 20
108.4874723299537
 30
0.0
 11
75.608381201050463
 21
108.3837723299537
 31
0.0
  0
LINE
  5
9CE
  8
0
 39
5.0
 10
76.025581201050471
 20
108.6075723299537
 30
0.0
 11
75.832781201050466
 21
108.4874723299537
 31
0.0
  0
LINE
  5
9CF
  8
0
 39
5.0
 10
76.182281201050472
 20
108.7433723299537
 30
0.0
 11
76.025581201050471
 21
108.6075723299537
 31
0.0
  0
LINE
  5
9D0
  8
0
 39
5.0
 10
76.182281201050472
 20
108.7433723299537
 30
0.0
 11
76.182281201050472
 21
108.7433723299537
 31
0.0
  0
LINE
  5
9D1
  8
0
 39
5.0
 10
76.839281201050468
 20
108.1255761813524
 30
0.0
 11
76.839281201050468
 21
108.1255761813524
 31
0.0
  0
LINE
  5
9D2
  8
0
 39
5.0
 10
76.772181201050472
 20
108.1290761813524
 30
0.0
 11
76.70718120105046
 21
108.13907618135239
 31
0.0
  0
LINE
  5
9D3
  8
0
 39
5.0
 10
76.70718120105046
 20
108.13907618135239
 30
0.0
 11
76.644181201050472
 21
108.15537618135239
 31
0.0
  0
LINE
  5
9D4
  8
0
 39
5.0
 10
76.644181201050472
 20
108.15537618135239
 30
0.0
 11
76.583981201050463
 21
108.1774761813524
 31
0.0
  0
LINE
  5
9D5
  8
0
 39
5.0
 10
76.583981201050463
 20
108.1774761813524
 30
0.0
 11
76.526481201050473
 21
108.20537618135241
 31
0.0
  0
LINE
  5
9D6
  8
0
 39
5.0
 10
76.526481201050473
 20
108.20537618135241
 30
0.0
 11
76.472381201050467
 21
108.2382761813524
 31
0.0
  0
LINE
  5
9D7
  8
0
 39
5.0
 10
76.472381201050467
 20
108.2382761813524
 30
0.0
 11
76.421781201050464
 21
108.2762761813524
 31
0.0
  0
LINE
  5
9D8
  8
0
 39
5.0
 10
76.421781201050464
 20
108.2762761813524
 30
0.0
 11
76.375181201050466
 21
108.3185761813524
 31
0.0
  0
LINE
  5
9D9
  8
0
 39
5.0
 10
76.375181201050466
 20
108.3185761813524
 30
0.0
 11
76.332581201050459
 21
108.3653761813524
 31
0.0
  0
LINE
  5
9DA
  8
0
 39
5.0
 10
76.332581201050459
 20
108.3653761813524
 30
0.0
 11
76.294681201050466
 21
108.41597618135241
 31
0.0
  0
LINE
  5
9DB
  8
0
 39
5.0
 10
76.294681201050466
 20
108.41597618135241
 30
0.0
 11
76.261681201050465
 21
108.4702761813524
 31
0.0
  0
LINE
  5
9DC
  8
0
 39
5.0
 10
76.261681201050465
 20
108.4702761813524
 30
0.0
 11
76.233981201050469
 21
108.5275761813524
 31
0.0
  0
LINE
  5
9DD
  8
0
 39
5.0
 10
76.233981201050469
 20
108.5275761813524
 30
0.0
 11
76.211781201050471
 21
108.5879761813524
 31
0.0
  0
LINE
  5
9DE
  8
0
 39
5.0
 10
76.211781201050471
 20
108.5879761813524
 30
0.0
 11
76.195581201050459
 21
108.6507761813524
 31
0.0
  0
LINE
  5
9DF
  8
0
 39
5.0
 10
76.195581201050459
 20
108.6507761813524
 30
0.0
 11
76.185581201050454
 21
108.7157761813524
 31
0.0
  0
LINE
  5
9E0
  8
0
 39
5.0
 10
76.185581201050454
 20
108.7157761813524
 30
0.0
 11
76.182281201050472
 21
108.7825761813524
 31
0.0
  0
LINE
  5
9E1
  8
0
 39
5.0
 10
76.837364058193344
 20
108.1256761813524
 30
0.0
 11
76.772181201050472
 21
108.1290761813524
 31
0.0
  0
LINE
  5
9E2
  8
0
 39
5.0
 10
74.493081201050472
 20
108.1422723299537
 30
0.0
 11
74.146356258651593
 21
108.1256761813524
 31
0.0
  0
LINE
  5
9E3
  8
0
 39
5.0
 10
77.549681201050447
 20
108.1290761813524
 30
0.0
 11
77.484789772478834
 21
108.1256761813524
 31
0.0
  0
LINE
  5
9E4
  8
0
 39
5.0
 10
77.614681201050445
 20
108.13907618135239
 30
0.0
 11
77.549681201050447
 21
108.1290761813524
 31
0.0
  0
LINE
  5
9E5
  8
0
 39
5.0
 10
77.677481201050455
 20
108.15537618135239
 30
0.0
 11
77.614681201050445
 21
108.13907618135239
 31
0.0
  0
LINE
  5
9E6
  8
0
 39
5.0
 10
77.737881201050456
 20
108.1774761813524
 30
0.0
 11
77.677481201050455
 21
108.15537618135239
 31
0.0
  0
LINE
  5
9E7
  8
0
 39
5.0
 10
77.795181201050454
 20
108.20537618135241
 30
0.0
 11
77.737881201050456
 21
108.1774761813524
 31
0.0
  0
LINE
  5
9E8
  8
0
 39
5.0
 10
77.849481201050452
 20
108.2382761813524
 30
0.0
 11
77.795181201050454
 21
108.20537618135241
 31
0.0
  0
LINE
  5
9E9
  8
0
 39
5.0
 10
77.900081201050455
 20
108.2762761813524
 30
0.0
 11
77.849481201050452
 21
108.2382761813524
 31
0.0
  0
LINE
  5
9EA
  8
0
 39
5.0
 10
77.946881201050445
 20
108.3185761813524
 30
0.0
 11
77.900081201050455
 21
108.2762761813524
 31
0.0
  0
LINE
  5
9EB
  8
0
 39
5.0
 10
77.989181201050457
 20
108.3653761813524
 30
0.0
 11
77.946881201050445
 21
108.3185761813524
 31
0.0
  0
LINE
  5
9EC
  8
0
 39
5.0
 10
78.027181201050453
 20
108.41597618135241
 30
0.0
 11
77.989181201050457
 21
108.3653761813524
 31
0.0
  0
LINE
  5
9ED
  8
0
 39
5.0
 10
78.060081201050451
 20
108.4702761813524
 30
0.0
 11
78.027181201050453
 21
108.41597618135241
 31
0.0
  0
LINE
  5
9EE
  8
0
 39
5.0
 10
78.087981201050454
 20
108.5275761813524
 30
0.0
 11
78.060081201050451
 21
108.4702761813524
 31
0.0
  0
LINE
  5
9EF
  8
0
 39
5.0
 10
78.110081201050448
 20
108.5879761813524
 30
0.0
 11
78.087981201050454
 21
108.5275761813524
 31
0.0
  0
LINE
  5
9F0
  8
0
 39
5.0
 10
78.126381201050449
 20
108.6507761813524
 30
0.0
 11
78.110081201050448
 21
108.5879761813524
 31
0.0
  0
LINE
  5
9F1
  8
0
 39
5.0
 10
78.136381201050455
 20
108.7157761813524
 30
0.0
 11
78.126381201050449
 21
108.6507761813524
 31
0.0
  0
LINE
  5
9F2
  8
0
 39
5.0
 10
78.139881201050457
 20
108.7825761813524
 30
0.0
 11
78.136381201050455
 21
108.7157761813524
 31
0.0
  0
LINE
  5
9F3
  8
0
 39
5.0
 10
76.182281201050472
 20
116.89507232995371
 30
0.0
 11
76.182281201050472
 21
108.7433723299537
 31
0.0
  0
LINE
  5
9F4
  8
0
 39
5.0
 10
76.182281201050472
 20
108.7825761813524
 30
0.0
 11
76.182281201050472
 21
116.9912761813524
 31
0.0
  0
LINE
  5
9F5
  8
0
 39
5.0
 10
78.139881201050457
 20
108.7825761813524
 30
0.0
 11
78.139881201050457
 21
108.7825761813524
 31
0.0
  0
LINE
  5
9F6
  8
0
 39
5.0
 10
78.139881201050457
 20
116.9912761813524
 30
0.0
 11
78.139881201050457
 21
108.7825761813524
 31
0.0
  0
LINE
  5
9F7
  8
2
 39
5.0
 10
78.890481201050477
 20
108.1256761813524
 30
0.0
 11
78.890481201050463
 21
105.7106070626071
 31
0.0
  0
LINE
  5
9F8
  8
2
 39
5.0
 10
78.890481201050463
 20
103.0849761813524
 30
0.0
 11
78.890481201050463
 21
99.710607062607124
 31
0.0
  0
LINE
  5
9F9
  8
0
 39
5.0
 10
78.043781201050464
 20
97.527651024906916
 30
0.0
 11
77.62528120105047
 21
97.420276181352463
 31
0.0
  0
LINE
  5
9FA
  8
0
 39
5.0
 10
75.085781201050466
 20
97.091876181352461
 30
0.0
 11
74.638781201050463
 21
97.084976181352474
 31
0.0
  0
LINE
  5
9FB
  8
0
 39
5.0
 10
75.526081201050459
 20
97.112476181352463
 30
0.0
 11
75.085781201050466
 21
97.091876181352461
 31
0.0
  0
LINE
  5
9FC
  8
0
 39
5.0
 10
75.959481201050465
 20
97.146676181352461
 30
0.0
 11
75.526081201050459
 21
97.112476181352463
 31
0.0
  0
LINE
  5
9FD
  8
0
 39
5.0
 10
76.386281201050465
 20
97.194476181352456
 30
0.0
 11
75.959481201050465
 21
97.146676181352461
 31
0.0
  0
LINE
  5
9FE
  8
0
 39
5.0
 10
76.805981201050471
 20
97.256076181352455
 30
0.0
 11
76.386281201050465
 21
97.194476181352456
 31
0.0
  0
LINE
  5
9FF
  8
0
 39
5.0
 10
77.219081201050471
 20
97.331376181352468
 30
0.0
 11
76.805981201050471
 21
97.256076181352455
 31
0.0
  0
LINE
  5
A00
  8
0
 39
5.0
 10
77.62528120105047
 20
97.420276181352463
 30
0.0
 11
77.219081201050471
 21
97.331376181352468
 31
0.0
  0
LINE
  5
A01
  8
0
 39
5.0
 10
77.632881201050466
 20
99.377576181352467
 30
0.0
 11
78.043781201050464
 21
99.274776181352465
 31
0.0
  0
LINE
  5
A02
  8
0
 39
5.0
 10
77.219281201050464
 20
99.466476181352462
 30
0.0
 11
77.632881201050466
 21
99.377576181352467
 31
0.0
  0
LINE
  5
A03
  8
0
 39
5.0
 10
76.802381201050466
 20
99.541776181352475
 30
0.0
 11
77.219281201050464
 21
99.466476181352462
 31
0.0
  0
LINE
  5
A04
  8
0
 39
5.0
 10
76.381781201050472
 20
99.60327618135247
 30
0.0
 11
76.802381201050466
 21
99.541776181352475
 31
0.0
  0
LINE
  5
A05
  8
0
 39
5.0
 10
75.956481201050465
 20
99.651276181352486
 30
0.0
 11
76.381781201050472
 21
99.60327618135247
 31
0.0
  0
LINE
  5
A06
  8
0
 39
5.0
 10
75.526281201050466
 20
99.68547618135247
 30
0.0
 11
75.956481201050465
 21
99.651276181352486
 31
0.0
  0
LINE
  5
A07
  8
0
 39
5.0
 10
75.090381201050462
 20
99.706076181352472
 30
0.0
 11
75.526281201050466
 21
99.68547618135247
 31
0.0
  0
LINE
  5
A08
  8
0
 39
5.0
 10
74.648381201050455
 20
99.712776181352453
 30
0.0
 11
75.090381201050462
 21
99.706076181352472
 31
0.0
  0
LINE
  5
A09
  8
0
 39
5.0
 10
74.502985495300052
 20
99.710607062607153
 30
0.0
 11
74.648381201050455
 21
99.712776181352453
 31
0.0
  0
LINE
  5
A0A
  8
0
 39
5.0
 10
78.043781201050464
 20
99.274776181352465
 30
0.0
 11
78.043781201050464
 21
99.274776181352465
 31
0.0
  0
LINE
  5
A0B
  8
0
 39
5.0
 10
78.043781201050464
 20
99.274776181352465
 30
0.0
 11
78.354581201050465
 21
99.377576181352467
 31
0.0
  0
LINE
  5
A0C
  8
0
 39
5.0
 10
78.354581201050465
 20
99.377576181352467
 30
0.0
 11
78.658881201050463
 21
99.466476181352462
 31
0.0
  0
LINE
  5
A0D
  8
0
 39
5.0
 10
78.658881201050463
 20
99.466476181352462
 30
0.0
 11
78.956881201050464
 21
99.541776181352475
 31
0.0
  0
LINE
  5
A0E
  8
0
 39
5.0
 10
78.956881201050464
 20
99.541776181352475
 30
0.0
 11
79.249181201050462
 21
99.60327618135247
 31
0.0
  0
LINE
  5
A0F
  8
0
 39
5.0
 10
79.249181201050462
 20
99.60327618135247
 30
0.0
 11
79.535681201050465
 21
99.651276181352486
 31
0.0
  0
LINE
  5
A10
  8
0
 39
5.0
 10
79.535681201050465
 20
99.651276181352486
 30
0.0
 11
79.81718120105046
 21
99.68547618135247
 31
0.0
  0
LINE
  5
A11
  8
0
 39
5.0
 10
79.81718120105046
 20
99.68547618135247
 30
0.0
 11
80.093781201050447
 21
99.706076181352472
 31
0.0
  0
LINE
  5
A12
  8
0
 39
5.0
 10
80.084981201050468
 20
97.091876181352461
 30
0.0
 11
79.805681201050461
 21
97.112476181352463
 31
0.0
  0
LINE
  5
A13
  8
0
 39
5.0
 10
79.805681201050461
 20
97.112476181352463
 30
0.0
 11
79.522281201050461
 21
97.146676181352461
 31
0.0
  0
LINE
  5
A14
  8
0
 39
5.0
 10
79.522281201050461
 20
97.146676181352461
 30
0.0
 11
79.23488120105047
 21
97.194476181352456
 31
0.0
  0
LINE
  5
A15
  8
0
 39
5.0
 10
79.23488120105047
 20
97.194476181352456
 30
0.0
 11
78.943281201050468
 21
97.256076181352455
 31
0.0
  0
LINE
  5
A16
  8
0
 39
5.0
 10
78.943281201050468
 20
97.256076181352455
 30
0.0
 11
78.647581201050471
 21
97.331376181352468
 31
0.0
  0
LINE
  5
A17
  8
0
 39
5.0
 10
78.647581201050471
 20
97.331376181352468
 30
0.0
 11
78.347681201050463
 21
97.420276181352463
 31
0.0
  0
LINE
  5
A18
  8
0
 39
5.0
 10
78.347681201050463
 20
97.420276181352463
 30
0.0
 11
78.043781201050464
 21
97.522776181352469
 31
0.0
  0
LINE
  5
A19
  8
0
 39
5.0
 10
82.139881201050457
 20
97.527645037197175
 30
0.0
 11
81.886281201050465
 21
97.420276181352463
 31
0.0
  0
LINE
  5
A1A
  8
0
 39
5.0
 10
80.076281201050463
 20
97.084976181352474
 30
0.0
 11
80.084981201050468
 21
97.091876181352461
 31
0.0
  0
LINE
  5
A1B
  8
0
 39
5.0
 10
81.890781201050459
 20
99.377576181352467
 30
0.0
 11
82.139881201050457
 21
99.274776181352465
 31
0.0
  0
LINE
  5
A1C
  8
0
 39
5.0
 10
81.640181201050467
 20
99.466476181352462
 30
0.0
 11
81.890781201050459
 21
99.377576181352467
 31
0.0
  0
LINE
  5
A1D
  8
0
 39
5.0
 10
81.387481201050477
 20
99.541776181352475
 30
0.0
 11
81.640181201050467
 21
99.466476181352462
 31
0.0
  0
LINE
  5
A1E
  8
0
 39
5.0
 10
81.132581201050456
 20
99.60327618135247
 30
0.0
 11
81.387481201050477
 21
99.541776181352475
 31
0.0
  0
LINE
  5
A1F
  8
0
 39
5.0
 10
80.874781201050453
 20
99.651276181352486
 30
0.0
 11
81.132581201050456
 21
99.60327618135247
 31
0.0
  0
LINE
  5
A20
  8
0
 39
5.0
 10
80.614081201050467
 20
99.68547618135247
 30
0.0
 11
80.874781201050453
 21
99.651276181352486
 31
0.0
  0
LINE
  5
A21
  8
0
 39
5.0
 10
80.349881201050465
 20
99.706076181352472
 30
0.0
 11
80.614081201050467
 21
99.68547618135247
 31
0.0
  0
LINE
  5
A22
  8
0
 39
5.0
 10
80.082081201050457
 20
99.712776181352453
 30
0.0
 11
80.349881201050465
 21
99.706076181352472
 31
0.0
  0
LINE
  5
A23
  8
0
 39
5.0
 10
80.093781201050447
 20
99.706076181352472
 30
0.0
 11
80.082081201050457
 21
99.712776181352453
 31
0.0
  0
LINE
  5
A24
  8
0
 39
5.0
 10
80.347181201050446
 20
97.091876181352461
 30
0.0
 11
80.076281201050463
 21
97.084976181352474
 31
0.0
  0
LINE
  5
A25
  8
0
 39
5.0
 10
80.613981201050464
 20
97.112476181352463
 30
0.0
 11
80.347181201050446
 21
97.091876181352461
 31
0.0
  0
LINE
  5
A26
  8
0
 39
5.0
 10
80.876681201050459
 20
97.146676181352461
 30
0.0
 11
80.613981201050464
 21
97.112476181352463
 31
0.0
  0
LINE
  5
A27
  8
0
 39
5.0
 10
81.135281201050461
 20
97.194476181352456
 30
0.0
 11
80.876681201050459
 21
97.146676181352461
 31
0.0
  0
LINE
  5
A28
  8
0
 39
5.0
 10
81.389681201050465
 20
97.256076181352455
 30
0.0
 11
81.135281201050461
 21
97.194476181352456
 31
0.0
  0
LINE
  5
A29
  8
0
 39
5.0
 10
81.640081201050464
 20
97.331376181352468
 30
0.0
 11
81.389681201050465
 21
97.256076181352455
 31
0.0
  0
LINE
  5
A2A
  8
0
 39
5.0
 10
81.886281201050465
 20
97.420276181352463
 30
0.0
 11
81.640081201050464
 21
97.331376181352468
 31
0.0
  0
LINE
  5
A2B
  8
0
 39
5.0
 10
82.128381201050445
 20
97.522776181352469
 30
0.0
 11
82.128381201050445
 21
97.522776181352469
 31
0.0
  0
LINE
  5
A2C
  8
0
 39
5.0
 10
78.043781201050464
 20
97.522776181352469
 30
0.0
 11
78.043781201050479
 21
99.274776181352465
 31
0.0
  0
LINE
  5
A2D
  8
0
 39
5.0
 10
78.043781201050464
 20
103.5227761813524
 30
0.0
 11
78.043781201050479
 21
105.27477618135239
 31
0.0
  0
LINE
  5
A2E
  8
0
 39
5.0
 10
82.128381201050445
 20
103.5227761813524
 30
0.0
 11
82.128381201050445
 21
103.5227761813524
 31
0.0
  0
LINE
  5
A2F
  8
0
 39
5.0
 10
81.886281201050465
 20
103.42027618135241
 30
0.0
 11
81.640081201050464
 21
103.3313761813524
 31
0.0
  0
LINE
  5
A30
  8
0
 39
5.0
 10
81.640081201050464
 20
103.3313761813524
 30
0.0
 11
81.389681201050465
 21
103.2560761813524
 31
0.0
  0
LINE
  5
A31
  8
0
 39
5.0
 10
81.389681201050465
 20
103.2560761813524
 30
0.0
 11
81.135281201050461
 21
103.1944761813524
 31
0.0
  0
LINE
  5
A32
  8
0
 39
5.0
 10
81.135281201050461
 20
103.1944761813524
 30
0.0
 11
80.876681201050459
 21
103.1466761813524
 31
0.0
  0
LINE
  5
A33
  8
0
 39
5.0
 10
80.876681201050459
 20
103.1466761813524
 30
0.0
 11
80.613981201050464
 21
103.11247618135241
 31
0.0
  0
LINE
  5
A34
  8
0
 39
5.0
 10
80.613981201050464
 20
103.11247618135241
 30
0.0
 11
80.347181201050446
 21
103.0918761813524
 31
0.0
  0
LINE
  5
A35
  8
0
 39
5.0
 10
80.347181201050446
 20
103.0918761813524
 30
0.0
 11
80.076281201050463
 21
103.0849761813524
 31
0.0
  0
LINE
  5
A36
  8
0
 39
5.0
 10
80.093781201050447
 20
105.7060761813524
 30
0.0
 11
80.082081201050457
 21
105.7127761813524
 31
0.0
  0
LINE
  5
A37
  8
0
 39
5.0
 10
80.082081201050457
 20
105.7127761813524
 30
0.0
 11
80.349881201050465
 21
105.7060761813524
 31
0.0
  0
LINE
  5
A38
  8
0
 39
5.0
 10
80.349881201050465
 20
105.7060761813524
 30
0.0
 11
80.614081201050467
 21
105.6854761813524
 31
0.0
  0
LINE
  5
A39
  8
0
 39
5.0
 10
80.614081201050467
 20
105.6854761813524
 30
0.0
 11
80.874781201050453
 21
105.6512761813524
 31
0.0
  0
LINE
  5
A3A
  8
0
 39
5.0
 10
80.874781201050453
 20
105.6512761813524
 30
0.0
 11
81.132581201050456
 21
105.6032761813524
 31
0.0
  0
LINE
  5
A3B
  8
0
 39
5.0
 10
81.132581201050456
 20
105.6032761813524
 30
0.0
 11
81.387481201050477
 21
105.5417761813524
 31
0.0
  0
LINE
  5
A3C
  8
0
 39
5.0
 10
81.387481201050477
 20
105.5417761813524
 30
0.0
 11
81.640181201050467
 21
105.46647618135241
 31
0.0
  0
LINE
  5
A3D
  8
0
 39
5.0
 10
81.640181201050467
 20
105.46647618135241
 30
0.0
 11
81.890781201050459
 21
105.3775761813524
 31
0.0
  0
LINE
  5
A3E
  8
0
 39
5.0
 10
81.890781201050459
 20
105.3775761813524
 30
0.0
 11
82.139881201050457
 21
105.27477618135239
 31
0.0
  0
LINE
  5
A3F
  8
0
 39
5.0
 10
80.076281201050463
 20
103.0849761813524
 30
0.0
 11
80.084981201050468
 21
103.0918761813524
 31
0.0
  0
LINE
  5
A40
  8
0
 39
5.0
 10
82.139881201050457
 20
103.5276450371971
 30
0.0
 11
81.886281201050465
 21
103.42027618135241
 31
0.0
  0
LINE
  5
A41
  8
0
 39
5.0
 10
78.347681201050463
 20
103.42027618135241
 30
0.0
 11
78.043781201050464
 21
103.5227761813524
 31
0.0
  0
LINE
  5
A42
  8
0
 39
5.0
 10
78.647581201050471
 20
103.3313761813524
 30
0.0
 11
78.347681201050463
 21
103.42027618135241
 31
0.0
  0
LINE
  5
A43
  8
0
 39
5.0
 10
78.943281201050468
 20
103.2560761813524
 30
0.0
 11
78.647581201050471
 21
103.3313761813524
 31
0.0
  0
LINE
  5
A44
  8
0
 39
5.0
 10
79.23488120105047
 20
103.1944761813524
 30
0.0
 11
78.943281201050468
 21
103.2560761813524
 31
0.0
  0
LINE
  5
A45
  8
0
 39
5.0
 10
79.522281201050461
 20
103.1466761813524
 30
0.0
 11
79.23488120105047
 21
103.1944761813524
 31
0.0
  0
LINE
  5
A46
  8
0
 39
5.0
 10
79.805681201050461
 20
103.11247618135241
 30
0.0
 11
79.522281201050461
 21
103.1466761813524
 31
0.0
  0
LINE
  5
A47
  8
0
 39
5.0
 10
80.084981201050468
 20
103.0918761813524
 30
0.0
 11
79.805681201050461
 21
103.11247618135241
 31
0.0
  0
LINE
  5
A48
  8
0
 39
5.0
 10
79.81718120105046
 20
105.6854761813524
 30
0.0
 11
80.093781201050447
 21
105.7060761813524
 31
0.0
  0
LINE
  5
A49
  8
0
 39
5.0
 10
79.535681201050465
 20
105.6512761813524
 30
0.0
 11
79.81718120105046
 21
105.6854761813524
 31
0.0
  0
LINE
  5
A4A
  8
0
 39
5.0
 10
79.249181201050462
 20
105.6032761813524
 30
0.0
 11
79.535681201050465
 21
105.6512761813524
 31
0.0
  0
LINE
  5
A4B
  8
0
 39
5.0
 10
78.956881201050464
 20
105.5417761813524
 30
0.0
 11
79.249181201050462
 21
105.6032761813524
 31
0.0
  0
LINE
  5
A4C
  8
0
 39
5.0
 10
78.658881201050463
 20
105.46647618135241
 30
0.0
 11
78.956881201050464
 21
105.5417761813524
 31
0.0
  0
LINE
  5
A4D
  8
0
 39
5.0
 10
78.354581201050465
 20
105.3775761813524
 30
0.0
 11
78.658881201050463
 21
105.46647618135241
 31
0.0
  0
LINE
  5
A4E
  8
0
 39
5.0
 10
78.043781201050464
 20
105.27477618135239
 30
0.0
 11
78.354581201050465
 21
105.3775761813524
 31
0.0
  0
LINE
  5
A4F
  8
0
 39
5.0
 10
78.043781201050464
 20
105.27477618135239
 30
0.0
 11
78.043781201050464
 21
105.27477618135239
 31
0.0
  0
LINE
  5
A50
  8
0
 39
5.0
 10
74.502985495300052
 20
105.7106070626071
 30
0.0
 11
74.648381201050455
 21
105.7127761813524
 31
0.0
  0
LINE
  5
A51
  8
0
 39
5.0
 10
74.648381201050455
 20
105.7127761813524
 30
0.0
 11
75.090381201050462
 21
105.7060761813524
 31
0.0
  0
LINE
  5
A52
  8
0
 39
5.0
 10
75.090381201050462
 20
105.7060761813524
 30
0.0
 11
75.526281201050466
 21
105.6854761813524
 31
0.0
  0
LINE
  5
A53
  8
0
 39
5.0
 10
75.526281201050466
 20
105.6854761813524
 30
0.0
 11
75.956481201050465
 21
105.6512761813524
 31
0.0
  0
LINE
  5
A54
  8
0
 39
5.0
 10
75.956481201050465
 20
105.6512761813524
 30
0.0
 11
76.381781201050472
 21
105.6032761813524
 31
0.0
  0
LINE
  5
A55
  8
0
 39
5.0
 10
76.381781201050472
 20
105.6032761813524
 30
0.0
 11
76.802381201050466
 21
105.5417761813524
 31
0.0
  0
LINE
  5
A56
  8
0
 39
5.0
 10
76.802381201050466
 20
105.5417761813524
 30
0.0
 11
77.219281201050464
 21
105.46647618135241
 31
0.0
  0
LINE
  5
A57
  8
0
 39
5.0
 10
77.219281201050464
 20
105.46647618135241
 30
0.0
 11
77.632881201050466
 21
105.3775761813524
 31
0.0
  0
LINE
  5
A58
  8
0
 39
5.0
 10
77.632881201050466
 20
105.3775761813524
 30
0.0
 11
78.043781201050464
 21
105.27477618135239
 31
0.0
  0
LINE
  5
A59
  8
0
 39
5.0
 10
77.62528120105047
 20
103.42027618135241
 30
0.0
 11
77.219081201050471
 21
103.3313761813524
 31
0.0
  0
LINE
  5
A5A
  8
0
 39
5.0
 10
77.219081201050471
 20
103.3313761813524
 30
0.0
 11
76.805981201050471
 21
103.2560761813524
 31
0.0
  0
LINE
  5
A5B
  8
0
 39
5.0
 10
76.805981201050471
 20
103.2560761813524
 30
0.0
 11
76.386281201050465
 21
103.1944761813524
 31
0.0
  0
LINE
  5
A5C
  8
0
 39
5.0
 10
76.386281201050465
 20
103.1944761813524
 30
0.0
 11
75.959481201050465
 21
103.1466761813524
 31
0.0
  0
LINE
  5
A5D
  8
0
 39
5.0
 10
75.959481201050465
 20
103.1466761813524
 30
0.0
 11
75.526081201050459
 21
103.11247618135241
 31
0.0
  0
LINE
  5
A5E
  8
0
 39
5.0
 10
75.526081201050459
 20
103.11247618135241
 30
0.0
 11
75.085781201050466
 21
103.0918761813524
 31
0.0
  0
LINE
  5
A5F
  8
0
 39
5.0
 10
75.085781201050466
 20
103.0918761813524
 30
0.0
 11
74.638781201050463
 21
103.0849761813524
 31
0.0
  0
LINE
  5
A60
  8
0
 39
5.0
 10
78.043781201050464
 20
103.5276510249069
 30
0.0
 11
77.62528120105047
 21
103.42027618135241
 31
0.0
  0
LINE
  5
A61
  8
0
 10
79.139881201050457
 20
103.0849761813524
 30
0.0
 11
79.139881201050457
 21
99.710607062607124
 31
0.0
  0
LINE
  5
A62
  8
1
 10
77.476881201050475
 20
93.125676181352446
 30
0.0
 11
77.476881201050475
 21
65.513676181352466
 31
0.0
  0
LINE
  5
A63
  8
1
 10
77.276881201050472
 20
93.125676181352446
 30
0.0
 11
77.276881201050472
 21
65.513676181352466
 31
0.0
  0
LINE
  5
A64
  8
0
 10
77.614681201050445
 20
65.513676181352466
 30
0.0
 11
74.139881201050457
 21
65.513676181352466
 31
0.0
  0
LINE
  5
A66
  8
3
 10
76.639881201050457
 20
64.770876181352463
 30
0.0
 11
76.639881201050457
 21
58.625676181352461
 31
0.0
  0
LINE
  5
A67
  8
3
 10
76.439881201050454
 20
64.770876181352463
 30
0.0
 11
76.439881201050454
 21
58.625676181352461
 31
0.0
  0
LINE
  5
A69
  8
0
 10
80.076281201050463
 20
97.084976181352474
 30
0.0
 11
74.139881201050457
 21
97.084976181352474
 31
0.0
  0
LINE
  5
A6A
  8
0
 10
80.168781201050464
 20
99.710607062607153
 30
0.0
 11
74.139881201050457
 21
99.710607062607153
 31
0.0
  0
LINE
  5
A6B
  8
0
 10
79.139881201050457
 20
97.084976181352445
 30
0.0
 11
79.139881201050457
 21
93.125676181352446
 31
0.0
  0
LINE
  5
A6C
  8
0
 10
82.139881201050457
 20
97.527645037197175
 30
0.0
 11
82.139881201050457
 21
99.274776181352465
 31
0.0
  0
LINE
  5
A6D
  8
1
 10
82.139881201050457
 20
99.274776181352465
 30
0.0
 11
82.139881201050457
 21
98.398776181352474
 31
0.0
  0
LINE
  5
A6E
  8
0
 10
74.139881201050457
 20
108.1256761813524
 30
0.0
 11
79.139881201050457
 21
108.1256761813524
 31
0.0
  0
LINE
  5
A6F
  8
0
 10
80.168781201050464
 20
105.7106070626071
 30
0.0
 11
74.139881201050457
 21
105.7106070626071
 31
0.0
  0
LINE
  5
A70
  8
0
 10
80.076281201050463
 20
103.0849761813524
 30
0.0
 11
74.139881201050457
 21
103.0849761813524
 31
0.0
  0
LINE
  5
A72
  8
3
 10
76.356481201050471
 20
117.6256761813524
 30
0.0
 11
76.356481201050471
 21
111.09407618135241
 31
0.0
  0
LINE
  5
A73
  8
3
 10
76.639881201050457
 20
117.6256761813524
 30
0.0
 11
76.639881201050457
 21
111.09407618135241
 31
0.0
  0
LINE
  5
A74
  8
0
 10
79.139881201050457
 20
108.1256761813524
 30
0.0
 11
79.139881201050457
 21
105.7106070626071
 31
0.0
  0
LINE
  5
A75
  8
1
 10
82.139881201050457
 20
105.27477618135239
 30
0.0
 11
82.139881201050457
 21
104.3987761813524
 31
0.0
  0
LINE
  5
A76
  8
0
 10
82.139881201050457
 20
103.5276450371971
 30
0.0
 11
82.139881201050457
 21
105.27477618135239
 31
0.0
  0
LINE
  5
A79
  8
0
 10
71.807381201050447
 20
117.53587618135241
 30
0.0
 11
72.01808120105045
 21
117.3040761813524
 31
0.0
  0
LINE
  5
A9E
  8
0
 39
5.0
 10
77.650733052902353
 20
117.6256761813524
 30
0.0
 11
77.677481201050455
 21
117.6187761813524
 31
0.0
  0
LINE
  5
A9F
  8
0
 39
5.0
 10
77.677481201050455
 20
117.6187761813524
 30
0.0
 11
77.737881201050456
 21
117.5965761813524
 31
0.0
  0
LINE
  5
AA0
  8
0
 39
5.0
 10
77.737881201050456
 20
117.5965761813524
 30
0.0
 11
77.795181201050454
 21
117.56887618135239
 31
0.0
  0
LINE
  5
AA1
  8
0
 39
5.0
 10
77.795181201050454
 20
117.56887618135239
 30
0.0
 11
77.849481201050452
 21
117.53587618135241
 31
0.0
  0
LINE
  5
AA2
  8
0
 39
5.0
 10
77.849481201050452
 20
117.53587618135241
 30
0.0
 11
77.900081201050455
 21
117.4979761813524
 31
0.0
  0
LINE
  5
AA3
  8
0
 39
5.0
 10
77.900081201050455
 20
117.4979761813524
 30
0.0
 11
77.946881201050445
 21
117.45537618135241
 31
0.0
  0
LINE
  5
AA4
  8
0
 39
5.0
 10
77.946881201050445
 20
117.45537618135241
 30
0.0
 11
77.989181201050457
 21
117.40877618135239
 31
0.0
  0
LINE
  5
AA5
  8
0
 39
5.0
 10
77.989181201050457
 20
117.40877618135239
 30
0.0
 11
78.027181201050453
 21
117.35817618135241
 31
0.0
  0
LINE
  5
AA6
  8
0
 39
5.0
 10
78.027181201050453
 20
117.35817618135241
 30
0.0
 11
78.060081201050451
 21
117.3040761813524
 31
0.0
  0
LINE
  5
AA7
  8
0
 39
5.0
 10
78.060081201050451
 20
117.3040761813524
 30
0.0
 11
78.087981201050454
 21
117.2465761813524
 31
0.0
  0
LINE
  5
AA8
  8
0
 39
5.0
 10
78.087981201050454
 20
117.2465761813524
 30
0.0
 11
78.110081201050448
 21
117.1863761813524
 31
0.0
  0
LINE
  5
AA9
  8
0
 39
5.0
 10
78.110081201050448
 20
117.1863761813524
 30
0.0
 11
78.126381201050449
 21
117.1233761813524
 31
0.0
  0
LINE
  5
AAA
  8
0
 39
5.0
 10
78.126381201050449
 20
117.1233761813524
 30
0.0
 11
78.136381201050455
 21
117.0583761813524
 31
0.0
  0
LINE
  5
AAB
  8
0
 39
5.0
 10
78.136381201050455
 20
117.0583761813524
 30
0.0
 11
78.139881201050457
 21
116.9912761813524
 31
0.0
  0
LINE
  5
AAC
  8
0
 39
5.0
 10
77.650733052902353
 20
117.6256761813524
 30
0.0
 11
74.139881201050457
 21
117.6256761813524
 31
0.0
  0
LINE
  5
AAD
  8
0
 39
5.0
 10
76.644181201050472
 20
117.6187761813524
 30
0.0
 11
76.671014534383758
 21
117.6256761813524
 31
0.0
  0
LINE
  5
AAE
  8
0
 39
5.0
 10
76.583981201050463
 20
117.5965761813524
 30
0.0
 11
76.644181201050472
 21
117.6187761813524
 31
0.0
  0
LINE
  5
AAF
  8
0
 39
5.0
 10
76.526481201050473
 20
117.56887618135239
 30
0.0
 11
76.583981201050463
 21
117.5965761813524
 31
0.0
  0
LINE
  5
AB0
  8
0
 39
5.0
 10
76.472381201050467
 20
117.53587618135241
 30
0.0
 11
76.526481201050473
 21
117.56887618135239
 31
0.0
  0
LINE
  5
AB1
  8
0
 39
5.0
 10
76.233981201050469
 20
117.2465761813524
 30
0.0
 11
76.261681201050465
 21
117.3040761813524
 31
0.0
  0
LINE
  5
AB2
  8
0
 39
5.0
 10
76.211781201050471
 20
117.1863761813524
 30
0.0
 11
76.233981201050469
 21
117.2465761813524
 31
0.0
  0
LINE
  5
AB3
  8
0
 39
5.0
 10
76.195581201050459
 20
117.1233761813524
 30
0.0
 11
76.211781201050471
 21
117.1863761813524
 31
0.0
  0
LINE
  5
AB4
  8
0
 39
5.0
 10
76.185581201050454
 20
117.0583761813524
 30
0.0
 11
76.195581201050459
 21
117.1233761813524
 31
0.0
  0
LINE
  5
AB5
  8
0
 39
5.0
 10
76.182281201050472
 20
116.9912761813524
 30
0.0
 11
76.185581201050454
 21
117.0583761813524
 31
0.0
  0
LINE
  5
AB6
  8
0
 39
5.0
 10
76.182281201050472
 20
116.9912761813524
 30
0.0
 11
76.182281201050472
 21
116.9912761813524
 31
0.0
  0
LINE
  5
AB7
  8
0
 39
5.0
 10
74.380281201050465
 20
117.6226723299537
 30
0.0
 11
74.721381201050463
 21
117.5880723299537
 31
0.0
  0
LINE
  5
AB8
  8
0
 39
5.0
 10
74.721381201050463
 20
117.5880723299537
 30
0.0
 11
75.048081201050465
 21
117.53037232995371
 31
0.0
  0
LINE
  5
AB9
  8
0
 39
5.0
 10
75.048081201050465
 20
117.53037232995371
 30
0.0
 11
75.352481201050466
 21
117.44947232995369
 31
0.0
  0
LINE
  5
ABA
  8
0
 39
5.0
 10
75.352481201050466
 20
117.44947232995369
 30
0.0
 11
75.626181201050471
 21
117.3455723299537
 31
0.0
  0
LINE
  5
ABB
  8
0
 39
5.0
 10
75.626181201050471
 20
117.3455723299537
 30
0.0
 11
75.861181201050471
 21
117.2184723299537
 31
0.0
  0
LINE
  5
ABC
  8
0
 39
5.0
 10
75.861181201050471
 20
117.2184723299537
 30
0.0
 11
76.049181201050459
 21
117.0683723299537
 31
0.0
  0
LINE
  5
ABD
  8
0
 39
5.0
 10
76.049181201050459
 20
117.0683723299537
 30
0.0
 11
76.182281201050472
 21
116.89507232995371
 31
0.0
  0
LINE
  5
ABE
  8
0
 39
5.0
 10
74.289669370595931
 20
117.6256761813524
 30
0.0
 11
74.380281201050465
 21
117.6226723299537
 31
0.0
  0
LINE
  5
AC0
  8
0
 10
76.472381201050467
 20
117.53587618135241
 30
0.0
 11
76.261681201050465
 21
117.3040761813524
 31
0.0
  0
DIMENSION
  5
AC2
  8
2
  2
*D1
 10
91.335731960606836
 20
108.1256761813524
 30
0.0
 11
89.460731960606793
 21
112.8756761813524
 31
0.0
 70
     0
 13
77.650733052902353
 23
117.6256761813524
 33
0.0
 14
79.139881201050457
 24
108.1256761813524
 34
0.0
 50
90.0
  0
DIMENSION
  5
ACF
  8
2
  2
*D2
 10
91.335731960606822
 20
93.125676181352446
 30
0.0
 11
89.460731960606793
 21
100.6256761813524
 31
0.0
 70
     0
 13
91.335731960606836
 23
108.1256761813524
 33
0.0
 14
79.139881201050457
 24
93.125676181352446
 34
0.0
 50
90.0
  0
DIMENSION
  5
ADC
  8
2
  2
*D3
 10
91.335731960606822
 20
58.625676181352453
 30
0.0
 11
89.460731960606793
 21
75.875676181352475
 31
0.0
 70
     0
 13
91.335731960606822
 23
93.125676181352446
 33
0.0
 14
77.482881201050446
 24
58.625676181352461
 34
0.0
 50
90.0
  0
DIMENSION
  5
AE9
  8
2
  2
*D4
 10
98.358664455927396
 20
58.625676181352461
 30
0.0
 11
96.483664455927382
 21
88.125676181352475
 31
0.0
 70
     0
  1
(<>)
 13
91.335731960606836
 23
117.6256761813524
 33
0.0
 14
91.335731960606822
 24
58.625676181352461
 34
0.0
 50
90.0
  0
LINE
  5
B03
  8
2
 10
77.076881201050483
 20
73.125676181352461
 30
0.0
 11
65.3010561518754
 21
73.125676181352461
 31
0.0
  0
DIMENSION
  5
B07
  8
2
  2
*D5
 10
63.465515389678217
 20
73.125676181352461
 30
0.0
 11
61.59051538967821
 21
83.125676181352475
 31
0.0
 70
     0
 13
69.139881201050457
 23
93.125676181352446
 33
0.0
 14
65.3010561518754
 24
73.125676181352461
 34
0.0
 50
90.0
  0
TEXT
  5
B17
  8
3
 10
53.013588642327932
 20
110.9652155395509
 30
0.0
 40
2.5
  1
H7
  0
TEXT
  5
B18
  8
3
 10
52.918243327887922
 20
104.20489467031661
 30
0.0
 40
2.5
  1
H14
  0
TEXT
  5
B1D
  8
3
 10
52.822898013447912
 20
99.192395203366132
 30
0.0
 40
2.5
  1
G1/8
  0
TEXT
  5
B1E
  8
3
 10
53.015287712492302
 20
66.114046407852015
 30
0.0
 40
2.5
  1
H7
  0
POLYLINE
  8
2
  5
BB0
  66
     1
 10
0.000000
 20
0.000000
 30
0.000000
  70
     8
  0
VERTEX
  8
2
  5
BB1
 10
70.1399
 20
112.887
 30
0.000000
  70
    32
  0
VERTEX
  8
2
  5
BB2
 10
57.6608
 20
110.516
 30
0.000000
  70
    32
  0
VERTEX
  8
2
  5
BB3
 10
52.0815
 20
110.516
 30
0.000000
  70
    32
  0
SEQEND
  8
2
  5
BB4
  0
POLYLINE
  8
2
  5
BB5
  66
     1
 10
0.000000
 20
0.000000
 30
0.000000
  70
     8
  0
VERTEX
  8
2
  5
BB6
 10
66.1399
 20
104.401
 30
0.000000
  70
    32
  0
VERTEX
  8
2
  5
BB7
 10
58.9113
 20
103.696
 30
0.000000
  70
    32
  0
VERTEX
  8
2
  5
BB8
 10
52.3701
 20
103.696
 30
0.000000
  70
    32
  0
SEQEND
  8
2
  5
BB9
  0
POLYLINE
  8
2
  5
BBA
  66
     1
 10
0.000000
 20
0.000000
 30
0.000000
  70
     8
  0
VERTEX
  8
2
  5
BBB
 10
69.1399
 20
95.1053
 30
0.000000
  70
    32
  0
VERTEX
  8
2
  5
BBC
 10
61.4124
 20
98.7584
 30
0.000000
  70
    32
  0
VERTEX
  8
2
  5
BBD
 10
52.2739
 20
98.7584
 30
0.000000
  70
    32
  0
SEQEND
  8
2
  5
BBE
  0
POLYLINE
  8
2
  5
BBF
  66
     1
 10
0.000000
 20
0.000000
 30
0.000000
  70
     8
  0
VERTEX
  8
2
  5
BC0
 10
70.1399
 20
62.0746
 30
0.000000
  70
    32
  0
VERTEX
  8
2
  5
BC1
 10
57.5646
 20
65.7163
 30
0.000000
  70
    32
  0
VERTEX
  8
2
  5
BC2
 10
52.0815
 20
65.7163
 30
0.000000
  70
    32
  0
SEQEND
  8
2
  5
BC3
  0
TEXT
  5
B6B
  8
3
 10
52.491832589040712
 20
118.0147369782153
 30
0.0
 40
2.5
  1
M5
  0
TEXT
  5
B72
  8
3
 10
53.233888889106197
 20
52.98118428805995
 30
0.0
 40
2.5
  1
M5
  0
POLYLINE
  8
2
  5
BC4
  66
     1
 10
0.000000
 20
0.000000
 30
0.000000
  70
     8
  0
VERTEX
  8
2
  5
BC5
 10
71.6399
 20
114.360
 30
0.000000
  70
    32
  0
VERTEX
  8
2
  5
BC6
 10
56.9244
 20
117.640
 30
0.000000
  70
    32
  0
VERTEX
  8
2
  5
BC7
 10
52.1771
 20
117.640
 30
0.000000
  70
    32
  0
SEQEND
  8
2
  5
BC8
  0
POLYLINE
  8
2
  5
BC9
  66
     1
 10
0.000000
 20
0.000000
 30
0.000000
  70
     8
  0
VERTEX
  8
2
  5
BCA
 10
71.6399
 20
61.6983
 30
0.000000
  70
    32
  0
VERTEX
  8
2
  5
BCB
 10
57.7584
 20
52.6929
 30
0.000000
  70
    32
  0
VERTEX
  8
2
  5
BCC
 10
53.0752
 20
52.6929
 30
0.000000
  70
    32
  0
SEQEND
  8
2
  5
BCD
  0
LINE
  5
B90
  8
3
 10
76.639881201050457
 20
111.09407618135241
 30
0.0
 11
71.639881201050457
 21
111.09407618135241
 31
0.0
  0
LINE
  5
B93
  8
3
 10
76.639881201050457
 20
64.770876181352463
 30
0.0
 11
71.639881201050457
 21
64.770876181352463
 31
0.0
  0
ENDSEC
  0
EOF
