  0
SECTION
  2
HEADER
  9
$ACADVER
  1
AC1009
  9
$INSBASE
 10
0.0
 20
0.0
 30
0.0
  9
$EXTMIN
 10
71.550429630359986
 20
26.942081450661469
 30
0.0
  9
$EXTMAX
 10
113.4856077073519
 20
97.630523409367527
 30
5.0
  9
$LIMMIN
 10
0.0
 20
0.0
  9
$LIMMAX
 10
420.0
 20
297.0
  9
$ORTHOMODE
 70
     0
  9
$REGENMODE
 70
     1
  9
$FILLMODE
 70
     1
  9
$QTEXTMODE
 70
     0
  9
$MIRRTEXT
 70
     1
  9
$DRAGMODE
 70
     2
  9
$LTSCALE
 40
0.3
  9
$OSMODE
 70
    37
  9
$ATTMODE
 70
     1
  9
$TEXTSIZE
 40
2.5
  9
$TRACEWID
 40
1.0
  9
$TEXTSTYLE
  7
STANDARD
  9
$CLAYER
  8
1
  9
$CELTYPE
  6
BYLAYER
  9
$CECOLOR
 62
   256
  9
$DIMSCALE
 40
1.0
  9
$DIMASZ
 40
2.5
  9
$DIMEXO
 40
0.625
  9
$DIMDLI
 40
3.75
  9
$DIMRND
 40
0.0
  9
$DIMDLE
 40
0.0
  9
$DIMEXE
 40
1.25
  9
$DIMTP
 40
0.0
  9
$DIMTM
 40
0.0
  9
$DIMTXT
 40
2.5
  9
$DIMCEN
 40
2.5
  9
$DIMTSZ
 40
0.0
  9
$DIMTOL
 70
     0
  9
$DIMLIM
 70
     0
  9
$DIMTIH
 70
     0
  9
$DIMTOH
 70
     0
  9
$DIMSE1
 70
     0
  9
$DIMSE2
 70
     0
  9
$DIMTAD
 70
     1
  9
$DIMZIN
 70
     8
  9
$DIMBLK
  1

  9
$DIMASO
 70
     1
  9
$DIMSHO
 70
     1
  9
$DIMPOST
  1

  9
$DIMAPOST
  1

  9
$DIMALT
 70
     0
  9
$DIMALTD
 70
     3
  9
$DIMALTF
 40
0.03937007874016
  9
$DIMLFAC
 40
1.0
  9
$DIMTOFL
 70
     1
  9
$DIMTVP
 40
0.0
  9
$DIMTIX
 70
     0
  9
$DIMSOXD
 70
     0
  9
$DIMSAH
 70
     0
  9
$DIMBLK1
  1

  9
$DIMBLK2
  1

  9
$DIMSTYLE
  2
ISO-25
  9
$DIMCLRD
 70
     0
  9
$DIMCLRE
 70
     0
  9
$DIMCLRT
 70
     0
  9
$DIMTFAC
 40
1.0
  9
$DIMGAP
 40
0.625
  9
$LUNITS
 70
     2
  9
$LUPREC
 70
     4
  9
$SKETCHINC
 40
1.0
  9
$FILLETRAD
 40
10.0
  9
$AUNITS
 70
     0
  9
$AUPREC
 70
     0
  9
$MENU
  1
.
  9
$ELEVATION
 40
0.0
  9
$PELEVATION
 40
0.0
  9
$THICKNESS
 40
0.0
  9
$LIMCHECK
 70
     0
  9
$BLIPMODE
 70
     0
  9
$CHAMFERA
 40
10.0
  9
$CHAMFERB
 40
10.0
  9
$SKPOLY
 70
     0
  9
$TDCREATE
 40
2453446.436339525
  9
$TDUPDATE
 40
2453551.933541886
  9
$TDINDWG
 40
0.0667630324
  9
$TDUSRTIMER
 40
0.0667629167
  9
$USRTIMER
 70
     1
  9
$ANGBASE
 50
0.0
  9
$ANGDIR
 70
     0
  9
$PDMODE
 70
     0
  9
$PDSIZE
 40
0.0
  9
$PLINEWID
 40
0.0
  9
$COORDS
 70
     1
  9
$SPLFRAME
 70
     0
  9
$SPLINETYPE
 70
     6
  9
$SPLINESEGS
 70
     8
  9
$ATTDIA
 70
     0
  9
$ATTREQ
 70
     1
  9
$HANDLING
 70
-16383
  9
$HANDSEED
  5
CA2
  9
$SURFTAB1
 70
     6
  9
$SURFTAB2
 70
     6
  9
$SURFTYPE
 70
     6
  9
$SURFU
 70
     6
  9
$SURFV
 70
     6
  9
$UCSNAME
  2

  9
$UCSORG
 10
0.0
 20
0.0
 30
0.0
  9
$UCSXDIR
 10
1.0
 20
0.0
 30
0.0
  9
$UCSYDIR
 10
0.0
 20
1.0
 30
0.0
  9
$PUCSNAME
  2

  9
$PUCSORG
 10
0.0
 20
0.0
 30
0.0
  9
$PUCSXDIR
 10
1.0
 20
0.0
 30
0.0
  9
$PUCSYDIR
 10
0.0
 20
1.0
 30
0.0
  9
$USERI1
 70
     0
  9
$USERI2
 70
     0
  9
$USERI3
 70
     0
  9
$USERI4
 70
     0
  9
$USERI5
 70
     0
  9
$USERR1
 40
0.0
  9
$USERR2
 40
0.0
  9
$USERR3
 40
0.0
  9
$USERR4
 40
0.0
  9
$USERR5
 40
0.0
  9
$WORLDVIEW
 70
     1
  9
$SHADEDGE
 70
     3
  9
$SHADEDIF
 70
    70
  9
$TILEMODE
 70
     1
  9
$MAXACTVP
 70
    64
  9
$PLIMCHECK
 70
     0
  9
$PEXTMIN
 10
1.0000000000000000E+020
 20
1.0000000000000000E+020
 30
1.0000000000000000E+020
  9
$PEXTMAX
 10
-1.0000000000000000E+020
 20
-1.0000000000000000E+020
 30
-1.0000000000000000E+020
  9
$PLIMMIN
 10
0.0
 20
0.0
  9
$PLIMMAX
 10
420.0
 20
297.0
  9
$UNITMODE
 70
     0
  9
$VISRETAIN
 70
     1
  9
$PLINEGEN
 70
     0
  9
$PSLTSCALE
 70
     1
  0
ENDSEC
  0
SECTION
  2
TABLES
  0
TABLE
  2
VPORT
 70
     2
  0
VPORT
  2
*ACTIVE
 70
     0
 10
0.0
 20
0.0
 11
1.0
 21
1.0
 12
131.7272251714902
 22
72.122065264144183
 13
0.0
 23
0.0
 14
10.0
 24
10.0
 15
10.0
 25
10.0
 16
0.0
 26
0.0
 36
1.0
 17
0.0
 27
0.0
 37
0.0
 40
94.158768795285852
 41
2.5392405063291141
 42
50.0
 43
0.0
 44
0.0
 50
0.0
 51
0.0
 71
     0
 72
   100
 73
     1
 74
     3
 75
     0
 76
     0
 77
     0
 78
     0
  0
ENDTAB
  0
TABLE
  2
LTYPE
 70
     3
  0
LTYPE
  2
CONTINUOUS
 70
     0
  3
Solid line
 72
    65
 73
     0
 40
0.0
  0
LTYPE
  2
CENTER
 70
     0
  3
Center ____ _ ____ _ ____ _ ____ _ ____ _ ____
 72
    65
 73
     4
 40
50.799999999999997
 49
31.75
 49
-6.3499999999999988
 49
6.3499999999999988
 49
-6.3499999999999988
  0
LTYPE
  2
DASHED2
 70
     0
  3
Dashed (.5x) _ _ _ _ _ _ _ _ _ _ _ _ _ _ _ _ _
 72
    65
 73
     2
 40
9.5249999999999986
 49
6.3499999999999988
 49
-3.1749999999999989
  0
ENDTAB
  0
TABLE
  2
LAYER
 70
     5
  0
LAYER
  2
0
 70
     0
 62
     7
  6
CONTINUOUS
  0
LAYER
  2
DEFPOINTS
 70
     0
 62
     7
  6
CONTINUOUS
  0
LAYER
  2
1
 70
     0
 62
     7
  6
CENTER
  0
LAYER
  2
2
 70
     0
 62
     7
  6
CONTINUOUS
  0
LAYER
  2
3
 70
     0
 62
     7
  6
DASHED2
  0
ENDTAB
  0
TABLE
  2
STYLE
 70
     4
  0
STYLE
  2
STANDARD
 70
     0
 40
0.0
 41
1.0
 50
0.0
 71
     0
 42
2.5
  3
txt
  4

  0
STYLE
  2
\U+00C9L\U+00C9R_\U+00C2S\U+00C2V\U+00C2B\U+00C2N
 70
     0
 40
1.0
 41
1.0
 50
0.0
 71
     0
 42
1.0
  3
\U+00E9l\U+00E9r \U+00E2S\U+00E2V\U+00E2b\U+00E2N
  4

  0
STYLE
  2
SWIS721_CN_BT
 70
     0
 40
1.0
 41
1.0
 50
0.0
 71
     0
 42
1.0
  3
Swis721 Cn BT
  4

  0
STYLE
  2

 70
     1
 40
0.0
 41
1.0
 50
0.0
 71
     0
 42
2.5
  3
ltypeshp.shx
  4

  0
ENDTAB
  0
TABLE
  2
VIEW
 70
     0
  0
ENDTAB
  0
TABLE
  2
UCS
 70
     0
  0
ENDTAB
  0
TABLE
  2
APPID
 70
     1
  0
APPID
  2
ACAD
 70
     0
  0
ENDTAB
  0
TABLE
  2
DIMSTYLE
 70
     2
  0
DIMSTYLE
  2
ISO-25
 70
     0
  3

  4

  5

  6

  7

 40
1.0
 41
2.5
 42
0.625
 43
3.75
 44
1.25
 45
0.0
 46
0.0
 47
0.0
 48
0.0
140
2.5
141
2.5
142
0.0
143
0.03937007874016
144
1.0
145
0.0
146
1.0
147
0.625
 71
     0
 72
     0
 73
     0
 74
     0
 75
     0
 76
     0
 77
     1
 78
     8
170
     0
171
     3
172
     1
173
     0
174
     0
175
     0
176
     0
177
     0
178
     0
  0
DIMSTYLE
  2
STANDARD
 70
     0
  3

  4

  5

  6

  7

 40
1.0
 41
0.18
 42
0.0625
 43
0.38
 44
0.18
 45
0.0
 46
0.0
 47
0.0
 48
0.0
140
0.18
141
0.09
142
0.0
143
25.399999999999999
144
1.0
145
0.0
146
1.0
147
0.09
 71
     0
 72
     0
 73
     1
 74
     1
 75
     0
 76
     0
 77
     0
 78
     0
170
     0
171
     2
172
     0
173
     0
174
     0
175
     0
176
     0
177
     0
178
     0
  0
ENDTAB
  0
ENDSEC
  0
SECTION
  2
BLOCKS
  0
BLOCK
  8
0
  2
$MODEL_SPACE
 70
     0
 10
0.0
 20
0.0
 30
0.0
  3
$MODEL_SPACE
  1

  0
ENDBLK
  5
21
  8
0
  0
BLOCK
 67
     1
  8
0
  2
$PAPER_SPACE
 70
     0
 10
0.0
 20
0.0
 30
0.0
  3
$PAPER_SPACE
  1

  0
ENDBLK
  5
1D
 67
     1
  8
0
  0
BLOCK
  8
0
  2
*D1
 70
     1
 10
0.0
 20
0.0
 30
0.0
  3
*D1
  1

  0
LINE
  5
BA5
  8
2
 62
     0
 10
93.129642311713866
 20
96.553821617084182
 30
0.0
 11
106.5906140415932
 21
96.553821617084154
 31
0.0
  0
LINE
  5
BA6
  8
2
 62
     0
 10
93.448709181014763
 20
87.053821617084196
 30
0.0
 11
106.5906140415932
 21
87.053821617084168
 31
0.0
  0
LINE
  5
BA7
  8
2
 62
     0
 10
105.3406140415932
 20
94.053821617084154
 30
0.0
 11
105.3406140415932
 21
89.553821617084168
 31
0.0
  0
SOLID
  5
BA8
  8
2
 62
     0
 10
104.9239473749265
 20
94.053821617084154
 30
0.0
 11
105.7572807082598
 21
94.053821617084154
 31
0.0
 12
105.3406140415932
 22
96.553821617084154
 32
0.0
 13
105.3406140415932
 23
96.553821617084154
 33
0.0
  0
SOLID
  5
BA9
  8
2
 62
     0
 10
104.9239473749265
 20
89.553821617084168
 30
0.0
 11
105.7572807082598
 21
89.553821617084168
 31
0.0
 12
105.3406140415932
 22
87.053821617084168
 32
0.0
 13
105.3406140415932
 23
87.053821617084168
 33
0.0
  0
TEXT
  5
BAA
  8
1
 62
     0
 10
104.7156140415931
 20
89.303821617084196
 30
0.0
 40
2.5
  1
9.5
 50
90.0
  0
POINT
  5
BAB
  8
DEFPOINTS
 62
     0
 10
92.504642311713866
 20
96.553821617084182
 30
0.0
  0
POINT
  5
BAC
  8
DEFPOINTS
 62
     0
 10
92.823709181014763
 20
87.053821617084196
 30
0.0
  0
POINT
  5
BAD
  8
DEFPOINTS
 62
     0
 10
105.3406140415932
 20
87.053821617084168
 30
0.0
  0
ENDBLK
  5
BA4
  8
0
  0
BLOCK
  8
0
  2
*D2
 70
     1
 10
0.0
 20
0.0
 30
0.0
  3
*D2
  1

  0
LINE
  5
BB0
  8
2
 62
     0
 10
104.7156140415931
 20
87.053821617084168
 30
0.0
 11
104.0906140415932
 21
87.053821617084168
 31
0.0
  0
LINE
  5
BB1
  8
2
 62
     0
 10
94.786642311713834
 20
72.053821617084182
 30
0.0
 11
106.5906140415932
 21
72.053821617084168
 31
0.0
  0
LINE
  5
BB2
  8
2
 62
     0
 10
105.3406140415932
 20
84.553821617084168
 30
0.0
 11
105.3406140415932
 21
74.553821617084168
 31
0.0
  0
SOLID
  5
BB3
  8
2
 62
     0
 10
104.9239473749265
 20
84.553821617084168
 30
0.0
 11
105.7572807082598
 21
84.553821617084168
 31
0.0
 12
105.3406140415932
 22
87.053821617084168
 32
0.0
 13
105.3406140415932
 23
87.053821617084168
 33
0.0
  0
SOLID
  5
BB4
  8
2
 62
     0
 10
104.9239473749265
 20
74.553821617084168
 30
0.0
 11
105.7572807082598
 21
74.553821617084168
 31
0.0
 12
105.3406140415932
 22
72.053821617084168
 32
0.0
 13
105.3406140415932
 23
72.053821617084168
 33
0.0
  0
TEXT
  5
BB5
  8
1
 62
     0
 10
104.7156140415931
 20
77.887154950417525
 30
0.0
 40
2.5
  1
15
 50
90.0
  0
POINT
  5
BB6
  8
DEFPOINTS
 62
     0
 10
105.3406140415932
 20
87.053821617084168
 30
0.0
  0
POINT
  5
BB7
  8
DEFPOINTS
 62
     0
 10
94.161642311713834
 20
72.053821617084182
 30
0.0
  0
POINT
  5
BB8
  8
DEFPOINTS
 62
     0
 10
105.3406140415932
 20
72.053821617084168
 30
0.0
  0
ENDBLK
  5
BBA
  8
0
  0
BLOCK
  8
0
  2
*D3
 70
     1
 10
0.0
 20
0.0
 30
0.0
  3
*D3
  1

  0
LINE
  5
C48
  8
2
 62
     0
 10
104.7156140415931
 20
72.053821617084168
 30
0.0
 11
104.0906140415932
 21
72.053821617084168
 31
0.0
  0
LINE
  5
C49
  8
2
 62
     0
 10
92.086642311713845
 20
37.553821617084189
 30
0.0
 11
106.5906140415932
 21
37.553821617084189
 31
0.0
  0
LINE
  5
C4A
  8
2
 62
     0
 10
105.3406140415932
 20
69.553821617084168
 30
0.0
 11
105.3406140415932
 21
40.053821617084189
 31
0.0
  0
SOLID
  5
C4B
  8
2
 62
     0
 10
104.9239473749265
 20
69.553821617084168
 30
0.0
 11
105.7572807082598
 21
69.553821617084168
 31
0.0
 12
105.3406140415932
 22
72.053821617084168
 32
0.0
 13
105.3406140415932
 23
72.053821617084168
 33
0.0
  0
SOLID
  5
C4C
  8
2
 62
     0
 10
104.9239473749265
 20
40.053821617084189
 30
0.0
 11
105.7572807082598
 21
40.053821617084189
 31
0.0
 12
105.3406140415932
 22
37.553821617084189
 32
0.0
 13
105.3406140415932
 23
37.553821617084189
 33
0.0
  0
TEXT
  5
C4D
  8
1
 62
     0
 10
104.7156140415931
 20
51.053821617084189
 30
0.0
 40
2.5
  1
34.5
 50
90.0
  0
POINT
  5
C4E
  8
DEFPOINTS
 62
     0
 10
105.3406140415932
 20
72.053821617084168
 30
0.0
  0
POINT
  5
C4F
  8
DEFPOINTS
 62
     0
 10
91.461642311713845
 20
37.553821617084189
 30
0.0
  0
POINT
  5
C50
  8
DEFPOINTS
 62
     0
 10
105.3406140415932
 20
37.553821617084189
 30
0.0
  0
ENDBLK
  5
BC7
  8
0
  0
BLOCK
  8
0
  2
*D4
 70
     1
 10
0.0
 20
0.0
 30
0.0
  3
*D4
  1

  0
LINE
  5
C3F
  8
2
 62
     0
 10
105.9656140415932
 20
96.553821617084154
 30
0.0
 11
113.4856077073519
 21
96.553821617084154
 31
0.0
  0
LINE
  5
C40
  8
2
 62
     0
 10
105.9656140415931
 20
37.553821617084189
 30
0.0
 11
113.4856077073519
 21
37.553821617084182
 31
0.0
  0
LINE
  5
C41
  8
2
 62
     0
 10
112.2356077073519
 20
94.053821617084154
 30
0.0
 11
112.2356077073519
 21
40.053821617084182
 31
0.0
  0
SOLID
  5
C42
  8
2
 62
     0
 10
111.8189410406852
 20
94.053821617084154
 30
0.0
 11
112.6522743740186
 21
94.053821617084154
 31
0.0
 12
112.2356077073519
 22
96.553821617084154
 32
0.0
 13
112.2356077073519
 23
96.553821617084154
 33
0.0
  0
SOLID
  5
C43
  8
2
 62
     0
 10
111.8189410406852
 20
40.053821617084189
 30
0.0
 11
112.6522743740186
 21
40.053821617084182
 31
0.0
 12
112.2356077073519
 22
37.553821617084182
 32
0.0
 13
112.2356077073519
 23
37.553821617084182
 33
0.0
  0
TEXT
  5
C44
  8
1
 62
     0
 10
111.6106077073519
 20
63.303821617084203
 30
0.0
 40
2.5
  1
(59)
 50
90.0
  0
POINT
  5
C45
  8
DEFPOINTS
 62
     0
 10
105.3406140415932
 20
96.553821617084154
 30
0.0
  0
POINT
  5
C46
  8
DEFPOINTS
 62
     0
 10
105.3406140415932
 20
37.553821617084189
 30
0.0
  0
POINT
  5
C47
  8
DEFPOINTS
 62
     0
 10
112.2356077073519
 20
37.553821617084182
 30
0.0
  0
ENDBLK
  5
BD5
  8
0
  0
BLOCK
  8
0
  2
*D5
 70
     1
 10
0.0
 20
0.0
 30
0.0
  3
*D5
  1

  0
LINE
  5
C31
  8
2
 62
     0
 10
83.786042311713857
 20
72.053821617084182
 30
0.0
 11
75.276177779882573
 21
72.053821617084182
 31
0.0
  0
LINE
  5
C32
  8
2
 62
     0
 10
82.332041887254377
 20
52.053821617084182
 30
0.0
 11
75.276177779882573
 21
52.053821617084189
 31
0.0
  0
LINE
  5
C33
  8
2
 62
     0
 10
76.526177779882573
 20
69.553821617084182
 30
0.0
 11
76.526177779882573
 21
54.553821617084189
 31
0.0
  0
SOLID
  5
C34
  8
2
 62
     0
 10
76.109511113215902
 20
69.553821617084182
 30
0.0
 11
76.942844446549245
 21
69.553821617084182
 31
0.0
 12
76.526177779882573
 22
72.053821617084182
 32
0.0
 13
76.526177779882573
 23
72.053821617084182
 33
0.0
  0
SOLID
  5
C35
  8
2
 62
     0
 10
76.109511113215902
 20
54.553821617084189
 30
0.0
 11
76.942844446549245
 21
54.553821617084189
 31
0.0
 12
76.526177779882573
 22
52.053821617084189
 32
0.0
 13
76.526177779882573
 23
52.053821617084189
 33
0.0
  0
TEXT
  5
C36
  8
1
 62
     0
 10
75.901177779882559
 20
60.178821617084189
 30
0.0
 40
2.5
  1
20
 50
90.0
  0
POINT
  5
C37
  8
DEFPOINTS
 62
     0
 10
84.411042311713857
 20
72.053821617084182
 30
0.0
  0
POINT
  5
C38
  8
DEFPOINTS
 62
     0
 10
82.957041887254377
 20
52.053821617084182
 30
0.0
  0
POINT
  5
C39
  8
DEFPOINTS
 62
     0
 10
76.526177779882573
 20
52.053821617084189
 30
0.0
  0
ENDBLK
  5
BF2
  8
0
  0
ENDSEC
  0
SECTION
  2
ENTITIES
  0
TEXT
  5
3B3
  8
2
 10
55.330306342248832
 20
26.942081450661469
 30
0.0
 40
2.5399440000000002
  1
             50.153
 51
-0.0000015352344868
  7
\U+00C9L\U+00C9R_\U+00C2S\U+00C2V\U+00C2B\U+00C2N
  0
LINE
  5
870
  8
0
 39
5.0
 10
87.252342311713846
 20
44.08795619579039
 30
0.0
 11
87.126674910304956
 21
43.964082694176213
 31
0.0
  0
LINE
  5
871
  8
0
 39
5.0
 10
87.440342311713849
 20
44.201656195790399
 30
0.0
 11
87.252342311713846
 21
44.08795619579039
 31
0.0
  0
LINE
  5
872
  8
0
 39
5.0
 10
87.675342311713848
 20
44.297856195790388
 30
0.0
 11
87.440342311713849
 21
44.201656195790399
 31
0.0
  0
LINE
  5
873
  8
0
 39
5.0
 10
87.949042311713839
 20
44.376456195790389
 30
0.0
 11
87.675342311713848
 21
44.297856195790388
 31
0.0
  0
LINE
  5
874
  8
0
 39
5.0
 10
88.253442311713854
 20
44.437656195790382
 30
0.0
 11
87.949042311713839
 21
44.376456195790389
 31
0.0
  0
LINE
  5
875
  8
0
 39
5.0
 10
88.840306156107431
 20
44.516156195790387
 30
0.0
 11
88.253442311713854
 21
44.437656195790382
 31
0.0
  0
LINE
  5
878
  8
2
 39
5.0
 10
84.411042311713885
 20
78.997421617084157
 30
0.0
 11
84.411042311713857
 21
72.053821617084182
 31
0.0
  0
LINE
  5
879
  8
2
 39
5.0
 10
84.411042311713857
 20
81.997421617084157
 30
0.0
 11
84.411042311713857
 21
81.611621617084182
 31
0.0
  0
LINE
  5
87A
  8
0
 39
5.0
 10
86.224642311713851
 20
72.053821617084182
 30
0.0
 11
86.224642311713851
 21
44.516156195790387
 31
0.0
  0
LINE
  5
8AE
  8
0
 39
5.0
 10
88.215742311713853
 20
81.997421617084171
 30
0.0
 11
88.662742311713856
 21
81.99052161708417
 31
0.0
  0
LINE
  5
8AF
  8
0
 39
5.0
 10
87.775442311713846
 20
82.018021617084173
 30
0.0
 11
88.215742311713853
 21
81.997421617084171
 31
0.0
  0
LINE
  5
8B0
  8
0
 39
5.0
 10
87.342042311713854
 20
82.052221617084186
 30
0.0
 11
87.775442311713846
 21
82.018021617084173
 31
0.0
  0
LINE
  5
8B1
  8
0
 39
5.0
 10
86.915242311713854
 20
82.100021617084167
 30
0.0
 11
87.342042311713854
 21
82.052221617084186
 31
0.0
  0
LINE
  5
8B2
  8
0
 39
5.0
 10
86.495542311713834
 20
82.161621617084165
 30
0.0
 11
86.915242311713854
 21
82.100021617084167
 31
0.0
  0
LINE
  5
8B3
  8
0
 39
5.0
 10
86.082442311713848
 20
82.236921617084178
 30
0.0
 11
86.495542311713834
 21
82.161621617084165
 31
0.0
  0
LINE
  5
8B4
  8
0
 39
5.0
 10
85.676242311713835
 20
82.325821617084173
 30
0.0
 11
86.082442311713848
 21
82.236921617084178
 31
0.0
  0
LINE
  5
8B5
  8
0
 39
5.0
 10
85.257742311713841
 20
82.433196460638626
 30
0.0
 11
85.676242311713835
 21
82.325821617084173
 31
0.0
  0
LINE
  5
8B6
  8
0
 39
5.0
 10
85.276742311713875
 20
82.428321617084194
 30
0.0
 11
85.276742311713875
 21
82.428321617084194
 31
0.0
  0
LINE
  5
8B7
  8
0
 39
5.0
 10
85.668642311713839
 20
84.283121617084177
 30
0.0
 11
85.257742311713855
 21
84.180321617084175
 31
0.0
  0
LINE
  5
8B8
  8
0
 39
5.0
 10
86.082242311713856
 20
84.372021617084187
 30
0.0
 11
85.668642311713839
 21
84.283121617084177
 31
0.0
  0
LINE
  5
8B9
  8
0
 39
5.0
 10
86.499142311713854
 20
84.447321617084185
 30
0.0
 11
86.082242311713856
 21
84.372021617084187
 31
0.0
  0
LINE
  5
8BA
  8
0
 39
5.0
 10
86.919742311713861
 20
84.508821617084195
 30
0.0
 11
86.499142311713854
 21
84.447321617084185
 31
0.0
  0
LINE
  5
8BB
  8
0
 39
5.0
 10
87.345042311713854
 20
84.556821617084182
 30
0.0
 11
86.919742311713861
 21
84.508821617084195
 31
0.0
  0
LINE
  5
8BC
  8
0
 39
5.0
 10
87.775242311713853
 20
84.591021617084181
 30
0.0
 11
87.345042311713854
 21
84.556821617084182
 31
0.0
  0
LINE
  5
8BD
  8
0
 39
5.0
 10
88.211142311713829
 20
84.611621617084182
 30
0.0
 11
87.775242311713853
 21
84.591021617084181
 31
0.0
  0
LINE
  5
8BE
  8
0
 39
5.0
 10
88.65314231171385
 20
84.618321617084177
 30
0.0
 11
88.211142311713829
 21
84.611621617084182
 31
0.0
  0
LINE
  5
8C1
  8
0
 39
5.0
 10
85.257742311713855
 20
82.428321617084194
 30
0.0
 11
85.257742311713855
 21
84.180321617084175
 31
0.0
  0
LINE
  5
8C2
  8
0
 39
5.0
 10
84.953842311713856
 20
82.325821617084173
 30
0.0
 11
85.257742311713855
 21
82.428321617084194
 31
0.0
  0
LINE
  5
8C3
  8
0
 39
5.0
 10
84.653942311713848
 20
82.236921617084178
 30
0.0
 11
84.953842311713856
 21
82.325821617084173
 31
0.0
  0
LINE
  5
8C4
  8
0
 39
5.0
 10
84.358242311713866
 20
82.161621617084165
 30
0.0
 11
84.653942311713848
 21
82.236921617084178
 31
0.0
  0
LINE
  5
8C5
  8
0
 39
5.0
 10
84.066642311713849
 20
82.100021617084167
 30
0.0
 11
84.358242311713866
 21
82.161621617084165
 31
0.0
  0
LINE
  5
8C6
  8
0
 39
5.0
 10
83.779242311713858
 20
82.052221617084186
 30
0.0
 11
84.066642311713849
 21
82.100021617084167
 31
0.0
  0
LINE
  5
8C7
  8
0
 39
5.0
 10
83.495842311713858
 20
82.018021617084173
 30
0.0
 11
83.779242311713858
 21
82.052221617084186
 31
0.0
  0
LINE
  5
8C8
  8
0
 39
5.0
 10
83.216542311713837
 20
81.997421617084171
 30
0.0
 11
83.495842311713858
 21
82.018021617084173
 31
0.0
  0
LINE
  5
8CB
  8
0
 39
5.0
 10
82.687542311713827
 20
82.018021617084173
 30
0.0
 11
82.954342311713845
 21
81.997421617084171
 31
0.0
  0
LINE
  5
8CC
  8
0
 39
5.0
 10
82.424842311713832
 20
82.052221617084186
 30
0.0
 11
82.687542311713827
 21
82.018021617084173
 31
0.0
  0
LINE
  5
8CD
  8
0
 39
5.0
 10
82.16624231171383
 20
82.100021617084167
 30
0.0
 11
82.424842311713832
 21
82.052221617084186
 31
0.0
  0
LINE
  5
8CE
  8
0
 39
5.0
 10
81.911842311713841
 20
82.161621617084165
 30
0.0
 11
82.16624231171383
 21
82.100021617084167
 31
0.0
  0
LINE
  5
8CF
  8
0
 39
5.0
 10
81.661442311713856
 20
82.236921617084178
 30
0.0
 11
81.911842311713841
 21
82.161621617084165
 31
0.0
  0
LINE
  5
8D0
  8
0
 39
5.0
 10
81.41524231171384
 20
82.325821617084173
 30
0.0
 11
81.661442311713856
 21
82.236921617084178
 31
0.0
  0
LINE
  5
8D1
  8
0
 39
5.0
 10
81.161642311713848
 20
82.433190472928871
 30
0.0
 11
81.41524231171384
 21
82.325821617084173
 31
0.0
  0
LINE
  5
8D2
  8
0
 39
5.0
 10
81.173142311713818
 20
82.428321617084194
 30
0.0
 11
81.173142311713818
 21
82.428321617084194
 31
0.0
  0
LINE
  5
8D3
  8
0
 39
5.0
 10
81.410742311713847
 20
84.283121617084177
 30
0.0
 11
81.161642311713848
 21
84.180321617084175
 31
0.0
  0
LINE
  5
8D4
  8
0
 39
5.0
 10
81.661342311713824
 20
84.372021617084187
 30
0.0
 11
81.410742311713847
 21
84.283121617084177
 31
0.0
  0
LINE
  5
8D5
  8
0
 39
5.0
 10
81.914042311713843
 20
84.447321617084185
 30
0.0
 11
81.661342311713824
 21
84.372021617084187
 31
0.0
  0
LINE
  5
8D6
  8
0
 39
5.0
 10
82.168942311713835
 20
84.508821617084195
 30
0.0
 11
81.914042311713843
 21
84.447321617084185
 31
0.0
  0
LINE
  5
8D7
  8
0
 39
5.0
 10
82.426742311713824
 20
84.556821617084182
 30
0.0
 11
82.168942311713835
 21
84.508821617084195
 31
0.0
  0
LINE
  5
8D8
  8
0
 39
5.0
 10
82.687442311713838
 20
84.591021617084181
 30
0.0
 11
82.426742311713824
 21
84.556821617084182
 31
0.0
  0
LINE
  5
8D9
  8
0
 39
5.0
 10
82.95164231171384
 20
84.611621617084182
 30
0.0
 11
82.687442311713838
 21
84.591021617084181
 31
0.0
  0
LINE
  5
8DC
  8
0
 39
5.0
 10
83.484342311713846
 20
84.591021617084181
 30
0.0
 11
83.207742311713844
 21
84.611621617084182
 31
0.0
  0
LINE
  5
8DD
  8
0
 39
5.0
 10
83.765842311713854
 20
84.556821617084182
 30
0.0
 11
83.484342311713846
 21
84.591021617084181
 31
0.0
  0
LINE
  5
8DE
  8
0
 39
5.0
 10
84.052342311713858
 20
84.508821617084195
 30
0.0
 11
83.765842311713854
 21
84.556821617084182
 31
0.0
  0
LINE
  5
8DF
  8
0
 39
5.0
 10
84.344642311713841
 20
84.447321617084185
 30
0.0
 11
84.052342311713858
 21
84.508821617084195
 31
0.0
  0
LINE
  5
8E0
  8
0
 39
5.0
 10
84.642642311713843
 20
84.372021617084187
 30
0.0
 11
84.344642311713841
 21
84.447321617084185
 31
0.0
  0
LINE
  5
8E1
  8
0
 39
5.0
 10
84.946942311713855
 20
84.283121617084177
 30
0.0
 11
84.642642311713843
 21
84.372021617084187
 31
0.0
  0
LINE
  5
8E2
  8
0
 39
5.0
 10
85.257742311713855
 20
84.180321617084175
 30
0.0
 11
84.946942311713855
 21
84.283121617084177
 31
0.0
  0
LINE
  5
8E3
  8
0
 39
5.0
 10
85.257742311713855
 20
84.180321617084175
 30
0.0
 11
85.257742311713855
 21
84.180321617084175
 31
0.0
  0
LINE
  5
8E4
  8
0
 39
5.0
 10
86.224642311713851
 20
44.516156195790387
 30
0.0
 11
89.161642311713834
 21
44.516156195790387
 31
0.0
  0
LINE
  5
8E5
  8
0
 39
5.0
 10
84.161642311713834
 20
72.053821617084182
 30
0.0
 11
89.161642311713834
 21
72.053821617084182
 31
0.0
  0
LINE
  5
8E6
  8
2
 39
5.0
 10
84.411042311713857
 20
87.053821617084196
 30
0.0
 11
84.411042311713857
 21
84.611621617084182
 31
0.0
  0
LINE
  5
8ED
  8
0
 10
88.161642311713834
 20
47.516156195790387
 30
0.0
 11
88.161642311713834
 21
72.053821617084182
 31
0.0
  0
LINE
  5
8F0
  8
0
 10
85.81864231171383
 20
37.553821617084189
 30
0.0
 11
89.161642311713834
 21
37.553821617084189
 31
0.0
  0
ARC
  5
8F2
  8
0
 10
89.161642311713834
 20
47.516156195790387
 30
0.0
 40
1.0
 50
180.0
 51
270.0
  0
LINE
  5
8FA
  8
0
 10
82.95164231171384
 20
84.611621617084182
 30
0.0
 11
89.161642311713834
 21
84.611621617084182
 31
0.0
  0
LINE
  5
8FB
  8
0
 10
82.954342311713845
 20
81.997421617084171
 30
0.0
 11
89.161642311713834
 21
81.997421617084171
 31
0.0
  0
LINE
  5
8FD
  8
0
 10
84.161642311713834
 20
87.053821617084196
 30
0.0
 11
89.161642311713834
 21
87.053821617084196
 31
0.0
  0
LINE
  5
900
  8
0
 10
81.161642311713848
 20
84.180321617084175
 30
0.0
 11
81.161642311713848
 21
82.433190472928871
 31
0.0
  0
LINE
  5
901
  8
0
 10
85.81864231171383
 20
96.553821617084182
 30
0.0
 11
89.161642311713834
 21
96.553821617084182
 31
0.0
  0
LINE
  5
912
  8
1
 10
89.161642311713834
 20
97.053821617084196
 30
0.0
 11
89.161642311713834
 21
37.053821617084189
 31
0.0
  0
LINE
  5
91C
  8
0
 39
5.0
 10
88.456709729391505
 20
96.553821617084182
 30
0.0
 11
88.253442311713854
 21
96.51792161708417
 31
0.0
  0
LINE
  5
91D
  8
0
 39
5.0
 10
88.253442311713854
 20
96.51792161708417
 30
0.0
 11
87.949042311713839
 21
96.437021617084184
 31
0.0
  0
LINE
  5
91E
  8
0
 39
5.0
 10
87.949042311713839
 20
96.437021617084184
 30
0.0
 11
87.675342311713848
 21
96.333121617084174
 31
0.0
  0
LINE
  5
91F
  8
0
 39
5.0
 10
87.675342311713848
 20
96.333121617084174
 30
0.0
 11
87.440342311713849
 21
96.206021617084176
 31
0.0
  0
LINE
  5
920
  8
0
 39
5.0
 10
87.440342311713849
 20
96.206021617084176
 30
0.0
 11
87.252342311713846
 21
96.055921617084181
 31
0.0
  0
LINE
  5
921
  8
0
 39
5.0
 10
87.252342311713846
 20
96.055921617084181
 30
0.0
 11
87.119242311713847
 21
95.882621617084169
 31
0.0
  0
LINE
  5
922
  8
0
 39
5.0
 10
87.119242311713847
 20
95.882621617084169
 30
0.0
 11
87.119242311713847
 21
87.669721617084178
 31
0.0
  0
LINE
  5
923
  8
0
 39
5.0
 10
86.462242311713865
 20
96.553821617084182
 30
0.0
 11
85.81864231171383
 21
96.553821617084182
 31
0.0
  0
LINE
  5
924
  8
0
 39
5.0
 10
85.81864231171383
 20
96.553821617084182
 30
0.0
 11
85.81864231171383
 21
96.553821617084182
 31
0.0
  0
LINE
  5
925
  8
0
 39
5.0
 10
85.81864231171383
 20
96.553821617084182
 30
0.0
 11
85.751842311713816
 21
96.550521617084186
 31
0.0
  0
LINE
  5
926
  8
0
 39
5.0
 10
85.751842311713816
 20
96.550521617084186
 30
0.0
 11
85.686842311713832
 21
96.540521617084195
 31
0.0
  0
LINE
  5
927
  8
0
 39
5.0
 10
85.686842311713832
 20
96.540521617084195
 30
0.0
 11
85.624042311713836
 21
96.524321617084183
 31
0.0
  0
LINE
  5
928
  8
0
 39
5.0
 10
85.624042311713836
 20
96.524321617084183
 30
0.0
 11
85.563642311713835
 21
96.502121617084185
 31
0.0
  0
LINE
  5
929
  8
0
 39
5.0
 10
85.563642311713835
 20
96.502121617084185
 30
0.0
 11
85.506342311713837
 21
96.474421617084175
 31
0.0
  0
LINE
  5
92A
  8
0
 39
5.0
 10
85.506342311713837
 20
96.474421617084175
 30
0.0
 11
85.452042311713839
 21
96.441421617084174
 31
0.0
  0
LINE
  5
92B
  8
0
 39
5.0
 10
85.452042311713839
 20
96.441421617084174
 30
0.0
 11
85.401442311713836
 21
96.403521617084195
 31
0.0
  0
LINE
  5
92C
  8
0
 39
5.0
 10
85.401442311713836
 20
96.403521617084195
 30
0.0
 11
85.354642311713832
 21
96.360921617084173
 31
0.0
  0
LINE
  5
92D
  8
0
 39
5.0
 10
85.354642311713832
 20
96.360921617084173
 30
0.0
 11
85.312342311713849
 21
96.314321617084175
 31
0.0
  0
LINE
  5
92E
  8
0
 39
5.0
 10
85.312342311713849
 20
96.314321617084175
 30
0.0
 11
85.274342311713824
 21
96.263721617084173
 31
0.0
  0
LINE
  5
92F
  8
0
 39
5.0
 10
85.274342311713824
 20
96.263721617084173
 30
0.0
 11
85.241442311713826
 21
96.209621617084196
 31
0.0
  0
LINE
  5
930
  8
0
 39
5.0
 10
85.241442311713826
 20
96.209621617084196
 30
0.0
 11
85.213542311713837
 21
96.152121617084177
 31
0.0
  0
LINE
  5
931
  8
0
 39
5.0
 10
85.213542311713837
 20
96.152121617084177
 30
0.0
 11
85.191442311713843
 21
96.091921617084196
 31
0.0
  0
LINE
  5
932
  8
0
 39
5.0
 10
85.191442311713843
 20
96.091921617084196
 30
0.0
 11
85.175142311713842
 21
96.028921617084166
 31
0.0
  0
LINE
  5
933
  8
0
 39
5.0
 10
85.175142311713842
 20
96.028921617084166
 30
0.0
 11
85.165142311713836
 21
95.963921617084182
 31
0.0
  0
LINE
  5
934
  8
0
 39
5.0
 10
85.165142311713836
 20
95.963921617084182
 30
0.0
 11
85.161642311713848
 21
95.896821617084171
 31
0.0
  0
LINE
  5
935
  8
0
 39
5.0
 10
85.161642311713848
 20
95.896821617084171
 30
0.0
 11
85.161642311713848
 21
87.626921617084179
 31
0.0
  0
LINE
  5
936
  8
0
 39
5.0
 10
85.161642311713848
 20
87.626921617084179
 30
0.0
 11
85.161642311713848
 21
87.626921617084179
 31
0.0
  0
LINE
  5
937
  8
0
 39
5.0
 10
85.161642311713848
 20
87.626921617084179
 30
0.0
 11
85.165142311713836
 21
87.560121617084164
 31
0.0
  0
LINE
  5
938
  8
0
 39
5.0
 10
85.165142311713836
 20
87.560121617084164
 30
0.0
 11
85.175142311713842
 21
87.49512161708418
 31
0.0
  0
LINE
  5
939
  8
0
 39
5.0
 10
85.175142311713842
 20
87.49512161708418
 30
0.0
 11
85.191442311713843
 21
87.432321617084185
 31
0.0
  0
LINE
  5
93A
  8
0
 39
5.0
 10
85.191442311713843
 20
87.432321617084185
 30
0.0
 11
85.213542311713837
 21
87.371921617084183
 31
0.0
  0
LINE
  5
93B
  8
0
 39
5.0
 10
85.213542311713837
 20
87.371921617084183
 30
0.0
 11
85.241442311713826
 21
87.314621617084185
 31
0.0
  0
LINE
  5
93C
  8
0
 39
5.0
 10
85.241442311713826
 20
87.314621617084185
 30
0.0
 11
85.274342311713824
 21
87.260321617084173
 31
0.0
  0
LINE
  5
93D
  8
0
 39
5.0
 10
85.274342311713824
 20
87.260321617084173
 30
0.0
 11
85.312342311713849
 21
87.209721617084185
 31
0.0
  0
LINE
  5
93E
  8
0
 39
5.0
 10
85.312342311713849
 20
87.209721617084185
 30
0.0
 11
85.354642311713832
 21
87.16292161708418
 31
0.0
  0
LINE
  5
93F
  8
0
 39
5.0
 10
85.354642311713832
 20
87.16292161708418
 30
0.0
 11
85.401442311713836
 21
87.120621617084183
 31
0.0
  0
LINE
  5
940
  8
0
 39
5.0
 10
85.401442311713836
 20
87.120621617084183
 30
0.0
 11
85.452042311713839
 21
87.082621617084186
 31
0.0
  0
LINE
  5
941
  8
0
 39
5.0
 10
85.452042311713839
 20
87.082621617084186
 30
0.0
 11
85.499575442412919
 21
87.053821617084196
 31
0.0
  0
LINE
  5
942
  8
0
 39
5.0
 10
86.781784257002627
 20
87.053821617084196
 30
0.0
 11
86.829142311713866
 21
87.082621617084186
 31
0.0
  0
LINE
  5
943
  8
0
 39
5.0
 10
86.829142311713866
 20
87.082621617084186
 30
0.0
 11
86.879742311713855
 21
87.120621617084183
 31
0.0
  0
LINE
  5
944
  8
0
 39
5.0
 10
86.879742311713855
 20
87.120621617084183
 30
0.0
 11
86.926342311713853
 21
87.16292161708418
 31
0.0
  0
LINE
  5
945
  8
0
 39
5.0
 10
86.926342311713853
 20
87.16292161708418
 30
0.0
 11
86.968942311713846
 21
87.209721617084185
 31
0.0
  0
LINE
  5
946
  8
0
 39
5.0
 10
86.968942311713846
 20
87.209721617084185
 30
0.0
 11
87.006842311713854
 21
87.260321617084173
 31
0.0
  0
LINE
  5
947
  8
0
 39
5.0
 10
87.006842311713854
 20
87.260321617084173
 30
0.0
 11
87.039842311713855
 21
87.314621617084185
 31
0.0
  0
LINE
  5
948
  8
0
 39
5.0
 10
87.039842311713855
 20
87.314621617084185
 30
0.0
 11
87.067542311713865
 21
87.371921617084183
 31
0.0
  0
LINE
  5
949
  8
0
 39
5.0
 10
87.067542311713865
 20
87.371921617084183
 30
0.0
 11
87.089742311713849
 21
87.432321617084185
 31
0.0
  0
LINE
  5
94A
  8
0
 39
5.0
 10
87.089742311713849
 20
87.432321617084185
 30
0.0
 11
87.105942311713846
 21
87.49512161708418
 31
0.0
  0
LINE
  5
94B
  8
0
 39
5.0
 10
87.105942311713846
 20
87.49512161708418
 30
0.0
 11
87.115942311713852
 21
87.560121617084164
 31
0.0
  0
LINE
  5
94C
  8
0
 39
5.0
 10
87.115942311713852
 20
87.560121617084164
 30
0.0
 11
87.119242311713847
 21
87.626921617084179
 31
0.0
  0
LINE
  5
94D
  8
0
 39
5.0
 10
87.119242311713847
 20
87.626921617084179
 30
0.0
 11
87.119242311713847
 21
95.896821617084171
 31
0.0
  0
LINE
  5
94E
  8
0
 39
5.0
 10
87.119242311713847
 20
95.896821617084171
 30
0.0
 11
87.119242311713847
 21
95.896821617084171
 31
0.0
  0
LINE
  5
94F
  8
0
 39
5.0
 10
87.119242311713847
 20
95.896821617084171
 30
0.0
 11
87.115942311713852
 21
95.963921617084182
 31
0.0
  0
LINE
  5
950
  8
0
 39
5.0
 10
87.115942311713852
 20
95.963921617084182
 30
0.0
 11
87.105942311713846
 21
96.028921617084166
 31
0.0
  0
LINE
  5
951
  8
0
 39
5.0
 10
87.105942311713846
 20
96.028921617084166
 30
0.0
 11
87.089742311713849
 21
96.091921617084196
 31
0.0
  0
LINE
  5
952
  8
0
 39
5.0
 10
87.089742311713849
 20
96.091921617084196
 30
0.0
 11
87.067542311713865
 21
96.152121617084177
 31
0.0
  0
LINE
  5
953
  8
0
 39
5.0
 10
87.067542311713865
 20
96.152121617084177
 30
0.0
 11
87.039842311713855
 21
96.209621617084196
 31
0.0
  0
LINE
  5
954
  8
0
 39
5.0
 10
87.039842311713855
 20
96.209621617084196
 30
0.0
 11
87.006842311713854
 21
96.263721617084173
 31
0.0
  0
LINE
  5
955
  8
0
 39
5.0
 10
87.006842311713854
 20
96.263721617084173
 30
0.0
 11
86.968942311713846
 21
96.314321617084175
 31
0.0
  0
LINE
  5
956
  8
0
 39
5.0
 10
86.968942311713846
 20
96.314321617084175
 30
0.0
 11
86.926342311713853
 21
96.360921617084173
 31
0.0
  0
LINE
  5
957
  8
0
 39
5.0
 10
86.926342311713853
 20
96.360921617084173
 30
0.0
 11
86.879742311713855
 21
96.403521617084195
 31
0.0
  0
LINE
  5
958
  8
0
 39
5.0
 10
86.879742311713855
 20
96.403521617084195
 30
0.0
 11
86.829142311713866
 21
96.441421617084174
 31
0.0
  0
LINE
  5
959
  8
0
 39
5.0
 10
86.829142311713866
 20
96.441421617084174
 30
0.0
 11
86.775042311713861
 21
96.474421617084175
 31
0.0
  0
LINE
  5
95A
  8
0
 39
5.0
 10
86.775042311713861
 20
96.474421617084175
 30
0.0
 11
86.717542311713856
 21
96.502121617084185
 31
0.0
  0
LINE
  5
95B
  8
0
 39
5.0
 10
86.717542311713856
 20
96.502121617084185
 30
0.0
 11
86.657342311713833
 21
96.524321617084183
 31
0.0
  0
LINE
  5
95C
  8
0
 39
5.0
 10
86.657342311713833
 20
96.524321617084183
 30
0.0
 11
86.594342311713859
 21
96.540521617084195
 31
0.0
  0
LINE
  5
95D
  8
0
 39
5.0
 10
86.594342311713859
 20
96.540521617084195
 30
0.0
 11
86.529342311713862
 21
96.550521617084186
 31
0.0
  0
LINE
  5
95E
  8
0
 39
5.0
 10
86.529342311713862
 20
96.550521617084186
 30
0.0
 11
86.462242311713865
 21
96.553821617084182
 31
0.0
  0
LINE
  5
95F
  8
0
 39
5.0
 10
87.119242311713847
 20
87.669721617084178
 30
0.0
 11
87.119242311713847
 21
87.669721617084178
 31
0.0
  0
LINE
  5
960
  8
0
 39
5.0
 10
87.119242311713847
 20
87.669721617084178
 30
0.0
 11
87.275942311713848
 21
87.533921617084175
 31
0.0
  0
LINE
  5
961
  8
0
 39
5.0
 10
87.275942311713848
 20
87.533921617084175
 30
0.0
 11
87.468742311713854
 21
87.413821617084182
 31
0.0
  0
LINE
  5
962
  8
0
 39
5.0
 10
87.468742311713854
 20
87.413821617084182
 30
0.0
 11
87.693142311713828
 21
87.310121617084178
 31
0.0
  0
LINE
  5
963
  8
0
 39
5.0
 10
87.693142311713828
 20
87.310121617084178
 30
0.0
 11
87.943942311713855
 21
87.223221617084192
 31
0.0
  0
LINE
  5
964
  8
0
 39
5.0
 10
87.943942311713855
 20
87.223221617084192
 30
0.0
 11
88.216842311713876
 21
87.153721617084187
 31
0.0
  0
LINE
  5
965
  8
0
 39
5.0
 10
88.216842311713876
 20
87.153721617084187
 30
0.0
 11
88.506542311713844
 21
87.102021617084176
 31
0.0
  0
LINE
  5
966
  8
0
 39
5.0
 10
88.506542311713844
 20
87.102021617084176
 30
0.0
 11
88.808442311713847
 21
87.068621617084176
 31
0.0
  0
LINE
  5
967
  8
0
 39
5.0
 10
88.808442311713847
 20
87.068621617084176
 30
0.0
 11
89.117642311713851
 21
87.053821617084196
 31
0.0
  0
LINE
  5
96D
  8
3
 10
86.661642311713834
 20
96.553821617084182
 30
0.0
 11
86.661642311713834
 21
89.999621617084173
 31
0.0
  0
LINE
  5
970
  8
3
 10
86.661642311713834
 20
89.999621617084173
 30
0.0
 11
89.161642311713834
 21
89.999621617084173
 31
0.0
  0
LINE
  5
972
  8
3
 10
86.861642311713851
 20
96.553821617084182
 30
0.0
 11
86.861642311713851
 21
89.999621617084173
 31
0.0
  0
LINE
  5
976
  8
0
 10
84.161642311713834
 20
87.053821617084196
 30
0.0
 11
84.161642311713834
 21
84.611621617084182
 31
0.0
  0
LINE
  5
978
  8
0
 10
84.161642311713834
 20
81.997421617084157
 30
0.0
 11
84.161642311713834
 21
81.611621617084182
 31
0.0
  0
LINE
  5
97A
  8
0
 10
84.161642311713805
 20
78.997421617084157
 30
0.0
 11
84.161642311713834
 21
72.053821617084182
 31
0.0
  0
LINE
  5
9C7
  8
0
 39
5.0
 10
82.687542311713827
 20
79.018021617084173
 30
0.0
 11
82.954342311713845
 21
78.997421617084171
 31
0.0
  0
LINE
  5
9C8
  8
0
 39
5.0
 10
82.424842311713832
 20
79.052221617084172
 30
0.0
 11
82.687542311713827
 21
79.018021617084173
 31
0.0
  0
LINE
  5
9C9
  8
0
 39
5.0
 10
82.16624231171383
 20
79.100021617084167
 30
0.0
 11
82.424842311713832
 21
79.052221617084172
 31
0.0
  0
LINE
  5
9CA
  8
0
 39
5.0
 10
81.911842311713841
 20
79.16162161708418
 30
0.0
 11
82.16624231171383
 21
79.100021617084167
 31
0.0
  0
LINE
  5
9CB
  8
0
 39
5.0
 10
81.661442311713856
 20
79.236921617084178
 30
0.0
 11
81.911842311713841
 21
79.16162161708418
 31
0.0
  0
LINE
  5
9CC
  8
0
 39
5.0
 10
81.41524231171384
 20
79.325821617084173
 30
0.0
 11
81.661442311713856
 21
79.236921617084178
 31
0.0
  0
LINE
  5
9CD
  8
0
 39
5.0
 10
81.161642311713848
 20
79.433190472928871
 30
0.0
 11
81.41524231171384
 21
79.325821617084173
 31
0.0
  0
LINE
  5
9CE
  8
0
 39
5.0
 10
81.173142311713818
 20
79.42832161708418
 30
0.0
 11
81.173142311713818
 21
79.42832161708418
 31
0.0
  0
LINE
  5
9CF
  8
0
 39
5.0
 10
81.410742311713847
 20
81.283121617084177
 30
0.0
 11
81.161642311713848
 21
81.180321617084175
 31
0.0
  0
LINE
  5
9D0
  8
0
 39
5.0
 10
81.661342311713824
 20
81.372021617084187
 30
0.0
 11
81.410742311713847
 21
81.283121617084177
 31
0.0
  0
LINE
  5
9D1
  8
0
 39
5.0
 10
81.914042311713843
 20
81.447321617084185
 30
0.0
 11
81.661342311713824
 21
81.372021617084187
 31
0.0
  0
LINE
  5
9D2
  8
0
 39
5.0
 10
82.168942311713835
 20
81.50882161708418
 30
0.0
 11
81.914042311713843
 21
81.447321617084185
 31
0.0
  0
LINE
  5
9D3
  8
0
 39
5.0
 10
82.426742311713824
 20
81.556821617084168
 30
0.0
 11
82.168942311713835
 21
81.50882161708418
 31
0.0
  0
LINE
  5
9D4
  8
0
 39
5.0
 10
82.687442311713838
 20
81.591021617084181
 30
0.0
 11
82.426742311713824
 21
81.556821617084168
 31
0.0
  0
LINE
  5
9D5
  8
0
 39
5.0
 10
82.95164231171384
 20
81.611621617084182
 30
0.0
 11
82.687442311713838
 21
81.591021617084181
 31
0.0
  0
LINE
  5
9D9
  8
0
 39
5.0
 10
85.257742311713855
 20
81.180321617084175
 30
0.0
 11
85.257742311713855
 21
81.180321617084175
 31
0.0
  0
LINE
  5
9DA
  8
0
 39
5.0
 10
85.257742311713855
 20
81.180321617084175
 30
0.0
 11
84.946942311713855
 21
81.283121617084177
 31
0.0
  0
LINE
  5
9DB
  8
0
 39
5.0
 10
84.946942311713855
 20
81.283121617084177
 30
0.0
 11
84.642642311713843
 21
81.372021617084187
 31
0.0
  0
LINE
  5
9DC
  8
0
 39
5.0
 10
84.642642311713843
 20
81.372021617084187
 30
0.0
 11
84.344642311713841
 21
81.447321617084185
 31
0.0
  0
LINE
  5
9DD
  8
0
 39
5.0
 10
84.344642311713841
 20
81.447321617084185
 30
0.0
 11
84.052342311713858
 21
81.50882161708418
 31
0.0
  0
LINE
  5
9DE
  8
0
 39
5.0
 10
84.052342311713858
 20
81.50882161708418
 30
0.0
 11
83.765842311713854
 21
81.556821617084168
 31
0.0
  0
LINE
  5
9DF
  8
0
 39
5.0
 10
83.765842311713854
 20
81.556821617084168
 30
0.0
 11
83.484342311713846
 21
81.591021617084181
 31
0.0
  0
LINE
  5
9E0
  8
0
 39
5.0
 10
83.484342311713846
 20
81.591021617084181
 30
0.0
 11
83.207742311713844
 21
81.611621617084182
 31
0.0
  0
LINE
  5
9E1
  8
0
 39
5.0
 10
83.216542311713837
 20
78.997421617084171
 30
0.0
 11
83.495842311713858
 21
79.018021617084173
 31
0.0
  0
LINE
  5
9E2
  8
0
 39
5.0
 10
83.495842311713858
 20
79.018021617084173
 30
0.0
 11
83.779242311713858
 21
79.052221617084172
 31
0.0
  0
LINE
  5
9E3
  8
0
 39
5.0
 10
83.779242311713858
 20
79.052221617084172
 30
0.0
 11
84.066642311713849
 21
79.100021617084167
 31
0.0
  0
LINE
  5
9E4
  8
0
 39
5.0
 10
84.066642311713849
 20
79.100021617084167
 30
0.0
 11
84.358242311713866
 21
79.16162161708418
 31
0.0
  0
LINE
  5
9E5
  8
0
 39
5.0
 10
84.358242311713866
 20
79.16162161708418
 30
0.0
 11
84.653942311713848
 21
79.236921617084178
 31
0.0
  0
LINE
  5
9E6
  8
0
 39
5.0
 10
84.653942311713848
 20
79.236921617084178
 30
0.0
 11
84.953842311713856
 21
79.325821617084173
 31
0.0
  0
LINE
  5
9E7
  8
0
 39
5.0
 10
84.953842311713856
 20
79.325821617084173
 30
0.0
 11
85.257742311713855
 21
79.42832161708418
 31
0.0
  0
LINE
  5
9E8
  8
0
 39
5.0
 10
85.257742311713855
 20
79.42832161708418
 30
0.0
 11
85.257742311713855
 21
81.180321617084175
 31
0.0
  0
LINE
  5
9E9
  8
0
 39
5.0
 10
88.65314231171385
 20
81.618321617084163
 30
0.0
 11
88.211142311713829
 21
81.611621617084182
 31
0.0
  0
LINE
  5
9EA
  8
0
 39
5.0
 10
88.211142311713829
 20
81.611621617084182
 30
0.0
 11
87.775242311713853
 21
81.591021617084181
 31
0.0
  0
LINE
  5
9EB
  8
0
 39
5.0
 10
87.775242311713853
 20
81.591021617084181
 30
0.0
 11
87.345042311713854
 21
81.556821617084168
 31
0.0
  0
LINE
  5
9EC
  8
0
 39
5.0
 10
87.345042311713854
 20
81.556821617084168
 30
0.0
 11
86.919742311713861
 21
81.50882161708418
 31
0.0
  0
LINE
  5
9ED
  8
0
 39
5.0
 10
86.919742311713861
 20
81.50882161708418
 30
0.0
 11
86.499142311713854
 21
81.447321617084185
 31
0.0
  0
LINE
  5
9EE
  8
0
 39
5.0
 10
86.499142311713854
 20
81.447321617084185
 30
0.0
 11
86.082242311713856
 21
81.372021617084187
 31
0.0
  0
LINE
  5
9EF
  8
0
 39
5.0
 10
86.082242311713856
 20
81.372021617084187
 30
0.0
 11
85.668642311713839
 21
81.283121617084177
 31
0.0
  0
LINE
  5
9F0
  8
0
 39
5.0
 10
85.668642311713839
 20
81.283121617084177
 30
0.0
 11
85.257742311713855
 21
81.180321617084175
 31
0.0
  0
LINE
  5
9F1
  8
0
 39
5.0
 10
85.276742311713875
 20
79.42832161708418
 30
0.0
 11
85.276742311713875
 21
79.42832161708418
 31
0.0
  0
LINE
  5
9F2
  8
0
 39
5.0
 10
85.257742311713841
 20
79.433196460638626
 30
0.0
 11
85.676242311713835
 21
79.325821617084173
 31
0.0
  0
LINE
  5
9F3
  8
0
 39
5.0
 10
85.676242311713835
 20
79.325821617084173
 30
0.0
 11
86.082442311713848
 21
79.236921617084178
 31
0.0
  0
LINE
  5
9F4
  8
0
 39
5.0
 10
86.082442311713848
 20
79.236921617084178
 30
0.0
 11
86.495542311713834
 21
79.16162161708418
 31
0.0
  0
LINE
  5
9F5
  8
0
 39
5.0
 10
86.495542311713834
 20
79.16162161708418
 30
0.0
 11
86.915242311713854
 21
79.100021617084167
 31
0.0
  0
LINE
  5
9F6
  8
0
 39
5.0
 10
86.915242311713854
 20
79.100021617084167
 30
0.0
 11
87.342042311713854
 21
79.052221617084172
 31
0.0
  0
LINE
  5
9F7
  8
0
 39
5.0
 10
87.342042311713854
 20
79.052221617084172
 30
0.0
 11
87.775442311713846
 21
79.018021617084173
 31
0.0
  0
LINE
  5
9F8
  8
0
 39
5.0
 10
87.775442311713846
 20
79.018021617084173
 30
0.0
 11
88.215742311713853
 21
78.997421617084171
 31
0.0
  0
LINE
  5
9F9
  8
0
 39
5.0
 10
88.215742311713853
 20
78.997421617084171
 30
0.0
 11
88.662742311713856
 21
78.99052161708417
 31
0.0
  0
LINE
  5
9FA
  8
0
 10
82.95164231171384
 20
81.611621617084182
 30
0.0
 11
89.161642311713834
 21
81.611621617084182
 31
0.0
  0
LINE
  5
9FB
  8
0
 10
82.954342311713845
 20
78.997421617084171
 30
0.0
 11
89.161642311713834
 21
78.997421617084171
 31
0.0
  0
LINE
  5
9FC
  8
0
 10
81.161642311713848
 20
81.180321617084175
 30
0.0
 11
81.161642311713848
 21
79.433190472928871
 31
0.0
  0
LINE
  5
A04
  8
0
 39
5.0
 10
86.469674910304946
 20
44.51682161708419
 30
0.0
 11
85.81864231171383
 21
44.51682161708419
 31
0.0
  0
LINE
  5
A05
  8
0
 39
5.0
 10
85.81864231171383
 20
44.51682161708419
 30
0.0
 11
85.81864231171383
 21
44.51682161708419
 31
0.0
  0
LINE
  5
A06
  8
0
 39
5.0
 10
85.81864231171383
 20
44.51682161708419
 30
0.0
 11
85.751842311713816
 21
44.5143216170842
 31
0.0
  0
LINE
  5
A07
  8
0
 39
5.0
 10
85.751842311713816
 20
44.5143216170842
 30
0.0
 11
85.686842311713832
 21
44.506821617084192
 31
0.0
  0
LINE
  5
A08
  8
0
 39
5.0
 10
85.686842311713832
 20
44.506821617084192
 30
0.0
 11
85.624042311713836
 21
44.494521617084189
 31
0.0
  0
LINE
  5
A09
  8
0
 39
5.0
 10
85.624042311713836
 20
44.494521617084189
 30
0.0
 11
85.563642311713835
 21
44.477721617084192
 31
0.0
  0
LINE
  5
A0A
  8
0
 39
5.0
 10
85.563642311713835
 20
44.477721617084192
 30
0.0
 11
85.506342311713837
 21
44.456821617084188
 31
0.0
  0
LINE
  5
A0B
  8
0
 39
5.0
 10
85.506342311713837
 20
44.456821617084188
 30
0.0
 11
85.452042311713839
 21
44.431821617084189
 31
0.0
  0
LINE
  5
A0C
  8
0
 39
5.0
 10
85.452042311713839
 20
44.431821617084189
 30
0.0
 11
85.401442311713836
 21
44.403121617084182
 31
0.0
  0
LINE
  5
A0D
  8
0
 39
5.0
 10
85.401442311713836
 20
44.403121617084182
 30
0.0
 11
85.354642311713832
 21
44.370821617084196
 31
0.0
  0
LINE
  5
A0E
  8
0
 39
5.0
 10
85.354642311713832
 20
44.370821617084196
 30
0.0
 11
85.312342311713849
 21
44.335521617084183
 31
0.0
  0
LINE
  5
A0F
  8
0
 39
5.0
 10
85.312342311713849
 20
44.335521617084183
 30
0.0
 11
85.274342311713824
 21
44.29722161708419
 31
0.0
  0
LINE
  5
A10
  8
0
 39
5.0
 10
85.274342311713824
 20
44.29722161708419
 30
0.0
 11
85.241442311713826
 21
44.256221617084201
 31
0.0
  0
LINE
  5
A11
  8
0
 39
5.0
 10
85.241442311713826
 20
44.256221617084201
 30
0.0
 11
85.213542311713837
 21
44.212621617084181
 31
0.0
  0
LINE
  5
A12
  8
0
 39
5.0
 10
85.213542311713837
 20
44.212621617084181
 30
0.0
 11
85.191442311713843
 21
44.167121617084199
 31
0.0
  0
LINE
  5
A13
  8
0
 39
5.0
 10
85.191442311713843
 20
44.167121617084199
 30
0.0
 11
85.175142311713842
 21
44.119421617084193
 31
0.0
  0
LINE
  5
A14
  8
0
 39
5.0
 10
85.175142311713842
 20
44.119421617084193
 30
0.0
 11
85.165142311713836
 21
44.070221617084187
 31
0.0
  0
LINE
  5
A15
  8
0
 39
5.0
 10
85.165142311713836
 20
44.070221617084187
 30
0.0
 11
85.161642311713848
 21
44.019421617084198
 31
0.0
  0
LINE
  5
A16
  8
0
 39
5.0
 10
85.161642311713848
 20
44.019421617084198
 30
0.0
 11
85.161642311713848
 21
38.051221617084181
 31
0.0
  0
LINE
  5
A17
  8
0
 39
5.0
 10
85.161642311713848
 20
38.051221617084181
 30
0.0
 11
85.161642311713848
 21
38.051221617084181
 31
0.0
  0
LINE
  5
A18
  8
0
 39
5.0
 10
85.161642311713848
 20
38.051221617084181
 30
0.0
 11
85.165142311713836
 21
38.000621617084192
 31
0.0
  0
LINE
  5
A19
  8
0
 39
5.0
 10
85.165142311713836
 20
38.000621617084192
 30
0.0
 11
85.175142311713842
 21
37.9514216170842
 31
0.0
  0
LINE
  5
A1A
  8
0
 39
5.0
 10
85.175142311713842
 20
37.9514216170842
 30
0.0
 11
85.191442311713843
 21
37.90392161708418
 31
0.0
  0
LINE
  5
A1B
  8
0
 39
5.0
 10
85.191442311713843
 20
37.90392161708418
 30
0.0
 11
85.213542311713837
 21
37.85822161708419
 31
0.0
  0
LINE
  5
A1C
  8
0
 39
5.0
 10
85.213542311713837
 20
37.85822161708419
 30
0.0
 11
85.241442311713826
 21
37.814821617084192
 31
0.0
  0
LINE
  5
A1D
  8
0
 39
5.0
 10
85.241442311713826
 20
37.814821617084192
 30
0.0
 11
85.274342311713824
 21
37.773821617084181
 31
0.0
  0
LINE
  5
A1E
  8
0
 39
5.0
 10
85.274342311713824
 20
37.773821617084181
 30
0.0
 11
85.312342311713849
 21
37.735521617084189
 31
0.0
  0
LINE
  5
A1F
  8
0
 39
5.0
 10
85.312342311713849
 20
37.735521617084189
 30
0.0
 11
85.354642311713832
 21
37.70002161708419
 31
0.0
  0
LINE
  5
A20
  8
0
 39
5.0
 10
85.354642311713832
 20
37.70002161708419
 30
0.0
 11
85.401442311713836
 21
37.6680216170842
 31
0.0
  0
LINE
  5
A21
  8
0
 39
5.0
 10
85.401442311713836
 20
37.6680216170842
 30
0.0
 11
85.452042311713839
 21
37.639221617084189
 31
0.0
  0
LINE
  5
A22
  8
0
 39
5.0
 10
85.452042311713839
 20
37.639221617084189
 30
0.0
 11
85.506342311713837
 21
37.614321617084187
 31
0.0
  0
LINE
  5
A23
  8
0
 39
5.0
 10
85.506342311713837
 20
37.614321617084187
 30
0.0
 11
85.563642311713835
 21
37.593121617084201
 31
0.0
  0
LINE
  5
A24
  8
0
 39
5.0
 10
85.563642311713835
 20
37.593121617084201
 30
0.0
 11
85.624042311713836
 21
37.5764216170842
 31
0.0
  0
LINE
  5
A25
  8
0
 39
5.0
 10
85.624042311713836
 20
37.5764216170842
 30
0.0
 11
85.686842311713832
 21
37.56402161708418
 31
0.0
  0
LINE
  5
A26
  8
0
 39
5.0
 10
85.686842311713832
 20
37.56402161708418
 30
0.0
 11
85.751842311713816
 21
37.556521617084186
 31
0.0
  0
LINE
  5
A27
  8
0
 39
5.0
 10
85.751842311713816
 20
37.556521617084186
 30
0.0
 11
85.81864231171383
 21
37.553821617084189
 31
0.0
  0
LINE
  5
A28
  8
0
 39
5.0
 10
85.81864231171383
 20
37.553821617084189
 30
0.0
 11
86.469674910304946
 21
37.553821617084189
 31
0.0
  0
LINE
  5
A29
  8
0
 39
5.0
 10
86.469674910304946
 20
37.553821617084189
 30
0.0
 11
86.469674910304946
 21
37.553821617084189
 31
0.0
  0
LINE
  5
A2A
  8
0
 39
5.0
 10
86.469674910304946
 20
37.553821617084189
 30
0.0
 11
86.536774910304956
 21
37.556521617084186
 31
0.0
  0
LINE
  5
A2B
  8
0
 39
5.0
 10
86.536774910304956
 20
37.556521617084186
 30
0.0
 11
86.601774910304954
 21
37.56402161708418
 31
0.0
  0
LINE
  5
A2C
  8
0
 39
5.0
 10
86.601774910304954
 20
37.56402161708418
 30
0.0
 11
86.664774910304942
 21
37.5764216170842
 31
0.0
  0
LINE
  5
A2D
  8
0
 39
5.0
 10
86.664774910304942
 20
37.5764216170842
 30
0.0
 11
86.724974910304965
 21
37.593121617084201
 31
0.0
  0
LINE
  5
A2E
  8
0
 39
5.0
 10
86.724974910304965
 20
37.593121617084201
 30
0.0
 11
86.782474910304956
 21
37.614321617084187
 31
0.0
  0
LINE
  5
A2F
  8
0
 39
5.0
 10
86.782474910304956
 20
37.614321617084187
 30
0.0
 11
86.836574910304947
 21
37.639221617084189
 31
0.0
  0
LINE
  5
A30
  8
0
 39
5.0
 10
86.836574910304947
 20
37.639221617084189
 30
0.0
 11
86.887174910304935
 21
37.6680216170842
 31
0.0
  0
LINE
  5
A31
  8
0
 39
5.0
 10
86.887174910304935
 20
37.6680216170842
 30
0.0
 11
86.933774910304933
 21
37.70002161708419
 31
0.0
  0
LINE
  5
A32
  8
0
 39
5.0
 10
86.933774910304933
 20
37.70002161708419
 30
0.0
 11
86.976374910304941
 21
37.735521617084189
 31
0.0
  0
LINE
  5
A33
  8
0
 39
5.0
 10
86.976374910304941
 20
37.735521617084189
 30
0.0
 11
87.014274910304948
 21
37.773821617084181
 31
0.0
  0
LINE
  5
A34
  8
0
 39
5.0
 10
87.014274910304948
 20
37.773821617084181
 30
0.0
 11
87.047274910304935
 21
37.814821617084192
 31
0.0
  0
LINE
  5
A35
  8
0
 39
5.0
 10
87.047274910304935
 20
37.814821617084192
 30
0.0
 11
87.074974910304945
 21
37.85822161708419
 31
0.0
  0
LINE
  5
A36
  8
0
 39
5.0
 10
87.074974910304945
 20
37.85822161708419
 30
0.0
 11
87.097174910304929
 21
37.90392161708418
 31
0.0
  0
LINE
  5
A37
  8
0
 39
5.0
 10
87.097174910304929
 20
37.90392161708418
 30
0.0
 11
87.113374910304941
 21
37.9514216170842
 31
0.0
  0
LINE
  5
A38
  8
0
 39
5.0
 10
87.113374910304941
 20
37.9514216170842
 30
0.0
 11
87.123374910304946
 21
38.000621617084192
 31
0.0
  0
LINE
  5
A39
  8
0
 39
5.0
 10
87.123374910304946
 20
38.000621617084192
 30
0.0
 11
87.126674910304956
 21
38.051221617084181
 31
0.0
  0
LINE
  5
A3A
  8
0
 39
5.0
 10
87.126674910304956
 20
38.051221617084181
 30
0.0
 11
87.126674910304956
 21
44.019421617084198
 31
0.0
  0
LINE
  5
A3B
  8
0
 39
5.0
 10
87.126674910304956
 20
44.019421617084198
 30
0.0
 11
87.126674910304956
 21
44.019421617084198
 31
0.0
  0
LINE
  5
A3C
  8
0
 39
5.0
 10
87.126674910304956
 20
44.019421617084198
 30
0.0
 11
87.123374910304946
 21
44.070221617084187
 31
0.0
  0
LINE
  5
A3D
  8
0
 39
5.0
 10
87.123374910304946
 20
44.070221617084187
 30
0.0
 11
87.113374910304941
 21
44.119421617084193
 31
0.0
  0
LINE
  5
A3E
  8
0
 39
5.0
 10
87.113374910304941
 20
44.119421617084193
 30
0.0
 11
87.097174910304929
 21
44.167121617084199
 31
0.0
  0
LINE
  5
A3F
  8
0
 39
5.0
 10
87.097174910304929
 20
44.167121617084199
 30
0.0
 11
87.074974910304945
 21
44.212621617084181
 31
0.0
  0
LINE
  5
A40
  8
0
 39
5.0
 10
87.074974910304945
 20
44.212621617084181
 30
0.0
 11
87.047274910304935
 21
44.256221617084201
 31
0.0
  0
LINE
  5
A41
  8
0
 39
5.0
 10
87.047274910304935
 20
44.256221617084201
 30
0.0
 11
87.014274910304948
 21
44.29722161708419
 31
0.0
  0
LINE
  5
A42
  8
0
 39
5.0
 10
87.014274910304948
 20
44.29722161708419
 30
0.0
 11
86.976374910304941
 21
44.335521617084183
 31
0.0
  0
LINE
  5
A43
  8
0
 39
5.0
 10
86.976374910304941
 20
44.335521617084183
 30
0.0
 11
86.933774910304933
 21
44.370821617084196
 31
0.0
  0
LINE
  5
A44
  8
0
 39
5.0
 10
86.933774910304933
 20
44.370821617084196
 30
0.0
 11
86.887174910304935
 21
44.403121617084182
 31
0.0
  0
LINE
  5
A45
  8
0
 39
5.0
 10
86.887174910304935
 20
44.403121617084182
 30
0.0
 11
86.836574910304947
 21
44.431821617084189
 31
0.0
  0
LINE
  5
A46
  8
0
 39
5.0
 10
86.836574910304947
 20
44.431821617084189
 30
0.0
 11
86.782474910304956
 21
44.456821617084188
 31
0.0
  0
LINE
  5
A47
  8
0
 39
5.0
 10
86.782474910304956
 20
44.456821617084188
 30
0.0
 11
86.724974910304965
 21
44.477721617084192
 31
0.0
  0
LINE
  5
A48
  8
0
 39
5.0
 10
86.724974910304965
 20
44.477721617084192
 30
0.0
 11
86.664774910304942
 21
44.494521617084189
 31
0.0
  0
LINE
  5
A49
  8
0
 39
5.0
 10
86.664774910304942
 20
44.494521617084189
 30
0.0
 11
86.601774910304954
 21
44.506821617084192
 31
0.0
  0
LINE
  5
A4A
  8
0
 39
5.0
 10
86.601774910304954
 20
44.506821617084192
 30
0.0
 11
86.536774910304956
 21
44.5143216170842
 31
0.0
  0
LINE
  5
A4B
  8
0
 39
5.0
 10
86.536774910304956
 20
44.5143216170842
 30
0.0
 11
86.469674910304946
 21
44.51682161708419
 31
0.0
  0
LINE
  5
A4C
  8
0
 39
5.0
 10
87.125146304558243
 20
38.027782995634666
 30
0.0
 11
87.275942311713848
 21
37.928856195790388
 31
0.0
  0
LINE
  5
A4D
  8
0
 39
5.0
 10
87.275942311713848
 20
37.928856195790388
 30
0.0
 11
87.468742311713854
 21
37.83785619579038
 31
0.0
  0
LINE
  5
A4E
  8
0
 39
5.0
 10
87.468742311713854
 20
37.83785619579038
 30
0.0
 11
87.693142311713828
 21
37.759456195790399
 31
0.0
  0
LINE
  5
A4F
  8
0
 39
5.0
 10
87.693142311713828
 20
37.759456195790399
 30
0.0
 11
87.943942311713855
 21
37.6935561957904
 31
0.0
  0
LINE
  5
A50
  8
0
 39
5.0
 10
87.943942311713855
 20
37.6935561957904
 30
0.0
 11
88.216842311713876
 21
37.641056195790391
 31
0.0
  0
LINE
  5
A51
  8
0
 39
5.0
 10
88.216842311713876
 20
37.641056195790391
 30
0.0
 11
88.506542311713844
 21
37.60185619579039
 31
0.0
  0
LINE
  5
A52
  8
0
 39
5.0
 10
88.506542311713844
 20
37.60185619579039
 30
0.0
 11
89.079729636275317
 21
37.553821617084189
 31
0.0
  0
LINE
  5
A5A
  8
3
 10
86.661642311713834
 20
37.553821617084189
 30
0.0
 11
86.661642311713834
 21
43.647056195790391
 31
0.0
  0
LINE
  5
A5D
  8
3
 10
89.161642311713834
 20
43.647056195790391
 30
0.0
 11
86.661642311713834
 21
43.647056195790391
 31
0.0
  0
LINE
  5
A60
  8
3
 10
86.861642311713851
 20
43.647056195790391
 30
0.0
 11
86.861642311713851
 21
37.553821617084189
 31
0.0
  0
LINE
  5
A6F
  8
0
 39
5.0
 10
91.070942311713864
 20
44.08795619579039
 30
0.0
 11
91.19660971312274
 21
43.964082694176213
 31
0.0
  0
LINE
  5
A70
  8
0
 39
5.0
 10
90.882942311713848
 20
44.201656195790399
 30
0.0
 11
91.070942311713864
 21
44.08795619579039
 31
0.0
  0
LINE
  5
A71
  8
0
 39
5.0
 10
90.647942311713848
 20
44.297856195790388
 30
0.0
 11
90.882942311713848
 21
44.201656195790399
 31
0.0
  0
LINE
  5
A72
  8
0
 39
5.0
 10
90.374242311713829
 20
44.376456195790389
 30
0.0
 11
90.647942311713848
 21
44.297856195790388
 31
0.0
  0
LINE
  5
A73
  8
0
 39
5.0
 10
90.069842311713856
 20
44.437656195790382
 30
0.0
 11
90.374242311713829
 21
44.376456195790389
 31
0.0
  0
LINE
  5
A74
  8
0
 39
5.0
 10
89.482978467320237
 20
44.516156195790387
 30
0.0
 11
90.069842311713856
 21
44.437656195790382
 31
0.0
  0
LINE
  5
A75
  8
0
 39
5.0
 10
92.098642311713846
 20
44.516156195790387
 30
0.0
 11
89.161642311713834
 21
44.516156195790387
 31
0.0
  0
LINE
  5
A76
  8
0
 39
5.0
 10
91.853609713122765
 20
37.553821617084189
 30
0.0
 11
91.853609713122765
 21
37.553821617084189
 31
0.0
  0
LINE
  5
A77
  8
0
 39
5.0
 10
91.853609713122765
 20
37.553821617084189
 30
0.0
 11
91.78650971312274
 21
37.556521617084186
 31
0.0
  0
LINE
  5
A78
  8
0
 39
5.0
 10
91.78650971312274
 20
37.556521617084186
 30
0.0
 11
91.721509713122757
 21
37.56402161708418
 31
0.0
  0
LINE
  5
A79
  8
0
 39
5.0
 10
91.721509713122757
 20
37.56402161708418
 30
0.0
 11
91.658509713122754
 21
37.5764216170842
 31
0.0
  0
LINE
  5
A7A
  8
0
 39
5.0
 10
91.658509713122754
 20
37.5764216170842
 30
0.0
 11
91.598309713122745
 21
37.593121617084201
 31
0.0
  0
LINE
  5
A7B
  8
0
 39
5.0
 10
91.598309713122745
 20
37.593121617084201
 30
0.0
 11
91.540809713122727
 21
37.614321617084187
 31
0.0
  0
LINE
  5
A7C
  8
0
 39
5.0
 10
91.540809713122727
 20
37.614321617084187
 30
0.0
 11
91.486709713122764
 21
37.639221617084189
 31
0.0
  0
LINE
  5
A7D
  8
0
 39
5.0
 10
91.486709713122764
 20
37.639221617084189
 30
0.0
 11
91.436109713122747
 21
37.6680216170842
 31
0.0
  0
LINE
  5
A7E
  8
0
 39
5.0
 10
91.436109713122747
 20
37.6680216170842
 30
0.0
 11
91.389509713122735
 21
37.70002161708419
 31
0.0
  0
LINE
  5
A7F
  8
0
 39
5.0
 10
91.389509713122735
 20
37.70002161708419
 30
0.0
 11
91.346909713122756
 21
37.735521617084189
 31
0.0
  0
LINE
  5
A80
  8
0
 39
5.0
 10
91.346909713122756
 20
37.735521617084189
 30
0.0
 11
91.309009713122748
 21
37.773821617084181
 31
0.0
  0
LINE
  5
A81
  8
0
 39
5.0
 10
91.309009713122748
 20
37.773821617084181
 30
0.0
 11
91.276009713122747
 21
37.814821617084192
 31
0.0
  0
LINE
  5
A82
  8
0
 39
5.0
 10
91.276009713122747
 20
37.814821617084192
 30
0.0
 11
91.248309713122765
 21
37.85822161708419
 31
0.0
  0
LINE
  5
A83
  8
0
 39
5.0
 10
91.248309713122765
 20
37.85822161708419
 30
0.0
 11
91.226109713122739
 21
37.90392161708418
 31
0.0
  0
LINE
  5
A84
  8
0
 39
5.0
 10
91.226109713122739
 20
37.90392161708418
 30
0.0
 11
91.209909713122755
 21
37.9514216170842
 31
0.0
  0
LINE
  5
A85
  8
0
 39
5.0
 10
91.209909713122755
 20
37.9514216170842
 30
0.0
 11
91.199909713122736
 21
38.000621617084192
 31
0.0
  0
LINE
  5
A86
  8
0
 39
5.0
 10
91.199909713122736
 20
38.000621617084192
 30
0.0
 11
91.19660971312274
 21
38.051221617084181
 31
0.0
  0
LINE
  5
A87
  8
0
 39
5.0
 10
91.19660971312274
 20
38.051221617084181
 30
0.0
 11
91.19660971312274
 21
44.019421617084198
 31
0.0
  0
LINE
  5
A88
  8
0
 39
5.0
 10
91.19660971312274
 20
44.019421617084198
 30
0.0
 11
91.19660971312274
 21
44.019421617084198
 31
0.0
  0
LINE
  5
A89
  8
0
 39
5.0
 10
91.19660971312274
 20
44.019421617084198
 30
0.0
 11
91.199909713122736
 21
44.070221617084187
 31
0.0
  0
LINE
  5
A8A
  8
0
 39
5.0
 10
91.199909713122736
 20
44.070221617084187
 30
0.0
 11
91.209909713122755
 21
44.119421617084193
 31
0.0
  0
LINE
  5
A8B
  8
0
 39
5.0
 10
91.209909713122755
 20
44.119421617084193
 30
0.0
 11
91.226109713122739
 21
44.167121617084199
 31
0.0
  0
LINE
  5
A8C
  8
0
 39
5.0
 10
91.226109713122739
 20
44.167121617084199
 30
0.0
 11
91.248309713122765
 21
44.212621617084181
 31
0.0
  0
LINE
  5
A8D
  8
0
 39
5.0
 10
91.248309713122765
 20
44.212621617084181
 30
0.0
 11
91.276009713122747
 21
44.256221617084201
 31
0.0
  0
LINE
  5
A8E
  8
0
 39
5.0
 10
91.276009713122747
 20
44.256221617084201
 30
0.0
 11
91.309009713122748
 21
44.29722161708419
 31
0.0
  0
LINE
  5
A8F
  8
0
 39
5.0
 10
91.309009713122748
 20
44.29722161708419
 30
0.0
 11
91.346909713122756
 21
44.335521617084183
 31
0.0
  0
LINE
  5
A90
  8
0
 39
5.0
 10
91.346909713122756
 20
44.335521617084183
 30
0.0
 11
91.389509713122735
 21
44.370821617084196
 31
0.0
  0
LINE
  5
A91
  8
0
 39
5.0
 10
91.389509713122735
 20
44.370821617084196
 30
0.0
 11
91.436109713122747
 21
44.403121617084182
 31
0.0
  0
LINE
  5
A92
  8
0
 39
5.0
 10
91.436109713122747
 20
44.403121617084182
 30
0.0
 11
91.486709713122764
 21
44.431821617084189
 31
0.0
  0
LINE
  5
A93
  8
0
 39
5.0
 10
91.486709713122764
 20
44.431821617084189
 30
0.0
 11
91.540809713122727
 21
44.456821617084188
 31
0.0
  0
LINE
  5
A94
  8
0
 39
5.0
 10
91.540809713122727
 20
44.456821617084188
 30
0.0
 11
91.598309713122745
 21
44.477721617084192
 31
0.0
  0
LINE
  5
A95
  8
0
 39
5.0
 10
91.598309713122745
 20
44.477721617084192
 30
0.0
 11
91.658509713122754
 21
44.494521617084189
 31
0.0
  0
LINE
  5
A96
  8
0
 39
5.0
 10
91.658509713122754
 20
44.494521617084189
 30
0.0
 11
91.721509713122757
 21
44.506821617084192
 31
0.0
  0
LINE
  5
A97
  8
0
 39
5.0
 10
91.721509713122757
 20
44.506821617084192
 30
0.0
 11
91.78650971312274
 21
44.5143216170842
 31
0.0
  0
LINE
  5
A98
  8
0
 39
5.0
 10
91.78650971312274
 20
44.5143216170842
 30
0.0
 11
91.853609713122765
 21
44.51682161708419
 31
0.0
  0
LINE
  5
A99
  8
0
 39
5.0
 10
91.198138318869454
 20
38.027782995634666
 30
0.0
 11
91.047342311713834
 21
37.928856195790388
 31
0.0
  0
LINE
  5
A9A
  8
0
 39
5.0
 10
91.047342311713834
 20
37.928856195790388
 30
0.0
 11
90.854542311713843
 21
37.83785619579038
 31
0.0
  0
LINE
  5
A9B
  8
0
 39
5.0
 10
90.854542311713843
 20
37.83785619579038
 30
0.0
 11
90.630142311713854
 21
37.759456195790399
 31
0.0
  0
LINE
  5
A9C
  8
0
 39
5.0
 10
90.630142311713854
 20
37.759456195790399
 30
0.0
 11
90.379342311713842
 21
37.6935561957904
 31
0.0
  0
LINE
  5
A9D
  8
0
 39
5.0
 10
90.379342311713842
 20
37.6935561957904
 30
0.0
 11
90.106442311713835
 21
37.641056195790391
 31
0.0
  0
LINE
  5
A9E
  8
0
 39
5.0
 10
90.106442311713835
 20
37.641056195790391
 30
0.0
 11
89.816742311713853
 21
37.60185619579039
 31
0.0
  0
LINE
  5
A9F
  8
0
 39
5.0
 10
89.816742311713853
 20
37.60185619579039
 30
0.0
 11
89.243554987152379
 21
37.553821617084189
 31
0.0
  0
LINE
  5
AA0
  8
0
 39
5.0
 10
92.504642311713866
 20
37.553821617084189
 30
0.0
 11
91.853609713122765
 21
37.553821617084189
 31
0.0
  0
LINE
  5
AA1
  8
0
 39
5.0
 10
92.571442311713867
 20
37.556521617084186
 30
0.0
 11
92.504642311713866
 21
37.553821617084189
 31
0.0
  0
LINE
  5
AA2
  8
0
 39
5.0
 10
91.853609713122765
 20
44.51682161708419
 30
0.0
 11
92.504642311713866
 21
44.51682161708419
 31
0.0
  0
LINE
  5
AA3
  8
0
 39
5.0
 10
92.636442311713864
 20
37.56402161708418
 30
0.0
 11
92.571442311713867
 21
37.556521617084186
 31
0.0
  0
LINE
  5
AA4
  8
0
 39
5.0
 10
92.699242311713846
 20
37.5764216170842
 30
0.0
 11
92.636442311713864
 21
37.56402161708418
 31
0.0
  0
LINE
  5
AA5
  8
0
 39
5.0
 10
92.759642311713861
 20
37.593121617084201
 30
0.0
 11
92.699242311713846
 21
37.5764216170842
 31
0.0
  0
LINE
  5
AA6
  8
0
 39
5.0
 10
92.816942311713845
 20
37.614321617084187
 30
0.0
 11
92.759642311713861
 21
37.593121617084201
 31
0.0
  0
LINE
  5
AA7
  8
0
 39
5.0
 10
92.871242311713857
 20
37.639221617084189
 30
0.0
 11
92.816942311713845
 21
37.614321617084187
 31
0.0
  0
LINE
  5
AA8
  8
0
 39
5.0
 10
92.92184231171386
 20
37.6680216170842
 30
0.0
 11
92.871242311713857
 21
37.639221617084189
 31
0.0
  0
LINE
  5
AA9
  8
0
 39
5.0
 10
92.968642311713865
 20
37.70002161708419
 30
0.0
 11
92.92184231171386
 21
37.6680216170842
 31
0.0
  0
LINE
  5
AAA
  8
0
 39
5.0
 10
93.010942311713848
 20
37.735521617084189
 30
0.0
 11
92.968642311713865
 21
37.70002161708419
 31
0.0
  0
LINE
  5
AAB
  8
0
 39
5.0
 10
93.048942311713859
 20
37.773821617084181
 30
0.0
 11
93.010942311713848
 21
37.735521617084189
 31
0.0
  0
LINE
  5
AAC
  8
0
 39
5.0
 10
93.081842311713856
 20
37.814821617084192
 30
0.0
 11
93.048942311713859
 21
37.773821617084181
 31
0.0
  0
LINE
  5
AAD
  8
0
 39
5.0
 10
93.109742311713845
 20
37.85822161708419
 30
0.0
 11
93.081842311713856
 21
37.814821617084192
 31
0.0
  0
LINE
  5
AAE
  8
0
 39
5.0
 10
93.131842311713854
 20
37.90392161708418
 30
0.0
 11
93.109742311713845
 21
37.85822161708419
 31
0.0
  0
LINE
  5
AAF
  8
0
 39
5.0
 10
93.148142311713855
 20
37.9514216170842
 30
0.0
 11
93.131842311713854
 21
37.90392161708418
 31
0.0
  0
LINE
  5
AB0
  8
0
 39
5.0
 10
93.158142311713846
 20
38.000621617084192
 30
0.0
 11
93.148142311713855
 21
37.9514216170842
 31
0.0
  0
LINE
  5
AB1
  8
0
 39
5.0
 10
93.161642311713834
 20
38.051221617084181
 30
0.0
 11
93.158142311713846
 21
38.000621617084192
 31
0.0
  0
LINE
  5
AB2
  8
0
 39
5.0
 10
93.161642311713834
 20
38.051221617084181
 30
0.0
 11
93.161642311713834
 21
38.051221617084181
 31
0.0
  0
LINE
  5
AB3
  8
0
 39
5.0
 10
93.161642311713834
 20
44.019421617084198
 30
0.0
 11
93.161642311713834
 21
38.051221617084181
 31
0.0
  0
LINE
  5
AB4
  8
0
 39
5.0
 10
93.158142311713846
 20
44.070221617084187
 30
0.0
 11
93.161642311713834
 21
44.019421617084198
 31
0.0
  0
LINE
  5
AB5
  8
0
 39
5.0
 10
93.148142311713855
 20
44.119421617084193
 30
0.0
 11
93.158142311713846
 21
44.070221617084187
 31
0.0
  0
LINE
  5
AB6
  8
0
 39
5.0
 10
93.131842311713854
 20
44.167121617084199
 30
0.0
 11
93.148142311713855
 21
44.119421617084193
 31
0.0
  0
LINE
  5
AB7
  8
0
 39
5.0
 10
93.109742311713845
 20
44.212621617084181
 30
0.0
 11
93.131842311713854
 21
44.167121617084199
 31
0.0
  0
LINE
  5
AB8
  8
0
 39
5.0
 10
93.081842311713856
 20
44.256221617084201
 30
0.0
 11
93.109742311713845
 21
44.212621617084181
 31
0.0
  0
LINE
  5
AB9
  8
0
 39
5.0
 10
93.048942311713859
 20
44.29722161708419
 30
0.0
 11
93.081842311713856
 21
44.256221617084201
 31
0.0
  0
LINE
  5
ABA
  8
0
 39
5.0
 10
93.010942311713848
 20
44.335521617084183
 30
0.0
 11
93.048942311713859
 21
44.29722161708419
 31
0.0
  0
LINE
  5
ABB
  8
0
 39
5.0
 10
92.968642311713865
 20
44.370821617084196
 30
0.0
 11
93.010942311713848
 21
44.335521617084183
 31
0.0
  0
LINE
  5
ABC
  8
0
 39
5.0
 10
92.92184231171386
 20
44.403121617084182
 30
0.0
 11
92.968642311713865
 21
44.370821617084196
 31
0.0
  0
LINE
  5
ABD
  8
0
 39
5.0
 10
92.871242311713857
 20
44.431821617084189
 30
0.0
 11
92.92184231171386
 21
44.403121617084182
 31
0.0
  0
LINE
  5
ABE
  8
0
 39
5.0
 10
92.816942311713845
 20
44.456821617084188
 30
0.0
 11
92.871242311713857
 21
44.431821617084189
 31
0.0
  0
LINE
  5
ABF
  8
0
 39
5.0
 10
92.759642311713861
 20
44.477721617084192
 30
0.0
 11
92.816942311713845
 21
44.456821617084188
 31
0.0
  0
LINE
  5
AC0
  8
0
 39
5.0
 10
92.699242311713846
 20
44.494521617084189
 30
0.0
 11
92.759642311713861
 21
44.477721617084192
 31
0.0
  0
LINE
  5
AC1
  8
0
 39
5.0
 10
92.636442311713864
 20
44.506821617084192
 30
0.0
 11
92.699242311713846
 21
44.494521617084189
 31
0.0
  0
LINE
  5
AC2
  8
0
 39
5.0
 10
92.571442311713867
 20
44.5143216170842
 30
0.0
 11
92.636442311713864
 21
44.506821617084192
 31
0.0
  0
LINE
  5
AC3
  8
0
 39
5.0
 10
92.504642311713866
 20
44.51682161708419
 30
0.0
 11
92.571442311713867
 21
44.5143216170842
 31
0.0
  0
LINE
  5
AC4
  8
0
 39
5.0
 10
92.098642311713846
 20
72.053821617084182
 30
0.0
 11
92.098642311713846
 21
44.516156195790387
 31
0.0
  0
LINE
  5
AC5
  8
0
 39
5.0
 10
92.504642311713866
 20
44.51682161708419
 30
0.0
 11
92.504642311713866
 21
44.51682161708419
 31
0.0
  0
LINE
  5
AC6
  8
0
 39
5.0
 10
94.161642311713834
 20
72.053821617084182
 30
0.0
 11
89.161642311713834
 21
72.053821617084182
 31
0.0
  0
LINE
  5
AC7
  8
2
 39
5.0
 10
93.912242311713811
 20
78.997421617084157
 30
0.0
 11
93.912242311713825
 21
72.053821617084182
 31
0.0
  0
LINE
  5
AC8
  8
0
 39
5.0
 10
91.541500366425069
 20
87.053821617084196
 30
0.0
 11
91.494142311713844
 21
87.082621617084186
 31
0.0
  0
LINE
  5
AC9
  8
0
 39
5.0
 10
91.494142311713844
 20
87.082621617084186
 30
0.0
 11
91.443542311713841
 21
87.120621617084183
 31
0.0
  0
LINE
  5
ACA
  8
0
 39
5.0
 10
91.443542311713841
 20
87.120621617084183
 30
0.0
 11
91.396942311713843
 21
87.16292161708418
 31
0.0
  0
LINE
  5
ACB
  8
0
 39
5.0
 10
91.396942311713843
 20
87.16292161708418
 30
0.0
 11
91.354342311713864
 21
87.209721617084185
 31
0.0
  0
LINE
  5
ACC
  8
0
 39
5.0
 10
91.354342311713864
 20
87.209721617084185
 30
0.0
 11
91.316442311713828
 21
87.260321617084173
 31
0.0
  0
LINE
  5
ACD
  8
0
 39
5.0
 10
91.316442311713828
 20
87.260321617084173
 30
0.0
 11
91.283442311713841
 21
87.314621617084185
 31
0.0
  0
LINE
  5
ACE
  8
0
 39
5.0
 10
91.283442311713841
 20
87.314621617084185
 30
0.0
 11
91.255742311713846
 21
87.371921617084183
 31
0.0
  0
LINE
  5
ACF
  8
0
 39
5.0
 10
91.255742311713846
 20
87.371921617084183
 30
0.0
 11
91.233542311713848
 21
87.432321617084185
 31
0.0
  0
LINE
  5
AD0
  8
0
 39
5.0
 10
91.233542311713848
 20
87.432321617084185
 30
0.0
 11
91.217342311713864
 21
87.49512161708418
 31
0.0
  0
LINE
  5
AD1
  8
0
 39
5.0
 10
91.217342311713864
 20
87.49512161708418
 30
0.0
 11
91.207342311713845
 21
87.560121617084164
 31
0.0
  0
LINE
  5
AD2
  8
0
 39
5.0
 10
91.207342311713845
 20
87.560121617084164
 30
0.0
 11
91.204042311713835
 21
87.626921617084179
 31
0.0
  0
LINE
  5
AD3
  8
0
 39
5.0
 10
91.204042311713835
 20
87.669721617084178
 30
0.0
 11
91.204042311713835
 21
87.669721617084178
 31
0.0
  0
LINE
  5
AD4
  8
0
 39
5.0
 10
91.204042311713835
 20
87.669721617084178
 30
0.0
 11
91.047342311713834
 21
87.533921617084175
 31
0.0
  0
LINE
  5
AD5
  8
0
 39
5.0
 10
91.047342311713834
 20
87.533921617084175
 30
0.0
 11
90.854542311713843
 21
87.413821617084182
 31
0.0
  0
LINE
  5
AD6
  8
0
 39
5.0
 10
90.854542311713843
 20
87.413821617084182
 30
0.0
 11
90.630142311713854
 21
87.310121617084178
 31
0.0
  0
LINE
  5
AD7
  8
0
 39
5.0
 10
90.630142311713854
 20
87.310121617084178
 30
0.0
 11
90.379342311713842
 21
87.223221617084192
 31
0.0
  0
LINE
  5
AD8
  8
0
 39
5.0
 10
90.379342311713842
 20
87.223221617084192
 30
0.0
 11
90.106442311713835
 21
87.153721617084187
 31
0.0
  0
LINE
  5
AD9
  8
0
 39
5.0
 10
90.106442311713835
 20
87.153721617084187
 30
0.0
 11
89.816742311713853
 21
87.102021617084176
 31
0.0
  0
LINE
  5
ADA
  8
0
 39
5.0
 10
89.816742311713853
 20
87.102021617084176
 30
0.0
 11
89.514842311713835
 21
87.068621617084176
 31
0.0
  0
LINE
  5
ADB
  8
0
 39
5.0
 10
89.514842311713835
 20
87.068621617084176
 30
0.0
 11
89.205642311713845
 21
87.053821617084196
 31
0.0
  0
LINE
  5
ADC
  8
0
 39
5.0
 10
92.871242311713857
 20
87.082621617084186
 30
0.0
 11
92.823709181014763
 21
87.053821617084196
 31
0.0
  0
LINE
  5
ADD
  8
0
 39
5.0
 10
92.92184231171386
 20
87.120621617084183
 30
0.0
 11
92.871242311713857
 21
87.082621617084186
 31
0.0
  0
LINE
  5
ADE
  8
0
 39
5.0
 10
92.968642311713865
 20
87.16292161708418
 30
0.0
 11
92.92184231171386
 21
87.120621617084183
 31
0.0
  0
LINE
  5
ADF
  8
0
 39
5.0
 10
93.010942311713848
 20
87.209721617084185
 30
0.0
 11
92.968642311713865
 21
87.16292161708418
 31
0.0
  0
LINE
  5
AE0
  8
0
 39
5.0
 10
93.048942311713859
 20
87.260321617084173
 30
0.0
 11
93.010942311713848
 21
87.209721617084185
 31
0.0
  0
LINE
  5
AE1
  8
0
 39
5.0
 10
93.081842311713856
 20
87.314621617084185
 30
0.0
 11
93.048942311713859
 21
87.260321617084173
 31
0.0
  0
LINE
  5
AE2
  8
0
 39
5.0
 10
93.109742311713845
 20
87.371921617084183
 30
0.0
 11
93.081842311713856
 21
87.314621617084185
 31
0.0
  0
LINE
  5
AE3
  8
0
 39
5.0
 10
93.131842311713854
 20
87.432321617084185
 30
0.0
 11
93.109742311713845
 21
87.371921617084183
 31
0.0
  0
LINE
  5
AE4
  8
0
 39
5.0
 10
93.148142311713855
 20
87.49512161708418
 30
0.0
 11
93.131842311713854
 21
87.432321617084185
 31
0.0
  0
LINE
  5
AE5
  8
0
 39
5.0
 10
93.158142311713846
 20
87.560121617084164
 30
0.0
 11
93.148142311713855
 21
87.49512161708418
 31
0.0
  0
LINE
  5
AE6
  8
0
 39
5.0
 10
93.161642311713834
 20
87.626921617084179
 30
0.0
 11
93.158142311713846
 21
87.560121617084164
 31
0.0
  0
LINE
  5
AE7
  8
0
 39
5.0
 10
91.204042311713835
 20
95.882621617084169
 30
0.0
 11
91.204042311713835
 21
87.669721617084178
 31
0.0
  0
LINE
  5
AE8
  8
0
 39
5.0
 10
91.204042311713835
 20
87.626921617084179
 30
0.0
 11
91.204042311713835
 21
95.896821617084171
 31
0.0
  0
LINE
  5
AE9
  8
0
 39
5.0
 10
93.161642311713834
 20
87.626921617084179
 30
0.0
 11
93.161642311713834
 21
87.626921617084179
 31
0.0
  0
LINE
  5
AEA
  8
0
 39
5.0
 10
93.161642311713834
 20
95.896821617084171
 30
0.0
 11
93.161642311713834
 21
87.626921617084179
 31
0.0
  0
LINE
  5
AEB
  8
2
 39
5.0
 10
93.912242311713825
 20
87.053821617084196
 30
0.0
 11
93.912242311713825
 21
84.611621617084182
 31
0.0
  0
LINE
  5
AEC
  8
2
 39
5.0
 10
93.912242311713854
 20
81.997421617084157
 30
0.0
 11
93.912242311713854
 21
81.611621617084182
 31
0.0
  0
LINE
  5
AED
  8
0
 39
5.0
 10
90.107542311713843
 20
78.997421617084171
 30
0.0
 11
89.66054231171384
 21
78.99052161708417
 31
0.0
  0
LINE
  5
AEE
  8
0
 39
5.0
 10
90.54784231171385
 20
79.018021617084173
 30
0.0
 11
90.107542311713843
 21
78.997421617084171
 31
0.0
  0
LINE
  5
AEF
  8
0
 39
5.0
 10
90.981242311713842
 20
79.052221617084172
 30
0.0
 11
90.54784231171385
 21
79.018021617084173
 31
0.0
  0
LINE
  5
AF0
  8
0
 39
5.0
 10
91.408042311713857
 20
79.100021617084167
 30
0.0
 11
90.981242311713842
 21
79.052221617084172
 31
0.0
  0
LINE
  5
AF1
  8
0
 39
5.0
 10
91.827742311713834
 20
79.16162161708418
 30
0.0
 11
91.408042311713857
 21
79.100021617084167
 31
0.0
  0
LINE
  5
AF2
  8
0
 39
5.0
 10
92.240842311713848
 20
79.236921617084178
 30
0.0
 11
91.827742311713834
 21
79.16162161708418
 31
0.0
  0
LINE
  5
AF3
  8
0
 39
5.0
 10
92.647042311713847
 20
79.325821617084173
 30
0.0
 11
92.240842311713848
 21
79.236921617084178
 31
0.0
  0
LINE
  5
AF4
  8
0
 39
5.0
 10
93.065542311713855
 20
79.433196460638626
 30
0.0
 11
92.647042311713847
 21
79.325821617084173
 31
0.0
  0
LINE
  5
AF5
  8
0
 39
5.0
 10
93.046542311713836
 20
79.42832161708418
 30
0.0
 11
93.046542311713836
 21
79.42832161708418
 31
0.0
  0
LINE
  5
AF6
  8
0
 39
5.0
 10
92.654642311713829
 20
81.283121617084177
 30
0.0
 11
93.065542311713841
 21
81.180321617084175
 31
0.0
  0
LINE
  5
AF7
  8
0
 39
5.0
 10
92.241042311713841
 20
81.372021617084187
 30
0.0
 11
92.654642311713829
 21
81.283121617084177
 31
0.0
  0
LINE
  5
AF8
  8
0
 39
5.0
 10
91.824142311713828
 20
81.447321617084185
 30
0.0
 11
92.241042311713841
 21
81.372021617084187
 31
0.0
  0
LINE
  5
AF9
  8
0
 39
5.0
 10
91.403542311713835
 20
81.50882161708418
 30
0.0
 11
91.824142311713828
 21
81.447321617084185
 31
0.0
  0
LINE
  5
AFA
  8
0
 39
5.0
 10
90.978242311713856
 20
81.556821617084168
 30
0.0
 11
91.403542311713835
 21
81.50882161708418
 31
0.0
  0
LINE
  5
AFB
  8
0
 39
5.0
 10
90.548042311713843
 20
81.591021617084181
 30
0.0
 11
90.978242311713856
 21
81.556821617084168
 31
0.0
  0
LINE
  5
AFC
  8
0
 39
5.0
 10
90.112142311713839
 20
81.611621617084182
 30
0.0
 11
90.548042311713843
 21
81.591021617084181
 31
0.0
  0
LINE
  5
AFD
  8
0
 39
5.0
 10
89.670142311713846
 20
81.618321617084163
 30
0.0
 11
90.112142311713839
 21
81.611621617084182
 31
0.0
  0
LINE
  5
AFE
  8
0
 39
5.0
 10
93.065542311713841
 20
79.42832161708418
 30
0.0
 11
93.065542311713841
 21
81.180321617084175
 31
0.0
  0
LINE
  5
AFF
  8
0
 39
5.0
 10
93.369442311713854
 20
79.325821617084173
 30
0.0
 11
93.065542311713841
 21
79.42832161708418
 31
0.0
  0
LINE
  5
B00
  8
0
 39
5.0
 10
93.669342311713834
 20
79.236921617084178
 30
0.0
 11
93.369442311713854
 21
79.325821617084173
 31
0.0
  0
LINE
  5
B01
  8
0
 39
5.0
 10
93.965042311713844
 20
79.16162161708418
 30
0.0
 11
93.669342311713834
 21
79.236921617084178
 31
0.0
  0
LINE
  5
B02
  8
0
 39
5.0
 10
94.256642311713847
 20
79.100021617084167
 30
0.0
 11
93.965042311713844
 21
79.16162161708418
 31
0.0
  0
LINE
  5
B03
  8
0
 39
5.0
 10
94.544042311713838
 20
79.052221617084172
 30
0.0
 11
94.256642311713847
 21
79.100021617084167
 31
0.0
  0
LINE
  5
B04
  8
0
 39
5.0
 10
94.827442311713838
 20
79.018021617084173
 30
0.0
 11
94.544042311713838
 21
79.052221617084172
 31
0.0
  0
LINE
  5
B05
  8
0
 39
5.0
 10
95.106742311713845
 20
78.997421617084171
 30
0.0
 11
94.827442311713838
 21
79.018021617084173
 31
0.0
  0
LINE
  5
B06
  8
0
 39
5.0
 10
94.838942311713851
 20
81.591021617084181
 30
0.0
 11
95.115542311713867
 21
81.611621617084182
 31
0.0
  0
LINE
  5
B07
  8
0
 39
5.0
 10
94.557442311713856
 20
81.556821617084168
 30
0.0
 11
94.838942311713851
 21
81.591021617084181
 31
0.0
  0
LINE
  5
B08
  8
0
 39
5.0
 10
94.270942311713839
 20
81.50882161708418
 30
0.0
 11
94.557442311713856
 21
81.556821617084168
 31
0.0
  0
LINE
  5
B09
  8
0
 39
5.0
 10
93.978642311713855
 20
81.447321617084185
 30
0.0
 11
94.270942311713839
 21
81.50882161708418
 31
0.0
  0
LINE
  5
B0A
  8
0
 39
5.0
 10
93.680642311713854
 20
81.372021617084187
 30
0.0
 11
93.978642311713855
 21
81.447321617084185
 31
0.0
  0
LINE
  5
B0B
  8
0
 39
5.0
 10
93.376342311713827
 20
81.283121617084177
 30
0.0
 11
93.680642311713854
 21
81.372021617084187
 31
0.0
  0
LINE
  5
B0C
  8
0
 39
5.0
 10
93.065542311713841
 20
81.180321617084175
 30
0.0
 11
93.376342311713827
 21
81.283121617084177
 31
0.0
  0
LINE
  5
B0D
  8
0
 39
5.0
 10
93.065542311713841
 20
81.180321617084175
 30
0.0
 11
93.065542311713841
 21
81.180321617084175
 31
0.0
  0
LINE
  5
B11
  8
0
 39
5.0
 10
95.371642311713856
 20
81.611621617084182
 30
0.0
 11
95.635842311713859
 21
81.591021617084181
 31
0.0
  0
LINE
  5
B12
  8
0
 39
5.0
 10
95.635842311713859
 20
81.591021617084181
 30
0.0
 11
95.896542311713844
 21
81.556821617084168
 31
0.0
  0
LINE
  5
B13
  8
0
 39
5.0
 10
95.896542311713844
 20
81.556821617084168
 30
0.0
 11
96.154342311713862
 21
81.50882161708418
 31
0.0
  0
LINE
  5
B14
  8
0
 39
5.0
 10
96.154342311713862
 20
81.50882161708418
 30
0.0
 11
96.409242311713854
 21
81.447321617084185
 31
0.0
  0
LINE
  5
B15
  8
0
 39
5.0
 10
96.409242311713854
 20
81.447321617084185
 30
0.0
 11
96.661942311713858
 21
81.372021617084187
 31
0.0
  0
LINE
  5
B16
  8
0
 39
5.0
 10
96.661942311713858
 20
81.372021617084187
 30
0.0
 11
96.912542311713835
 21
81.283121617084177
 31
0.0
  0
LINE
  5
B17
  8
0
 39
5.0
 10
96.912542311713835
 20
81.283121617084177
 30
0.0
 11
97.161642311713848
 21
81.180321617084175
 31
0.0
  0
LINE
  5
B18
  8
0
 39
5.0
 10
97.150142311713864
 20
79.42832161708418
 30
0.0
 11
97.150142311713864
 21
79.42832161708418
 31
0.0
  0
LINE
  5
B19
  8
0
 39
5.0
 10
97.161642311713848
 20
79.433190472928871
 30
0.0
 11
96.908042311713857
 21
79.325821617084173
 31
0.0
  0
LINE
  5
B1A
  8
0
 39
5.0
 10
96.908042311713857
 20
79.325821617084173
 30
0.0
 11
96.661842311713855
 21
79.236921617084178
 31
0.0
  0
LINE
  5
B1B
  8
0
 39
5.0
 10
96.661842311713855
 20
79.236921617084178
 30
0.0
 11
96.411442311713856
 21
79.16162161708418
 31
0.0
  0
LINE
  5
B1C
  8
0
 39
5.0
 10
96.411442311713856
 20
79.16162161708418
 30
0.0
 11
96.157042311713866
 21
79.100021617084167
 31
0.0
  0
LINE
  5
B1D
  8
0
 39
5.0
 10
96.157042311713866
 20
79.100021617084167
 30
0.0
 11
95.898442311713865
 21
79.052221617084172
 31
0.0
  0
LINE
  5
B1E
  8
0
 39
5.0
 10
95.898442311713865
 20
79.052221617084172
 30
0.0
 11
95.635742311713855
 21
79.018021617084173
 31
0.0
  0
LINE
  5
B1F
  8
0
 39
5.0
 10
95.635742311713855
 20
79.018021617084173
 30
0.0
 11
95.368942311713866
 21
78.997421617084171
 31
0.0
  0
LINE
  5
B22
  8
0
 39
5.0
 10
95.635742311713855
 20
82.018021617084173
 30
0.0
 11
95.368942311713866
 21
81.997421617084171
 31
0.0
  0
LINE
  5
B23
  8
0
 39
5.0
 10
95.898442311713865
 20
82.052221617084186
 30
0.0
 11
95.635742311713855
 21
82.018021617084173
 31
0.0
  0
LINE
  5
B24
  8
0
 39
5.0
 10
96.157042311713866
 20
82.100021617084167
 30
0.0
 11
95.898442311713865
 21
82.052221617084186
 31
0.0
  0
LINE
  5
B25
  8
0
 39
5.0
 10
96.411442311713856
 20
82.161621617084165
 30
0.0
 11
96.157042311713866
 21
82.100021617084167
 31
0.0
  0
LINE
  5
B26
  8
0
 39
5.0
 10
96.661842311713855
 20
82.236921617084178
 30
0.0
 11
96.411442311713856
 21
82.161621617084165
 31
0.0
  0
LINE
  5
B27
  8
0
 39
5.0
 10
96.908042311713857
 20
82.325821617084173
 30
0.0
 11
96.661842311713855
 21
82.236921617084178
 31
0.0
  0
LINE
  5
B28
  8
0
 39
5.0
 10
97.161642311713848
 20
82.433190472928871
 30
0.0
 11
96.908042311713857
 21
82.325821617084173
 31
0.0
  0
LINE
  5
B29
  8
0
 39
5.0
 10
97.150142311713864
 20
82.428321617084194
 30
0.0
 11
97.150142311713864
 21
82.428321617084194
 31
0.0
  0
LINE
  5
B2A
  8
0
 39
5.0
 10
96.912542311713835
 20
84.283121617084177
 30
0.0
 11
97.161642311713848
 21
84.180321617084175
 31
0.0
  0
LINE
  5
B2B
  8
0
 39
5.0
 10
96.661942311713858
 20
84.372021617084187
 30
0.0
 11
96.912542311713835
 21
84.283121617084177
 31
0.0
  0
LINE
  5
B2C
  8
0
 39
5.0
 10
96.409242311713854
 20
84.447321617084185
 30
0.0
 11
96.661942311713858
 21
84.372021617084187
 31
0.0
  0
LINE
  5
B2D
  8
0
 39
5.0
 10
96.154342311713862
 20
84.508821617084195
 30
0.0
 11
96.409242311713854
 21
84.447321617084185
 31
0.0
  0
LINE
  5
B2E
  8
0
 39
5.0
 10
95.896542311713844
 20
84.556821617084182
 30
0.0
 11
96.154342311713862
 21
84.508821617084195
 31
0.0
  0
LINE
  5
B2F
  8
0
 39
5.0
 10
95.635842311713859
 20
84.591021617084181
 30
0.0
 11
95.896542311713844
 21
84.556821617084182
 31
0.0
  0
LINE
  5
B30
  8
0
 39
5.0
 10
95.371642311713856
 20
84.611621617084182
 30
0.0
 11
95.635842311713859
 21
84.591021617084181
 31
0.0
  0
LINE
  5
B34
  8
0
 39
5.0
 10
92.504642311713866
 20
96.553821617084182
 30
0.0
 11
92.504642311713866
 21
96.553821617084182
 31
0.0
  0
LINE
  5
B35
  8
0
 39
5.0
 10
92.504642311713866
 20
96.553821617084182
 30
0.0
 11
92.571442311713867
 21
96.550521617084186
 31
0.0
  0
LINE
  5
B36
  8
0
 39
5.0
 10
92.571442311713867
 20
96.550521617084186
 30
0.0
 11
92.636442311713864
 21
96.540521617084195
 31
0.0
  0
LINE
  5
B37
  8
0
 39
5.0
 10
92.636442311713864
 20
96.540521617084195
 30
0.0
 11
92.699242311713846
 21
96.524321617084183
 31
0.0
  0
LINE
  5
B38
  8
0
 39
5.0
 10
92.699242311713846
 20
96.524321617084183
 30
0.0
 11
92.759642311713861
 21
96.502121617084185
 31
0.0
  0
LINE
  5
B39
  8
0
 39
5.0
 10
92.759642311713861
 20
96.502121617084185
 30
0.0
 11
92.816942311713845
 21
96.474421617084175
 31
0.0
  0
LINE
  5
B3A
  8
0
 39
5.0
 10
92.816942311713845
 20
96.474421617084175
 30
0.0
 11
92.871242311713857
 21
96.441421617084174
 31
0.0
  0
LINE
  5
B3B
  8
0
 39
5.0
 10
92.871242311713857
 20
96.441421617084174
 30
0.0
 11
92.92184231171386
 21
96.403521617084195
 31
0.0
  0
LINE
  5
B3C
  8
0
 39
5.0
 10
92.92184231171386
 20
96.403521617084195
 30
0.0
 11
92.968642311713865
 21
96.360921617084173
 31
0.0
  0
LINE
  5
B3D
  8
0
 39
5.0
 10
92.968642311713865
 20
96.360921617084173
 30
0.0
 11
93.010942311713848
 21
96.314321617084175
 31
0.0
  0
LINE
  5
B3E
  8
0
 39
5.0
 10
93.010942311713848
 20
96.314321617084175
 30
0.0
 11
93.048942311713859
 21
96.263721617084173
 31
0.0
  0
LINE
  5
B3F
  8
0
 39
5.0
 10
93.048942311713859
 20
96.263721617084173
 30
0.0
 11
93.081842311713856
 21
96.209621617084196
 31
0.0
  0
LINE
  5
B40
  8
0
 39
5.0
 10
93.081842311713856
 20
96.209621617084196
 30
0.0
 11
93.109742311713845
 21
96.152121617084177
 31
0.0
  0
LINE
  5
B41
  8
0
 39
5.0
 10
93.109742311713845
 20
96.152121617084177
 30
0.0
 11
93.131842311713854
 21
96.091921617084196
 31
0.0
  0
LINE
  5
B42
  8
0
 39
5.0
 10
93.131842311713854
 20
96.091921617084196
 30
0.0
 11
93.148142311713855
 21
96.028921617084166
 31
0.0
  0
LINE
  5
B43
  8
0
 39
5.0
 10
93.148142311713855
 20
96.028921617084166
 30
0.0
 11
93.158142311713846
 21
95.963921617084182
 31
0.0
  0
LINE
  5
B44
  8
0
 39
5.0
 10
93.158142311713846
 20
95.963921617084182
 30
0.0
 11
93.161642311713834
 21
95.896821617084171
 31
0.0
  0
LINE
  5
B45
  8
0
 39
5.0
 10
91.861042311713845
 20
96.553821617084182
 30
0.0
 11
92.504642311713866
 21
96.553821617084182
 31
0.0
  0
LINE
  5
B46
  8
0
 39
5.0
 10
91.793942311713835
 20
96.550521617084186
 30
0.0
 11
91.861042311713845
 21
96.553821617084182
 31
0.0
  0
LINE
  5
B47
  8
0
 39
5.0
 10
91.728942311713837
 20
96.540521617084195
 30
0.0
 11
91.793942311713835
 21
96.550521617084186
 31
0.0
  0
LINE
  5
B48
  8
0
 39
5.0
 10
91.665942311713849
 20
96.524321617084183
 30
0.0
 11
91.728942311713837
 21
96.540521617084195
 31
0.0
  0
LINE
  5
B49
  8
0
 39
5.0
 10
91.60574231171384
 20
96.502121617084185
 30
0.0
 11
91.665942311713849
 21
96.524321617084183
 31
0.0
  0
LINE
  5
B4A
  8
0
 39
5.0
 10
91.548242311713835
 20
96.474421617084175
 30
0.0
 11
91.60574231171384
 21
96.502121617084185
 31
0.0
  0
LINE
  5
B4B
  8
0
 39
5.0
 10
91.494142311713844
 20
96.441421617084174
 30
0.0
 11
91.548242311713835
 21
96.474421617084175
 31
0.0
  0
LINE
  5
B4C
  8
0
 39
5.0
 10
91.443542311713841
 20
96.403521617084195
 30
0.0
 11
91.494142311713844
 21
96.441421617084174
 31
0.0
  0
LINE
  5
B4D
  8
0
 39
5.0
 10
91.396942311713843
 20
96.360921617084173
 30
0.0
 11
91.443542311713841
 21
96.403521617084195
 31
0.0
  0
LINE
  5
B4E
  8
0
 39
5.0
 10
91.354342311713864
 20
96.314321617084175
 30
0.0
 11
91.396942311713843
 21
96.360921617084173
 31
0.0
  0
LINE
  5
B4F
  8
0
 39
5.0
 10
91.316442311713828
 20
96.263721617084173
 30
0.0
 11
91.354342311713864
 21
96.314321617084175
 31
0.0
  0
LINE
  5
B50
  8
0
 39
5.0
 10
91.283442311713841
 20
96.209621617084196
 30
0.0
 11
91.316442311713828
 21
96.263721617084173
 31
0.0
  0
LINE
  5
B51
  8
0
 39
5.0
 10
91.255742311713846
 20
96.152121617084177
 30
0.0
 11
91.283442311713841
 21
96.209621617084196
 31
0.0
  0
LINE
  5
B52
  8
0
 39
5.0
 10
91.233542311713848
 20
96.091921617084196
 30
0.0
 11
91.255742311713846
 21
96.152121617084177
 31
0.0
  0
LINE
  5
B53
  8
0
 39
5.0
 10
91.217342311713864
 20
96.028921617084166
 30
0.0
 11
91.233542311713848
 21
96.091921617084196
 31
0.0
  0
LINE
  5
B54
  8
0
 39
5.0
 10
91.207342311713845
 20
95.963921617084182
 30
0.0
 11
91.217342311713864
 21
96.028921617084166
 31
0.0
  0
LINE
  5
B55
  8
0
 39
5.0
 10
91.204042311713835
 20
95.896821617084171
 30
0.0
 11
91.207342311713845
 21
95.963921617084182
 31
0.0
  0
LINE
  5
B56
  8
0
 39
5.0
 10
91.204042311713835
 20
95.896821617084171
 30
0.0
 11
91.204042311713835
 21
95.896821617084171
 31
0.0
  0
LINE
  5
B57
  8
0
 39
5.0
 10
91.070942311713864
 20
96.055921617084181
 30
0.0
 11
91.204042311713835
 21
95.882621617084169
 31
0.0
  0
LINE
  5
B58
  8
0
 39
5.0
 10
90.882942311713848
 20
96.206021617084176
 30
0.0
 11
91.070942311713864
 21
96.055921617084181
 31
0.0
  0
LINE
  5
B59
  8
0
 39
5.0
 10
90.647942311713848
 20
96.333121617084174
 30
0.0
 11
90.882942311713848
 21
96.206021617084176
 31
0.0
  0
LINE
  5
B5A
  8
0
 39
5.0
 10
90.374242311713829
 20
96.437021617084184
 30
0.0
 11
90.647942311713848
 21
96.333121617084174
 31
0.0
  0
LINE
  5
B5B
  8
0
 39
5.0
 10
90.069842311713856
 20
96.51792161708417
 30
0.0
 11
90.374242311713829
 21
96.437021617084184
 31
0.0
  0
LINE
  5
B5C
  8
0
 39
5.0
 10
89.866574894036177
 20
96.553821617084182
 30
0.0
 11
90.069842311713856
 21
96.51792161708417
 31
0.0
  0
LINE
  5
B5D
  8
0
 39
5.0
 10
93.065542311713841
 20
84.180321617084175
 30
0.0
 11
93.065542311713841
 21
84.180321617084175
 31
0.0
  0
LINE
  5
B5E
  8
0
 39
5.0
 10
93.065542311713841
 20
84.180321617084175
 30
0.0
 11
93.376342311713827
 21
84.283121617084177
 31
0.0
  0
LINE
  5
B5F
  8
0
 39
5.0
 10
93.376342311713827
 20
84.283121617084177
 30
0.0
 11
93.680642311713854
 21
84.372021617084187
 31
0.0
  0
LINE
  5
B60
  8
0
 39
5.0
 10
93.680642311713854
 20
84.372021617084187
 30
0.0
 11
93.978642311713855
 21
84.447321617084185
 31
0.0
  0
LINE
  5
B61
  8
0
 39
5.0
 10
93.978642311713855
 20
84.447321617084185
 30
0.0
 11
94.270942311713839
 21
84.508821617084195
 31
0.0
  0
LINE
  5
B62
  8
0
 39
5.0
 10
94.270942311713839
 20
84.508821617084195
 30
0.0
 11
94.557442311713856
 21
84.556821617084182
 31
0.0
  0
LINE
  5
B63
  8
0
 39
5.0
 10
94.557442311713856
 20
84.556821617084182
 30
0.0
 11
94.838942311713851
 21
84.591021617084181
 31
0.0
  0
LINE
  5
B64
  8
0
 39
5.0
 10
94.838942311713851
 20
84.591021617084181
 30
0.0
 11
95.115542311713867
 21
84.611621617084182
 31
0.0
  0
LINE
  5
B65
  8
0
 39
5.0
 10
95.106742311713845
 20
81.997421617084171
 30
0.0
 11
94.827442311713838
 21
82.018021617084173
 31
0.0
  0
LINE
  5
B66
  8
0
 39
5.0
 10
94.827442311713838
 20
82.018021617084173
 30
0.0
 11
94.544042311713838
 21
82.052221617084186
 31
0.0
  0
LINE
  5
B67
  8
0
 39
5.0
 10
94.544042311713838
 20
82.052221617084186
 30
0.0
 11
94.256642311713847
 21
82.100021617084167
 31
0.0
  0
LINE
  5
B68
  8
0
 39
5.0
 10
94.256642311713847
 20
82.100021617084167
 30
0.0
 11
93.965042311713844
 21
82.161621617084165
 31
0.0
  0
LINE
  5
B69
  8
0
 39
5.0
 10
93.965042311713844
 20
82.161621617084165
 30
0.0
 11
93.669342311713834
 21
82.236921617084178
 31
0.0
  0
LINE
  5
B6A
  8
0
 39
5.0
 10
93.669342311713834
 20
82.236921617084178
 30
0.0
 11
93.369442311713854
 21
82.325821617084173
 31
0.0
  0
LINE
  5
B6B
  8
0
 39
5.0
 10
93.369442311713854
 20
82.325821617084173
 30
0.0
 11
93.065542311713841
 21
82.428321617084194
 31
0.0
  0
LINE
  5
B6C
  8
0
 39
5.0
 10
93.065542311713841
 20
82.428321617084194
 30
0.0
 11
93.065542311713841
 21
84.180321617084175
 31
0.0
  0
LINE
  5
B6D
  8
0
 39
5.0
 10
89.670142311713846
 20
84.618321617084177
 30
0.0
 11
90.112142311713839
 21
84.611621617084182
 31
0.0
  0
LINE
  5
B6E
  8
0
 39
5.0
 10
90.112142311713839
 20
84.611621617084182
 30
0.0
 11
90.548042311713843
 21
84.591021617084181
 31
0.0
  0
LINE
  5
B6F
  8
0
 39
5.0
 10
90.548042311713843
 20
84.591021617084181
 30
0.0
 11
90.978242311713856
 21
84.556821617084182
 31
0.0
  0
LINE
  5
B70
  8
0
 39
5.0
 10
90.978242311713856
 20
84.556821617084182
 30
0.0
 11
91.403542311713835
 21
84.508821617084195
 31
0.0
  0
LINE
  5
B71
  8
0
 39
5.0
 10
91.403542311713835
 20
84.508821617084195
 30
0.0
 11
91.824142311713828
 21
84.447321617084185
 31
0.0
  0
LINE
  5
B72
  8
0
 39
5.0
 10
91.824142311713828
 20
84.447321617084185
 30
0.0
 11
92.241042311713841
 21
84.372021617084187
 31
0.0
  0
LINE
  5
B73
  8
0
 39
5.0
 10
92.241042311713841
 20
84.372021617084187
 30
0.0
 11
92.654642311713829
 21
84.283121617084177
 31
0.0
  0
LINE
  5
B74
  8
0
 39
5.0
 10
92.654642311713829
 20
84.283121617084177
 30
0.0
 11
93.065542311713841
 21
84.180321617084175
 31
0.0
  0
LINE
  5
B75
  8
0
 39
5.0
 10
93.046542311713836
 20
82.428321617084194
 30
0.0
 11
93.046542311713836
 21
82.428321617084194
 31
0.0
  0
LINE
  5
B76
  8
0
 39
5.0
 10
93.065542311713855
 20
82.433196460638626
 30
0.0
 11
92.647042311713847
 21
82.325821617084173
 31
0.0
  0
LINE
  5
B77
  8
0
 39
5.0
 10
92.647042311713847
 20
82.325821617084173
 30
0.0
 11
92.240842311713848
 21
82.236921617084178
 31
0.0
  0
LINE
  5
B78
  8
0
 39
5.0
 10
92.240842311713848
 20
82.236921617084178
 30
0.0
 11
91.827742311713834
 21
82.161621617084165
 31
0.0
  0
LINE
  5
B79
  8
0
 39
5.0
 10
91.827742311713834
 20
82.161621617084165
 30
0.0
 11
91.408042311713857
 21
82.100021617084167
 31
0.0
  0
LINE
  5
B7A
  8
0
 39
5.0
 10
91.408042311713857
 20
82.100021617084167
 30
0.0
 11
90.981242311713842
 21
82.052221617084186
 31
0.0
  0
LINE
  5
B7B
  8
0
 39
5.0
 10
90.981242311713842
 20
82.052221617084186
 30
0.0
 11
90.54784231171385
 21
82.018021617084173
 31
0.0
  0
LINE
  5
B7C
  8
0
 39
5.0
 10
90.54784231171385
 20
82.018021617084173
 30
0.0
 11
90.107542311713843
 21
81.997421617084171
 31
0.0
  0
LINE
  5
B7D
  8
0
 39
5.0
 10
90.107542311713843
 20
81.997421617084171
 30
0.0
 11
89.66054231171384
 21
81.99052161708417
 31
0.0
  0
LINE
  5
B7E
  8
0
 10
92.504642311713866
 20
37.553821617084189
 30
0.0
 11
89.161642311713834
 21
37.553821617084189
 31
0.0
  0
LINE
  5
B7F
  8
3
 10
89.161642311713834
 20
43.647056195790391
 30
0.0
 11
91.661642311713834
 21
43.647056195790391
 31
0.0
  0
LINE
  5
B80
  8
3
 10
91.661642311713834
 20
37.553821617084189
 30
0.0
 11
91.661642311713834
 21
43.647056195790391
 31
0.0
  0
LINE
  5
B81
  8
3
 10
91.461642311713845
 20
43.647056195790391
 30
0.0
 11
91.461642311713845
 21
37.553821617084189
 31
0.0
  0
LINE
  5
B82
  8
0
 10
94.161642311713862
 20
87.053821617084196
 30
0.0
 11
89.161642311713834
 21
87.053821617084196
 31
0.0
  0
LINE
  5
B83
  8
0
 10
95.368942311713866
 20
78.997421617084171
 30
0.0
 11
89.161642311713834
 21
78.997421617084171
 31
0.0
  0
LINE
  5
B84
  8
0
 10
95.371642311713856
 20
81.611621617084182
 30
0.0
 11
89.161642311713834
 21
81.611621617084182
 31
0.0
  0
LINE
  5
B85
  8
0
 10
95.371642311713856
 20
84.611621617084182
 30
0.0
 11
89.161642311713834
 21
84.611621617084182
 31
0.0
  0
LINE
  5
B86
  8
0
 10
95.368942311713866
 20
81.997421617084171
 30
0.0
 11
89.161642311713834
 21
81.997421617084171
 31
0.0
  0
LINE
  5
B87
  8
3
 10
91.661642311713834
 20
89.999621617084173
 30
0.0
 11
89.161642311713834
 21
89.999621617084173
 31
0.0
  0
LINE
  5
B88
  8
0
 10
92.504642311713866
 20
96.553821617084182
 30
0.0
 11
89.161642311713834
 21
96.553821617084182
 31
0.0
  0
LINE
  5
B89
  8
0
 10
94.161642311713891
 20
78.997421617084157
 30
0.0
 11
94.161642311713834
 21
72.053821617084182
 31
0.0
  0
LINE
  5
B8A
  8
3
 10
91.461642311713845
 20
96.553821617084182
 30
0.0
 11
91.461642311713845
 21
89.999621617084173
 31
0.0
  0
LINE
  5
B8B
  8
3
 10
91.661642311713834
 20
96.553821617084182
 30
0.0
 11
91.661642311713834
 21
89.999621617084173
 31
0.0
  0
LINE
  5
B8C
  8
0
 10
94.161642311713834
 20
87.053821617084196
 30
0.0
 11
94.161642311713862
 21
84.611621617084182
 31
0.0
  0
LINE
  5
B8D
  8
0
 10
97.161642311713848
 20
81.180321617084175
 30
0.0
 11
97.161642311713848
 21
79.433190472928871
 31
0.0
  0
LINE
  5
B8E
  8
0
 10
97.161642311713848
 20
84.180321617084175
 30
0.0
 11
97.161642311713848
 21
82.433190472928871
 31
0.0
  0
LINE
  5
B8F
  8
0
 10
94.161642311713834
 20
81.997421617084157
 30
0.0
 11
94.161642311713834
 21
81.611621617084182
 31
0.0
  0
LINE
  5
B91
  8
0
 10
90.161642311713848
 20
47.516156195790387
 30
0.0
 11
90.161642311713848
 21
72.053821617084182
 31
0.0
  0
ARC
  5
B92
  8
0
 10
89.161642311713834
 20
47.516156195790387
 30
0.0
 40
1.0
 50
270.0
 51
0.000000000000007
  0
DIMENSION
  5
B98
  8
2
  2
*D1
 10
105.3406140415932
 20
87.053821617084168
 30
0.0
 11
103.4656140415931
 21
91.803821617084196
 31
0.0
 70
     0
 13
92.504642311713866
 23
96.553821617084182
 33
0.0
 14
92.823709181014763
 24
87.053821617084196
 34
0.0
 50
90.0
  0
DIMENSION
  5
BAE
  8
2
  2
*D2
 10
105.3406140415932
 20
72.053821617084168
 30
0.0
 11
103.4656140415931
 21
79.553821617084196
 31
0.0
 70
     0
 13
105.3406140415932
 23
87.053821617084168
 33
0.0
 14
94.161642311713834
 24
72.053821617084182
 34
0.0
 50
90.0
  0
DIMENSION
  5
BBB
  8
2
  2
*D3
 10
105.3406140415932
 20
37.553821617084189
 30
0.0
 11
103.4656140415931
 21
54.803821617084189
 31
0.0
 70
     0
 13
105.3406140415932
 23
72.053821617084168
 33
0.0
 14
91.461642311713845
 24
37.553821617084189
 34
0.0
 50
90.0
  0
DIMENSION
  5
BC9
  8
2
  2
*D4
 10
112.2356077073519
 20
37.553821617084182
 30
0.0
 11
110.3606077073519
 21
67.053821617084196
 31
0.0
 70
     0
  1
(<>)
 13
105.3406140415932
 23
96.553821617084154
 33
0.0
 14
105.3406140415932
 24
37.553821617084189
 34
0.0
 50
90.0
  0
LINE
  5
BE2
  8
2
 10
82.957041887254377
 20
52.053821617084182
 30
0.0
 11
80.767811248600765
 21
52.053821617084182
 31
0.0
  0
DIMENSION
  5
BE6
  8
2
  2
*D5
 10
76.526177779882573
 20
52.053821617084189
 30
0.0
 11
74.651177779882559
 21
62.053821617084189
 31
0.0
 70
     0
 13
84.411042311713857
 23
72.053821617084182
 33
0.0
 14
82.957041887254377
 24
52.053821617084182
 34
0.0
 50
90.0
  0
TEXT
  5
BF5
  8
1
 10
73.379158915552694
 20
95.130523409367527
 30
0.0
 40
2.5
  1
M5
  0
TEXT
  5
BF6
  8
1
 10
71.575299484420952
 20
76.137417582803494
 30
0.0
 40
2.5
  1
G1/8
  0
TEXT
  5
BF7
  8
1
 10
73.652812387915105
 20
90.997133725723188
 30
0.0
 40
2.5
  1
H7
  0
TEXT
  5
BFA
  8
1
 10
73.379158915552694
 20
85.531492024334284
 30
0.0
 40
2.5
  1
H14
  0
TEXT
  5
C02
  8
1
 10
73.242331821902212
 20
44.503129320649968
 30
0.0
 40
2.5
  1
M5
  0
TEXT
  5
C03
  8
1
 10
73.515985294264624
 20
40.36973963700563
 30
0.0
 40
2.5
  1
H7
  0
POLYLINE
  8
2
  5
C84
  66
     1
 10
0.000000
 20
0.000000
 30
0.000000
  70
     8
  0
VERTEX
  8
2
  5
C85
 10
86.6616
 20
93.2767
 30
0.000000
  70
    32
  0
VERTEX
  8
2
  5
C86
 10
78.1175
 20
94.7676
 30
0.000000
  70
    32
  0
VERTEX
  8
2
  5
C87
 10
71.9184
 20
94.7676
 30
0.000000
  70
    32
  0
SEQEND
  8
2
  5
C88
  0
POLYLINE
  8
2
  5
C89
  66
     1
 10
0.000000
 20
0.000000
 30
0.000000
  70
     8
  0
VERTEX
  8
2
  5
C8A
 10
85.1616
 20
91.7619
 30
0.000000
  70
    32
  0
VERTEX
  8
2
  5
C8B
 10
78.2282
 20
90.5668
 30
0.000000
  70
    32
  0
VERTEX
  8
2
  5
C8C
 10
72.2505
 20
90.5668
 30
0.000000
  70
    32
  0
SEQEND
  8
2
  5
C8D
  0
POLYLINE
  8
2
  5
C8E
  66
     1
 10
0.000000
 20
0.000000
 30
0.000000
  70
     8
  0
VERTEX
  8
2
  5
C8F
 10
81.1616
 20
84.1803
 30
0.000000
  70
    32
  0
VERTEX
  8
2
  5
C90
 10
79.5565
 20
85.0394
 30
0.000000
  70
    32
  0
VERTEX
  8
2
  5
C91
 10
71.8077
 20
85.0394
 30
0.000000
  70
    32
  0
SEQEND
  8
2
  5
C92
  0
POLYLINE
  8
2
  5
C93
  66
     1
 10
0.000000
 20
0.000000
 30
0.000000
  70
     8
  0
VERTEX
  8
2
  5
C94
 10
84.1616
 20
72.0538
 30
0.000000
  70
    32
  0
VERTEX
  8
2
  5
C95
 10
80.2264
 20
75.7591
 30
0.000000
  70
    32
  0
VERTEX
  8
2
  5
C96
 10
71.5504
 20
75.7591
 30
0.000000
  70
    32
  0
SEQEND
  8
2
  5
C97
  0
POLYLINE
  8
2
  5
C98
  66
     1
 10
0.000000
 20
0.000000
 30
0.000000
  70
     8
  0
VERTEX
  8
2
  5
C99
 10
86.6616
 20
40.6004
 30
0.000000
  70
    32
  0
VERTEX
  8
2
  5
C9A
 10
77.9364
 20
44.1196
 30
0.000000
  70
    32
  0
VERTEX
  8
2
  5
C9B
 10
72.2976
 20
44.1196
 30
0.000000
  70
    32
  0
SEQEND
  8
2
  5
C9C
  0
POLYLINE
  8
2
  5
C9D
  66
     1
 10
0.000000
 20
0.000000
 30
0.000000
  70
     8
  0
VERTEX
  8
2
  5
C9E
 10
85.1751
 20
37.9514
 30
0.000000
  70
    32
  0
VERTEX
  8
2
  5
C9F
 10
77.9364
 20
39.8560
 30
0.000000
  70
    32
  0
VERTEX
  8
2
  5
CA0
 10
72.6198
 20
39.8560
 30
0.000000
  70
    32
  0
SEQEND
  8
2
  5
CA1
  0
LINE
  5
C53
  8
1
 10
86.161642311713848
 20
72.053821617084182
 30
0.0
 11
86.161642311713848
 21
44.51682161708419
 31
0.0
  0
LINE
  5
C55
  8
1
 10
85.661642311713834
 20
72.053821617084182
 30
0.0
 11
85.661642311713834
 21
44.50188594829438
 31
0.0
  0
LINE
  5
C59
  8
1
 10
85.661642311713834
 20
72.053821617084182
 30
0.0
 11
86.161642311713848
 21
44.51682161708419
 31
0.0
  0
LINE
  5
C5A
  8
1
 10
86.161642311713848
 20
72.053821617084182
 30
0.0
 11
85.661642311713834
 21
44.50188594829438
 31
0.0
  0
LINE
  5
C5C
  8
1
 10
92.661642311713848
 20
72.053821617084182
 30
0.0
 11
92.661642311713848
 21
44.50188594829438
 31
0.0
  0
LINE
  5
C5D
  8
1
 10
92.161642311713848
 20
72.053821617084182
 30
0.0
 11
92.661642311713848
 21
44.50188594829438
 31
0.0
  0
LINE
  5
C5E
  8
1
 10
92.661642311713848
 20
72.053821617084182
 30
0.0
 11
92.161642311713848
 21
44.51682161708419
 31
0.0
  0
LINE
  5
C5F
  8
1
 10
92.161642311713848
 20
72.053821617084182
 30
0.0
 11
92.161642311713848
 21
44.51682161708419
 31
0.0
  0
ENDSEC
  0
EOF
