  0
SECTION
  2
HEADER
  9
$ACADVER
  1
AC1009
  9
$INSBASE
 10
0.0
 20
0.0
 30
0.0
  9
$EXTMIN
 10
58.038596594273109
 20
44.324326083826293
 30
-2.5
  9
$EXTMAX
 10
133.68433565374909
 20
141.3997531212907
 30
5.0
  9
$LIMMIN
 10
0.0
 20
0.0
  9
$LIMMAX
 10
420.0
 20
297.0
  9
$ORTHOMODE
 70
     0
  9
$REGENMODE
 70
     1
  9
$FILLMODE
 70
     1
  9
$QTEXTMODE
 70
     0
  9
$MIRRTEXT
 70
     1
  9
$DRAGMODE
 70
     2
  9
$LTSCALE
 40
0.3
  9
$OSMODE
 70
    37
  9
$ATTMODE
 70
     1
  9
$TEXTSIZE
 40
2.5
  9
$TRACEWID
 40
1.0
  9
$TEXTSTYLE
  7
STANDARD
  9
$CLAYER
  8
2
  9
$CELTYPE
  6
BYLAYER
  9
$CECOLOR
 62
   256
  9
$DIMSCALE
 40
1.0
  9
$DIMASZ
 40
2.5
  9
$DIMEXO
 40
0.625
  9
$DIMDLI
 40
3.75
  9
$DIMRND
 40
0.0
  9
$DIMDLE
 40
0.0
  9
$DIMEXE
 40
1.25
  9
$DIMTP
 40
0.0
  9
$DIMTM
 40
0.0
  9
$DIMTXT
 40
2.5
  9
$DIMCEN
 40
2.5
  9
$DIMTSZ
 40
0.0
  9
$DIMTOL
 70
     0
  9
$DIMLIM
 70
     0
  9
$DIMTIH
 70
     0
  9
$DIMTOH
 70
     0
  9
$DIMSE1
 70
     0
  9
$DIMSE2
 70
     0
  9
$DIMTAD
 70
     1
  9
$DIMZIN
 70
     8
  9
$DIMBLK
  1

  9
$DIMASO
 70
     1
  9
$DIMSHO
 70
     1
  9
$DIMPOST
  1

  9
$DIMAPOST
  1

  9
$DIMALT
 70
     0
  9
$DIMALTD
 70
     3
  9
$DIMALTF
 40
0.03937007874016
  9
$DIMLFAC
 40
1.0
  9
$DIMTOFL
 70
     1
  9
$DIMTVP
 40
0.0
  9
$DIMTIX
 70
     0
  9
$DIMSOXD
 70
     0
  9
$DIMSAH
 70
     0
  9
$DIMBLK1
  1

  9
$DIMBLK2
  1

  9
$DIMSTYLE
  2
ISO-25
  9
$DIMCLRD
 70
     0
  9
$DIMCLRE
 70
     0
  9
$DIMCLRT
 70
     0
  9
$DIMTFAC
 40
1.0
  9
$DIMGAP
 40
0.625
  9
$LUNITS
 70
     2
  9
$LUPREC
 70
     4
  9
$SKETCHINC
 40
1.0
  9
$FILLETRAD
 40
10.0
  9
$AUNITS
 70
     0
  9
$AUPREC
 70
     0
  9
$MENU
  1
.
  9
$ELEVATION
 40
0.0
  9
$PELEVATION
 40
0.0
  9
$THICKNESS
 40
0.0
  9
$LIMCHECK
 70
     0
  9
$BLIPMODE
 70
     0
  9
$CHAMFERA
 40
10.0
  9
$CHAMFERB
 40
10.0
  9
$SKPOLY
 70
     0
  9
$TDCREATE
 40
2453446.4468046869
  9
$TDUPDATE
 40
2453551.9348228928
  9
$TDINDWG
 40
0.1370270486
  9
$TDUSRTIMER
 40
0.1370270486
  9
$USRTIMER
 70
     1
  9
$ANGBASE
 50
0.0
  9
$ANGDIR
 70
     0
  9
$PDMODE
 70
     0
  9
$PDSIZE
 40
0.0
  9
$PLINEWID
 40
0.0
  9
$COORDS
 70
     1
  9
$SPLFRAME
 70
     0
  9
$SPLINETYPE
 70
     6
  9
$SPLINESEGS
 70
     8
  9
$ATTDIA
 70
     0
  9
$ATTREQ
 70
     1
  9
$HANDLING
 70
-16383
  9
$HANDSEED
  5
173B
  9
$SURFTAB1
 70
     6
  9
$SURFTAB2
 70
     6
  9
$SURFTYPE
 70
     6
  9
$SURFU
 70
     6
  9
$SURFV
 70
     6
  9
$UCSNAME
  2

  9
$UCSORG
 10
0.0
 20
0.0
 30
0.0
  9
$UCSXDIR
 10
1.0
 20
0.0
 30
0.0
  9
$UCSYDIR
 10
0.0
 20
1.0
 30
0.0
  9
$PUCSNAME
  2

  9
$PUCSORG
 10
0.0
 20
0.0
 30
0.0
  9
$PUCSXDIR
 10
1.0
 20
0.0
 30
0.0
  9
$PUCSYDIR
 10
0.0
 20
1.0
 30
0.0
  9
$USERI1
 70
     0
  9
$USERI2
 70
     0
  9
$USERI3
 70
     0
  9
$USERI4
 70
     0
  9
$USERI5
 70
     0
  9
$USERR1
 40
0.0
  9
$USERR2
 40
0.0
  9
$USERR3
 40
0.0
  9
$USERR4
 40
0.0
  9
$USERR5
 40
0.0
  9
$WORLDVIEW
 70
     1
  9
$SHADEDGE
 70
     3
  9
$SHADEDIF
 70
    70
  9
$TILEMODE
 70
     1
  9
$MAXACTVP
 70
    64
  9
$PLIMCHECK
 70
     0
  9
$PEXTMIN
 10
1.0000000000000000E+020
 20
1.0000000000000000E+020
 30
1.0000000000000000E+020
  9
$PEXTMAX
 10
-1.0000000000000000E+020
 20
-1.0000000000000000E+020
 30
-1.0000000000000000E+020
  9
$PLIMMIN
 10
0.0
 20
0.0
  9
$PLIMMAX
 10
420.0
 20
297.0
  9
$UNITMODE
 70
     0
  9
$VISRETAIN
 70
     1
  9
$PLINEGEN
 70
     0
  9
$PSLTSCALE
 70
     1
  0
ENDSEC
  0
SECTION
  2
TABLES
  0
TABLE
  2
VPORT
 70
     2
  0
VPORT
  2
*ACTIVE
 70
     0
 10
0.0
 20
0.0
 11
1.0
 21
1.0
 12
168.9307129180319
 22
101.21376314649019
 13
0.0
 23
0.0
 14
10.0
 24
10.0
 15
10.0
 25
10.0
 16
0.0
 26
0.0
 36
1.0
 17
0.0
 27
0.0
 37
0.0
 40
126.1588032970937
 41
2.5392405063291141
 42
50.0
 43
0.0
 44
0.0
 50
0.0
 51
0.0
 71
     0
 72
   100
 73
     1
 74
     3
 75
     0
 76
     0
 77
     0
 78
     0
  0
ENDTAB
  0
TABLE
  2
LTYPE
 70
     3
  0
LTYPE
  2
CONTINUOUS
 70
     0
  3
Solid line
 72
    65
 73
     0
 40
0.0
  0
LTYPE
  2
CENTER
 70
     0
  3
Center ____ _ ____ _ ____ _ ____ _ ____ _ ____
 72
    65
 73
     4
 40
50.799999999999997
 49
31.75
 49
-6.3499999999999988
 49
6.3499999999999988
 49
-6.3499999999999988
  0
LTYPE
  2
DASHED2
 70
     0
  3
Dashed (.5x) _ _ _ _ _ _ _ _ _ _ _ _ _ _ _ _ _
 72
    65
 73
     2
 40
9.5249999999999986
 49
6.3499999999999988
 49
-3.1749999999999989
  0
ENDTAB
  0
TABLE
  2
LAYER
 70
     5
  0
LAYER
  2
0
 70
     0
 62
     7
  6
CONTINUOUS
  0
LAYER
  2
1
 70
     0
 62
     7
  6
CENTER
  0
LAYER
  2
2
 70
     0
 62
     7
  6
CONTINUOUS
  0
LAYER
  2
3
 70
     0
 62
     7
  6
DASHED2
  0
LAYER
  2
DEFPOINTS
 70
     0
 62
     7
  6
CONTINUOUS
  0
ENDTAB
  0
TABLE
  2
STYLE
 70
     4
  0
STYLE
  2
STANDARD
 70
     0
 40
0.0
 41
1.0
 50
0.0
 71
     0
 42
2.5
  3
txt
  4

  0
STYLE
  2
\U+00C9L\U+00C9R_\U+00C2S\U+00C2V\U+00C2B\U+00C2N
 70
     0
 40
1.0
 41
1.0
 50
0.0
 71
     0
 42
1.0
  3
\U+00E9l\U+00E9r \U+00E2S\U+00E2V\U+00E2b\U+00E2N
  4

  0
STYLE
  2
SWIS721_CN_BT
 70
     0
 40
1.0
 41
1.0
 50
0.0
 71
     0
 42
1.0
  3
Swis721 Cn BT
  4

  0
STYLE
  2

 70
     1
 40
0.0
 41
1.0
 50
0.0
 71
     0
 42
2.5
  3
ltypeshp.shx
  4

  0
ENDTAB
  0
TABLE
  2
VIEW
 70
     0
  0
ENDTAB
  0
TABLE
  2
UCS
 70
     0
  0
ENDTAB
  0
TABLE
  2
APPID
 70
     1
  0
APPID
  2
ACAD
 70
     0
  0
ENDTAB
  0
TABLE
  2
DIMSTYLE
 70
     2
  0
DIMSTYLE
  2
ISO-25
 70
     0
  3

  4

  5

  6

  7

 40
1.0
 41
2.5
 42
0.625
 43
3.75
 44
1.25
 45
0.0
 46
0.0
 47
0.0
 48
0.0
140
2.5
141
2.5
142
0.0
143
0.03937007874016
144
1.0
145
0.0
146
1.0
147
0.625
 71
     0
 72
     0
 73
     0
 74
     0
 75
     0
 76
     0
 77
     1
 78
     8
170
     0
171
     3
172
     1
173
     0
174
     0
175
     0
176
     0
177
     0
178
     0
  0
DIMSTYLE
  2
STANDARD
 70
     0
  3

  4

  5

  6

  7

 40
1.0
 41
0.18
 42
0.0625
 43
0.38
 44
0.18
 45
0.0
 46
0.0
 47
0.0
 48
0.0
140
0.18
141
0.09
142
0.0
143
25.399999999999999
144
1.0
145
0.0
146
1.0
147
0.09
 71
     0
 72
     0
 73
     1
 74
     1
 75
     0
 76
     0
 77
     0
 78
     0
170
     0
171
     2
172
     0
173
     0
174
     0
175
     0
176
     0
177
     0
178
     0
  0
ENDTAB
  0
ENDSEC
  0
SECTION
  2
BLOCKS
  0
BLOCK
  8
0
  2
$MODEL_SPACE
 70
     0
 10
0.0
 20
0.0
 30
0.0
  3
$MODEL_SPACE
  1

  0
ENDBLK
  5
21
  8
0
  0
BLOCK
 67
     1
  8
0
  2
$PAPER_SPACE
 70
     0
 10
0.0
 20
0.0
 30
0.0
  3
$PAPER_SPACE
  1

  0
ENDBLK
  5
1D
 67
     1
  8
0
  0
BLOCK
  8
0
  2
*D1
 70
     1
 10
0.0
 20
0.0
 30
0.0
  3
*D1
  1

  0
LINE
  5
129A
  8
2
 62
     0
 10
112.8976737112143
 20
122.6463120581146
 30
0.0
 11
123.68097919913239
 21
122.6463120581146
 31
0.0
  0
LINE
  5
129B
  8
2
 62
     0
 10
114.3862737112143
 20
113.6463120581146
 30
0.0
 11
123.68097919913239
 21
113.6463120581146
 31
0.0
  0
LINE
  5
129C
  8
2
 62
     0
 10
122.43097919913239
 20
120.1463120581146
 30
0.0
 11
122.43097919913239
 21
116.1463120581146
 31
0.0
  0
SOLID
  5
129D
  8
2
 62
     0
 10
122.01431253246579
 20
120.1463120581146
 30
0.0
 11
122.84764586579909
 21
120.1463120581146
 31
0.0
 12
122.43097919913239
 22
122.6463120581146
 32
0.0
 13
122.43097919913239
 23
122.6463120581146
 33
0.0
  0
SOLID
  5
129E
  8
2
 62
     0
 10
122.01431253246579
 20
116.1463120581146
 30
0.0
 11
122.84764586579909
 21
116.1463120581146
 31
0.0
 12
122.43097919913239
 22
113.6463120581146
 32
0.0
 13
122.43097919913239
 23
113.6463120581146
 33
0.0
  0
TEXT
  5
129F
  8
2
 62
     0
 10
121.80597919913239
 20
117.3129787247813
 30
0.0
 40
2.5
  1
9
 50
90.0
  0
POINT
  5
12A0
  8
DEFPOINTS
 62
     0
 10
112.2726737112143
 20
122.6463120581146
 30
0.0
  0
POINT
  5
12A1
  8
DEFPOINTS
 62
     0
 10
113.7612737112142
 20
113.6463120581146
 30
0.0
  0
POINT
  5
12A2
  8
DEFPOINTS
 62
     0
 10
122.43097919913239
 20
113.6463120581146
 30
0.0
  0
ENDBLK
  5
12A4
  8
0
  0
BLOCK
  8
0
  2
*D2
 70
     1
 10
0.0
 20
0.0
 30
0.0
  3
*D2
  1

  0
LINE
  5
12A7
  8
2
 62
     0
 10
121.80597919913239
 20
113.6463120581146
 30
0.0
 11
121.18097919913239
 21
113.6463120581146
 31
0.0
  0
LINE
  5
12A8
  8
2
 62
     0
 10
115.6790737112143
 20
90.646312058114674
 30
0.0
 11
123.68097919913239
 21
90.646312058114674
 31
0.0
  0
LINE
  5
12A9
  8
2
 62
     0
 10
122.43097919913239
 20
111.1463120581146
 30
0.0
 11
122.43097919913239
 21
93.146312058114674
 31
0.0
  0
SOLID
  5
12AA
  8
2
 62
     0
 10
122.01431253246579
 20
111.1463120581146
 30
0.0
 11
122.84764586579909
 21
111.1463120581146
 31
0.0
 12
122.43097919913239
 22
113.6463120581146
 32
0.0
 13
122.43097919913239
 23
113.6463120581146
 33
0.0
  0
SOLID
  5
12AB
  8
2
 62
     0
 10
122.01431253246569
 20
93.146312058114674
 30
0.0
 11
122.84764586579909
 21
93.146312058114674
 31
0.0
 12
122.43097919913239
 22
90.646312058114674
 32
0.0
 13
122.43097919913239
 23
90.646312058114674
 33
0.0
  0
TEXT
  5
12AC
  8
2
 62
     0
 10
121.80597919913239
 20
100.0629787247813
 30
0.0
 40
2.5
  1
23
 50
90.0
  0
POINT
  5
12AD
  8
DEFPOINTS
 62
     0
 10
122.43097919913239
 20
113.6463120581146
 30
0.0
  0
POINT
  5
12AE
  8
DEFPOINTS
 62
     0
 10
115.0540737112142
 20
90.646312058114674
 30
0.0
  0
POINT
  5
12AF
  8
DEFPOINTS
 62
     0
 10
122.43097919913239
 20
90.646312058114674
 30
0.0
  0
ENDBLK
  5
12B1
  8
0
  0
BLOCK
  8
0
  2
*D3
 70
     1
 10
0.0
 20
0.0
 30
0.0
  3
*D3
  1

  0
LINE
  5
1407
  8
2
 62
     0
 10
121.80597919913239
 20
80.146312058114674
 30
0.0
 11
121.18097919913239
 21
80.146312058114674
 31
0.0
  0
LINE
  5
1408
  8
2
 62
     0
 10
111.3862737112143
 20
69.146312058114674
 30
0.0
 11
123.68097919913239
 21
69.146312058114674
 31
0.0
  0
LINE
  5
1409
  8
2
 62
     0
 10
122.43097919913239
 20
77.646312058114674
 30
0.0
 11
122.43097919913239
 21
71.646312058114674
 31
0.0
  0
SOLID
  5
140A
  8
2
 62
     0
 10
122.01431253246569
 20
77.646312058114674
 30
0.0
 11
122.84764586579909
 21
77.646312058114674
 31
0.0
 12
122.43097919913239
 22
80.146312058114674
 32
0.0
 13
122.43097919913239
 23
80.146312058114674
 33
0.0
  0
SOLID
  5
140B
  8
2
 62
     0
 10
122.01431253246569
 20
71.646312058114674
 30
0.0
 11
122.84764586579909
 21
71.646312058114674
 31
0.0
 12
122.43097919913239
 22
69.146312058114674
 32
0.0
 13
122.43097919913239
 23
69.146312058114674
 33
0.0
  0
TEXT
  5
140C
  8
2
 62
     0
 10
121.80597919913239
 20
73.396312058114674
 30
0.0
 40
2.5
  1
11
 50
90.0
  0
POINT
  5
140D
  8
DEFPOINTS
 62
     0
 10
122.43097919913239
 20
80.146312058114674
 30
0.0
  0
POINT
  5
140E
  8
DEFPOINTS
 62
     0
 10
110.7612737112143
 20
69.146312058114674
 30
0.0
  0
POINT
  5
140F
  8
DEFPOINTS
 62
     0
 10
122.43097919913239
 20
69.146312058114674
 30
0.0
  0
ENDBLK
  5
12CF
  8
0
  0
BLOCK
  8
0
  2
*D4
 70
     1
 10
0.0
 20
0.0
 30
0.0
  3
*D4
  1

  0
LINE
  5
13FC
  8
2
 62
     0
 10
121.80597919913239
 20
69.146312058114674
 30
0.0
 11
121.18097919913239
 21
69.146312058114674
 31
0.0
  0
LINE
  5
13FD
  8
2
 62
     0
 10
111.8862737112143
 20
67.646312058114674
 30
0.0
 11
123.68097919913239
 21
67.646312058114674
 31
0.0
  0
LINE
  5
13FE
  8
2
 62
     0
 10
122.43097919913239
 20
71.646312058114674
 30
0.0
 11
122.43097919913239
 21
74.146312058114674
 31
0.0
  0
LINE
  5
13FF
  8
2
 62
     0
 10
122.43097919913239
 20
65.146312058114674
 30
0.0
 11
122.43097919913239
 21
57.229645391448003
 31
0.0
  0
LINE
  5
1400
  8
2
 62
     0
 10
122.43097919913239
 20
69.146312058114674
 30
0.0
 11
122.43097919913239
 21
67.646312058114674
 31
0.0
  0
SOLID
  5
1401
  8
2
 62
     0
 10
122.01431253246569
 20
71.646312058114674
 30
0.0
 11
122.84764586579909
 21
71.646312058114674
 31
0.0
 12
122.43097919913239
 22
69.146312058114674
 32
0.0
 13
122.43097919913239
 23
69.146312058114674
 33
0.0
  0
SOLID
  5
1402
  8
2
 62
     0
 10
122.01431253246569
 20
65.146312058114674
 30
0.0
 11
122.84764586579909
 21
65.146312058114674
 31
0.0
 12
122.43097919913239
 22
67.646312058114674
 32
0.0
 13
122.43097919913239
 23
67.646312058114674
 33
0.0
  0
TEXT
  5
1403
  8
2
 62
     0
 10
121.80597919913239
 20
57.854645391448017
 30
0.0
 40
2.5
  1
1.5
 50
90.0
  0
POINT
  5
1404
  8
DEFPOINTS
 62
     0
 10
122.43097919913239
 20
69.146312058114674
 30
0.0
  0
POINT
  5
1405
  8
DEFPOINTS
 62
     0
 10
111.2612737112143
 20
67.646312058114674
 30
0.0
  0
POINT
  5
1406
  8
DEFPOINTS
 62
     0
 10
122.43097919913239
 20
67.646312058114674
 30
0.0
  0
ENDBLK
  5
12E0
  8
0
  0
BLOCK
  8
0
  2
*D5
 70
     1
 10
0.0
 20
0.0
 30
0.0
  3
*D5
  1

  0
LINE
  5
13F1
  8
2
 62
     0
 10
123.05597919913239
 20
69.146312058114674
 30
0.0
 11
128.36781914969069
 21
69.146312058114674
 31
0.0
  0
LINE
  5
13F2
  8
2
 62
     0
 10
111.8862737112143
 20
66.54631205811468
 30
0.0
 11
128.36781914969069
 21
66.54631205811468
 31
0.0
  0
LINE
  5
13F3
  8
2
 62
     0
 10
127.1178191496907
 20
71.646312058114674
 30
0.0
 11
127.1178191496907
 21
74.146312058114674
 31
0.0
  0
LINE
  5
13F4
  8
2
 62
     0
 10
127.1178191496907
 20
64.04631205811468
 30
0.0
 11
127.1178191496907
 21
55.29631205811468
 31
0.0
  0
LINE
  5
13F5
  8
2
 62
     0
 10
127.1178191496907
 20
69.146312058114674
 30
0.0
 11
127.1178191496907
 21
66.54631205811468
 31
0.0
  0
SOLID
  5
13F6
  8
2
 62
     0
 10
126.701152483024
 20
71.646312058114674
 30
0.0
 11
127.5344858163574
 21
71.646312058114674
 31
0.0
 12
127.1178191496907
 22
69.146312058114674
 32
0.0
 13
127.1178191496907
 23
69.146312058114674
 33
0.0
  0
SOLID
  5
13F7
  8
2
 62
     0
 10
126.701152483024
 20
64.04631205811468
 30
0.0
 11
127.5344858163574
 21
64.04631205811468
 31
0.0
 12
127.1178191496907
 22
66.54631205811468
 32
0.0
 13
127.1178191496907
 23
66.54631205811468
 33
0.0
  0
TEXT
  5
13F8
  8
2
 62
     0
 10
126.4928191496907
 20
55.921312058114701
 30
0.0
 40
2.5
  1
2.6
 50
90.0
  0
POINT
  5
13F9
  8
DEFPOINTS
 62
     0
 10
122.43097919913239
 20
69.146312058114674
 30
0.0
  0
POINT
  5
13FA
  8
DEFPOINTS
 62
     0
 10
111.2612737112143
 20
66.54631205811468
 30
0.0
  0
POINT
  5
13FB
  8
DEFPOINTS
 62
     0
 10
127.1178191496907
 20
66.54631205811468
 30
0.0
  0
ENDBLK
  5
12F0
  8
0
  0
BLOCK
  8
0
  2
*D6
 70
     1
 10
0.0
 20
0.0
 30
0.0
  3
*D6
  1

  0
LINE
  5
13D4
  8
2
 62
     0
 10
126.4928191496907
 20
69.146312058114674
 30
0.0
 11
125.8678191496907
 21
69.146312058114674
 31
0.0
  0
LINE
  5
13D5
  8
2
 62
     0
 10
123.05597919913239
 20
122.6463120581146
 30
0.0
 11
128.36781914969069
 21
122.6463120581146
 31
0.0
  0
LINE
  5
13D6
  8
2
 62
     0
 10
127.1178191496907
 20
71.646312058114674
 30
0.0
 11
127.1178191496907
 21
120.1463120581146
 31
0.0
  0
SOLID
  5
13D7
  8
2
 62
     0
 10
126.701152483024
 20
71.646312058114674
 30
0.0
 11
127.5344858163574
 21
71.646312058114674
 31
0.0
 12
127.1178191496907
 22
69.146312058114674
 32
0.0
 13
127.1178191496907
 23
69.146312058114674
 33
0.0
  0
SOLID
  5
13D8
  8
2
 62
     0
 10
126.701152483024
 20
120.1463120581146
 30
0.0
 11
127.5344858163574
 21
120.1463120581146
 31
0.0
 12
127.1178191496907
 22
122.6463120581146
 32
0.0
 13
127.1178191496907
 23
122.6463120581146
 33
0.0
  0
TEXT
  5
13D9
  8
2
 62
     0
 10
126.4928191496907
 20
90.479645391448017
 30
0.0
 40
2.5
  1
(53.5)
 50
90.0
  0
POINT
  5
13DA
  8
DEFPOINTS
 62
     0
 10
127.1178191496907
 20
69.146312058114674
 30
0.0
  0
POINT
  5
13DB
  8
DEFPOINTS
 62
     0
 10
122.43097919913239
 20
122.6463120581146
 30
0.0
  0
POINT
  5
13DC
  8
DEFPOINTS
 62
     0
 10
127.1178191496907
 20
122.6463120581146
 30
0.0
  0
ENDBLK
  5
12FE
  8
0
  0
BLOCK
  8
0
  2
*D7
 70
     1
 10
0.0
 20
0.0
 30
0.0
  3
*D7
  1

  0
LINE
  5
13CB
  8
2
 62
     0
 10
127.7428191496907
 20
122.6463120581146
 30
0.0
 11
133.68433565374909
 21
122.6463120581146
 31
0.0
  0
LINE
  5
13CC
  8
2
 62
     0
 10
127.7428191496907
 20
66.54631205811468
 30
0.0
 11
133.68433565374909
 21
66.54631205811468
 31
0.0
  0
LINE
  5
13CD
  8
2
 62
     0
 10
132.43433565374909
 20
120.1463120581146
 30
0.0
 11
132.43433565374909
 21
69.04631205811468
 31
0.0
  0
SOLID
  5
13CE
  8
2
 62
     0
 10
132.0176689870824
 20
120.1463120581146
 30
0.0
 11
132.8510023204158
 21
120.1463120581146
 31
0.0
 12
132.43433565374909
 22
122.6463120581146
 32
0.0
 13
132.43433565374909
 23
122.6463120581146
 33
0.0
  0
SOLID
  5
13CF
  8
2
 62
     0
 10
132.0176689870824
 20
69.04631205811468
 30
0.0
 11
132.8510023204158
 21
69.04631205811468
 31
0.0
 12
132.43433565374909
 22
66.54631205811468
 32
0.0
 13
132.43433565374909
 23
66.54631205811468
 33
0.0
  0
TEXT
  5
13D0
  8
2
 62
     0
 10
131.80933565374909
 20
89.596312058114691
 30
0.0
 40
2.5
  1
(56.1)
 50
90.0
  0
POINT
  5
13D1
  8
DEFPOINTS
 62
     0
 10
127.1178191496907
 20
122.6463120581146
 30
0.0
  0
POINT
  5
13D2
  8
DEFPOINTS
 62
     0
 10
127.1178191496907
 20
66.54631205811468
 30
0.0
  0
POINT
  5
13D3
  8
DEFPOINTS
 62
     0
 10
132.43433565374909
 20
66.54631205811468
 30
0.0
  0
ENDBLK
  5
1315
  8
0
  0
BLOCK
  8
0
  2
*D8
 70
     1
 10
0.0
 20
0.0
 30
0.0
  3
*D8
  1

  0
LINE
  5
13DD
  8
2
 62
     0
 10
103.8434737112142
 20
90.646312058114674
 30
0.0
 11
96.291176169920504
 21
90.646312058114674
 31
0.0
  0
LINE
  5
13DE
  8
2
 62
     0
 10
100.69142559215111
 20
80.646312058114674
 30
0.0
 11
96.291176169920504
 21
80.646312058114674
 31
0.0
  0
LINE
  5
13DF
  8
2
 62
     0
 10
97.541176169920504
 20
88.146312058114674
 30
0.0
 11
97.541176169920504
 21
83.146312058114674
 31
0.0
  0
SOLID
  5
13E0
  8
2
 62
     0
 10
97.124509503253833
 20
88.146312058114674
 30
0.0
 11
97.95784283658719
 21
88.146312058114674
 31
0.0
 12
97.541176169920504
 22
90.646312058114674
 32
0.0
 13
97.541176169920504
 23
90.646312058114674
 33
0.0
  0
SOLID
  5
13E1
  8
2
 62
     0
 10
97.124509503253833
 20
83.146312058114674
 30
0.0
 11
97.95784283658719
 21
83.146312058114674
 31
0.0
 12
97.541176169920504
 22
80.646312058114674
 32
0.0
 13
97.541176169920504
 23
80.646312058114674
 33
0.0
  0
TEXT
  5
13E2
  8
2
 62
     0
 10
96.91617616992049
 20
84.187978724781374
 30
0.0
 40
2.5
  1
10
 50
90.0
  0
POINT
  5
13E3
  8
DEFPOINTS
 62
     0
 10
104.4684737112143
 20
90.646312058114674
 30
0.0
  0
POINT
  5
13E4
  8
DEFPOINTS
 62
     0
 10
101.31642559215111
 20
80.646312058114674
 30
0.0
  0
POINT
  5
13E5
  8
DEFPOINTS
 62
     0
 10
97.541176169920504
 20
80.646312058114674
 30
0.0
  0
ENDBLK
  5
13A4
  8
0
  0
BLOCK
  8
0
  2
*D9
 70
     1
 10
0.0
 20
0.0
 30
0.0
  3
*D9
  1

  0
LINE
  5
1440
  8
2
 62
     0
 10
121.80597919913239
 20
90.646312058114674
 30
0.0
 11
121.18097919913239
 21
90.646312058114674
 31
0.0
  0
LINE
  5
1441
  8
2
 62
     0
 10
114.1333737112143
 20
80.146312058114674
 30
0.0
 11
123.68097919913239
 21
80.146312058114674
 31
0.0
  0
LINE
  5
1442
  8
2
 62
     0
 10
122.43097919913239
 20
88.146312058114674
 30
0.0
 11
122.43097919913239
 21
82.646312058114674
 31
0.0
  0
SOLID
  5
1443
  8
2
 62
     0
 10
122.01431253246569
 20
88.146312058114674
 30
0.0
 11
122.84764586579909
 21
88.146312058114674
 31
0.0
 12
122.43097919913239
 22
90.646312058114674
 32
0.0
 13
122.43097919913239
 23
90.646312058114674
 33
0.0
  0
SOLID
  5
1444
  8
2
 62
     0
 10
122.01431253246569
 20
82.646312058114674
 30
0.0
 11
122.84764586579909
 21
82.646312058114674
 31
0.0
 12
122.43097919913239
 22
80.146312058114674
 32
0.0
 13
122.43097919913239
 23
80.146312058114674
 33
0.0
  0
TEXT
  5
1445
  8
2
 62
     0
 10
121.80597919913239
 20
82.271312058114688
 30
0.0
 40
2.5
  1
10.5
 50
90.0
  0
POINT
  5
1446
  8
DEFPOINTS
 62
     0
 10
122.43097919913239
 20
90.646312058114674
 30
0.0
  0
POINT
  5
1447
  8
DEFPOINTS
 62
     0
 10
113.5083737112142
 20
80.146312058114674
 30
0.0
  0
POINT
  5
1448
  8
DEFPOINTS
 62
     0
 10
122.43097919913239
 20
80.146312058114674
 30
0.0
  0
ENDBLK
  5
144A
  8
0
  0
BLOCK
  8
0
  2
*D10
 70
     1
 10
0.0
 20
0.0
 30
0.0
  3
*D10
  1

  0
LINE
  5
1605
  8
2
 62
     0
 10
68.875407463864491
 20
74.712312058114662
 30
0.0
 11
59.91359659427313
 21
74.712312058114662
 31
0.0
  0
LINE
  5
1606
  8
2
 62
     0
 10
68.875407463864491
 20
71.212312058114662
 30
0.0
 11
59.91359659427313
 21
71.212312058114662
 31
0.0
  0
LINE
  5
1607
  8
2
 62
     0
 10
61.16359659427313
 20
77.212312058114662
 30
0.0
 11
61.16359659427313
 21
79.712312058114662
 31
0.0
  0
LINE
  5
1608
  8
2
 62
     0
 10
61.16359659427313
 20
68.712312058114662
 30
0.0
 11
61.16359659427313
 21
57.462312058114662
 31
0.0
  0
LINE
  5
1609
  8
2
 62
     0
 10
61.16359659427313
 20
74.712312058114662
 30
0.0
 11
61.16359659427313
 21
71.212312058114662
 31
0.0
  0
SOLID
  5
160A
  8
2
 62
     0
 10
60.746929927606473
 20
77.212312058114662
 30
0.0
 11
61.580263260939802
 21
77.212312058114662
 31
0.0
 12
61.16359659427313
 22
74.712312058114662
 32
0.0
 13
61.16359659427313
 23
74.712312058114662
 33
0.0
  0
SOLID
  5
160B
  8
2
 62
     0
 10
60.746929927606473
 20
68.712312058114662
 30
0.0
 11
61.580263260939802
 21
68.712312058114662
 31
0.0
 12
61.16359659427313
 22
71.212312058114662
 32
0.0
 13
61.16359659427313
 23
71.212312058114662
 33
0.0
  0
INSERT
  5
160C
  8
2
  2
*U13
 10
0.0
 20
0.0
 30
0.0
  0
POINT
  5
160D
  8
DEFPOINTS
 62
     0
 10
69.500407463864491
 20
74.712312058114662
 30
0.0
  0
POINT
  5
160E
  8
DEFPOINTS
 62
     0
 10
69.500407463864491
 20
71.212312058114662
 30
0.0
  0
POINT
  5
160F
  8
DEFPOINTS
 62
     0
 10
61.16359659427313
 20
71.212312058114662
 30
0.0
  0
ENDBLK
  5
15EC
  8
0
  0
BLOCK
  8
0
  2
*D11
 70
     1
 10
0.0
 20
0.0
 30
0.0
  3
*D11
  1

  0
LINE
  5
1610
  8
2
 62
     0
 10
67.464173711214301
 20
64.202582300744623
 30
0.0
 11
67.464173711214301
 21
58.38035437141027
 31
0.0
  0
LINE
  5
1611
  8
2
 62
     0
 10
79.464173711214301
 20
71.259536749472701
 30
0.0
 11
79.464173711214301
 21
58.38035437141027
 31
0.0
  0
LINE
  5
1612
  8
2
 62
     0
 10
69.964173711214301
 20
59.63035437141027
 30
0.0
 11
76.964173711214301
 21
59.63035437141027
 31
0.0
  0
SOLID
  5
1613
  8
2
 62
     0
 10
69.964173711214301
 20
60.047021038076942
 30
0.0
 11
69.964173711214301
 21
59.213687704743613
 31
0.0
 12
67.464173711214301
 22
59.63035437141027
 32
0.0
 13
67.464173711214301
 23
59.63035437141027
 33
0.0
  0
SOLID
  5
1614
  8
2
 62
     0
 10
76.964173711214301
 20
60.047021038076942
 30
0.0
 11
76.964173711214301
 21
59.213687704743613
 31
0.0
 12
79.464173711214301
 22
59.63035437141027
 32
0.0
 13
79.464173711214301
 23
59.63035437141027
 33
0.0
  0
TEXT
  5
1615
  8
2
 62
     0
 10
71.797507044547629
 20
60.25535437141027
 30
0.0
 40
2.5
  1
12
  0
POINT
  5
1616
  8
DEFPOINTS
 62
     0
 10
67.464173711214301
 20
64.827582300744623
 30
0.0
  0
POINT
  5
1617
  8
DEFPOINTS
 62
     0
 10
79.464173711214301
 20
71.884536749472701
 30
0.0
  0
POINT
  5
1618
  8
DEFPOINTS
 62
     0
 10
79.464173711214301
 20
59.63035437141027
 30
0.0
  0
ENDBLK
  5
15F8
  8
0
  0
BLOCK
  8
0
  2
*D12
 70
     1
 10
0.0
 20
0.0
 30
0.0
  3
*D12
  1

  0
LINE
  5
1619
  8
2
 62
     0
 10
67.464173711214301
 20
71.554612058114657
 30
0.0
 11
67.464173711214301
 21
63.577582300744631
 31
0.0
  0
LINE
  5
161A
  8
2
 62
     0
 10
75.964173711214301
 20
69.478612058114663
 30
0.0
 11
75.964173711214301
 21
63.577582300744631
 31
0.0
  0
LINE
  5
161B
  8
2
 62
     0
 10
69.964173711214301
 20
64.827582300744623
 30
0.0
 11
73.464173711214301
 21
64.827582300744623
 31
0.0
  0
SOLID
  5
161C
  8
2
 62
     0
 10
69.964173711214301
 20
65.244248967411295
 30
0.0
 11
69.964173711214301
 21
64.410915634077966
 31
0.0
 12
67.464173711214301
 22
64.827582300744623
 32
0.0
 13
67.464173711214301
 23
64.827582300744623
 33
0.0
  0
SOLID
  5
161D
  8
2
 62
     0
 10
73.464173711214301
 20
65.244248967411295
 30
0.0
 11
73.464173711214301
 21
64.410915634077966
 31
0.0
 12
75.964173711214301
 22
64.827582300744623
 32
0.0
 13
75.964173711214301
 23
64.827582300744623
 33
0.0
  0
TEXT
  5
161E
  8
2
 62
     0
 10
69.214173711214301
 20
65.452582300744623
 30
0.0
 40
2.5
  1
8.5
  0
POINT
  5
161F
  8
DEFPOINTS
 62
     0
 10
67.464173711214301
 20
72.179612058114657
 30
0.0
  0
POINT
  5
1620
  8
DEFPOINTS
 62
     0
 10
75.964173711214301
 20
70.103612058114663
 30
0.0
  0
POINT
  5
1621
  8
DEFPOINTS
 62
     0
 10
75.964173711214301
 20
64.827582300744623
 30
0.0
  0
ENDBLK
  5
1604
  8
0
  0
BLOCK
  8
0
  2
*U13
 70
     1
 10
0.0
 20
0.0
 30
0.0
  3
*U13
  1

  0
TEXT
  5
1719
  8
2
 62
     0
 10
60.53859659427313
 20
58.087312058114669
 30
0.0
 40
2.5
  1
\U+2205
 50
90.0
  0
TEXT
  5
171A
  8
2
 62
     0
 10
60.53859659427313
 20
60.587312058114669
 30
0.0
 40
2.5
  1
3.5
 50
90.0
  0
ENDBLK
  5
171C
  8
0
  0
ENDSEC
  0
SECTION
  2
ENTITIES
  0
POLYLINE
  5
986
  8
2
 66
     1
 10
0.0
 20
0.0
 30
0.0
 39
5.0
  0
VERTEX
  5
16FA
  8
2
 10
107.79277371121429
 20
79.295512058114667
 30
0.0
  0
VERTEX
  5
16FB
  8
2
 10
107.79277371121429
 20
75.276497576217025
 30
0.0
  0
SEQEND
  5
16FC
  8
2
  0
POLYLINE
  5
A4A
  8
0
 66
     1
 10
0.0
 20
0.0
 30
0.0
 39
5.0
  0
VERTEX
  5
16FD
  8
0
 10
106.92877371121421
 20
140.79561205811461
 30
0.0
  0
VERTEX
  5
16FE
  8
0
 10
109.7612737112143
 20
140.79561205811461
 30
0.0
  0
SEQEND
  5
16FF
  8
0
  0
POLYLINE
  5
A62
  8
0
 66
     1
 10
0.0
 20
0.0
 30
0.0
 39
5.0
  0
VERTEX
  5
1700
  8
0
 10
103.3995737112143
 20
104.5357120581146
 30
0.0
  0
VERTEX
  5
1701
  8
0
 10
106.0553737112143
 20
104.5357120581146
 30
0.0
  0
SEQEND
  5
1702
  8
0
  0
POLYLINE
  5
A63
  8
0
 66
     1
 10
0.0
 20
0.0
 30
0.0
 39
5.0
  0
VERTEX
  5
1703
  8
0
 10
103.3995737112143
 20
101.4899120581146
 30
0.0
  0
VERTEX
  5
1704
  8
0
 10
106.0553737112143
 20
101.4899120581146
 30
0.0
  0
SEQEND
  5
1705
  8
0
  0
TEXT
  5
DEA
  8
2
 10
74.922066812892837
 20
44.324326083826321
 30
0.0
 40
2.5399440000000002
  1
             50.327
 51
-0.0000015352344868
  7
\U+00C9L\U+00C9R_\U+00C2S\U+00C2V\U+00C2B\U+00C2N
  0
LINE
  5
E1E
  8
0
 39
5.0
 10
109.7612737112143
 20
134.81451205811459
 30
0.0
 11
108.73147371121421
 21
134.81451205811459
 31
0.0
  0
LINE
  5
E1F
  8
0
 39
5.0
 10
108.73147371121421
 20
134.81451205811459
 30
0.0
 11
108.2612737112143
 21
135.1861407861347
 31
0.0
  0
LINE
  5
E25
  8
0
 39
5.0
 10
106.9821737112143
 20
132.5108120581146
 30
0.0
 11
109.7612737112143
 21
132.5108120581146
 31
0.0
  0
LINE
  5
E27
  8
0
 39
5.0
 10
109.7612737112143
 20
133.0108120581146
 30
0.0
 11
106.9821737112143
 21
133.0108120581146
 31
0.0
  0
LINE
  5
E28
  8
0
 39
5.0
 10
106.9821737112143
 20
133.0108120581146
 30
0.0
 11
106.9821737112143
 21
132.5108120581146
 31
0.0
  0
LINE
  5
E29
  8
0
 39
5.0
 10
106.9821737112143
 20
132.5108120581146
 30
0.0
 11
106.9821737112143
 21
132.5108120581146
 31
0.0
  0
LINE
  5
E2D
  8
0
 39
5.0
 10
107.24987371121431
 20
122.6463120581146
 30
0.0
 11
109.7612737112143
 21
122.6463120581146
 31
0.0
  0
LINE
  5
E30
  8
0
 39
5.0
 10
106.3112737112142
 20
113.6463120581146
 30
0.0
 11
106.3112737112142
 21
121.72821205811459
 31
0.0
  0
LINE
  5
E31
  8
0
 39
5.0
 10
106.3112737112142
 20
121.72821205811459
 30
0.0
 11
106.3112737112142
 21
121.72821205811459
 31
0.0
  0
LINE
  5
E32
  8
0
 39
5.0
 10
106.3112737112142
 20
121.72821205811459
 30
0.0
 11
106.3086737112143
 21
121.8184120581146
 31
0.0
  0
LINE
  5
E33
  8
0
 39
5.0
 10
106.3086737112143
 20
121.8184120581146
 30
0.0
 11
106.3198737112142
 21
121.9064120581146
 31
0.0
  0
LINE
  5
E34
  8
0
 39
5.0
 10
106.3198737112142
 20
121.9064120581146
 30
0.0
 11
106.34367371121419
 21
121.99141205811461
 31
0.0
  0
LINE
  5
E35
  8
0
 39
5.0
 10
106.34367371121419
 20
121.99141205811461
 30
0.0
 11
106.3785737112142
 21
122.0734120581146
 31
0.0
  0
LINE
  5
E36
  8
0
 39
5.0
 10
106.3785737112142
 20
122.0734120581146
 30
0.0
 11
106.4239737112142
 21
122.1515120581146
 31
0.0
  0
LINE
  5
E37
  8
0
 39
5.0
 10
106.4239737112142
 20
122.1515120581146
 30
0.0
 11
106.47807371121419
 21
122.22561205811461
 31
0.0
  0
LINE
  5
E38
  8
0
 39
5.0
 10
106.47807371121419
 20
122.22561205811461
 30
0.0
 11
106.54017371121419
 21
122.2951120581146
 31
0.0
  0
LINE
  5
E39
  8
0
 39
5.0
 10
106.54017371121419
 20
122.2951120581146
 30
0.0
 11
106.60867371121419
 21
122.3598120581146
 31
0.0
  0
LINE
  5
E3A
  8
0
 39
5.0
 10
106.60867371121419
 20
122.3598120581146
 30
0.0
 11
106.6827737112143
 21
122.4189120581146
 31
0.0
  0
LINE
  5
E3B
  8
0
 39
5.0
 10
106.6827737112143
 20
122.4189120581146
 30
0.0
 11
106.7608737112142
 21
122.4723120581146
 31
0.0
  0
LINE
  5
E3C
  8
0
 39
5.0
 10
106.7608737112142
 20
122.4723120581146
 30
0.0
 11
106.84197371121419
 21
122.51931205811459
 31
0.0
  0
LINE
  5
E3D
  8
0
 39
5.0
 10
106.84197371121419
 20
122.51931205811459
 30
0.0
 11
106.9248737112142
 21
122.55991205811461
 31
0.0
  0
LINE
  5
E3E
  8
0
 39
5.0
 10
106.9248737112142
 20
122.55991205811461
 30
0.0
 11
107.0083737112142
 21
122.5931120581146
 31
0.0
  0
LINE
  5
E3F
  8
0
 39
5.0
 10
107.0083737112142
 20
122.5931120581146
 30
0.0
 11
107.09107371121419
 21
122.61901205811461
 31
0.0
  0
LINE
  5
E40
  8
0
 39
5.0
 10
107.09107371121419
 20
122.61901205811461
 30
0.0
 11
107.1720737112142
 21
122.6368120581146
 31
0.0
  0
LINE
  5
E41
  8
0
 39
5.0
 10
107.1720737112142
 20
122.6368120581146
 30
0.0
 11
107.24987371121431
 21
122.6463120581146
 31
0.0
  0
LINE
  5
E49
  8
0
 39
5.0
 10
109.7612737112143
 20
120.1431120581146
 30
0.0
 11
108.2612737112143
 21
120.1431120581146
 31
0.0
  0
LINE
  5
E5D
  8
0
 39
5.0
 10
107.92667371121431
 20
94.669212058114681
 30
0.0
 11
107.92667371121431
 21
110.72611205811459
 31
0.0
  0
LINE
  5
E60
  8
0
 39
5.0
 10
109.7612737112143
 20
75.246012058114658
 30
0.0
 11
107.8208737112143
 21
75.246012058114658
 31
0.0
  0
LINE
  5
E61
  8
0
 39
5.0
 10
107.8208737112143
 20
75.246012058114658
 30
0.0
 11
107.4203737112143
 21
75.680512058114672
 31
0.0
  0
LINE
  5
E62
  8
0
 39
5.0
 10
107.4203737112143
 20
75.680512058114672
 30
0.0
 11
107.4197737112143
 21
79.295512058114667
 31
0.0
  0
LINE
  5
E66
  8
0
 39
5.0
 10
107.4203737112143
 20
80.146312058114674
 30
0.0
 11
107.4203737112143
 21
94.669212058114681
 31
0.0
  0
LINE
  5
E72
  8
0
 39
5.0
 10
108.9775737112143
 20
118.96791205811461
 30
0.0
 11
108.9775737112143
 21
75.246112058114662
 31
0.0
  0
LINE
  5
E73
  8
0
 39
5.0
 10
108.9775737112143
 20
75.246112058114662
 30
0.0
 11
108.9775737112143
 21
75.246112058114662
 31
0.0
  0
LINE
  5
E7D
  8
0
 10
107.92667371121431
 20
113.6463120581146
 30
0.0
 11
107.92667371121431
 21
110.72611205811459
 31
0.0
  0
LINE
  5
E8A
  8
0
 10
105.1752737112143
 20
96.646312058114674
 30
0.0
 11
105.1752737112143
 21
95.646312058114674
 31
0.0
  0
LINE
  5
E8E
  8
0
 39
5.0
 10
104.4684737112143
 20
90.646312058114674
 30
0.0
 11
104.4684737112143
 21
95.646312058114674
 31
0.0
  0
LINE
  5
E8F
  8
0
 39
5.0
 10
104.4684737112143
 20
95.646312058114674
 30
0.0
 11
105.1752737112143
 21
95.646312058114674
 31
0.0
  0
LINE
  5
E9F
  8
1
 10
109.7612737112143
 20
141.3997531212907
 30
0.0
 11
109.7612737112143
 21
65.29497169776667
 31
0.0
  0
LINE
  5
EA1
  8
0
 39
5.0
 10
107.4203737112143
 20
90.646312058114674
 30
0.0
 11
104.4684737112143
 21
90.646312058114674
 31
0.0
  0
LINE
  5
EA5
  8
0
 39
5.0
 10
106.8364737112143
 20
110.72611205811459
 30
0.0
 11
106.8364737112143
 21
94.669212058114681
 31
0.0
  0
LINE
  5
EA6
  8
0
 39
5.0
 10
106.4470737112143
 20
94.669212058114681
 30
0.0
 11
107.92667371121431
 21
94.669212058114681
 31
0.0
  0
LINE
  5
EAA
  8
0
 10
107.4197737112143
 20
79.295512058114667
 30
0.0
 11
107.9598130370569
 21
79.295512058114667
 31
0.0
  0
LINE
  5
EAC
  8
0
 10
107.9598130370569
 20
80.146312058114674
 30
0.0
 11
107.9598130370569
 21
79.295512058114667
 31
0.0
  0
LINE
  5
EAF
  8
0
 39
5.0
 10
106.0141737112143
 20
80.146312058114674
 30
0.0
 11
107.9598130370569
 21
80.146312058114674
 31
0.0
  0
LINE
  5
ECD
  8
0
 39
5.0
 10
105.96711869503299
 20
69.146312058114674
 30
0.0
 11
105.6648737112143
 21
69.292012058114665
 31
0.0
  0
LINE
  5
ECE
  8
0
 39
5.0
 10
105.6648737112143
 20
69.292012058114665
 30
0.0
 11
105.6042737112143
 21
69.329012058114657
 31
0.0
  0
LINE
  5
ECF
  8
0
 39
5.0
 10
105.6042737112143
 20
69.329012058114657
 30
0.0
 11
105.5476737112143
 21
69.371412058114672
 31
0.0
  0
LINE
  5
ED0
  8
0
 39
5.0
 10
105.5476737112143
 20
69.371412058114672
 30
0.0
 11
105.4952737112143
 21
69.41901205811466
 31
0.0
  0
LINE
  5
ED1
  8
0
 39
5.0
 10
105.4952737112143
 20
69.41901205811466
 30
0.0
 11
105.4478737112142
 21
69.471112058114656
 31
0.0
  0
LINE
  5
ED2
  8
0
 39
5.0
 10
105.4478737112142
 20
69.471112058114656
 30
0.0
 11
105.4053737112143
 21
69.527812058114662
 31
0.0
  0
LINE
  5
ED3
  8
0
 39
5.0
 10
105.4053737112143
 20
69.527812058114662
 30
0.0
 11
105.36847371121431
 21
69.588312058114667
 31
0.0
  0
LINE
  5
ED4
  8
0
 39
5.0
 10
105.36847371121431
 20
69.588312058114667
 30
0.0
 11
105.33727371121429
 21
69.652712058114659
 31
0.0
  0
LINE
  5
ED5
  8
0
 39
5.0
 10
105.33727371121429
 20
69.652712058114659
 30
0.0
 11
105.3124737112143
 21
69.720012058114662
 31
0.0
  0
LINE
  5
ED6
  8
0
 39
5.0
 10
105.3124737112143
 20
69.720012058114662
 30
0.0
 11
105.2942737112143
 21
69.790412058114654
 31
0.0
  0
LINE
  5
ED7
  8
0
 39
5.0
 10
105.2942737112143
 20
69.790412058114654
 30
0.0
 11
105.2830737112143
 21
69.863212058114655
 31
0.0
  0
LINE
  5
ED8
  8
0
 39
5.0
 10
105.2830737112143
 20
69.863212058114655
 30
0.0
 11
105.2791737112142
 21
69.938212058114672
 31
0.0
  0
LINE
  5
ED9
  8
0
 39
5.0
 10
105.2791737112142
 20
69.938212058114672
 30
0.0
 11
105.2791737112142
 21
79.41131205811466
 31
0.0
  0
LINE
  5
EDA
  8
0
 39
5.0
 10
105.2791737112142
 20
79.41131205811466
 30
0.0
 11
105.2791737112142
 21
79.41131205811466
 31
0.0
  0
LINE
  5
EDB
  8
0
 39
5.0
 10
105.2791737112142
 20
79.41131205811466
 30
0.0
 11
105.2830737112143
 21
79.486012058114667
 31
0.0
  0
LINE
  5
EDC
  8
0
 39
5.0
 10
105.2830737112143
 20
79.486012058114667
 30
0.0
 11
105.2942737112143
 21
79.558812058114668
 31
0.0
  0
LINE
  5
EDD
  8
0
 39
5.0
 10
105.2942737112143
 20
79.558812058114668
 30
0.0
 11
105.3124737112143
 21
79.629012058114654
 31
0.0
  0
LINE
  5
EDE
  8
0
 39
5.0
 10
105.3124737112143
 20
79.629012058114654
 30
0.0
 11
105.33727371121429
 21
79.696512058114664
 31
0.0
  0
LINE
  5
EDF
  8
0
 39
5.0
 10
105.33727371121429
 20
79.696512058114664
 30
0.0
 11
105.36847371121431
 21
79.76061205811466
 31
0.0
  0
LINE
  5
EE0
  8
0
 39
5.0
 10
105.36847371121431
 20
79.76061205811466
 30
0.0
 11
105.40527371121431
 21
79.821312058114657
 31
0.0
  0
LINE
  5
EE1
  8
0
 39
5.0
 10
105.40527371121431
 20
79.821312058114657
 30
0.0
 11
105.4477737112143
 21
79.87791205811466
 31
0.0
  0
LINE
  5
EE2
  8
0
 39
5.0
 10
105.4477737112143
 20
79.87791205811466
 30
0.0
 11
105.49517371121431
 21
79.930312058114666
 31
0.0
  0
LINE
  5
EE3
  8
0
 39
5.0
 10
105.49517371121431
 20
79.930312058114666
 30
0.0
 11
105.5475737112143
 21
79.977712058114662
 31
0.0
  0
LINE
  5
EE4
  8
0
 39
5.0
 10
105.5475737112143
 20
79.977712058114662
 30
0.0
 11
105.6041737112143
 21
80.020212058114666
 31
0.0
  0
LINE
  5
EE5
  8
0
 39
5.0
 10
105.6041737112143
 20
80.020212058114666
 30
0.0
 11
105.6648737112143
 21
80.057012058114665
 31
0.0
  0
LINE
  5
EE6
  8
0
 39
5.0
 10
105.6648737112143
 20
80.057012058114665
 30
0.0
 11
105.72897371121429
 21
80.088212058114664
 31
0.0
  0
LINE
  5
EE7
  8
0
 39
5.0
 10
105.72897371121429
 20
80.088212058114664
 30
0.0
 11
105.7964737112143
 21
80.113012058114663
 31
0.0
  0
LINE
  5
EE8
  8
0
 39
5.0
 10
105.7964737112143
 20
80.113012058114663
 30
0.0
 11
105.8666737112142
 21
80.131212058114656
 31
0.0
  0
LINE
  5
EE9
  8
0
 39
5.0
 10
105.8666737112142
 20
80.131212058114656
 30
0.0
 11
105.9394737112143
 21
80.142412058114644
 31
0.0
  0
LINE
  5
EEA
  8
0
 39
5.0
 10
105.9394737112143
 20
80.142412058114644
 30
0.0
 11
106.0141737112143
 21
80.146312058114674
 31
0.0
  0
LINE
  5
EED
  8
2
 10
107.4203737112143
 20
80.146312058114674
 30
0.0
 11
107.4203737112143
 21
79.295512058114667
 31
0.0
  0
LINE
  5
EF0
  8
0
 10
107.79277371121429
 20
80.146312058114674
 30
0.0
 11
107.79277371121429
 21
79.295512058114667
 31
0.0
  0
LINE
  5
F0C
  8
0
 39
5.0
 10
107.7927737112142
 20
71.682512058114654
 30
0.0
 11
105.2791737112142
 21
71.682512058114654
 31
0.0
  0
LINE
  5
F0E
  8
2
 10
107.7927737112142
 20
71.682512058114654
 30
0.0
 11
108.2767096620824
 21
72.303958855858795
 31
0.0
  0
LINE
  5
F12
  8
0
 10
107.7927737112142
 20
75.276497576217054
 30
0.0
 11
107.7927737112142
 21
71.349241224781338
 31
0.0
  0
LINE
  5
F19
  8
0
 10
107.7927737112142
 20
71.349241224781338
 30
0.0
 11
109.7612737112143
 21
71.349241224781338
 31
0.0
  0
LINE
  5
FA7
  8
0
 39
5.0
 10
106.4470737112143
 20
94.669212058114681
 30
0.0
 11
106.4470737112143
 21
90.646312058114674
 31
0.0
  0
LINE
  5
FAA
  8
0
 39
5.0
 10
107.92667371121431
 20
110.72611205811459
 30
0.0
 11
106.8364737112143
 21
110.72611205811459
 31
0.0
  0
LINE
  5
FAC
  8
0
 39
5.0
 10
109.7561737112143
 20
70.627712058114653
 30
0.0
 11
109.16127371121431
 21
70.627712058114653
 31
0.0
  0
LINE
  5
FB1
  8
2
 10
108.4935737112143
 20
138.79561205811461
 30
0.0
 11
108.4935737112143
 21
135.00253943879511
 31
0.0
  0
LINE
  5
FBA
  8
1
 10
106.8364737112143
 20
94.669212058114681
 30
0.0
 11
107.92667371121431
 21
110.72611205811459
 31
0.0
  0
LINE
  5
FBB
  8
1
 10
106.8364737112143
 20
110.72611205811459
 30
0.0
 11
107.92667371121431
 21
94.669212058114681
 31
0.0
  0
LINE
  5
1048
  8
1
 10
67.464173711214301
 20
72.962312058114662
 30
0.0
 11
110.6509802325002
 21
72.962312058114662
 31
0.0
  0
LINE
  5
106C
  8
2
 10
108.2612737112143
 20
122.6463120581146
 30
0.0
 11
108.2612737112143
 21
120.1431120581146
 31
0.0
  0
LINE
  5
106E
  8
0
 10
108.4612737112143
 20
122.6463120581146
 30
0.0
 11
108.4612737112143
 21
120.1431120581146
 31
0.0
  0
LINE
  5
1070
  8
0
 10
108.2612737112143
 20
118.96791205811461
 30
0.0
 11
108.2612737112143
 21
113.6463120581146
 31
0.0
  0
LINE
  5
1071
  8
0
 39
5.0
 10
108.2612737112143
 20
118.96791205811461
 30
0.0
 11
109.7612737112143
 21
118.96791205811461
 31
0.0
  0
LINE
  5
1072
  8
2
 10
108.4612737112143
 20
118.96791205811461
 30
0.0
 11
108.4612737112143
 21
113.6463120581146
 31
0.0
  0
LINE
  5
1073
  8
0
 10
108.4612737112143
 20
120.1431120581146
 30
0.0
 11
108.4612737112143
 21
118.96791205811461
 31
0.0
  0
LINE
  5
107E
  8
2
 10
106.0553737112143
 20
113.6463120581146
 30
0.0
 11
106.0553737112143
 21
96.646312058114674
 31
0.0
  0
LINE
  5
107F
  8
0
 10
106.8364737112143
 20
113.6463120581146
 30
0.0
 11
106.8364737112143
 21
94.669212058114681
 31
0.0
  0
LINE
  5
1086
  8
0
 10
105.7612737112143
 20
96.646312058114674
 30
0.0
 11
105.7612737112143
 21
113.6463120581146
 31
0.0
  0
LINE
  5
1090
  8
0
 10
109.16127371121431
 20
70.627712058114653
 30
0.0
 11
109.16127371121431
 21
66.54631205811468
 31
0.0
  0
LINE
  5
1091
  8
0
 10
107.7927737112142
 20
71.349241224781338
 30
0.0
 11
109.16127371121431
 21
70.627712058114653
 31
0.0
  0
LINE
  5
1093
  8
0
 10
108.2612737112143
 20
67.646312058114674
 30
0.0
 11
108.2612737112143
 21
66.54631205811468
 31
0.0
  0
LINE
  5
1097
  8
2
 10
107.7927737112142
 20
71.462312058114662
 30
0.0
 11
105.2791737112142
 21
71.462312058114662
 31
0.0
  0
LINE
  5
1099
  8
0
 39
5.0
 10
107.7927737112142
 20
74.242112058114671
 30
0.0
 11
105.2791737112142
 21
74.242112058114671
 31
0.0
  0
LINE
  5
109A
  8
2
 10
107.7927737112142
 20
74.462312058114662
 30
0.0
 11
105.2791737112142
 21
74.462312058114662
 31
0.0
  0
LINE
  5
109B
  8
2
 10
107.7927737112142
 20
74.242112058114671
 30
0.0
 11
108.2767096620824
 21
73.620665260370529
 31
0.0
  0
LINE
  5
10AD
  8
0
 10
108.2612737112143
 20
135.1861407861347
 30
0.0
 11
108.2612737112143
 21
138.79561205811461
 31
0.0
  0
LINE
  5
10B0
  8
0
 10
108.2612737112143
 20
135.1861407861347
 30
0.0
 11
109.7612737112143
 21
135.1861407861347
 31
0.0
  0
LINE
  5
10B6
  8
0
 10
105.7612737112143
 20
113.6463120581146
 30
0.0
 11
108.4612737112143
 21
113.6463120581146
 31
0.0
  0
LINE
  5
10C9
  8
1
 10
105.1752737112143
 20
96.646312058114674
 30
0.0
 11
106.0553737112143
 21
96.646312058114674
 31
0.0
  0
LINE
  5
10D3
  8
0
 10
105.96711869503299
 20
69.146312058114674
 30
0.0
 11
108.7612737112143
 21
69.146312058114674
 31
0.0
  0
LINE
  5
10D7
  8
1
 10
108.2612737112143
 20
67.646312058114674
 30
0.0
 11
108.7612737112143
 21
67.646312058114674
 31
0.0
  0
LINE
  5
10D8
  8
0
 10
108.2612737112143
 20
66.54631205811468
 30
0.0
 11
109.7612737112143
 21
66.54631205811468
 31
0.0
  0
LINE
  5
10FF
  8
0
 39
5.0
 10
110.5431478100235
 20
75.246276346754655
 30
0.0
 11
110.5431478100235
 21
75.246276346754655
 31
0.0
  0
LINE
  5
121A
  8
1
 10
108.7612737112143
 20
69.146312058114674
 30
0.0
 11
108.7612737112143
 21
67.646312058114674
 31
0.0
  0
LINE
  5
121D
  8
0
 39
5.0
 10
111.2612737112143
 20
118.96791205811461
 30
0.0
 11
109.7612737112143
 21
118.96791205811461
 31
0.0
  0
LINE
  5
121E
  8
0
 39
5.0
 10
109.7612737112143
 20
120.1431120581146
 30
0.0
 11
111.2612737112143
 21
120.1431120581146
 31
0.0
  0
LINE
  5
121F
  8
0
 39
5.0
 10
112.2726737112143
 20
122.6463120581146
 30
0.0
 11
109.7612737112143
 21
122.6463120581146
 31
0.0
  0
LINE
  5
1220
  8
0
 39
5.0
 10
108.979399612405
 20
75.246276346754655
 30
0.0
 11
108.979399612405
 21
75.246276346754655
 31
0.0
  0
LINE
  5
1221
  8
0
 39
5.0
 10
113.55542872739549
 20
69.146312058114674
 30
0.0
 11
113.8576737112142
 21
69.292012058114665
 31
0.0
  0
POLYLINE
  5
1222
  8
2
 66
     1
 10
0.0
 20
0.0
 30
0.0
 39
5.0
  0
VERTEX
  5
1706
  8
2
 10
111.72977371121419
 20
79.295512058114667
 30
0.0
  0
VERTEX
  5
1707
  8
2
 10
111.72977371121419
 20
75.276497576217025
 30
0.0
  0
SEQEND
  5
1708
  8
2
  0
LINE
  5
1224
  8
0
 39
5.0
 10
109.7663737112142
 20
70.627712058114653
 30
0.0
 11
110.3612737112142
 21
70.627712058114653
 31
0.0
  0
LINE
  5
1226
  8
0
 39
5.0
 10
113.5830737112142
 20
80.142412058114644
 30
0.0
 11
113.5083737112142
 21
80.146312058114674
 31
0.0
  0
LINE
  5
1227
  8
0
 39
5.0
 10
113.6558737112143
 20
80.131212058114656
 30
0.0
 11
113.5830737112142
 21
80.142412058114644
 31
0.0
  0
LINE
  5
1228
  8
0
 39
5.0
 10
113.7260737112143
 20
80.113012058114663
 30
0.0
 11
113.6558737112143
 21
80.131212058114656
 31
0.0
  0
LINE
  5
1229
  8
0
 39
5.0
 10
113.79357371121429
 20
80.088212058114664
 30
0.0
 11
113.7260737112143
 21
80.113012058114663
 31
0.0
  0
LINE
  5
122A
  8
0
 39
5.0
 10
113.8576737112142
 20
80.057012058114665
 30
0.0
 11
113.79357371121429
 21
80.088212058114664
 31
0.0
  0
LINE
  5
122B
  8
0
 39
5.0
 10
113.9183737112142
 20
80.020212058114666
 30
0.0
 11
113.8576737112142
 21
80.057012058114665
 31
0.0
  0
LINE
  5
122C
  8
0
 39
5.0
 10
113.9749737112143
 20
79.977712058114662
 30
0.0
 11
113.9183737112142
 21
80.020212058114666
 31
0.0
  0
LINE
  5
122D
  8
0
 39
5.0
 10
114.0273737112142
 20
79.930312058114666
 30
0.0
 11
113.9749737112143
 21
79.977712058114662
 31
0.0
  0
LINE
  5
122E
  8
0
 39
5.0
 10
114.07477371121421
 20
79.87791205811466
 30
0.0
 11
114.0273737112142
 21
79.930312058114666
 31
0.0
  0
LINE
  5
122F
  8
0
 39
5.0
 10
114.1172737112142
 20
79.821312058114657
 30
0.0
 11
114.07477371121421
 21
79.87791205811466
 31
0.0
  0
LINE
  5
1230
  8
0
 39
5.0
 10
114.1540737112142
 20
79.76061205811466
 30
0.0
 11
114.1172737112142
 21
79.821312058114657
 31
0.0
  0
LINE
  5
1231
  8
0
 39
5.0
 10
114.18527371121419
 20
79.696512058114664
 30
0.0
 11
114.1540737112142
 21
79.76061205811466
 31
0.0
  0
LINE
  5
1232
  8
0
 39
5.0
 10
114.21007371121421
 20
79.629012058114654
 30
0.0
 11
114.18527371121419
 21
79.696512058114664
 31
0.0
  0
LINE
  5
1233
  8
0
 39
5.0
 10
114.2282737112142
 20
79.558812058114668
 30
0.0
 11
114.21007371121421
 21
79.629012058114654
 31
0.0
  0
LINE
  5
1234
  8
0
 39
5.0
 10
114.2394737112143
 20
79.486012058114667
 30
0.0
 11
114.2282737112142
 21
79.558812058114668
 31
0.0
  0
LINE
  5
1235
  8
0
 39
5.0
 10
114.2433737112143
 20
79.41131205811466
 30
0.0
 11
114.2394737112143
 21
79.486012058114667
 31
0.0
  0
LINE
  5
1236
  8
0
 39
5.0
 10
114.2433737112143
 20
79.41131205811466
 30
0.0
 11
114.2433737112143
 21
79.41131205811466
 31
0.0
  0
LINE
  5
1237
  8
0
 39
5.0
 10
114.2433737112143
 20
69.938212058114672
 30
0.0
 11
114.2433737112143
 21
79.41131205811466
 31
0.0
  0
LINE
  5
1238
  8
0
 39
5.0
 10
114.2394737112143
 20
69.863212058114655
 30
0.0
 11
114.2433737112143
 21
69.938212058114672
 31
0.0
  0
LINE
  5
1239
  8
0
 39
5.0
 10
114.2282737112142
 20
69.790412058114654
 30
0.0
 11
114.2394737112143
 21
69.863212058114655
 31
0.0
  0
LINE
  5
123A
  8
0
 39
5.0
 10
114.21007371121421
 20
69.720012058114662
 30
0.0
 11
114.2282737112142
 21
69.790412058114654
 31
0.0
  0
LINE
  5
123B
  8
0
 39
5.0
 10
114.18527371121419
 20
69.652712058114659
 30
0.0
 11
114.21007371121421
 21
69.720012058114662
 31
0.0
  0
LINE
  5
123C
  8
0
 39
5.0
 10
114.1540737112142
 20
69.588312058114667
 30
0.0
 11
114.18527371121419
 21
69.652712058114659
 31
0.0
  0
LINE
  5
123D
  8
0
 39
5.0
 10
114.11717371121431
 20
69.527812058114662
 30
0.0
 11
114.1540737112142
 21
69.588312058114667
 31
0.0
  0
LINE
  5
123E
  8
0
 39
5.0
 10
114.0746737112143
 20
69.471112058114656
 30
0.0
 11
114.11717371121431
 21
69.527812058114662
 31
0.0
  0
LINE
  5
123F
  8
0
 39
5.0
 10
114.02727371121431
 20
69.41901205811466
 30
0.0
 11
114.0746737112143
 21
69.471112058114656
 31
0.0
  0
LINE
  5
1240
  8
0
 39
5.0
 10
113.9748737112142
 20
69.371412058114672
 30
0.0
 11
114.02727371121431
 21
69.41901205811466
 31
0.0
  0
LINE
  5
1241
  8
0
 39
5.0
 10
113.9182737112142
 20
69.329012058114657
 30
0.0
 11
113.9748737112142
 21
69.371412058114672
 31
0.0
  0
LINE
  5
1242
  8
0
 39
5.0
 10
113.8576737112142
 20
69.292012058114665
 30
0.0
 11
113.9182737112142
 21
69.329012058114657
 31
0.0
  0
LINE
  5
1243
  8
0
 39
5.0
 10
113.5083737112142
 20
80.146312058114674
 30
0.0
 11
111.5627343853716
 21
80.146312058114674
 31
0.0
  0
LINE
  5
1244
  8
0
 39
5.0
 10
110.5449737112143
 20
75.246112058114662
 30
0.0
 11
110.5449737112143
 21
75.246112058114662
 31
0.0
  0
LINE
  5
1245
  8
0
 39
5.0
 10
112.10217371121421
 20
75.680512058114672
 30
0.0
 11
112.1027737112143
 21
79.295512058114667
 31
0.0
  0
LINE
  5
1246
  8
0
 39
5.0
 10
111.7016737112143
 20
75.246012058114658
 30
0.0
 11
112.10217371121421
 21
75.680512058114672
 31
0.0
  0
LINE
  5
1247
  8
0
 39
5.0
 10
109.7612737112143
 20
75.246012058114658
 30
0.0
 11
111.7016737112143
 21
75.246012058114658
 31
0.0
  0
LINE
  5
1248
  8
0
 39
5.0
 10
110.5449737112142
 20
118.96791205811461
 30
0.0
 11
110.5449737112143
 21
75.246112058114662
 31
0.0
  0
LINE
  5
1249
  8
0
 39
5.0
 10
112.10217371121421
 20
80.146312058114674
 30
0.0
 11
112.10217371121421
 21
94.669212058114681
 31
0.0
  0
LINE
  5
124A
  8
0
 39
5.0
 10
112.10217371121421
 20
90.646312058114674
 30
0.0
 11
115.0540737112142
 21
90.646312058114674
 31
0.0
  0
LINE
  5
124B
  8
0
 39
5.0
 10
113.0754737112143
 20
94.669212058114681
 30
0.0
 11
113.0754737112143
 21
90.646312058114674
 31
0.0
  0
LINE
  5
124C
  8
0
 39
5.0
 10
115.0540737112142
 20
90.646312058114674
 30
0.0
 11
115.0540737112142
 21
95.646312058114674
 31
0.0
  0
LINE
  5
124E
  8
0
 39
5.0
 10
115.0540737112142
 20
95.646312058114674
 30
0.0
 11
114.3472737112142
 21
95.646312058114674
 31
0.0
  0
LINE
  5
124F
  8
0
 39
5.0
 10
113.0754737112143
 20
94.669212058114681
 30
0.0
 11
111.5958737112142
 21
94.669212058114681
 31
0.0
  0
LINE
  5
1250
  8
0
 39
5.0
 10
111.5958737112142
 20
94.669212058114681
 30
0.0
 11
111.5958737112142
 21
110.72611205811459
 31
0.0
  0
LINE
  5
1251
  8
0
 39
5.0
 10
112.68607371121421
 20
110.72611205811459
 30
0.0
 11
112.68607371121421
 21
94.669212058114681
 31
0.0
  0
LINE
  5
1252
  8
0
 39
5.0
 10
113.2112737112143
 20
113.6463120581146
 30
0.0
 11
113.2112737112143
 21
121.72821205811459
 31
0.0
  0
LINE
  5
1253
  8
0
 39
5.0
 10
110.7910737112143
 20
134.81451205811459
 30
0.0
 11
111.2612737112143
 21
135.1861407861347
 31
0.0
  0
LINE
  5
1254
  8
0
 39
5.0
 10
111.5958737112142
 20
110.72611205811459
 30
0.0
 11
112.68607371121421
 21
110.72611205811459
 31
0.0
  0
LINE
  5
1257
  8
0
 39
5.0
 10
112.35047371121431
 20
122.6368120581146
 30
0.0
 11
112.2726737112143
 21
122.6463120581146
 31
0.0
  0
LINE
  5
1258
  8
0
 39
5.0
 10
112.4314737112143
 20
122.61901205811461
 30
0.0
 11
112.35047371121431
 21
122.6368120581146
 31
0.0
  0
LINE
  5
1259
  8
0
 39
5.0
 10
112.5141737112143
 20
122.5931120581146
 30
0.0
 11
112.4314737112143
 21
122.61901205811461
 31
0.0
  0
LINE
  5
125A
  8
0
 39
5.0
 10
112.5976737112143
 20
122.55991205811461
 30
0.0
 11
112.5141737112143
 21
122.5931120581146
 31
0.0
  0
LINE
  5
125B
  8
0
 39
5.0
 10
112.68057371121429
 20
122.51931205811459
 30
0.0
 11
112.5976737112143
 21
122.55991205811461
 31
0.0
  0
LINE
  5
125C
  8
0
 39
5.0
 10
112.7616737112143
 20
122.4723120581146
 30
0.0
 11
112.68057371121429
 21
122.51931205811459
 31
0.0
  0
LINE
  5
125D
  8
0
 39
5.0
 10
112.83977371121431
 20
122.4189120581146
 30
0.0
 11
112.7616737112143
 21
122.4723120581146
 31
0.0
  0
LINE
  5
125E
  8
0
 39
5.0
 10
112.91387371121429
 20
122.3598120581146
 30
0.0
 11
112.83977371121431
 21
122.4189120581146
 31
0.0
  0
LINE
  5
125F
  8
0
 39
5.0
 10
112.98237371121429
 20
122.2951120581146
 30
0.0
 11
112.91387371121429
 21
122.3598120581146
 31
0.0
  0
LINE
  5
1260
  8
0
 39
5.0
 10
113.04447371121429
 20
122.22561205811461
 30
0.0
 11
112.98237371121429
 21
122.2951120581146
 31
0.0
  0
LINE
  5
1261
  8
0
 39
5.0
 10
113.0985737112143
 20
122.1515120581146
 30
0.0
 11
113.04447371121429
 21
122.22561205811461
 31
0.0
  0
LINE
  5
1262
  8
0
 39
5.0
 10
113.1439737112143
 20
122.0734120581146
 30
0.0
 11
113.0985737112143
 21
122.1515120581146
 31
0.0
  0
LINE
  5
1263
  8
0
 39
5.0
 10
113.17887371121429
 20
121.99141205811461
 30
0.0
 11
113.1439737112143
 21
122.0734120581146
 31
0.0
  0
LINE
  5
1264
  8
0
 39
5.0
 10
113.2026737112143
 20
121.9064120581146
 30
0.0
 11
113.17887371121429
 21
121.99141205811461
 31
0.0
  0
LINE
  5
1265
  8
0
 39
5.0
 10
113.21387371121421
 20
121.8184120581146
 30
0.0
 11
113.2026737112143
 21
121.9064120581146
 31
0.0
  0
LINE
  5
1266
  8
0
 39
5.0
 10
113.2112737112143
 20
121.72821205811459
 30
0.0
 11
113.21387371121421
 21
121.8184120581146
 31
0.0
  0
LINE
  5
1267
  8
0
 39
5.0
 10
113.2112737112143
 20
121.72821205811459
 30
0.0
 11
113.2112737112143
 21
121.72821205811459
 31
0.0
  0
LINE
  5
1268
  8
0
 39
5.0
 10
112.5403737112143
 20
132.5108120581146
 30
0.0
 11
112.5403737112143
 21
132.5108120581146
 31
0.0
  0
LINE
  5
1269
  8
0
 39
5.0
 10
112.5403737112143
 20
133.0108120581146
 30
0.0
 11
112.5403737112143
 21
132.5108120581146
 31
0.0
  0
LINE
  5
126A
  8
0
 39
5.0
 10
109.7612737112143
 20
133.0108120581146
 30
0.0
 11
112.5403737112143
 21
133.0108120581146
 31
0.0
  0
LINE
  5
126B
  8
0
 39
5.0
 10
112.5403737112143
 20
132.5108120581146
 30
0.0
 11
109.7612737112143
 21
132.5108120581146
 31
0.0
  0
LINE
  5
126C
  8
0
 39
5.0
 10
109.7612737112143
 20
134.81451205811459
 30
0.0
 11
110.7910737112143
 21
134.81451205811459
 31
0.0
  0
POLYLINE
  5
126E
  8
0
 66
     1
 10
0.0
 20
0.0
 30
0.0
 39
5.0
  0
VERTEX
  5
1709
  8
0
 10
116.1229737112142
 20
101.4899120581146
 30
0.0
  0
VERTEX
  5
170A
  8
0
 10
113.4671737112142
 20
101.4899120581146
 30
0.0
  0
SEQEND
  5
170B
  8
0
  0
POLYLINE
  5
126F
  8
0
 66
     1
 10
0.0
 20
0.0
 30
0.0
 39
5.0
  0
VERTEX
  5
170C
  8
0
 10
116.1229737112142
 20
104.5357120581146
 30
0.0
  0
VERTEX
  5
170D
  8
0
 10
113.4671737112142
 20
104.5357120581146
 30
0.0
  0
SEQEND
  5
170E
  8
0
  0
POLYLINE
  5
1270
  8
0
 66
     1
 10
0.0
 20
0.0
 30
0.0
 39
5.0
  0
VERTEX
  5
170F
  8
0
 10
112.5937737112143
 20
140.79561205811461
 30
0.0
  0
VERTEX
  5
1710
  8
0
 10
109.7612737112143
 20
140.79561205811461
 30
0.0
  0
SEQEND
  5
1711
  8
0
  0
LINE
  5
1271
  8
2
 10
113.4671737112142
 20
113.6463120581146
 30
0.0
 11
113.4671737112142
 21
96.646312058114674
 31
0.0
  0
LINE
  5
1272
  8
0
 10
113.7612737112142
 20
96.646312058114674
 30
0.0
 11
113.7612737112142
 21
113.6463120581146
 31
0.0
  0
LINE
  5
1273
  8
1
 10
112.68607371121421
 20
94.669212058114681
 30
0.0
 11
111.5958737112142
 21
110.72611205811459
 31
0.0
  0
LINE
  5
1274
  8
1
 10
112.68607371121421
 20
110.72611205811459
 30
0.0
 11
111.5958737112142
 21
94.669212058114681
 31
0.0
  0
LINE
  5
1275
  8
0
 10
112.68607371121421
 20
113.6463120581146
 30
0.0
 11
112.68607371121421
 21
94.669212058114681
 31
0.0
  0
LINE
  5
1277
  8
0
 10
113.55542872739549
 20
69.146312058114674
 30
0.0
 11
110.7612737112143
 21
69.146312058114674
 31
0.0
  0
LINE
  5
1278
  8
1
 10
111.2612737112143
 20
67.646312058114674
 30
0.0
 11
110.7612737112143
 21
67.646312058114674
 31
0.0
  0
LINE
  5
1279
  8
1
 10
110.7612737112143
 20
69.146312058114674
 30
0.0
 11
110.7612737112143
 21
67.646312058114674
 31
0.0
  0
LINE
  5
127A
  8
0
 10
111.2612737112143
 20
66.54631205811468
 30
0.0
 11
109.7612737112143
 21
66.54631205811468
 31
0.0
  0
LINE
  5
127B
  8
0
 10
110.3612737112142
 20
70.627712058114653
 30
0.0
 11
110.3612737112142
 21
66.54631205811468
 31
0.0
  0
LINE
  5
127C
  8
0
 10
111.2612737112143
 20
67.646312058114674
 30
0.0
 11
111.2612737112143
 21
66.54631205811468
 31
0.0
  0
LINE
  5
127D
  8
0
 10
111.72977371121431
 20
71.349241224781338
 30
0.0
 11
110.3612737112142
 21
70.627712058114653
 31
0.0
  0
LINE
  5
127E
  8
0
 10
111.72977371121431
 20
71.349241224781338
 30
0.0
 11
109.7612737112143
 21
71.349241224781338
 31
0.0
  0
LINE
  5
1284
  8
0
 10
111.72977371121431
 20
75.276497576217039
 30
0.0
 11
111.72977371121431
 21
71.349241224781352
 31
0.0
  0
LINE
  5
1285
  8
0
 10
111.72977371121419
 20
80.146312058114674
 30
0.0
 11
111.72977371121419
 21
79.295512058114667
 31
0.0
  0
LINE
  5
1286
  8
2
 10
112.10217371121421
 20
80.146312058114674
 30
0.0
 11
112.10217371121421
 21
79.295512058114667
 31
0.0
  0
LINE
  5
1287
  8
0
 10
111.5627343853716
 20
80.146312058114674
 30
0.0
 11
111.5627343853716
 21
79.295512058114667
 31
0.0
  0
LINE
  5
1288
  8
0
 10
112.1027737112143
 20
79.295512058114667
 30
0.0
 11
111.5627343853716
 21
79.295512058114667
 31
0.0
  0
LINE
  5
1289
  8
0
 10
114.3472737112142
 20
96.646312058114674
 30
0.0
 11
114.3472737112142
 21
95.646312058114674
 31
0.0
  0
LINE
  5
128A
  8
1
 10
114.3472737112142
 20
96.646312058114674
 30
0.0
 11
113.4671737112142
 21
96.646312058114674
 31
0.0
  0
LINE
  5
128B
  8
0
 10
111.2612737112143
 20
118.96791205811461
 30
0.0
 11
111.2612737112143
 21
113.6463120581146
 31
0.0
  0
LINE
  5
128C
  8
2
 10
111.0612737112143
 20
118.96791205811461
 30
0.0
 11
111.0612737112143
 21
113.6463120581146
 31
0.0
  0
LINE
  5
128D
  8
0
 10
113.7612737112142
 20
113.6463120581146
 30
0.0
 11
111.0612737112143
 21
113.6463120581146
 31
0.0
  0
LINE
  5
128E
  8
0
 10
111.5958737112142
 20
113.6463120581146
 30
0.0
 11
111.5958737112142
 21
110.72611205811459
 31
0.0
  0
LINE
  5
128F
  8
0
 10
111.0612737112143
 20
120.1431120581146
 30
0.0
 11
111.0612737112143
 21
118.96791205811461
 31
0.0
  0
LINE
  5
1290
  8
0
 10
111.0612737112143
 20
122.6463120581146
 30
0.0
 11
111.0612737112143
 21
120.1431120581146
 31
0.0
  0
LINE
  5
1291
  8
2
 10
111.2612737112143
 20
122.6463120581146
 30
0.0
 11
111.2612737112143
 21
120.1431120581146
 31
0.0
  0
LINE
  5
1292
  8
0
 10
111.2612737112143
 20
135.1861407861347
 30
0.0
 11
111.2612737112143
 21
138.79561205811461
 31
0.0
  0
LINE
  5
1293
  8
2
 10
111.02897371121421
 20
138.79561205811461
 30
0.0
 11
111.02897371121421
 21
135.00253943879511
 31
0.0
  0
LINE
  5
1294
  8
0
 10
111.2612737112143
 20
135.1861407861347
 30
0.0
 11
109.7612737112143
 21
135.1861407861347
 31
0.0
  0
DIMENSION
  5
1298
  8
2
  2
*D1
 10
122.43097919913239
 20
113.6463120581146
 30
0.0
 11
120.55597919913239
 21
118.1463120581146
 31
0.0
 70
     0
 13
112.2726737112143
 23
122.6463120581146
 33
0.0
 14
113.7612737112142
 24
113.6463120581146
 34
0.0
 50
90.0
  0
DIMENSION
  5
12A5
  8
2
  2
*D2
 10
122.43097919913239
 20
90.646312058114674
 30
0.0
 11
120.55597919913239
 21
102.1463120581146
 31
0.0
 70
     0
 13
122.43097919913239
 23
113.6463120581146
 33
0.0
 14
115.0540737112142
 24
90.646312058114674
 34
0.0
 50
90.0
  0
DIMENSION
  5
12C3
  8
2
  2
*D3
 10
122.43097919913239
 20
69.146312058114674
 30
0.0
 11
120.55597919913239
 21
74.646312058114674
 31
0.0
 70
     0
 13
122.43097919913239
 23
80.146312058114674
 33
0.0
 14
110.7612737112143
 24
69.146312058114674
 34
0.0
 50
90.0
  0
DIMENSION
  5
12D2
  8
2
  2
*D4
 10
122.43097919913239
 20
67.646312058114674
 30
0.0
 11
120.55597919913239
 21
59.93797872478136
 31
0.0
 70
     0
 13
122.43097919913239
 23
69.146312058114674
 33
0.0
 14
111.2612737112143
 24
67.646312058114674
 34
0.0
 50
90.0
  0
DIMENSION
  5
12E2
  8
2
  2
*D5
 10
127.1178191496907
 20
66.54631205811468
 30
0.0
 11
125.2428191496907
 21
58.421312058114701
 31
0.0
 70
     0
 13
122.43097919913239
 23
69.146312058114674
 33
0.0
 14
111.2612737112143
 24
66.54631205811468
 34
0.0
 50
90.0
  0
DIMENSION
  5
12F2
  8
2
  2
*D6
 10
127.1178191496907
 20
122.6463120581146
 30
0.0
 11
125.2428191496907
 21
95.896312058114688
 31
0.0
 70
     0
  1
(<>)
 13
127.1178191496907
 23
69.146312058114674
 33
0.0
 14
122.43097919913239
 24
122.6463120581146
 34
0.0
 50
90.0
1001
ACAD
1000
DSTYLE
1002
{
1070
   271
1070
     1
1002
}
  0
DIMENSION
  5
1309
  8
2
  2
*D7
 10
132.43433565374909
 20
66.54631205811468
 30
0.0
 11
130.55933565374909
 21
94.596312058114691
 31
0.0
 70
     0
  1
(<>)
 13
127.1178191496907
 23
122.6463120581146
 33
0.0
 14
127.1178191496907
 24
66.54631205811468
 34
0.0
 50
90.0
  0
LINE
  5
1391
  8
2
 10
101.31642559215111
 20
80.646312058114674
 30
0.0
 11
103.081341863468
 21
80.646312058114674
 31
0.0
  0
DIMENSION
  5
1396
  8
2
  2
*D8
 10
97.541176169920504
 20
80.646312058114674
 30
0.0
 11
95.66617616992049
 21
85.646312058114717
 31
0.0
 70
     0
 13
104.4684737112143
 23
90.646312058114674
 33
0.0
 14
101.31642559215111
 24
80.646312058114674
 34
0.0
 50
90.0
  0
TEXT
  5
13AE
  8
2
 10
93.418389803286345
 20
126.7311754770333
 30
0.0
 40
2.5
  1
M3
  0
TEXT
  5
13B0
  8
2
 10
93.418389803286445
 20
120.8440435560593
 30
0.0
 40
2.5
  1
H6
  0
TEXT
  5
13B1
  8
2
 10
93.172758821838329
 20
112.687914010963
 30
0.0
 40
2.5
  1
M8
  0
TEXT
  5
13B2
  8
2
 10
93.295574563267095
 20
106.7087974785819
 30
0.0
 40
2.5
  1
H12
  0
TEXT
  5
13B3
  8
2
 10
93.418389803286445
 20
68.065466715249002
 30
0.0
 40
2.5
  1
H8
  0
TEXT
  5
13B4
  8
2
 10
96.981183501440697
 20
62.37255215514768
 30
0.0
 40
2.5
  1
M3
  0
POLYLINE
  8
2
  5
171D
  66
     1
 10
0.000000
 20
0.000000
 30
0.000000
  70
     8
  0
VERTEX
  8
2
  5
171E
 10
108.261
 20
121.395
 30
0.000000
  70
    32
  0
VERTEX
  8
2
  5
171F
 10
98.1264
 20
126.091
 30
0.000000
  70
    32
  0
VERTEX
  8
2
  5
1720
 10
92.4423
 20
126.091
 30
0.000000
  70
    32
  0
SEQEND
  8
2
  5
1721
  0
POLYLINE
  8
2
  5
1722
  66
     1
 10
0.000000
 20
0.000000
 30
0.000000
  70
     8
  0
VERTEX
  8
2
  5
1723
 10
106.311
 20
117.687
 30
0.000000
  70
    32
  0
VERTEX
  8
2
  5
1724
 10
98.0519
 20
120.593
 30
0.000000
  70
    32
  0
VERTEX
  8
2
  5
1725
 10
92.8203
 20
120.593
 30
0.000000
  70
    32
  0
SEQEND
  8
2
  5
1726
  0
POLYLINE
  8
2
  5
1727
  66
     1
 10
0.000000
 20
0.000000
 30
0.000000
  70
     8
  0
VERTEX
  8
2
  5
1728
 10
105.761
 20
113.646
 30
0.000000
  70
    32
  0
VERTEX
  8
2
  5
1729
 10
97.6219
 20
112.434
 30
0.000000
  70
    32
  0
VERTEX
  8
2
  5
172A
 10
92.4619
 20
112.434
 30
0.000000
  70
    32
  0
SEQEND
  8
2
  5
172B
  0
POLYLINE
  8
2
  5
172C
  66
     1
 10
0.000000
 20
0.000000
 30
0.000000
  70
     8
  0
VERTEX
  8
2
  5
172D
 10
102.756
 20
103.036
 30
0.000000
  70
    32
  0
VERTEX
  8
2
  5
172E
 10
99.6285
 20
106.190
 30
0.000000
  70
    32
  0
VERTEX
  8
2
  5
172F
 10
92.4619
 20
106.190
 30
0.000000
  70
    32
  0
SEQEND
  8
2
  5
1730
  0
POLYLINE
  8
2
  5
1731
  66
     1
 10
0.000000
 20
0.000000
 30
0.000000
  70
     8
  0
VERTEX
  8
2
  5
1732
 10
105.279
 20
69.9382
 30
0.000000
  70
    32
  0
VERTEX
  8
2
  5
1733
 10
97.7652
 20
67.7711
 30
0.000000
  70
    32
  0
VERTEX
  8
2
  5
1734
 10
92.5336
 20
67.7711
 30
0.000000
  70
    32
  0
SEQEND
  8
2
  5
1735
  0
POLYLINE
  8
2
  5
1736
  66
     1
 10
0.000000
 20
0.000000
 30
0.000000
  70
     8
  0
VERTEX
  8
2
  5
1737
 10
106.536
 20
71.4623
 30
0.000000
  70
    32
  0
VERTEX
  8
2
  5
1738
 10
101.492
 20
62.0456
 30
0.000000
  70
    32
  0
VERTEX
  8
2
  5
1739
 10
96.3319
 20
62.0456
 30
0.000000
  70
    32
  0
SEQEND
  8
2
  5
173A
  0
DIMENSION
  5
143E
  8
2
  2
*D9
 10
122.43097919913239
 20
80.146312058114674
 30
0.0
 11
120.55597919913239
 21
85.396312058114688
 31
0.0
 70
     0
 13
122.43097919913239
 23
90.646312058114674
 33
0.0
 14
113.5083737112142
 24
80.146312058114674
 34
0.0
 50
90.0
  0
POLYLINE
  5
15A6
  8
0
 66
     1
 10
0.0
 20
0.0
 30
-2.5
 39
5.0
  0
VERTEX
  5
1712
  8
0
 10
67.464173711214301
 20
72.962312058114662
 30
-2.5
  0
VERTEX
  5
1713
  8
0
 10
67.464173711214301
 20
73.745012058114654
 30
-2.5
  0
SEQEND
  5
1714
  8
0
  0
LINE
  5
15A7
  8
0
 39
5.0
 10
67.464173711214301
 20
73.745012058114654
 30
-2.5
 11
68.62457371121431
 21
73.745012058114654
 31
-2.5
  0
LINE
  5
15A8
  8
0
 39
5.0
 10
68.62457371121431
 20
73.745012058114654
 30
-2.5
 11
69.500407463864491
 21
74.712312058114662
 31
-2.5
  0
LINE
  5
15A9
  8
0
 39
5.0
 10
70.034073711214305
 20
74.126109052501775
 30
-2.5
 11
70.602973711214304
 21
74.126212058114675
 31
-2.5
  0
LINE
  5
15AA
  8
0
 39
5.0
 10
72.468773711214311
 20
75.821012058114661
 30
-2.5
 11
75.964173711214301
 21
75.821012058114661
 31
-2.5
  0
LINE
  5
15AB
  8
0
 39
5.0
 10
75.928473711214309
 20
74.084412058114665
 30
-2.5
 11
72.468773711214311
 21
74.084412058114665
 31
-2.5
  0
LINE
  5
15AC
  8
0
 39
5.0
 10
72.468773711214311
 20
72.962312058114662
 30
-2.5
 11
72.468773711214311
 21
75.821012058114661
 31
-2.5
  0
LINE
  5
15AD
  8
0
 39
5.0
 10
72.468773711214311
 20
74.084412058114665
 30
-2.5
 11
75.964173711214301
 21
74.084412058114665
 31
-2.5
  0
LINE
  5
15AE
  8
0
 39
5.0
 10
78.762303935094934
 20
74.462312058114662
 30
-2.5
 11
79.464173711214301
 21
74.040087366756623
 31
-2.5
  0
LINE
  5
15AF
  8
0
 39
5.0
 10
77.089273711214304
 20
72.962312058114662
 30
-2.5
 11
77.089273711214304
 21
75.897712058114664
 31
-2.5
  0
LINE
  5
15B0
  8
0
 39
5.0
 10
77.089273711214304
 20
75.897712058114664
 30
-2.5
 11
76.130673711214314
 21
75.897712058114664
 31
-2.5
  0
LINE
  5
15B1
  8
0
 39
5.0
 10
76.130673711214314
 20
75.897712058114664
 30
-2.5
 11
76.130673711214314
 21
72.962312058114662
 31
-2.5
  0
LINE
  5
15B2
  8
0
 39
5.0
 10
76.130673711214314
 20
70.026912058114661
 30
-2.5
 11
76.130673711214314
 21
72.962312058114662
 31
-2.5
  0
LINE
  5
15B3
  8
0
 39
5.0
 10
77.089273711214304
 20
70.026912058114661
 30
-2.5
 11
76.130673711214314
 21
70.026912058114661
 31
-2.5
  0
LINE
  5
15B4
  8
0
 39
5.0
 10
77.089273711214304
 20
72.962312058114662
 30
-2.5
 11
77.089273711214304
 21
70.026912058114661
 31
-2.5
  0
LINE
  5
15B5
  8
0
 39
5.0
 10
78.762303935094934
 20
71.462312058114662
 30
-2.5
 11
79.464173711214301
 21
71.884536749472701
 31
-2.5
  0
LINE
  5
15B6
  8
0
 39
5.0
 10
72.468773711214311
 20
71.840212058114659
 30
-2.5
 11
75.964173711214301
 21
71.840212058114659
 31
-2.5
  0
LINE
  5
15B7
  8
0
 39
5.0
 10
72.468773711214311
 20
72.962312058114662
 30
-2.5
 11
72.468773711214311
 21
70.103612058114663
 31
-2.5
  0
LINE
  5
15B8
  8
0
 39
5.0
 10
75.928473711214309
 20
71.840212058114659
 30
-2.5
 11
72.468773711214311
 21
71.840212058114659
 31
-2.5
  0
LINE
  5
15B9
  8
0
 39
5.0
 10
72.468773711214311
 20
70.103612058114663
 30
-2.5
 11
75.964173711214301
 21
70.103612058114663
 31
-2.5
  0
LINE
  5
15BA
  8
0
 39
5.0
 10
70.034073711214305
 20
71.79851506372755
 30
-2.5
 11
70.602973711214304
 21
71.79841205811465
 31
-2.5
  0
LINE
  5
15BB
  8
0
 39
5.0
 10
68.62457371121431
 20
72.179612058114657
 30
-2.5
 11
69.500407463864491
 21
71.212312058114662
 31
-2.5
  0
LINE
  5
15BC
  8
0
 39
5.0
 10
67.464173711214301
 20
72.179612058114657
 30
-2.5
 11
68.62457371121431
 21
72.179612058114657
 31
-2.5
  0
POLYLINE
  5
15BD
  8
0
 66
     1
 10
0.0
 20
0.0
 30
-2.5
 39
5.0
  0
VERTEX
  5
1715
  8
0
 10
67.464173711214301
 20
72.962312058114662
 30
-2.5
  0
VERTEX
  5
1716
  8
0
 10
67.464173711214301
 20
72.179612058114657
 30
-2.5
  0
SEQEND
  5
1717
  8
0
  0
DIMENSION
  5
15BE
  8
2
  2
*D10
 10
61.16359659427313
 20
71.212312058114662
 30
-2.5
 11
59.28859659427313
 21
61.837312058114669
 31
-2.5
 70
     0
  1
%%c<>
 13
69.500407463864491
 23
74.712312058114662
 33
-2.5
 14
69.500407463864491
 24
71.212312058114662
 34
-2.5
 50
90.0
  0
DIMENSION
  5
15BF
  8
2
  2
*D11
 10
79.464173711214301
 20
59.63035437141027
 30
-2.5
 11
73.464173711214301
 21
61.50535437141027
 31
-2.5
 70
     0
 13
67.464173711214301
 23
64.827582300744623
 33
-2.5
 14
79.464173711214301
 24
71.884536749472701
 34
-2.5
  0
DIMENSION
  5
15C0
  8
2
  2
*D12
 10
75.964173711214301
 20
64.827582300744623
 30
-2.5
 11
71.714173711214301
 21
66.702582300744623
 31
-2.5
 70
     0
 13
67.464173711214301
 23
72.179612058114657
 33
-2.5
 14
75.964173711214301
 24
70.103612058114663
 34
-2.5
  0
LINE
  5
15C1
  8
0
 10
71.446873711214309
 20
74.712312058114662
 30
-2.5
 11
70.602973711214304
 21
74.126212058114675
 31
-2.5
  0
LINE
  5
15C2
  8
0
 10
71.446873711214309
 20
71.212312058114662
 30
-2.5
 11
70.602973711214304
 21
71.79841205811465
 31
-2.5
  0
LINE
  5
15C3
  8
0
 10
70.034073711214305
 20
72.962312058114662
 30
-2.5
 11
70.034073711214305
 21
74.712312058114662
 31
-2.5
  0
LINE
  5
15C4
  8
0
 10
70.602973711214304
 20
74.126212058114675
 30
-2.5
 11
70.602973711214304
 21
72.962312058114662
 31
-2.5
  0
LINE
  5
15C5
  8
0
 10
69.500407463864491
 20
74.712312058114662
 30
-2.5
 11
69.500407463864491
 21
72.962312058114662
 31
-2.5
  0
LINE
  5
15C6
  8
0
 10
68.62457371121431
 20
73.745012058114654
 30
-2.5
 11
68.62457371121431
 21
72.962312058114662
 31
-2.5
  0
LINE
  5
15C7
  8
0
 10
68.62457371121431
 20
72.179612058114657
 30
-2.5
 11
68.62457371121431
 21
72.962312058114662
 31
-2.5
  0
LINE
  5
15C8
  8
0
 10
70.034073711214305
 20
71.212312058114662
 30
-2.5
 11
69.500407463864491
 21
71.212312058114662
 31
-2.5
  0
LINE
  5
15C9
  8
0
 10
69.500407463864491
 20
71.212312058114662
 30
-2.5
 11
69.500407463864491
 21
72.962312058114662
 31
-2.5
  0
LINE
  5
15CA
  8
0
 10
70.602973711214304
 20
71.79841205811465
 30
-2.5
 11
70.602973711214304
 21
72.962312058114662
 31
-2.5
  0
LINE
  5
15CB
  8
0
 10
70.034073711214305
 20
72.962312058114662
 30
-2.5
 11
70.034073711214305
 21
71.212312058114662
 31
-2.5
  0
LINE
  5
15CC
  8
0
 10
70.034073711214305
 20
74.712312058114662
 30
-2.5
 11
69.500407463864491
 21
74.712312058114662
 31
-2.5
  0
LINE
  5
15CD
  8
0
 10
78.762303935094934
 20
74.462312058114662
 30
-2.5
 11
78.762303935094934
 21
72.962312058114662
 31
-2.5
  0
LINE
  5
15CE
  8
0
 10
75.964173711214301
 20
75.821012058114661
 30
-2.5
 11
75.964173711214301
 21
72.962312058114662
 31
-2.5
  0
LINE
  5
15CF
  8
0
 10
71.446873711214309
 20
74.712312058114662
 30
-2.5
 11
71.446873711214309
 21
72.962312058114662
 31
-2.5
  0
LINE
  5
15D0
  8
0
 10
71.446873711214309
 20
71.212312058114662
 30
-2.5
 11
72.468773711214311
 21
71.212312058114662
 31
-2.5
  0
LINE
  5
15D1
  8
0
 10
71.446873711214309
 20
71.212312058114662
 30
-2.5
 11
71.446873711214309
 21
72.962312058114662
 31
-2.5
  0
LINE
  5
15D2
  8
2
 10
76.130673711214314
 20
71.730512058114655
 30
-2.5
 11
75.964173711214301
 21
71.73051205811467
 31
-2.5
  0
LINE
  5
15D3
  8
2
 10
79.208136397781445
 20
71.730512058114655
 30
-2.5
 11
77.089273711214304
 21
71.730512058114655
 31
-2.5
  0
LINE
  5
15D4
  8
0
 10
76.130673711214314
 20
71.462312058114662
 30
-2.5
 11
75.964173711214301
 21
71.462312058114662
 31
-2.5
  0
LINE
  5
15D5
  8
0
 10
78.762303935094934
 20
71.462312058114662
 30
-2.5
 11
77.089273711214304
 21
71.462312058114662
 31
-2.5
  0
LINE
  5
15D6
  8
0
 10
75.964173711214301
 20
70.103612058114663
 30
-2.5
 11
75.964173711214301
 21
72.962312058114662
 31
-2.5
  0
LINE
  5
15D7
  8
0
 10
78.762303935094934
 20
71.462312058114662
 30
-2.5
 11
78.762303935094934
 21
72.962312058114662
 31
-2.5
  0
LINE
  5
15D8
  8
0
 10
71.446873711214309
 20
74.712312058114662
 30
-2.5
 11
72.468773711214311
 21
74.712312058114662
 31
-2.5
  0
LINE
  5
15D9
  8
2
 10
79.208136397781445
 20
74.194112058114669
 30
-2.5
 11
77.089273711214304
 21
74.194112058114669
 31
-2.5
  0
LINE
  5
15DA
  8
2
 10
76.130673711214314
 20
74.194112058114669
 30
-2.5
 11
75.964173711214301
 21
74.194112058114655
 31
-2.5
  0
LINE
  5
15DB
  8
0
 10
78.762303935094934
 20
74.462312058114662
 30
-2.5
 11
77.089273711214304
 21
74.462312058114662
 31
-2.5
  0
LINE
  5
15DC
  8
0
 10
76.130673711214314
 20
74.462312058114662
 30
-2.5
 11
75.964173711214301
 21
74.462312058114662
 31
-2.5
  0
LINE
  5
15DD
  8
0
 10
79.464173711214301
 20
74.040087366756623
 30
-2.5
 11
79.464173711214301
 21
72.962312058114662
 31
-2.5
  0
LINE
  5
15DE
  8
0
 10
79.464173711214301
 20
71.884536749472701
 30
-2.5
 11
79.464173711214301
 21
72.962312058114662
 31
-2.5
  0
LINE
  5
1644
  8
0
 39
5.0
 10
113.4671737112142
 20
101.5357120581146
 30
0.0
 11
116.1229737112142
 21
101.5357120581146
 31
0.0
  0
LINE
  5
1645
  8
0
 39
5.0
 10
116.1229737112142
 20
101.5357120581146
 30
0.0
 11
116.1229737112142
 21
101.5357120581146
 31
0.0
  0
LINE
  5
1646
  8
0
 39
5.0
 10
116.1229737112142
 20
101.5357120581146
 30
0.0
 11
116.1883737112143
 21
101.53901205811459
 31
0.0
  0
LINE
  5
1647
  8
0
 39
5.0
 10
116.1883737112143
 20
101.53901205811459
 30
0.0
 11
116.25207371121419
 21
101.5490120581146
 31
0.0
  0
LINE
  5
1648
  8
0
 39
5.0
 10
116.25207371121419
 20
101.5490120581146
 30
0.0
 11
116.3135737112143
 21
101.5652120581146
 31
0.0
  0
LINE
  5
1649
  8
0
 39
5.0
 10
116.3135737112143
 20
101.5652120581146
 30
0.0
 11
116.3726737112142
 21
101.58731205811461
 31
0.0
  0
LINE
  5
164A
  8
0
 39
5.0
 10
116.3726737112142
 20
101.58731205811461
 30
0.0
 11
116.42877371121421
 21
101.6149120581146
 31
0.0
  0
LINE
  5
164B
  8
0
 39
5.0
 10
116.42877371121421
 20
101.6149120581146
 30
0.0
 11
116.48187371121431
 21
101.6478120581146
 31
0.0
  0
LINE
  5
164C
  8
0
 39
5.0
 10
116.48187371121431
 20
101.6478120581146
 30
0.0
 11
116.5313737112142
 21
101.6855120581146
 31
0.0
  0
LINE
  5
164D
  8
0
 39
5.0
 10
116.5313737112142
 20
101.6855120581146
 30
0.0
 11
116.5772737112143
 21
101.7280120581146
 31
0.0
  0
LINE
  5
164E
  8
0
 39
5.0
 10
116.5772737112143
 20
101.7280120581146
 30
0.0
 11
116.6187737112142
 21
101.77441205811461
 31
0.0
  0
LINE
  5
164F
  8
0
 39
5.0
 10
116.6187737112142
 20
101.77441205811461
 30
0.0
 11
116.6559737112143
 21
101.82491205811461
 31
0.0
  0
LINE
  5
1650
  8
0
 39
5.0
 10
116.6559737112143
 20
101.82491205811461
 30
0.0
 11
116.68827371121419
 21
101.87891205811459
 31
0.0
  0
LINE
  5
1651
  8
0
 39
5.0
 10
116.68827371121419
 20
101.87891205811459
 30
0.0
 11
116.7155737112142
 21
101.93621205811461
 31
0.0
  0
LINE
  5
1652
  8
0
 39
5.0
 10
116.7155737112142
 20
101.93621205811461
 30
0.0
 11
116.7371737112143
 21
101.9963120581146
 31
0.0
  0
LINE
  5
1653
  8
0
 39
5.0
 10
116.7371737112143
 20
101.9963120581146
 30
0.0
 11
116.7531737112142
 21
102.0590120581146
 31
0.0
  0
LINE
  5
1654
  8
0
 39
5.0
 10
116.7531737112142
 20
102.0590120581146
 30
0.0
 11
116.7629737112143
 21
102.12381205811459
 31
0.0
  0
LINE
  5
1655
  8
0
 39
5.0
 10
116.7629737112143
 20
102.12381205811459
 30
0.0
 11
116.7663737112142
 21
102.1907120581146
 31
0.0
  0
LINE
  5
1656
  8
0
 39
5.0
 10
116.7663737112142
 20
102.1907120581146
 30
0.0
 11
116.7663737112142
 21
103.8807120581146
 31
0.0
  0
LINE
  5
1657
  8
0
 39
5.0
 10
116.7663737112142
 20
103.8807120581146
 30
0.0
 11
116.7663737112142
 21
103.8807120581146
 31
0.0
  0
LINE
  5
1658
  8
0
 39
5.0
 10
116.7663737112142
 20
103.8807120581146
 30
0.0
 11
116.7629737112143
 21
103.9473120581146
 31
0.0
  0
LINE
  5
1659
  8
0
 39
5.0
 10
116.7629737112143
 20
103.9473120581146
 30
0.0
 11
116.7531737112142
 21
104.0121120581146
 31
0.0
  0
LINE
  5
165A
  8
0
 39
5.0
 10
116.7531737112142
 20
104.0121120581146
 30
0.0
 11
116.7371737112143
 21
104.0747120581146
 31
0.0
  0
LINE
  5
165B
  8
0
 39
5.0
 10
116.7371737112143
 20
104.0747120581146
 30
0.0
 11
116.7155737112142
 21
104.13491205811459
 31
0.0
  0
LINE
  5
165C
  8
0
 39
5.0
 10
116.7155737112142
 20
104.13491205811459
 30
0.0
 11
116.68827371121419
 21
104.1920120581146
 31
0.0
  0
LINE
  5
165D
  8
0
 39
5.0
 10
116.68827371121419
 20
104.1920120581146
 30
0.0
 11
116.6559737112143
 21
104.2461120581146
 31
0.0
  0
LINE
  5
165E
  8
0
 39
5.0
 10
116.6559737112143
 20
104.2461120581146
 30
0.0
 11
116.6187737112142
 21
104.2965120581146
 31
0.0
  0
LINE
  5
165F
  8
0
 39
5.0
 10
116.6187737112142
 20
104.2965120581146
 30
0.0
 11
116.5772737112143
 21
104.3432120581146
 31
0.0
  0
LINE
  5
1660
  8
0
 39
5.0
 10
116.5772737112143
 20
104.3432120581146
 30
0.0
 11
116.5313737112142
 21
104.3855120581146
 31
0.0
  0
LINE
  5
1661
  8
0
 39
5.0
 10
116.5313737112142
 20
104.3855120581146
 30
0.0
 11
116.48187371121431
 21
104.4233120581146
 31
0.0
  0
LINE
  5
1662
  8
0
 39
5.0
 10
116.48187371121431
 20
104.4233120581146
 30
0.0
 11
116.42877371121421
 21
104.4562120581146
 31
0.0
  0
LINE
  5
1663
  8
0
 39
5.0
 10
116.42877371121421
 20
104.4562120581146
 30
0.0
 11
116.3726737112142
 21
104.4839120581146
 31
0.0
  0
LINE
  5
1664
  8
0
 39
5.0
 10
116.3726737112142
 20
104.4839120581146
 30
0.0
 11
116.3135737112143
 21
104.5059120581146
 31
0.0
  0
LINE
  5
1665
  8
0
 39
5.0
 10
116.3135737112143
 20
104.5059120581146
 30
0.0
 11
116.25207371121419
 21
104.5222120581146
 31
0.0
  0
LINE
  5
1666
  8
0
 39
5.0
 10
116.25207371121419
 20
104.5222120581146
 30
0.0
 11
116.1883737112143
 21
104.5322120581146
 31
0.0
  0
LINE
  5
1667
  8
0
 39
5.0
 10
116.1883737112143
 20
104.5322120581146
 30
0.0
 11
116.1229737112142
 21
104.5357120581146
 31
0.0
  0
LINE
  5
1668
  8
0
 39
5.0
 10
113.4671737112142
 20
98.489912058114669
 30
0.0
 11
116.1229737112142
 21
98.489912058114669
 31
0.0
  0
LINE
  5
1669
  8
0
 39
5.0
 10
116.1229737112142
 20
98.489912058114669
 30
0.0
 11
116.1229737112142
 21
98.489912058114669
 31
0.0
  0
LINE
  5
166A
  8
0
 39
5.0
 10
116.1229737112142
 20
98.489912058114669
 30
0.0
 11
116.1883737112143
 21
98.493212058114679
 31
0.0
  0
LINE
  5
166B
  8
0
 39
5.0
 10
116.1883737112143
 20
98.493212058114679
 30
0.0
 11
116.25207371121419
 21
98.503212058114684
 31
0.0
  0
LINE
  5
166C
  8
0
 39
5.0
 10
116.25207371121419
 20
98.503212058114684
 30
0.0
 11
116.3135737112143
 21
98.519412058114696
 31
0.0
  0
LINE
  5
166D
  8
0
 39
5.0
 10
116.3135737112143
 20
98.519412058114696
 30
0.0
 11
116.3726737112142
 21
98.541512058114691
 31
0.0
  0
LINE
  5
166E
  8
0
 39
5.0
 10
116.3726737112142
 20
98.541512058114691
 30
0.0
 11
116.42877371121421
 21
98.569112058114669
 31
0.0
  0
LINE
  5
166F
  8
0
 39
5.0
 10
116.42877371121421
 20
98.569112058114669
 30
0.0
 11
116.48187371121431
 21
98.602012058114695
 31
0.0
  0
LINE
  5
1670
  8
0
 39
5.0
 10
116.48187371121431
 20
98.602012058114695
 30
0.0
 11
116.5313737112142
 21
98.639712058114682
 31
0.0
  0
LINE
  5
1671
  8
0
 39
5.0
 10
116.5313737112142
 20
98.639712058114682
 30
0.0
 11
116.5772737112143
 21
98.682212058114672
 31
0.0
  0
LINE
  5
1672
  8
0
 39
5.0
 10
116.5772737112143
 20
98.682212058114672
 30
0.0
 11
116.6187737112142
 21
98.728612058114663
 31
0.0
  0
LINE
  5
1673
  8
0
 39
5.0
 10
116.6187737112142
 20
98.728612058114663
 30
0.0
 11
116.6559737112143
 21
98.779112058114677
 31
0.0
  0
LINE
  5
1674
  8
0
 39
5.0
 10
116.6559737112143
 20
98.779112058114677
 30
0.0
 11
116.68827371121419
 21
98.833112058114679
 31
0.0
  0
LINE
  5
1675
  8
0
 39
5.0
 10
116.68827371121419
 20
98.833112058114679
 30
0.0
 11
116.7155737112142
 21
98.890412058114677
 31
0.0
  0
LINE
  5
1676
  8
0
 39
5.0
 10
116.7155737112142
 20
98.890412058114677
 30
0.0
 11
116.7371737112143
 21
98.950512058114668
 31
0.0
  0
LINE
  5
1677
  8
0
 39
5.0
 10
116.7371737112143
 20
98.950512058114668
 30
0.0
 11
116.7531737112142
 21
99.013212058114675
 31
0.0
  0
LINE
  5
1678
  8
0
 39
5.0
 10
116.7531737112142
 20
99.013212058114675
 30
0.0
 11
116.7629737112143
 21
99.07801205811468
 31
0.0
  0
LINE
  5
1679
  8
0
 39
5.0
 10
116.7629737112143
 20
99.07801205811468
 30
0.0
 11
116.7663737112142
 21
99.14491205811467
 31
0.0
  0
LINE
  5
167A
  8
0
 39
5.0
 10
116.7663737112142
 20
99.14491205811467
 30
0.0
 11
116.7663737112142
 21
100.8349120581146
 31
0.0
  0
LINE
  5
167B
  8
0
 39
5.0
 10
116.7663737112142
 20
100.8349120581146
 30
0.0
 11
116.7663737112142
 21
100.8349120581146
 31
0.0
  0
LINE
  5
167C
  8
0
 39
5.0
 10
116.7663737112142
 20
100.8349120581146
 30
0.0
 11
116.7629737112143
 21
100.9015120581146
 31
0.0
  0
LINE
  5
167D
  8
0
 39
5.0
 10
116.7629737112143
 20
100.9015120581146
 30
0.0
 11
116.7531737112142
 21
100.9663120581146
 31
0.0
  0
LINE
  5
167E
  8
0
 39
5.0
 10
116.7531737112142
 20
100.9663120581146
 30
0.0
 11
116.7371737112143
 21
101.0289120581146
 31
0.0
  0
LINE
  5
167F
  8
0
 39
5.0
 10
116.7371737112143
 20
101.0289120581146
 30
0.0
 11
116.7155737112142
 21
101.08911205811459
 31
0.0
  0
LINE
  5
1680
  8
0
 39
5.0
 10
116.7155737112142
 20
101.08911205811459
 30
0.0
 11
116.68827371121419
 21
101.1462120581146
 31
0.0
  0
LINE
  5
1681
  8
0
 39
5.0
 10
116.68827371121419
 20
101.1462120581146
 30
0.0
 11
116.6559737112143
 21
101.2003120581146
 31
0.0
  0
LINE
  5
1682
  8
0
 39
5.0
 10
116.6559737112143
 20
101.2003120581146
 30
0.0
 11
116.6187737112142
 21
101.2507120581146
 31
0.0
  0
LINE
  5
1683
  8
0
 39
5.0
 10
116.6187737112142
 20
101.2507120581146
 30
0.0
 11
116.5772737112143
 21
101.2974120581146
 31
0.0
  0
LINE
  5
1684
  8
0
 39
5.0
 10
116.5772737112143
 20
101.2974120581146
 30
0.0
 11
116.5313737112142
 21
101.3397120581146
 31
0.0
  0
LINE
  5
1685
  8
0
 39
5.0
 10
116.5313737112142
 20
101.3397120581146
 30
0.0
 11
116.48187371121431
 21
101.3775120581146
 31
0.0
  0
LINE
  5
1686
  8
0
 39
5.0
 10
116.48187371121431
 20
101.3775120581146
 30
0.0
 11
116.42877371121421
 21
101.4104120581146
 31
0.0
  0
LINE
  5
1687
  8
0
 39
5.0
 10
116.42877371121421
 20
101.4104120581146
 30
0.0
 11
116.3726737112142
 21
101.4381120581146
 31
0.0
  0
LINE
  5
1688
  8
0
 39
5.0
 10
116.3726737112142
 20
101.4381120581146
 30
0.0
 11
116.3135737112143
 21
101.4601120581146
 31
0.0
  0
LINE
  5
1689
  8
0
 39
5.0
 10
116.3135737112143
 20
101.4601120581146
 30
0.0
 11
116.25207371121419
 21
101.4764120581146
 31
0.0
  0
LINE
  5
168A
  8
0
 39
5.0
 10
116.25207371121419
 20
101.4764120581146
 30
0.0
 11
116.1883737112143
 21
101.4864120581146
 31
0.0
  0
LINE
  5
168B
  8
0
 39
5.0
 10
116.1883737112143
 20
101.4864120581146
 30
0.0
 11
116.1229737112142
 21
101.4899120581146
 31
0.0
  0
LINE
  5
168C
  8
0
 39
5.0
 10
106.0553737112143
 20
101.5357120581146
 30
0.0
 11
103.3995737112143
 21
101.5357120581146
 31
0.0
  0
LINE
  5
168D
  8
0
 39
5.0
 10
103.3995737112143
 20
101.5357120581146
 30
0.0
 11
103.3995737112143
 21
101.5357120581146
 31
0.0
  0
LINE
  5
168E
  8
0
 39
5.0
 10
103.3995737112143
 20
101.5357120581146
 30
0.0
 11
103.33417371121431
 21
101.53901205811459
 31
0.0
  0
LINE
  5
168F
  8
0
 39
5.0
 10
103.33417371121431
 20
101.53901205811459
 30
0.0
 11
103.27047371121429
 21
101.5490120581146
 31
0.0
  0
LINE
  5
1690
  8
0
 39
5.0
 10
103.27047371121429
 20
101.5490120581146
 30
0.0
 11
103.2089737112142
 21
101.5652120581146
 31
0.0
  0
LINE
  5
1691
  8
0
 39
5.0
 10
103.2089737112142
 20
101.5652120581146
 30
0.0
 11
103.1498737112143
 21
101.58731205811461
 31
0.0
  0
LINE
  5
1692
  8
0
 39
5.0
 10
103.1498737112143
 20
101.58731205811461
 30
0.0
 11
103.0937737112143
 21
101.6149120581146
 31
0.0
  0
LINE
  5
1693
  8
0
 39
5.0
 10
103.0937737112143
 20
101.6149120581146
 30
0.0
 11
103.0406737112143
 21
101.6478120581146
 31
0.0
  0
LINE
  5
1694
  8
0
 39
5.0
 10
103.0406737112143
 20
101.6478120581146
 30
0.0
 11
102.9911737112143
 21
101.6855120581146
 31
0.0
  0
LINE
  5
1695
  8
0
 39
5.0
 10
102.9911737112143
 20
101.6855120581146
 30
0.0
 11
102.9452737112142
 21
101.7280120581146
 31
0.0
  0
LINE
  5
1696
  8
0
 39
5.0
 10
102.9452737112142
 20
101.7280120581146
 30
0.0
 11
102.9037737112143
 21
101.77441205811461
 31
0.0
  0
LINE
  5
1697
  8
0
 39
5.0
 10
102.9037737112143
 20
101.77441205811461
 30
0.0
 11
102.8665737112143
 21
101.82491205811461
 31
0.0
  0
LINE
  5
1698
  8
0
 39
5.0
 10
102.8665737112143
 20
101.82491205811461
 30
0.0
 11
102.83427371121429
 21
101.87891205811459
 31
0.0
  0
LINE
  5
1699
  8
0
 39
5.0
 10
102.83427371121429
 20
101.87891205811459
 30
0.0
 11
102.8069737112143
 21
101.93621205811461
 31
0.0
  0
LINE
  5
169A
  8
0
 39
5.0
 10
102.8069737112143
 20
101.93621205811461
 30
0.0
 11
102.78537371121431
 21
101.9963120581146
 31
0.0
  0
LINE
  5
169B
  8
0
 39
5.0
 10
102.78537371121431
 20
101.9963120581146
 30
0.0
 11
102.7693737112143
 21
102.0590120581146
 31
0.0
  0
LINE
  5
169C
  8
0
 39
5.0
 10
102.7693737112143
 20
102.0590120581146
 30
0.0
 11
102.7595737112143
 21
102.12381205811459
 31
0.0
  0
LINE
  5
169D
  8
0
 39
5.0
 10
102.7595737112143
 20
102.12381205811459
 30
0.0
 11
102.7561737112143
 21
102.1907120581146
 31
0.0
  0
LINE
  5
169E
  8
0
 39
5.0
 10
102.7561737112143
 20
102.1907120581146
 30
0.0
 11
102.7561737112143
 21
103.8807120581146
 31
0.0
  0
LINE
  5
169F
  8
0
 39
5.0
 10
102.7561737112143
 20
103.8807120581146
 30
0.0
 11
102.7561737112143
 21
103.8807120581146
 31
0.0
  0
LINE
  5
16A0
  8
0
 39
5.0
 10
102.7561737112143
 20
103.8807120581146
 30
0.0
 11
102.7595737112143
 21
103.9473120581146
 31
0.0
  0
LINE
  5
16A1
  8
0
 39
5.0
 10
102.7595737112143
 20
103.9473120581146
 30
0.0
 11
102.7693737112143
 21
104.0121120581146
 31
0.0
  0
LINE
  5
16A2
  8
0
 39
5.0
 10
102.7693737112143
 20
104.0121120581146
 30
0.0
 11
102.78537371121431
 21
104.0747120581146
 31
0.0
  0
LINE
  5
16A3
  8
0
 39
5.0
 10
102.78537371121431
 20
104.0747120581146
 30
0.0
 11
102.8069737112143
 21
104.13491205811459
 31
0.0
  0
LINE
  5
16A4
  8
0
 39
5.0
 10
102.8069737112143
 20
104.13491205811459
 30
0.0
 11
102.83427371121429
 21
104.1920120581146
 31
0.0
  0
LINE
  5
16A5
  8
0
 39
5.0
 10
102.83427371121429
 20
104.1920120581146
 30
0.0
 11
102.8665737112143
 21
104.2461120581146
 31
0.0
  0
LINE
  5
16A6
  8
0
 39
5.0
 10
102.8665737112143
 20
104.2461120581146
 30
0.0
 11
102.9037737112143
 21
104.2965120581146
 31
0.0
  0
LINE
  5
16A7
  8
0
 39
5.0
 10
102.9037737112143
 20
104.2965120581146
 30
0.0
 11
102.9452737112142
 21
104.3432120581146
 31
0.0
  0
LINE
  5
16A8
  8
0
 39
5.0
 10
102.9452737112142
 20
104.3432120581146
 30
0.0
 11
102.9911737112143
 21
104.3855120581146
 31
0.0
  0
LINE
  5
16A9
  8
0
 39
5.0
 10
102.9911737112143
 20
104.3855120581146
 30
0.0
 11
103.0406737112143
 21
104.4233120581146
 31
0.0
  0
LINE
  5
16AA
  8
0
 39
5.0
 10
103.0406737112143
 20
104.4233120581146
 30
0.0
 11
103.0937737112143
 21
104.4562120581146
 31
0.0
  0
LINE
  5
16AB
  8
0
 39
5.0
 10
103.0937737112143
 20
104.4562120581146
 30
0.0
 11
103.1498737112143
 21
104.4839120581146
 31
0.0
  0
LINE
  5
16AC
  8
0
 39
5.0
 10
103.1498737112143
 20
104.4839120581146
 30
0.0
 11
103.2089737112142
 21
104.5059120581146
 31
0.0
  0
LINE
  5
16AD
  8
0
 39
5.0
 10
103.2089737112142
 20
104.5059120581146
 30
0.0
 11
103.27047371121429
 21
104.5222120581146
 31
0.0
  0
LINE
  5
16AE
  8
0
 39
5.0
 10
103.27047371121429
 20
104.5222120581146
 30
0.0
 11
103.33417371121431
 21
104.5322120581146
 31
0.0
  0
LINE
  5
16AF
  8
0
 39
5.0
 10
103.33417371121431
 20
104.5322120581146
 30
0.0
 11
103.3995737112143
 21
104.5357120581146
 31
0.0
  0
LINE
  5
16B0
  8
0
 39
5.0
 10
106.0553737112143
 20
98.489912058114669
 30
0.0
 11
103.3995737112143
 21
98.489912058114669
 31
0.0
  0
LINE
  5
16B1
  8
0
 39
5.0
 10
103.3995737112143
 20
98.489912058114669
 30
0.0
 11
103.3995737112143
 21
98.489912058114669
 31
0.0
  0
LINE
  5
16B2
  8
0
 39
5.0
 10
103.3995737112143
 20
98.489912058114669
 30
0.0
 11
103.33417371121431
 21
98.493212058114679
 31
0.0
  0
LINE
  5
16B3
  8
0
 39
5.0
 10
103.33417371121431
 20
98.493212058114679
 30
0.0
 11
103.27047371121429
 21
98.503212058114684
 31
0.0
  0
LINE
  5
16B4
  8
0
 39
5.0
 10
103.27047371121429
 20
98.503212058114684
 30
0.0
 11
103.2089737112142
 21
98.519412058114696
 31
0.0
  0
LINE
  5
16B5
  8
0
 39
5.0
 10
103.2089737112142
 20
98.519412058114696
 30
0.0
 11
103.1498737112143
 21
98.541512058114691
 31
0.0
  0
LINE
  5
16B6
  8
0
 39
5.0
 10
103.1498737112143
 20
98.541512058114691
 30
0.0
 11
103.0937737112143
 21
98.569112058114669
 31
0.0
  0
LINE
  5
16B7
  8
0
 39
5.0
 10
103.0937737112143
 20
98.569112058114669
 30
0.0
 11
103.0406737112143
 21
98.602012058114695
 31
0.0
  0
LINE
  5
16B8
  8
0
 39
5.0
 10
103.0406737112143
 20
98.602012058114695
 30
0.0
 11
102.9911737112143
 21
98.639712058114682
 31
0.0
  0
LINE
  5
16B9
  8
0
 39
5.0
 10
102.9911737112143
 20
98.639712058114682
 30
0.0
 11
102.9452737112142
 21
98.682212058114672
 31
0.0
  0
LINE
  5
16BA
  8
0
 39
5.0
 10
102.9452737112142
 20
98.682212058114672
 30
0.0
 11
102.9037737112143
 21
98.728612058114663
 31
0.0
  0
LINE
  5
16BB
  8
0
 39
5.0
 10
102.9037737112143
 20
98.728612058114663
 30
0.0
 11
102.8665737112143
 21
98.779112058114677
 31
0.0
  0
LINE
  5
16BC
  8
0
 39
5.0
 10
102.8665737112143
 20
98.779112058114677
 30
0.0
 11
102.83427371121429
 21
98.833112058114679
 31
0.0
  0
LINE
  5
16BD
  8
0
 39
5.0
 10
102.83427371121429
 20
98.833112058114679
 30
0.0
 11
102.8069737112143
 21
98.890412058114677
 31
0.0
  0
LINE
  5
16BE
  8
0
 39
5.0
 10
102.8069737112143
 20
98.890412058114677
 30
0.0
 11
102.78537371121431
 21
98.950512058114668
 31
0.0
  0
LINE
  5
16BF
  8
0
 39
5.0
 10
102.78537371121431
 20
98.950512058114668
 30
0.0
 11
102.7693737112143
 21
99.013212058114675
 31
0.0
  0
LINE
  5
16C0
  8
0
 39
5.0
 10
102.7693737112143
 20
99.013212058114675
 30
0.0
 11
102.7595737112143
 21
99.07801205811468
 31
0.0
  0
LINE
  5
16C1
  8
0
 39
5.0
 10
102.7595737112143
 20
99.07801205811468
 30
0.0
 11
102.7561737112143
 21
99.14491205811467
 31
0.0
  0
LINE
  5
16C2
  8
0
 39
5.0
 10
102.7561737112143
 20
99.14491205811467
 30
0.0
 11
102.7561737112143
 21
100.8349120581146
 31
0.0
  0
LINE
  5
16C3
  8
0
 39
5.0
 10
102.7561737112143
 20
100.8349120581146
 30
0.0
 11
102.7561737112143
 21
100.8349120581146
 31
0.0
  0
LINE
  5
16C4
  8
0
 39
5.0
 10
102.7561737112143
 20
100.8349120581146
 30
0.0
 11
102.7595737112143
 21
100.9015120581146
 31
0.0
  0
LINE
  5
16C5
  8
0
 39
5.0
 10
102.7595737112143
 20
100.9015120581146
 30
0.0
 11
102.7693737112143
 21
100.9663120581146
 31
0.0
  0
LINE
  5
16C6
  8
0
 39
5.0
 10
102.7693737112143
 20
100.9663120581146
 30
0.0
 11
102.78537371121431
 21
101.0289120581146
 31
0.0
  0
LINE
  5
16C7
  8
0
 39
5.0
 10
102.78537371121431
 20
101.0289120581146
 30
0.0
 11
102.8069737112143
 21
101.08911205811459
 31
0.0
  0
LINE
  5
16C8
  8
0
 39
5.0
 10
102.8069737112143
 20
101.08911205811459
 30
0.0
 11
102.83427371121429
 21
101.1462120581146
 31
0.0
  0
LINE
  5
16C9
  8
0
 39
5.0
 10
102.83427371121429
 20
101.1462120581146
 30
0.0
 11
102.8665737112143
 21
101.2003120581146
 31
0.0
  0
LINE
  5
16CA
  8
0
 39
5.0
 10
102.8665737112143
 20
101.2003120581146
 30
0.0
 11
102.9037737112143
 21
101.2507120581146
 31
0.0
  0
LINE
  5
16CB
  8
0
 39
5.0
 10
102.9037737112143
 20
101.2507120581146
 30
0.0
 11
102.9452737112142
 21
101.2974120581146
 31
0.0
  0
LINE
  5
16CC
  8
0
 39
5.0
 10
102.9452737112142
 20
101.2974120581146
 30
0.0
 11
102.9911737112143
 21
101.3397120581146
 31
0.0
  0
LINE
  5
16CD
  8
0
 39
5.0
 10
102.9911737112143
 20
101.3397120581146
 30
0.0
 11
103.0406737112143
 21
101.3775120581146
 31
0.0
  0
LINE
  5
16CE
  8
0
 39
5.0
 10
103.0406737112143
 20
101.3775120581146
 30
0.0
 11
103.0937737112143
 21
101.4104120581146
 31
0.0
  0
LINE
  5
16CF
  8
0
 39
5.0
 10
103.0937737112143
 20
101.4104120581146
 30
0.0
 11
103.1498737112143
 21
101.4381120581146
 31
0.0
  0
LINE
  5
16D0
  8
0
 39
5.0
 10
103.1498737112143
 20
101.4381120581146
 30
0.0
 11
103.2089737112142
 21
101.4601120581146
 31
0.0
  0
LINE
  5
16D1
  8
0
 39
5.0
 10
103.2089737112142
 20
101.4601120581146
 30
0.0
 11
103.27047371121429
 21
101.4764120581146
 31
0.0
  0
LINE
  5
16D2
  8
0
 39
5.0
 10
103.27047371121429
 20
101.4764120581146
 30
0.0
 11
103.33417371121431
 21
101.4864120581146
 31
0.0
  0
LINE
  5
16D3
  8
0
 39
5.0
 10
103.33417371121431
 20
101.4864120581146
 30
0.0
 11
103.3995737112143
 21
101.4899120581146
 31
0.0
  0
LINE
  5
16E0
  8
0
 39
5.0
 10
109.7612737112143
 20
138.79561205811461
 30
0.0
 11
112.5937737112143
 21
138.79561205811461
 31
0.0
  0
LINE
  5
16E1
  8
0
 39
5.0
 10
112.5937737112143
 20
138.79561205811461
 30
0.0
 11
112.5937737112143
 21
140.79561205811461
 31
0.0
  0
LINE
  5
16E2
  8
0
 39
5.0
 10
109.7612737112143
 20
138.79561205811461
 30
0.0
 11
106.92877371121421
 21
138.79561205811461
 31
0.0
  0
LINE
  5
16E3
  8
0
 39
5.0
 10
106.92877371121421
 20
138.79561205811461
 30
0.0
 11
106.92877371121421
 21
140.79561205811461
 31
0.0
  0
ENDSEC
  0
EOF
