  0
SECTION
  2
HEADER
  9
$ACADVER
  1
AC1009
  9
$INSBASE
 10
0.0
 20
0.0
 30
0.0
  9
$EXTMIN
 10
58.038596594273109
 20
30.265187049046851
 30
-2.5
  9
$EXTMAX
 10
133.68433565374909
 20
141.3997531212907
 30
5.0
  9
$LIMMIN
 10
0.0
 20
0.0
  9
$LIMMAX
 10
420.0
 20
297.0
  9
$ORTHOMODE
 70
     0
  9
$REGENMODE
 70
     1
  9
$FILLMODE
 70
     1
  9
$QTEXTMODE
 70
     0
  9
$MIRRTEXT
 70
     1
  9
$DRAGMODE
 70
     2
  9
$LTSCALE
 40
0.3
  9
$OSMODE
 70
    37
  9
$ATTMODE
 70
     1
  9
$TEXTSIZE
 40
2.5
  9
$TRACEWID
 40
1.0
  9
$TEXTSTYLE
  7
STANDARD
  9
$CLAYER
  8
2
  9
$CELTYPE
  6
BYLAYER
  9
$CECOLOR
 62
   256
  9
$DIMSCALE
 40
1.0
  9
$DIMASZ
 40
2.5
  9
$DIMEXO
 40
0.625
  9
$DIMDLI
 40
3.75
  9
$DIMRND
 40
0.0
  9
$DIMDLE
 40
0.0
  9
$DIMEXE
 40
1.25
  9
$DIMTP
 40
0.0
  9
$DIMTM
 40
0.0
  9
$DIMTXT
 40
2.5
  9
$DIMCEN
 40
2.5
  9
$DIMTSZ
 40
0.0
  9
$DIMTOL
 70
     0
  9
$DIMLIM
 70
     0
  9
$DIMTIH
 70
     0
  9
$DIMTOH
 70
     0
  9
$DIMSE1
 70
     0
  9
$DIMSE2
 70
     0
  9
$DIMTAD
 70
     1
  9
$DIMZIN
 70
     8
  9
$DIMBLK
  1

  9
$DIMASO
 70
     1
  9
$DIMSHO
 70
     1
  9
$DIMPOST
  1

  9
$DIMAPOST
  1

  9
$DIMALT
 70
     0
  9
$DIMALTD
 70
     3
  9
$DIMALTF
 40
0.03937007874016
  9
$DIMLFAC
 40
1.0
  9
$DIMTOFL
 70
     1
  9
$DIMTVP
 40
0.0
  9
$DIMTIX
 70
     0
  9
$DIMSOXD
 70
     0
  9
$DIMSAH
 70
     0
  9
$DIMBLK1
  1

  9
$DIMBLK2
  1

  9
$DIMSTYLE
  2
ISO-25
  9
$DIMCLRD
 70
     0
  9
$DIMCLRE
 70
     0
  9
$DIMCLRT
 70
     0
  9
$DIMTFAC
 40
1.0
  9
$DIMGAP
 40
0.625
  9
$LUNITS
 70
     2
  9
$LUPREC
 70
     4
  9
$SKETCHINC
 40
1.0
  9
$FILLETRAD
 40
10.0
  9
$AUNITS
 70
     0
  9
$AUPREC
 70
     0
  9
$MENU
  1
.
  9
$ELEVATION
 40
0.0
  9
$PELEVATION
 40
0.0
  9
$THICKNESS
 40
0.0
  9
$LIMCHECK
 70
     0
  9
$BLIPMODE
 70
     0
  9
$CHAMFERA
 40
10.0
  9
$CHAMFERB
 40
10.0
  9
$SKPOLY
 70
     0
  9
$TDCREATE
 40
2453446.4468046869
  9
$TDUPDATE
 40
2453551.9350331482
  9
$TDINDWG
 40
0.1397987384
  9
$TDUSRTIMER
 40
0.1397987384
  9
$USRTIMER
 70
     1
  9
$ANGBASE
 50
0.0
  9
$ANGDIR
 70
     0
  9
$PDMODE
 70
     0
  9
$PDSIZE
 40
0.0
  9
$PLINEWID
 40
0.0
  9
$COORDS
 70
     1
  9
$SPLFRAME
 70
     0
  9
$SPLINETYPE
 70
     6
  9
$SPLINESEGS
 70
     8
  9
$ATTDIA
 70
     0
  9
$ATTREQ
 70
     1
  9
$HANDLING
 70
-16383
  9
$HANDSEED
  5
17D4
  9
$SURFTAB1
 70
     6
  9
$SURFTAB2
 70
     6
  9
$SURFTYPE
 70
     6
  9
$SURFU
 70
     6
  9
$SURFV
 70
     6
  9
$UCSNAME
  2

  9
$UCSORG
 10
0.0
 20
0.0
 30
0.0
  9
$UCSXDIR
 10
1.0
 20
0.0
 30
0.0
  9
$UCSYDIR
 10
0.0
 20
1.0
 30
0.0
  9
$PUCSNAME
  2

  9
$PUCSORG
 10
0.0
 20
0.0
 30
0.0
  9
$PUCSXDIR
 10
1.0
 20
0.0
 30
0.0
  9
$PUCSYDIR
 10
0.0
 20
1.0
 30
0.0
  9
$USERI1
 70
     0
  9
$USERI2
 70
     0
  9
$USERI3
 70
     0
  9
$USERI4
 70
     0
  9
$USERI5
 70
     0
  9
$USERR1
 40
0.0
  9
$USERR2
 40
0.0
  9
$USERR3
 40
0.0
  9
$USERR4
 40
0.0
  9
$USERR5
 40
0.0
  9
$WORLDVIEW
 70
     1
  9
$SHADEDGE
 70
     3
  9
$SHADEDIF
 70
    70
  9
$TILEMODE
 70
     1
  9
$MAXACTVP
 70
    64
  9
$PLIMCHECK
 70
     0
  9
$PEXTMIN
 10
1.0000000000000000E+020
 20
1.0000000000000000E+020
 30
1.0000000000000000E+020
  9
$PEXTMAX
 10
-1.0000000000000000E+020
 20
-1.0000000000000000E+020
 30
-1.0000000000000000E+020
  9
$PLIMMIN
 10
0.0
 20
0.0
  9
$PLIMMAX
 10
420.0
 20
297.0
  9
$UNITMODE
 70
     0
  9
$VISRETAIN
 70
     1
  9
$PLINEGEN
 70
     0
  9
$PSLTSCALE
 70
     1
  0
ENDSEC
  0
SECTION
  2
TABLES
  0
TABLE
  2
VPORT
 70
     2
  0
VPORT
  2
*ACTIVE
 70
     0
 10
0.0
 20
0.0
 11
1.0
 21
1.0
 12
194.2150066938905
 22
78.133172229492061
 13
0.0
 23
0.0
 14
10.0
 24
10.0
 15
10.0
 25
10.0
 16
0.0
 26
0.0
 36
1.0
 17
0.0
 27
0.0
 37
0.0
 40
182.58021077101219
 41
2.5392405063291141
 42
50.0
 43
0.0
 44
0.0
 50
0.0
 51
0.0
 71
     0
 72
   100
 73
     1
 74
     3
 75
     0
 76
     0
 77
     0
 78
     0
  0
ENDTAB
  0
TABLE
  2
LTYPE
 70
     3
  0
LTYPE
  2
CONTINUOUS
 70
     0
  3
Solid line
 72
    65
 73
     0
 40
0.0
  0
LTYPE
  2
CENTER
 70
     0
  3
Center ____ _ ____ _ ____ _ ____ _ ____ _ ____
 72
    65
 73
     4
 40
50.799999999999997
 49
31.75
 49
-6.3499999999999988
 49
6.3499999999999988
 49
-6.3499999999999988
  0
LTYPE
  2
DASHED2
 70
     0
  3
Dashed (.5x) _ _ _ _ _ _ _ _ _ _ _ _ _ _ _ _ _
 72
    65
 73
     2
 40
9.5249999999999986
 49
6.3499999999999988
 49
-3.1749999999999989
  0
ENDTAB
  0
TABLE
  2
LAYER
 70
     5
  0
LAYER
  2
0
 70
     0
 62
     7
  6
CONTINUOUS
  0
LAYER
  2
1
 70
     0
 62
     7
  6
CENTER
  0
LAYER
  2
2
 70
     0
 62
     7
  6
CONTINUOUS
  0
LAYER
  2
3
 70
     0
 62
     7
  6
DASHED2
  0
LAYER
  2
DEFPOINTS
 70
     0
 62
     7
  6
CONTINUOUS
  0
ENDTAB
  0
TABLE
  2
STYLE
 70
     4
  0
STYLE
  2
STANDARD
 70
     0
 40
0.0
 41
1.0
 50
0.0
 71
     0
 42
2.5
  3
txt
  4

  0
STYLE
  2
\U+00C9L\U+00C9R_\U+00C2S\U+00C2V\U+00C2B\U+00C2N
 70
     0
 40
1.0
 41
1.0
 50
0.0
 71
     0
 42
1.0
  3
\U+00E9l\U+00E9r \U+00E2S\U+00E2V\U+00E2b\U+00E2N
  4

  0
STYLE
  2
SWIS721_CN_BT
 70
     0
 40
1.0
 41
1.0
 50
0.0
 71
     0
 42
1.0
  3
Swis721 Cn BT
  4

  0
STYLE
  2

 70
     1
 40
0.0
 41
1.0
 50
0.0
 71
     0
 42
2.5
  3
ltypeshp.shx
  4

  0
ENDTAB
  0
TABLE
  2
VIEW
 70
     0
  0
ENDTAB
  0
TABLE
  2
UCS
 70
     0
  0
ENDTAB
  0
TABLE
  2
APPID
 70
     1
  0
APPID
  2
ACAD
 70
     0
  0
ENDTAB
  0
TABLE
  2
DIMSTYLE
 70
     2
  0
DIMSTYLE
  2
ISO-25
 70
     0
  3

  4

  5

  6

  7

 40
1.0
 41
2.5
 42
0.625
 43
3.75
 44
1.25
 45
0.0
 46
0.0
 47
0.0
 48
0.0
140
2.5
141
2.5
142
0.0
143
0.03937007874016
144
1.0
145
0.0
146
1.0
147
0.625
 71
     0
 72
     0
 73
     0
 74
     0
 75
     0
 76
     0
 77
     1
 78
     8
170
     0
171
     3
172
     1
173
     0
174
     0
175
     0
176
     0
177
     0
178
     0
  0
DIMSTYLE
  2
STANDARD
 70
     0
  3

  4

  5

  6

  7

 40
1.0
 41
0.18
 42
0.0625
 43
0.38
 44
0.18
 45
0.0
 46
0.0
 47
0.0
 48
0.0
140
0.18
141
0.09
142
0.0
143
25.399999999999999
144
1.0
145
0.0
146
1.0
147
0.09
 71
     0
 72
     0
 73
     1
 74
     1
 75
     0
 76
     0
 77
     0
 78
     0
170
     0
171
     2
172
     0
173
     0
174
     0
175
     0
176
     0
177
     0
178
     0
  0
ENDTAB
  0
ENDSEC
  0
SECTION
  2
BLOCKS
  0
BLOCK
  8
0
  2
$MODEL_SPACE
 70
     0
 10
0.0
 20
0.0
 30
0.0
  3
$MODEL_SPACE
  1

  0
ENDBLK
  5
21
  8
0
  0
BLOCK
 67
     1
  8
0
  2
$PAPER_SPACE
 70
     0
 10
0.0
 20
0.0
 30
0.0
  3
$PAPER_SPACE
  1

  0
ENDBLK
  5
1D
 67
     1
  8
0
  0
BLOCK
  8
0
  2
*D1
 70
     1
 10
0.0
 20
0.0
 30
0.0
  3
*D1
  1

  0
LINE
  5
129A
  8
2
 62
     0
 10
112.8976737112143
 20
122.6463120581146
 30
0.0
 11
123.68097919913239
 21
122.6463120581146
 31
0.0
  0
LINE
  5
129B
  8
2
 62
     0
 10
114.3862737112143
 20
113.6463120581146
 30
0.0
 11
123.68097919913239
 21
113.6463120581146
 31
0.0
  0
LINE
  5
129C
  8
2
 62
     0
 10
122.43097919913239
 20
120.1463120581146
 30
0.0
 11
122.43097919913239
 21
116.1463120581146
 31
0.0
  0
SOLID
  5
129D
  8
2
 62
     0
 10
122.01431253246579
 20
120.1463120581146
 30
0.0
 11
122.84764586579909
 21
120.1463120581146
 31
0.0
 12
122.43097919913239
 22
122.6463120581146
 32
0.0
 13
122.43097919913239
 23
122.6463120581146
 33
0.0
  0
SOLID
  5
129E
  8
2
 62
     0
 10
122.01431253246579
 20
116.1463120581146
 30
0.0
 11
122.84764586579909
 21
116.1463120581146
 31
0.0
 12
122.43097919913239
 22
113.6463120581146
 32
0.0
 13
122.43097919913239
 23
113.6463120581146
 33
0.0
  0
TEXT
  5
129F
  8
2
 62
     0
 10
121.80597919913239
 20
117.3129787247813
 30
0.0
 40
2.5
  1
9
 50
90.0
  0
POINT
  5
12A0
  8
DEFPOINTS
 62
     0
 10
112.2726737112143
 20
122.6463120581146
 30
0.0
  0
POINT
  5
12A1
  8
DEFPOINTS
 62
     0
 10
113.7612737112142
 20
113.6463120581146
 30
0.0
  0
POINT
  5
12A2
  8
DEFPOINTS
 62
     0
 10
122.43097919913239
 20
113.6463120581146
 30
0.0
  0
ENDBLK
  5
12A4
  8
0
  0
BLOCK
  8
0
  2
*D2
 70
     1
 10
0.0
 20
0.0
 30
0.0
  3
*D2
  1

  0
LINE
  5
14B8
  8
2
 62
     0
 10
121.80597919913239
 20
113.6463120581146
 30
0.0
 11
121.18097919913239
 21
113.6463120581146
 31
0.0
  0
LINE
  5
14B9
  8
2
 62
     0
 10
115.6790737112143
 20
83.146312058114674
 30
0.0
 11
123.68097919913239
 21
83.146312058114674
 31
0.0
  0
LINE
  5
14BA
  8
2
 62
     0
 10
122.43097919913239
 20
111.1463120581146
 30
0.0
 11
122.43097919913239
 21
85.646312058114674
 31
0.0
  0
SOLID
  5
14BB
  8
2
 62
     0
 10
122.01431253246579
 20
111.1463120581146
 30
0.0
 11
122.84764586579909
 21
111.1463120581146
 31
0.0
 12
122.43097919913239
 22
113.6463120581146
 32
0.0
 13
122.43097919913239
 23
113.6463120581146
 33
0.0
  0
SOLID
  5
14BC
  8
2
 62
     0
 10
122.01431253246569
 20
85.646312058114674
 30
0.0
 11
122.84764586579909
 21
85.646312058114674
 31
0.0
 12
122.43097919913239
 22
83.146312058114674
 32
0.0
 13
122.43097919913239
 23
83.146312058114674
 33
0.0
  0
TEXT
  5
14BD
  8
2
 62
     0
 10
121.80597919913239
 20
94.854645391448017
 30
0.0
 40
2.5
  1
30.5
 50
90.0
  0
POINT
  5
14BE
  8
DEFPOINTS
 62
     0
 10
122.43097919913239
 20
113.6463120581146
 30
0.0
  0
POINT
  5
14BF
  8
DEFPOINTS
 62
     0
 10
115.0540737112142
 20
83.146312058114674
 30
0.0
  0
POINT
  5
14C0
  8
DEFPOINTS
 62
     0
 10
122.43097919913239
 20
83.146312058114674
 30
0.0
  0
ENDBLK
  5
12B1
  8
0
  0
BLOCK
  8
0
  2
*D3
 70
     1
 10
0.0
 20
0.0
 30
0.0
  3
*D3
  1

  0
LINE
  5
14E9
  8
2
 62
     0
 10
121.80597919913239
 20
68.146312058114674
 30
0.0
 11
121.18097919913239
 21
68.146312058114674
 31
0.0
  0
LINE
  5
14EA
  8
2
 62
     0
 10
111.3862737112143
 20
57.146312058114681
 30
0.0
 11
123.68097919913239
 21
57.146312058114667
 31
0.0
  0
LINE
  5
14EB
  8
2
 62
     0
 10
122.43097919913239
 20
65.646312058114674
 30
0.0
 11
122.43097919913239
 21
59.646312058114667
 31
0.0
  0
SOLID
  5
14EC
  8
2
 62
     0
 10
122.01431253246569
 20
65.646312058114674
 30
0.0
 11
122.84764586579909
 21
65.646312058114674
 31
0.0
 12
122.43097919913239
 22
68.146312058114674
 32
0.0
 13
122.43097919913239
 23
68.146312058114674
 33
0.0
  0
SOLID
  5
14ED
  8
2
 62
     0
 10
122.01431253246569
 20
59.646312058114667
 30
0.0
 11
122.84764586579909
 21
59.646312058114667
 31
0.0
 12
122.43097919913239
 22
57.146312058114667
 32
0.0
 13
122.43097919913239
 23
57.146312058114667
 33
0.0
  0
TEXT
  5
14EE
  8
2
 62
     0
 10
121.80597919913239
 20
61.396312058114688
 30
0.0
 40
2.5
  1
11
 50
90.0
  0
POINT
  5
14EF
  8
DEFPOINTS
 62
     0
 10
122.43097919913239
 20
68.146312058114674
 30
0.0
  0
POINT
  5
14F0
  8
DEFPOINTS
 62
     0
 10
110.7612737112143
 20
57.146312058114681
 30
0.0
  0
POINT
  5
14F1
  8
DEFPOINTS
 62
     0
 10
122.43097919913239
 20
57.146312058114667
 30
0.0
  0
ENDBLK
  5
12CF
  8
0
  0
BLOCK
  8
0
  2
*D4
 70
     1
 10
0.0
 20
0.0
 30
0.0
  3
*D4
  1

  0
LINE
  5
14CC
  8
2
 62
     0
 10
121.80597919913239
 20
57.146312058114681
 30
0.0
 11
121.18097919913239
 21
57.146312058114681
 31
0.0
  0
LINE
  5
14CD
  8
2
 62
     0
 10
111.8862737112143
 20
55.646312058114667
 30
0.0
 11
123.68097919913239
 21
55.64631205811466
 31
0.0
  0
LINE
  5
14CE
  8
2
 62
     0
 10
122.43097919913239
 20
59.646312058114681
 30
0.0
 11
122.43097919913239
 21
62.146312058114681
 31
0.0
  0
LINE
  5
14CF
  8
2
 62
     0
 10
122.43097919913239
 20
53.14631205811466
 30
0.0
 11
122.43097919913239
 21
45.229645391448003
 31
0.0
  0
LINE
  5
14D0
  8
2
 62
     0
 10
122.43097919913239
 20
57.146312058114681
 30
0.0
 11
122.43097919913239
 21
55.64631205811466
 31
0.0
  0
SOLID
  5
14D1
  8
2
 62
     0
 10
122.01431253246569
 20
59.646312058114681
 30
0.0
 11
122.84764586579909
 21
59.646312058114681
 31
0.0
 12
122.43097919913239
 22
57.146312058114681
 32
0.0
 13
122.43097919913239
 23
57.146312058114681
 33
0.0
  0
SOLID
  5
14D2
  8
2
 62
     0
 10
122.01431253246569
 20
53.14631205811466
 30
0.0
 11
122.84764586579909
 21
53.14631205811466
 31
0.0
 12
122.43097919913239
 22
55.64631205811466
 32
0.0
 13
122.43097919913239
 23
55.64631205811466
 33
0.0
  0
TEXT
  5
14D3
  8
2
 62
     0
 10
121.80597919913239
 20
45.85464539144801
 30
0.0
 40
2.5
  1
1.5
 50
90.0
  0
POINT
  5
14D4
  8
DEFPOINTS
 62
     0
 10
122.43097919913239
 20
57.146312058114681
 30
0.0
  0
POINT
  5
14D5
  8
DEFPOINTS
 62
     0
 10
111.2612737112143
 20
55.646312058114667
 30
0.0
  0
POINT
  5
14D6
  8
DEFPOINTS
 62
     0
 10
122.43097919913239
 20
55.64631205811466
 30
0.0
  0
ENDBLK
  5
12E0
  8
0
  0
BLOCK
  8
0
  2
*D5
 70
     1
 10
0.0
 20
0.0
 30
0.0
  3
*D5
  1

  0
LINE
  5
14C1
  8
2
 62
     0
 10
123.05597919913239
 20
57.146312058114681
 30
0.0
 11
128.36781914969069
 21
57.146312058114681
 31
0.0
  0
LINE
  5
14C2
  8
2
 62
     0
 10
111.8862737112143
 20
54.54631205811468
 30
0.0
 11
128.36781914969069
 21
54.546312058114673
 31
0.0
  0
LINE
  5
14C3
  8
2
 62
     0
 10
127.1178191496907
 20
59.646312058114681
 30
0.0
 11
127.1178191496907
 21
62.146312058114681
 31
0.0
  0
LINE
  5
14C4
  8
2
 62
     0
 10
127.1178191496907
 20
52.046312058114673
 30
0.0
 11
127.1178191496907
 21
43.296312058114673
 31
0.0
  0
LINE
  5
14C5
  8
2
 62
     0
 10
127.1178191496907
 20
57.146312058114681
 30
0.0
 11
127.1178191496907
 21
54.546312058114673
 31
0.0
  0
SOLID
  5
14C6
  8
2
 62
     0
 10
126.701152483024
 20
59.646312058114681
 30
0.0
 11
127.5344858163574
 21
59.646312058114681
 31
0.0
 12
127.1178191496907
 22
57.146312058114681
 32
0.0
 13
127.1178191496907
 23
57.146312058114681
 33
0.0
  0
SOLID
  5
14C7
  8
2
 62
     0
 10
126.701152483024
 20
52.046312058114673
 30
0.0
 11
127.5344858163574
 21
52.046312058114673
 31
0.0
 12
127.1178191496907
 22
54.546312058114673
 32
0.0
 13
127.1178191496907
 23
54.546312058114673
 33
0.0
  0
TEXT
  5
14C8
  8
2
 62
     0
 10
126.4928191496907
 20
43.921312058114687
 30
0.0
 40
2.5
  1
2.6
 50
90.0
  0
POINT
  5
14C9
  8
DEFPOINTS
 62
     0
 10
122.43097919913239
 20
57.146312058114681
 30
0.0
  0
POINT
  5
14CA
  8
DEFPOINTS
 62
     0
 10
111.2612737112143
 20
54.54631205811468
 30
0.0
  0
POINT
  5
14CB
  8
DEFPOINTS
 62
     0
 10
127.1178191496907
 20
54.546312058114673
 30
0.0
  0
ENDBLK
  5
12F0
  8
0
  0
BLOCK
  8
0
  2
*D6
 70
     1
 10
0.0
 20
0.0
 30
0.0
  3
*D6
  1

  0
LINE
  5
14AF
  8
2
 62
     0
 10
126.4928191496907
 20
57.146312058114681
 30
0.0
 11
125.8678191496907
 21
57.146312058114681
 31
0.0
  0
LINE
  5
14B0
  8
2
 62
     0
 10
123.05597919913239
 20
122.6463120581146
 30
0.0
 11
128.36781914969069
 21
122.6463120581146
 31
0.0
  0
LINE
  5
14B1
  8
2
 62
     0
 10
127.1178191496907
 20
59.646312058114681
 30
0.0
 11
127.1178191496907
 21
120.1463120581146
 31
0.0
  0
SOLID
  5
14B2
  8
2
 62
     0
 10
126.701152483024
 20
59.646312058114681
 30
0.0
 11
127.5344858163574
 21
59.646312058114681
 31
0.0
 12
127.1178191496907
 22
57.146312058114681
 32
0.0
 13
127.1178191496907
 23
57.146312058114681
 33
0.0
  0
SOLID
  5
14B3
  8
2
 62
     0
 10
126.701152483024
 20
120.1463120581146
 30
0.0
 11
127.5344858163574
 21
120.1463120581146
 31
0.0
 12
127.1178191496907
 22
122.6463120581146
 32
0.0
 13
127.1178191496907
 23
122.6463120581146
 33
0.0
  0
TEXT
  5
14B4
  8
2
 62
     0
 10
126.4928191496907
 20
84.479645391448017
 30
0.0
 40
2.5
  1
(65.5)
 50
90.0
  0
POINT
  5
14B5
  8
DEFPOINTS
 62
     0
 10
127.1178191496907
 20
57.146312058114681
 30
0.0
  0
POINT
  5
14B6
  8
DEFPOINTS
 62
     0
 10
122.43097919913239
 20
122.6463120581146
 30
0.0
  0
POINT
  5
14B7
  8
DEFPOINTS
 62
     0
 10
127.1178191496907
 20
122.6463120581146
 30
0.0
  0
ENDBLK
  5
12FE
  8
0
  0
BLOCK
  8
0
  2
*D7
 70
     1
 10
0.0
 20
0.0
 30
0.0
  3
*D7
  1

  0
LINE
  5
14A6
  8
2
 62
     0
 10
127.7428191496907
 20
122.6463120581146
 30
0.0
 11
133.68433565374909
 21
122.6463120581146
 31
0.0
  0
LINE
  5
14A7
  8
2
 62
     0
 10
127.7428191496907
 20
54.54631205811468
 30
0.0
 11
133.68433565374909
 21
54.54631205811468
 31
0.0
  0
LINE
  5
14A8
  8
2
 62
     0
 10
132.43433565374909
 20
120.1463120581146
 30
0.0
 11
132.43433565374909
 21
57.04631205811468
 31
0.0
  0
SOLID
  5
14A9
  8
2
 62
     0
 10
132.01766898708249
 20
120.1463120581146
 30
0.0
 11
132.8510023204158
 21
120.1463120581146
 31
0.0
 12
132.43433565374909
 22
122.6463120581146
 32
0.0
 13
132.43433565374909
 23
122.6463120581146
 33
0.0
  0
SOLID
  5
14AA
  8
2
 62
     0
 10
132.0176689870824
 20
57.04631205811468
 30
0.0
 11
132.8510023204158
 21
57.04631205811468
 31
0.0
 12
132.43433565374909
 22
54.54631205811468
 32
0.0
 13
132.43433565374909
 23
54.54631205811468
 33
0.0
  0
TEXT
  5
14AB
  8
2
 62
     0
 10
131.80933565374909
 20
83.596312058114691
 30
0.0
 40
2.5
  1
(68.1)
 50
90.0
  0
POINT
  5
14AC
  8
DEFPOINTS
 62
     0
 10
127.1178191496907
 20
122.6463120581146
 30
0.0
  0
POINT
  5
14AD
  8
DEFPOINTS
 62
     0
 10
127.1178191496907
 20
54.54631205811468
 30
0.0
  0
POINT
  5
14AE
  8
DEFPOINTS
 62
     0
 10
132.43433565374909
 20
54.54631205811468
 30
0.0
  0
ENDBLK
  5
1315
  8
0
  0
BLOCK
  8
0
  2
*D8
 70
     1
 10
0.0
 20
0.0
 30
0.0
  3
*D8
  1

  0
LINE
  5
14D7
  8
2
 62
     0
 10
121.80597919913239
 20
83.146312058114674
 30
0.0
 11
121.18097919913239
 21
83.146312058114674
 31
0.0
  0
LINE
  5
14D8
  8
2
 62
     0
 10
114.1333737112143
 20
68.146312058114674
 30
0.0
 11
123.68097919913239
 21
68.146312058114674
 31
0.0
  0
LINE
  5
14D9
  8
2
 62
     0
 10
122.43097919913239
 20
80.646312058114674
 30
0.0
 11
122.43097919913239
 21
70.646312058114674
 31
0.0
  0
SOLID
  5
14DA
  8
2
 62
     0
 10
122.01431253246569
 20
80.646312058114674
 30
0.0
 11
122.84764586579909
 21
80.646312058114674
 31
0.0
 12
122.43097919913239
 22
83.146312058114674
 32
0.0
 13
122.43097919913239
 23
83.146312058114674
 33
0.0
  0
SOLID
  5
14DB
  8
2
 62
     0
 10
122.01431253246569
 20
70.646312058114674
 30
0.0
 11
122.84764586579909
 21
70.646312058114674
 31
0.0
 12
122.43097919913239
 22
68.146312058114674
 32
0.0
 13
122.43097919913239
 23
68.146312058114674
 33
0.0
  0
TEXT
  5
14DC
  8
2
 62
     0
 10
121.80597919913239
 20
73.979645391448017
 30
0.0
 40
2.5
  1
15
 50
90.0
  0
POINT
  5
14DD
  8
DEFPOINTS
 62
     0
 10
122.43097919913239
 20
83.146312058114674
 30
0.0
  0
POINT
  5
14DE
  8
DEFPOINTS
 62
     0
 10
113.5083737112142
 20
68.146312058114674
 30
0.0
  0
POINT
  5
14DF
  8
DEFPOINTS
 62
     0
 10
122.43097919913239
 20
68.146312058114674
 30
0.0
  0
ENDBLK
  5
144A
  8
0
  0
BLOCK
  8
0
  2
*D9
 70
     1
 10
0.0
 20
0.0
 30
0.0
  3
*D9
  1

  0
LINE
  5
14FC
  8
2
 62
     0
 10
103.8434737112142
 20
83.146312058114674
 30
0.0
 11
95.923990419142797
 21
83.146312058114688
 31
0.0
  0
LINE
  5
14FD
  8
2
 62
     0
 10
100.69142559215111
 20
68.146312058114674
 30
0.0
 11
95.923990419142797
 21
68.146312058114688
 31
0.0
  0
LINE
  5
14FE
  8
2
 62
     0
 10
97.173990419142797
 20
80.646312058114674
 30
0.0
 11
97.173990419142797
 21
70.646312058114674
 31
0.0
  0
SOLID
  5
14FF
  8
2
 62
     0
 10
96.757323752476125
 20
80.646312058114674
 30
0.0
 11
97.590657085809482
 21
80.646312058114674
 31
0.0
 12
97.173990419142797
 22
83.146312058114674
 32
0.0
 13
97.173990419142797
 23
83.146312058114674
 33
0.0
  0
SOLID
  5
1500
  8
2
 62
     0
 10
96.757323752476125
 20
70.646312058114674
 30
0.0
 11
97.590657085809482
 21
70.646312058114674
 31
0.0
 12
97.173990419142797
 22
68.146312058114674
 32
0.0
 13
97.173990419142797
 23
68.146312058114674
 33
0.0
  0
TEXT
  5
1501
  8
2
 62
     0
 10
96.548990419142783
 20
73.979645391448031
 30
0.0
 40
2.5
  1
15
 50
90.0
  0
POINT
  5
1502
  8
DEFPOINTS
 62
     0
 10
104.4684737112143
 20
83.146312058114674
 30
0.0
  0
POINT
  5
1503
  8
DEFPOINTS
 62
     0
 10
101.31642559215111
 20
68.146312058114674
 30
0.0
  0
POINT
  5
1504
  8
DEFPOINTS
 62
     0
 10
97.173990419142797
 20
68.146312058114674
 30
0.0
  0
ENDBLK
  5
1506
  8
0
  0
BLOCK
  8
0
  2
*D10
 70
     1
 10
0.0
 20
0.0
 30
0.0
  3
*D10
  1

  0
LINE
  5
16C3
  8
2
 62
     0
 10
67.464173711214301
 20
52.202582300744631
 30
0.0
 11
67.464173711214301
 21
46.38035437141027
 31
0.0
  0
LINE
  5
16C4
  8
2
 62
     0
 10
79.464173711214301
 20
59.259536749472701
 30
0.0
 11
79.464173711214301
 21
46.38035437141027
 31
0.0
  0
LINE
  5
16C5
  8
2
 62
     0
 10
69.964173711214301
 20
47.63035437141027
 30
0.0
 11
76.964173711214301
 21
47.63035437141027
 31
0.0
  0
SOLID
  5
16C6
  8
2
 62
     0
 10
69.964173711214301
 20
48.047021038076942
 30
0.0
 11
69.964173711214301
 21
47.213687704743613
 31
0.0
 12
67.464173711214301
 22
47.63035437141027
 32
0.0
 13
67.464173711214301
 23
47.63035437141027
 33
0.0
  0
SOLID
  5
16C7
  8
2
 62
     0
 10
76.964173711214301
 20
48.047021038076942
 30
0.0
 11
76.964173711214301
 21
47.213687704743613
 31
0.0
 12
79.464173711214301
 22
47.63035437141027
 32
0.0
 13
79.464173711214301
 23
47.63035437141027
 33
0.0
  0
TEXT
  5
16C8
  8
2
 62
     0
 10
71.797507044547629
 20
48.25535437141027
 30
0.0
 40
2.5
  1
12
  0
POINT
  5
16C9
  8
DEFPOINTS
 62
     0
 10
67.464173711214301
 20
52.827582300744631
 30
0.0
  0
POINT
  5
16CA
  8
DEFPOINTS
 62
     0
 10
79.464173711214301
 20
59.884536749472701
 30
0.0
  0
POINT
  5
16CB
  8
DEFPOINTS
 62
     0
 10
79.464173711214301
 20
47.63035437141027
 30
0.0
  0
ENDBLK
  5
16A8
  8
0
  0
BLOCK
  8
0
  2
*D11
 70
     1
 10
0.0
 20
0.0
 30
0.0
  3
*D11
  1

  0
LINE
  5
16CC
  8
2
 62
     0
 10
67.464173711214301
 20
59.554612058114657
 30
0.0
 11
67.464173711214301
 21
51.577582300744631
 31
0.0
  0
LINE
  5
16CD
  8
2
 62
     0
 10
75.964173711214301
 20
57.478612058114663
 30
0.0
 11
75.964173711214301
 21
51.577582300744631
 31
0.0
  0
LINE
  5
16CE
  8
2
 62
     0
 10
69.964173711214301
 20
52.827582300744631
 30
0.0
 11
73.464173711214301
 21
52.827582300744631
 31
0.0
  0
SOLID
  5
16CF
  8
2
 62
     0
 10
69.964173711214301
 20
53.244248967411302
 30
0.0
 11
69.964173711214301
 21
52.410915634077973
 31
0.0
 12
67.464173711214301
 22
52.827582300744631
 32
0.0
 13
67.464173711214301
 23
52.827582300744631
 33
0.0
  0
SOLID
  5
16D0
  8
2
 62
     0
 10
73.464173711214301
 20
53.244248967411302
 30
0.0
 11
73.464173711214301
 21
52.410915634077973
 31
0.0
 12
75.964173711214301
 22
52.827582300744631
 32
0.0
 13
75.964173711214301
 23
52.827582300744631
 33
0.0
  0
TEXT
  5
16D1
  8
2
 62
     0
 10
69.214173711214301
 20
53.452582300744631
 30
0.0
 40
2.5
  1
8.5
  0
POINT
  5
16D2
  8
DEFPOINTS
 62
     0
 10
67.464173711214301
 20
60.179612058114657
 30
0.0
  0
POINT
  5
16D3
  8
DEFPOINTS
 62
     0
 10
75.964173711214301
 20
58.103612058114663
 30
0.0
  0
POINT
  5
16D4
  8
DEFPOINTS
 62
     0
 10
75.964173711214301
 20
52.827582300744631
 30
0.0
  0
ENDBLK
  5
16B4
  8
0
  0
BLOCK
  8
0
  2
*D12
 70
     1
 10
0.0
 20
0.0
 30
0.0
  3
*D12
  1

  0
LINE
  5
16D5
  8
2
 62
     0
 10
68.875407463864491
 20
62.712312058114662
 30
0.0
 11
59.91359659427313
 21
62.712312058114662
 31
0.0
  0
LINE
  5
16D6
  8
2
 62
     0
 10
68.875407463864491
 20
59.212312058114662
 30
0.0
 11
59.91359659427313
 21
59.212312058114662
 31
0.0
  0
LINE
  5
16D7
  8
2
 62
     0
 10
61.16359659427313
 20
65.212312058114662
 30
0.0
 11
61.16359659427313
 21
67.712312058114662
 31
0.0
  0
LINE
  5
16D8
  8
2
 62
     0
 10
61.16359659427313
 20
56.712312058114662
 30
0.0
 11
61.16359659427313
 21
45.462312058114662
 31
0.0
  0
LINE
  5
16D9
  8
2
 62
     0
 10
61.16359659427313
 20
62.712312058114662
 30
0.0
 11
61.16359659427313
 21
59.212312058114662
 31
0.0
  0
SOLID
  5
16DA
  8
2
 62
     0
 10
60.746929927606473
 20
65.212312058114662
 30
0.0
 11
61.580263260939802
 21
65.212312058114662
 31
0.0
 12
61.16359659427313
 22
62.712312058114662
 32
0.0
 13
61.16359659427313
 23
62.712312058114662
 33
0.0
  0
SOLID
  5
16DB
  8
2
 62
     0
 10
60.746929927606473
 20
56.712312058114662
 30
0.0
 11
61.580263260939802
 21
56.712312058114662
 31
0.0
 12
61.16359659427313
 22
59.212312058114662
 32
0.0
 13
61.16359659427313
 23
59.212312058114662
 33
0.0
  0
INSERT
  5
16DC
  8
2
  2
*U13
 10
0.0
 20
0.0
 30
0.0
  0
POINT
  5
16DD
  8
DEFPOINTS
 62
     0
 10
69.500407463864491
 20
62.712312058114662
 30
0.0
  0
POINT
  5
16DE
  8
DEFPOINTS
 62
     0
 10
69.500407463864491
 20
59.212312058114662
 30
0.0
  0
POINT
  5
16DF
  8
DEFPOINTS
 62
     0
 10
61.16359659427313
 20
59.212312058114662
 30
0.0
  0
ENDBLK
  5
16C2
  8
0
  0
BLOCK
  8
0
  2
*U13
 70
     1
 10
0.0
 20
0.0
 30
0.0
  3
*U13
  1

  0
TEXT
  5
17B2
  8
2
 62
     0
 10
60.538596594273123
 20
46.087312058114669
 30
0.0
 40
2.5
  1
\U+2205
 50
90.0
  0
TEXT
  5
17B3
  8
2
 62
     0
 10
60.538596594273123
 20
48.587312058114669
 30
0.0
 40
2.5
  1
3.5
 50
90.0
  0
ENDBLK
  5
17B5
  8
0
  0
ENDSEC
  0
SECTION
  2
ENTITIES
  0
POLYLINE
  5
986
  8
2
 66
     1
 10
0.0
 20
0.0
 30
0.0
 39
5.0
  0
VERTEX
  5
1793
  8
2
 10
107.79277371121429
 20
67.295512058114667
 30
0.0
  0
VERTEX
  5
1794
  8
2
 10
107.79277371121429
 20
63.276497576217032
 30
0.0
  0
SEQEND
  5
1795
  8
2
  0
POLYLINE
  5
A4A
  8
0
 66
     1
 10
0.0
 20
0.0
 30
0.0
 39
5.0
  0
VERTEX
  5
1796
  8
0
 10
106.92877371121421
 20
140.79561205811461
 30
0.0
  0
VERTEX
  5
1797
  8
0
 10
109.7612737112143
 20
140.79561205811461
 30
0.0
  0
SEQEND
  5
1798
  8
0
  0
POLYLINE
  5
A62
  8
0
 66
     1
 10
0.0
 20
0.0
 30
0.0
 39
5.0
  0
VERTEX
  5
1799
  8
0
 10
103.3995737112143
 20
97.035712058114669
 30
0.0
  0
VERTEX
  5
179A
  8
0
 10
106.0553737112143
 20
97.035712058114669
 30
0.0
  0
SEQEND
  5
179B
  8
0
  0
POLYLINE
  5
A63
  8
0
 66
     1
 10
0.0
 20
0.0
 30
0.0
 39
5.0
  0
VERTEX
  5
179C
  8
0
 10
103.3995737112143
 20
93.989912058114669
 30
0.0
  0
VERTEX
  5
179D
  8
0
 10
106.0553737112143
 20
93.989912058114669
 30
0.0
  0
SEQEND
  5
179E
  8
0
  0
TEXT
  5
DE9
  8
2
 10
102.4296559306531
 20
30.265187049046851
 30
0.0
 40
2.5399440000000002
  1
 50.328
 51
-0.0000015352344868
  7
\U+00C9L\U+00C9R_\U+00C2S\U+00C2V\U+00C2B\U+00C2N
  0
LINE
  5
E1E
  8
0
 39
5.0
 10
109.7612737112143
 20
134.81451205811459
 30
0.0
 11
108.73147371121421
 21
134.81451205811459
 31
0.0
  0
LINE
  5
E1F
  8
0
 39
5.0
 10
108.73147371121421
 20
134.81451205811459
 30
0.0
 11
108.2612737112143
 21
135.1861407861347
 31
0.0
  0
LINE
  5
E25
  8
0
 39
5.0
 10
106.9821737112143
 20
132.5108120581146
 30
0.0
 11
109.7612737112143
 21
132.5108120581146
 31
0.0
  0
LINE
  5
E27
  8
0
 39
5.0
 10
109.7612737112143
 20
133.0108120581146
 30
0.0
 11
106.9821737112143
 21
133.0108120581146
 31
0.0
  0
LINE
  5
E28
  8
0
 39
5.0
 10
106.9821737112143
 20
133.0108120581146
 30
0.0
 11
106.9821737112143
 21
132.5108120581146
 31
0.0
  0
LINE
  5
E29
  8
0
 39
5.0
 10
106.9821737112143
 20
132.5108120581146
 30
0.0
 11
106.9821737112143
 21
132.5108120581146
 31
0.0
  0
LINE
  5
E2D
  8
0
 39
5.0
 10
107.24987371121431
 20
122.6463120581146
 30
0.0
 11
109.7612737112143
 21
122.6463120581146
 31
0.0
  0
LINE
  5
E30
  8
0
 39
5.0
 10
106.3112737112142
 20
113.6463120581146
 30
0.0
 11
106.3112737112142
 21
121.72821205811459
 31
0.0
  0
LINE
  5
E31
  8
0
 39
5.0
 10
106.3112737112142
 20
121.72821205811459
 30
0.0
 11
106.3112737112142
 21
121.72821205811459
 31
0.0
  0
LINE
  5
E32
  8
0
 39
5.0
 10
106.3112737112142
 20
121.72821205811459
 30
0.0
 11
106.3086737112143
 21
121.8184120581146
 31
0.0
  0
LINE
  5
E33
  8
0
 39
5.0
 10
106.3086737112143
 20
121.8184120581146
 30
0.0
 11
106.3198737112142
 21
121.9064120581146
 31
0.0
  0
LINE
  5
E34
  8
0
 39
5.0
 10
106.3198737112142
 20
121.9064120581146
 30
0.0
 11
106.34367371121419
 21
121.99141205811461
 31
0.0
  0
LINE
  5
E35
  8
0
 39
5.0
 10
106.34367371121419
 20
121.99141205811461
 30
0.0
 11
106.3785737112142
 21
122.0734120581146
 31
0.0
  0
LINE
  5
E36
  8
0
 39
5.0
 10
106.3785737112142
 20
122.0734120581146
 30
0.0
 11
106.4239737112142
 21
122.1515120581146
 31
0.0
  0
LINE
  5
E37
  8
0
 39
5.0
 10
106.4239737112142
 20
122.1515120581146
 30
0.0
 11
106.47807371121419
 21
122.22561205811461
 31
0.0
  0
LINE
  5
E38
  8
0
 39
5.0
 10
106.47807371121419
 20
122.22561205811461
 30
0.0
 11
106.54017371121419
 21
122.2951120581146
 31
0.0
  0
LINE
  5
E39
  8
0
 39
5.0
 10
106.54017371121419
 20
122.2951120581146
 30
0.0
 11
106.60867371121419
 21
122.3598120581146
 31
0.0
  0
LINE
  5
E3A
  8
0
 39
5.0
 10
106.60867371121419
 20
122.3598120581146
 30
0.0
 11
106.6827737112143
 21
122.4189120581146
 31
0.0
  0
LINE
  5
E3B
  8
0
 39
5.0
 10
106.6827737112143
 20
122.4189120581146
 30
0.0
 11
106.7608737112142
 21
122.4723120581146
 31
0.0
  0
LINE
  5
E3C
  8
0
 39
5.0
 10
106.7608737112142
 20
122.4723120581146
 30
0.0
 11
106.84197371121419
 21
122.51931205811459
 31
0.0
  0
LINE
  5
E3D
  8
0
 39
5.0
 10
106.84197371121419
 20
122.51931205811459
 30
0.0
 11
106.9248737112142
 21
122.55991205811461
 31
0.0
  0
LINE
  5
E3E
  8
0
 39
5.0
 10
106.9248737112142
 20
122.55991205811461
 30
0.0
 11
107.0083737112142
 21
122.5931120581146
 31
0.0
  0
LINE
  5
E3F
  8
0
 39
5.0
 10
107.0083737112142
 20
122.5931120581146
 30
0.0
 11
107.09107371121419
 21
122.61901205811461
 31
0.0
  0
LINE
  5
E40
  8
0
 39
5.0
 10
107.09107371121419
 20
122.61901205811461
 30
0.0
 11
107.1720737112142
 21
122.6368120581146
 31
0.0
  0
LINE
  5
E41
  8
0
 39
5.0
 10
107.1720737112142
 20
122.6368120581146
 30
0.0
 11
107.24987371121431
 21
122.6463120581146
 31
0.0
  0
LINE
  5
E49
  8
0
 39
5.0
 10
109.7612737112143
 20
120.1431120581146
 30
0.0
 11
108.2612737112143
 21
120.1431120581146
 31
0.0
  0
LINE
  5
E5D
  8
0
 39
5.0
 10
107.92667371121431
 20
87.169212058114681
 30
0.0
 11
107.92667371121431
 21
110.72611205811459
 31
0.0
  0
LINE
  5
E60
  8
0
 39
5.0
 10
109.7612737112143
 20
63.246012058114658
 30
0.0
 11
107.8208737112143
 21
63.246012058114658
 31
0.0
  0
LINE
  5
E61
  8
0
 39
5.0
 10
107.8208737112143
 20
63.246012058114658
 30
0.0
 11
107.4203737112143
 21
63.680512058114672
 31
0.0
  0
LINE
  5
E62
  8
0
 39
5.0
 10
107.4203737112143
 20
63.680512058114672
 30
0.0
 11
107.4197737112143
 21
67.295512058114667
 31
0.0
  0
LINE
  5
E66
  8
0
 39
5.0
 10
107.4203737112143
 20
68.146312058114674
 30
0.0
 11
107.4203737112143
 21
87.169212058114681
 31
0.0
  0
LINE
  5
E72
  8
0
 39
5.0
 10
108.9775737112143
 20
118.96791205811461
 30
0.0
 11
108.9775737112143
 21
63.246112058114662
 31
0.0
  0
LINE
  5
E7D
  8
0
 10
107.92667371121431
 20
113.6463120581146
 30
0.0
 11
107.92667371121431
 21
110.72611205811459
 31
0.0
  0
LINE
  5
E8A
  8
0
 10
105.1752737112143
 20
89.146312058114674
 30
0.0
 11
105.1752737112143
 21
88.146312058114674
 31
0.0
  0
LINE
  5
E8E
  8
0
 39
5.0
 10
104.4684737112143
 20
83.146312058114674
 30
0.0
 11
104.4684737112143
 21
88.146312058114674
 31
0.0
  0
LINE
  5
E8F
  8
0
 39
5.0
 10
104.4684737112143
 20
88.146312058114674
 30
0.0
 11
105.1752737112143
 21
88.146312058114674
 31
0.0
  0
LINE
  5
E9F
  8
1
 10
109.7612737112143
 20
141.3997531212907
 30
0.0
 11
109.7612737112143
 21
53.29497169776667
 31
0.0
  0
LINE
  5
EA1
  8
0
 39
5.0
 10
107.4203737112143
 20
83.146312058114674
 30
0.0
 11
104.4684737112143
 21
83.146312058114674
 31
0.0
  0
LINE
  5
EA5
  8
0
 39
5.0
 10
106.8364737112143
 20
110.72611205811459
 30
0.0
 11
106.8364737112143
 21
87.169212058114681
 31
0.0
  0
LINE
  5
EA6
  8
0
 39
5.0
 10
106.4470737112143
 20
87.169212058114681
 30
0.0
 11
107.92667371121431
 21
87.169212058114681
 31
0.0
  0
LINE
  5
EAA
  8
0
 10
107.4197737112143
 20
67.295512058114667
 30
0.0
 11
107.9598130370569
 21
67.295512058114667
 31
0.0
  0
LINE
  5
EAC
  8
0
 10
107.9598130370569
 20
68.146312058114674
 30
0.0
 11
107.9598130370569
 21
67.295512058114667
 31
0.0
  0
LINE
  5
EAF
  8
0
 39
5.0
 10
106.0141737112143
 20
68.146312058114674
 30
0.0
 11
107.9598130370569
 21
68.146312058114674
 31
0.0
  0
LINE
  5
ECD
  8
0
 39
5.0
 10
105.96711869503299
 20
57.146312058114681
 30
0.0
 11
105.6648737112143
 21
57.292012058114672
 31
0.0
  0
LINE
  5
ECE
  8
0
 39
5.0
 10
105.6648737112143
 20
57.292012058114672
 30
0.0
 11
105.6042737112143
 21
57.32901205811465
 31
0.0
  0
LINE
  5
ECF
  8
0
 39
5.0
 10
105.6042737112143
 20
57.32901205811465
 30
0.0
 11
105.5476737112143
 21
57.371412058114672
 31
0.0
  0
LINE
  5
ED0
  8
0
 39
5.0
 10
105.5476737112143
 20
57.371412058114672
 30
0.0
 11
105.4952737112143
 21
57.41901205811466
 31
0.0
  0
LINE
  5
ED1
  8
0
 39
5.0
 10
105.4952737112143
 20
57.41901205811466
 30
0.0
 11
105.4478737112142
 21
57.471112058114649
 31
0.0
  0
LINE
  5
ED2
  8
0
 39
5.0
 10
105.4478737112142
 20
57.471112058114649
 30
0.0
 11
105.4053737112143
 21
57.527812058114662
 31
0.0
  0
LINE
  5
ED3
  8
0
 39
5.0
 10
105.4053737112143
 20
57.527812058114662
 30
0.0
 11
105.36847371121431
 21
57.588312058114667
 31
0.0
  0
LINE
  5
ED4
  8
0
 39
5.0
 10
105.36847371121431
 20
57.588312058114667
 30
0.0
 11
105.33727371121429
 21
57.652712058114652
 31
0.0
  0
LINE
  5
ED5
  8
0
 39
5.0
 10
105.33727371121429
 20
57.652712058114652
 30
0.0
 11
105.3124737112143
 21
57.720012058114662
 31
0.0
  0
LINE
  5
ED6
  8
0
 39
5.0
 10
105.3124737112143
 20
57.720012058114662
 30
0.0
 11
105.2942737112143
 21
57.790412058114647
 31
0.0
  0
LINE
  5
ED7
  8
0
 39
5.0
 10
105.2942737112143
 20
57.790412058114647
 30
0.0
 11
105.2830737112143
 21
57.863212058114648
 31
0.0
  0
LINE
  5
ED8
  8
0
 39
5.0
 10
105.2830737112143
 20
57.863212058114648
 30
0.0
 11
105.2791737112142
 21
57.938212058114672
 31
0.0
  0
LINE
  5
ED9
  8
0
 39
5.0
 10
105.2791737112142
 20
57.938212058114672
 30
0.0
 11
105.2791737112142
 21
67.41131205811466
 31
0.0
  0
LINE
  5
EDA
  8
0
 39
5.0
 10
105.2791737112142
 20
67.41131205811466
 30
0.0
 11
105.2791737112142
 21
67.41131205811466
 31
0.0
  0
LINE
  5
EDB
  8
0
 39
5.0
 10
105.2791737112142
 20
67.41131205811466
 30
0.0
 11
105.2830737112143
 21
67.486012058114667
 31
0.0
  0
LINE
  5
EDC
  8
0
 39
5.0
 10
105.2830737112143
 20
67.486012058114667
 30
0.0
 11
105.2942737112143
 21
67.558812058114668
 31
0.0
  0
LINE
  5
EDD
  8
0
 39
5.0
 10
105.2942737112143
 20
67.558812058114668
 30
0.0
 11
105.3124737112143
 21
67.629012058114654
 31
0.0
  0
LINE
  5
EDE
  8
0
 39
5.0
 10
105.3124737112143
 20
67.629012058114654
 30
0.0
 11
105.33727371121429
 21
67.696512058114664
 31
0.0
  0
LINE
  5
EDF
  8
0
 39
5.0
 10
105.33727371121429
 20
67.696512058114664
 30
0.0
 11
105.36847371121431
 21
67.760612058114646
 31
0.0
  0
LINE
  5
EE0
  8
0
 39
5.0
 10
105.36847371121431
 20
67.760612058114646
 30
0.0
 11
105.40527371121431
 21
67.821312058114657
 31
0.0
  0
LINE
  5
EE1
  8
0
 39
5.0
 10
105.40527371121431
 20
67.821312058114657
 30
0.0
 11
105.4477737112143
 21
67.877912058114646
 31
0.0
  0
LINE
  5
EE2
  8
0
 39
5.0
 10
105.4477737112143
 20
67.877912058114646
 30
0.0
 11
105.49517371121431
 21
67.930312058114666
 31
0.0
  0
LINE
  5
EE3
  8
0
 39
5.0
 10
105.49517371121431
 20
67.930312058114666
 30
0.0
 11
105.5475737112143
 21
67.977712058114662
 31
0.0
  0
LINE
  5
EE4
  8
0
 39
5.0
 10
105.5475737112143
 20
67.977712058114662
 30
0.0
 11
105.6041737112143
 21
68.020212058114666
 31
0.0
  0
LINE
  5
EE5
  8
0
 39
5.0
 10
105.6041737112143
 20
68.020212058114666
 30
0.0
 11
105.6648737112143
 21
68.057012058114665
 31
0.0
  0
LINE
  5
EE6
  8
0
 39
5.0
 10
105.6648737112143
 20
68.057012058114665
 30
0.0
 11
105.72897371121429
 21
68.088212058114664
 31
0.0
  0
LINE
  5
EE7
  8
0
 39
5.0
 10
105.72897371121429
 20
68.088212058114664
 30
0.0
 11
105.7964737112143
 21
68.113012058114663
 31
0.0
  0
LINE
  5
EE8
  8
0
 39
5.0
 10
105.7964737112143
 20
68.113012058114663
 30
0.0
 11
105.8666737112142
 21
68.131212058114656
 31
0.0
  0
LINE
  5
EE9
  8
0
 39
5.0
 10
105.8666737112142
 20
68.131212058114656
 30
0.0
 11
105.9394737112143
 21
68.142412058114658
 31
0.0
  0
LINE
  5
EEA
  8
0
 39
5.0
 10
105.9394737112143
 20
68.142412058114658
 30
0.0
 11
106.0141737112143
 21
68.146312058114674
 31
0.0
  0
LINE
  5
EED
  8
2
 10
107.4203737112143
 20
68.146312058114674
 30
0.0
 11
107.4203737112143
 21
67.295512058114667
 31
0.0
  0
LINE
  5
EF0
  8
0
 10
107.79277371121429
 20
68.146312058114674
 30
0.0
 11
107.79277371121429
 21
67.295512058114667
 31
0.0
  0
LINE
  5
F0C
  8
0
 39
5.0
 10
107.7927737112142
 20
59.682512058114661
 30
0.0
 11
105.2791737112142
 21
59.682512058114661
 31
0.0
  0
LINE
  5
F0E
  8
2
 10
107.7927737112142
 20
59.682512058114661
 30
0.0
 11
108.2767096620824
 21
60.303958855858788
 31
0.0
  0
LINE
  5
F12
  8
0
 10
107.7927737112142
 20
63.276497576217061
 30
0.0
 11
107.7927737112142
 21
59.349241224781331
 31
0.0
  0
LINE
  5
F19
  8
0
 10
107.7927737112142
 20
59.349241224781331
 30
0.0
 11
109.7612737112143
 21
59.349241224781331
 31
0.0
  0
LINE
  5
FA7
  8
0
 39
5.0
 10
106.4470737112143
 20
87.169212058114681
 30
0.0
 11
106.4470737112143
 21
83.146312058114674
 31
0.0
  0
LINE
  5
FA8
  8
0
 39
5.0
 10
106.4470737112143
 20
83.146312058114674
 30
0.0
 11
107.4203737112143
 21
83.146312058114674
 31
0.0
  0
LINE
  5
FAA
  8
0
 39
5.0
 10
107.92667371121431
 20
110.72611205811459
 30
0.0
 11
106.8364737112143
 21
110.72611205811459
 31
0.0
  0
LINE
  5
FAC
  8
0
 39
5.0
 10
109.7561737112143
 20
58.62771205811466
 30
0.0
 11
109.16127371121431
 21
58.62771205811466
 31
0.0
  0
LINE
  5
FB1
  8
2
 10
108.4935737112143
 20
138.79561205811461
 30
0.0
 11
108.4935737112143
 21
135.00253943879511
 31
0.0
  0
LINE
  5
FBA
  8
1
 10
106.8364737112143
 20
87.169212058114681
 30
0.0
 11
107.92667371121431
 21
110.72611205811459
 31
0.0
  0
LINE
  5
FBB
  8
1
 10
106.8364737112143
 20
110.72611205811459
 30
0.0
 11
107.92667371121431
 21
87.169212058114681
 31
0.0
  0
LINE
  5
1048
  8
1
 10
67.464173711214301
 20
60.962312058114662
 30
0.0
 11
110.6509802325002
 21
60.962312058114662
 31
0.0
  0
LINE
  5
106C
  8
2
 10
108.2612737112143
 20
122.6463120581146
 30
0.0
 11
108.2612737112143
 21
120.1431120581146
 31
0.0
  0
LINE
  5
106E
  8
0
 10
108.4612737112143
 20
122.6463120581146
 30
0.0
 11
108.4612737112143
 21
120.1431120581146
 31
0.0
  0
LINE
  5
1070
  8
0
 10
108.2612737112143
 20
118.96791205811461
 30
0.0
 11
108.2612737112143
 21
113.6463120581146
 31
0.0
  0
LINE
  5
1071
  8
0
 39
5.0
 10
108.2612737112143
 20
118.96791205811461
 30
0.0
 11
109.7612737112143
 21
118.96791205811461
 31
0.0
  0
LINE
  5
1072
  8
2
 10
108.4612737112143
 20
118.96791205811461
 30
0.0
 11
108.4612737112143
 21
113.6463120581146
 31
0.0
  0
LINE
  5
1073
  8
0
 10
108.4612737112143
 20
120.1431120581146
 30
0.0
 11
108.4612737112143
 21
118.96791205811461
 31
0.0
  0
LINE
  5
107E
  8
2
 10
106.0553737112143
 20
113.6463120581146
 30
0.0
 11
106.0553737112143
 21
89.146312058114674
 31
0.0
  0
LINE
  5
107F
  8
0
 10
106.8364737112143
 20
113.6463120581146
 30
0.0
 11
106.8364737112143
 21
87.169212058114681
 31
0.0
  0
LINE
  5
1086
  8
0
 10
105.7612737112143
 20
89.146312058114674
 30
0.0
 11
105.7612737112143
 21
113.6463120581146
 31
0.0
  0
LINE
  5
1090
  8
0
 10
109.16127371121431
 20
58.62771205811466
 30
0.0
 11
109.16127371121431
 21
54.54631205811468
 31
0.0
  0
LINE
  5
1091
  8
0
 10
107.7927737112142
 20
59.349241224781331
 30
0.0
 11
109.16127371121431
 21
58.62771205811466
 31
0.0
  0
LINE
  5
1093
  8
0
 10
108.2612737112143
 20
55.646312058114667
 30
0.0
 11
108.2612737112143
 21
54.54631205811468
 31
0.0
  0
LINE
  5
1097
  8
2
 10
107.7927737112142
 20
59.462312058114662
 30
0.0
 11
105.2791737112142
 21
59.462312058114662
 31
0.0
  0
LINE
  5
1099
  8
0
 39
5.0
 10
107.7927737112142
 20
62.242112058114671
 30
0.0
 11
105.2791737112142
 21
62.242112058114671
 31
0.0
  0
LINE
  5
109A
  8
2
 10
107.7927737112142
 20
62.462312058114662
 30
0.0
 11
105.2791737112142
 21
62.462312058114662
 31
0.0
  0
LINE
  5
109B
  8
2
 10
107.7927737112142
 20
62.242112058114671
 30
0.0
 11
108.2767096620824
 21
61.620665260370529
 31
0.0
  0
LINE
  5
10AD
  8
0
 10
108.2612737112143
 20
135.1861407861347
 30
0.0
 11
108.2612737112143
 21
138.79561205811461
 31
0.0
  0
LINE
  5
10B0
  8
0
 10
108.2612737112143
 20
135.1861407861347
 30
0.0
 11
109.7612737112143
 21
135.1861407861347
 31
0.0
  0
LINE
  5
10B6
  8
0
 10
105.7612737112143
 20
113.6463120581146
 30
0.0
 11
108.4612737112143
 21
113.6463120581146
 31
0.0
  0
LINE
  5
10C9
  8
1
 10
105.1752737112143
 20
89.146312058114674
 30
0.0
 11
106.0553737112143
 21
89.146312058114674
 31
0.0
  0
LINE
  5
10D3
  8
0
 10
105.96711869503299
 20
57.146312058114681
 30
0.0
 11
108.7612737112143
 21
57.146312058114681
 31
0.0
  0
LINE
  5
10D7
  8
1
 10
108.2612737112143
 20
55.646312058114667
 30
0.0
 11
108.7612737112143
 21
55.646312058114667
 31
0.0
  0
LINE
  5
10D8
  8
0
 10
108.2612737112143
 20
54.54631205811468
 30
0.0
 11
109.7612737112143
 21
54.54631205811468
 31
0.0
  0
LINE
  5
121A
  8
1
 10
108.7612737112143
 20
57.146312058114681
 30
0.0
 11
108.7612737112143
 21
55.646312058114667
 31
0.0
  0
LINE
  5
121D
  8
0
 39
5.0
 10
111.2612737112143
 20
118.96791205811461
 30
0.0
 11
109.7612737112143
 21
118.96791205811461
 31
0.0
  0
LINE
  5
121E
  8
0
 39
5.0
 10
109.7612737112143
 20
120.1431120581146
 30
0.0
 11
111.2612737112143
 21
120.1431120581146
 31
0.0
  0
LINE
  5
121F
  8
0
 39
5.0
 10
112.2726737112143
 20
122.6463120581146
 30
0.0
 11
109.7612737112143
 21
122.6463120581146
 31
0.0
  0
LINE
  5
1221
  8
0
 39
5.0
 10
113.55542872739549
 20
57.146312058114681
 30
0.0
 11
113.8576737112142
 21
57.292012058114672
 31
0.0
  0
POLYLINE
  5
1222
  8
2
 66
     1
 10
0.0
 20
0.0
 30
0.0
 39
5.0
  0
VERTEX
  5
179F
  8
2
 10
111.72977371121419
 20
67.295512058114667
 30
0.0
  0
VERTEX
  5
17A0
  8
2
 10
111.72977371121419
 20
63.276497576217032
 30
0.0
  0
SEQEND
  5
17A1
  8
2
  0
LINE
  5
1224
  8
0
 39
5.0
 10
109.7663737112142
 20
58.62771205811466
 30
0.0
 11
110.3612737112142
 21
58.62771205811466
 31
0.0
  0
LINE
  5
1226
  8
0
 39
5.0
 10
113.5830737112142
 20
68.142412058114658
 30
0.0
 11
113.5083737112142
 21
68.146312058114674
 31
0.0
  0
LINE
  5
1227
  8
0
 39
5.0
 10
113.6558737112143
 20
68.131212058114656
 30
0.0
 11
113.5830737112142
 21
68.142412058114658
 31
0.0
  0
LINE
  5
1228
  8
0
 39
5.0
 10
113.7260737112143
 20
68.113012058114663
 30
0.0
 11
113.6558737112143
 21
68.131212058114656
 31
0.0
  0
LINE
  5
1229
  8
0
 39
5.0
 10
113.79357371121429
 20
68.088212058114664
 30
0.0
 11
113.7260737112143
 21
68.113012058114663
 31
0.0
  0
LINE
  5
122A
  8
0
 39
5.0
 10
113.8576737112142
 20
68.057012058114665
 30
0.0
 11
113.79357371121429
 21
68.088212058114664
 31
0.0
  0
LINE
  5
122B
  8
0
 39
5.0
 10
113.9183737112142
 20
68.020212058114666
 30
0.0
 11
113.8576737112142
 21
68.057012058114665
 31
0.0
  0
LINE
  5
122C
  8
0
 39
5.0
 10
113.9749737112143
 20
67.977712058114662
 30
0.0
 11
113.9183737112142
 21
68.020212058114666
 31
0.0
  0
LINE
  5
122D
  8
0
 39
5.0
 10
114.0273737112142
 20
67.930312058114666
 30
0.0
 11
113.9749737112143
 21
67.977712058114662
 31
0.0
  0
LINE
  5
122E
  8
0
 39
5.0
 10
114.07477371121421
 20
67.877912058114646
 30
0.0
 11
114.0273737112142
 21
67.930312058114666
 31
0.0
  0
LINE
  5
122F
  8
0
 39
5.0
 10
114.1172737112142
 20
67.821312058114657
 30
0.0
 11
114.07477371121421
 21
67.877912058114646
 31
0.0
  0
LINE
  5
1230
  8
0
 39
5.0
 10
114.1540737112142
 20
67.760612058114646
 30
0.0
 11
114.1172737112142
 21
67.821312058114657
 31
0.0
  0
LINE
  5
1231
  8
0
 39
5.0
 10
114.18527371121419
 20
67.696512058114664
 30
0.0
 11
114.1540737112142
 21
67.760612058114646
 31
0.0
  0
LINE
  5
1232
  8
0
 39
5.0
 10
114.21007371121421
 20
67.629012058114654
 30
0.0
 11
114.18527371121419
 21
67.696512058114664
 31
0.0
  0
LINE
  5
1233
  8
0
 39
5.0
 10
114.2282737112142
 20
67.558812058114668
 30
0.0
 11
114.21007371121421
 21
67.629012058114654
 31
0.0
  0
LINE
  5
1234
  8
0
 39
5.0
 10
114.2394737112143
 20
67.486012058114667
 30
0.0
 11
114.2282737112142
 21
67.558812058114668
 31
0.0
  0
LINE
  5
1235
  8
0
 39
5.0
 10
114.2433737112143
 20
67.41131205811466
 30
0.0
 11
114.2394737112143
 21
67.486012058114667
 31
0.0
  0
LINE
  5
1236
  8
0
 39
5.0
 10
114.2433737112143
 20
67.41131205811466
 30
0.0
 11
114.2433737112143
 21
67.41131205811466
 31
0.0
  0
LINE
  5
1237
  8
0
 39
5.0
 10
114.2433737112143
 20
57.938212058114672
 30
0.0
 11
114.2433737112143
 21
67.41131205811466
 31
0.0
  0
LINE
  5
1238
  8
0
 39
5.0
 10
114.2394737112143
 20
57.863212058114648
 30
0.0
 11
114.2433737112143
 21
57.938212058114672
 31
0.0
  0
LINE
  5
1239
  8
0
 39
5.0
 10
114.2282737112142
 20
57.790412058114647
 30
0.0
 11
114.2394737112143
 21
57.863212058114648
 31
0.0
  0
LINE
  5
123A
  8
0
 39
5.0
 10
114.21007371121421
 20
57.720012058114662
 30
0.0
 11
114.2282737112142
 21
57.790412058114647
 31
0.0
  0
LINE
  5
123B
  8
0
 39
5.0
 10
114.18527371121419
 20
57.652712058114652
 30
0.0
 11
114.21007371121421
 21
57.720012058114662
 31
0.0
  0
LINE
  5
123C
  8
0
 39
5.0
 10
114.1540737112142
 20
57.588312058114667
 30
0.0
 11
114.18527371121419
 21
57.652712058114652
 31
0.0
  0
LINE
  5
123D
  8
0
 39
5.0
 10
114.11717371121431
 20
57.527812058114662
 30
0.0
 11
114.1540737112142
 21
57.588312058114667
 31
0.0
  0
LINE
  5
123E
  8
0
 39
5.0
 10
114.0746737112143
 20
57.471112058114649
 30
0.0
 11
114.11717371121431
 21
57.527812058114662
 31
0.0
  0
LINE
  5
123F
  8
0
 39
5.0
 10
114.02727371121431
 20
57.41901205811466
 30
0.0
 11
114.0746737112143
 21
57.471112058114649
 31
0.0
  0
LINE
  5
1240
  8
0
 39
5.0
 10
113.9748737112142
 20
57.371412058114672
 30
0.0
 11
114.02727371121431
 21
57.41901205811466
 31
0.0
  0
LINE
  5
1241
  8
0
 39
5.0
 10
113.9182737112142
 20
57.32901205811465
 30
0.0
 11
113.9748737112142
 21
57.371412058114672
 31
0.0
  0
LINE
  5
1242
  8
0
 39
5.0
 10
113.8576737112142
 20
57.292012058114672
 30
0.0
 11
113.9182737112142
 21
57.32901205811465
 31
0.0
  0
LINE
  5
1243
  8
0
 39
5.0
 10
113.5083737112142
 20
68.146312058114674
 30
0.0
 11
111.5627343853716
 21
68.146312058114674
 31
0.0
  0
LINE
  5
1245
  8
0
 39
5.0
 10
112.10217371121421
 20
63.680512058114672
 30
0.0
 11
112.1027737112143
 21
67.295512058114667
 31
0.0
  0
LINE
  5
1246
  8
0
 39
5.0
 10
111.7016737112143
 20
63.246012058114658
 30
0.0
 11
112.10217371121421
 21
63.680512058114672
 31
0.0
  0
LINE
  5
1247
  8
0
 39
5.0
 10
109.7612737112143
 20
63.246012058114658
 30
0.0
 11
111.7016737112143
 21
63.246012058114658
 31
0.0
  0
LINE
  5
1248
  8
0
 39
5.0
 10
110.5449737112142
 20
118.96791205811461
 30
0.0
 11
110.5449737112143
 21
63.246112058114662
 31
0.0
  0
LINE
  5
1249
  8
0
 39
5.0
 10
112.10217371121421
 20
68.146312058114674
 30
0.0
 11
112.10217371121421
 21
87.169212058114681
 31
0.0
  0
LINE
  5
124A
  8
0
 39
5.0
 10
112.10217371121421
 20
83.146312058114674
 30
0.0
 11
115.0540737112142
 21
83.146312058114674
 31
0.0
  0
LINE
  5
124B
  8
0
 39
5.0
 10
113.0754737112143
 20
87.169212058114681
 30
0.0
 11
113.0754737112143
 21
83.146312058114674
 31
0.0
  0
LINE
  5
124C
  8
0
 39
5.0
 10
115.0540737112142
 20
83.146312058114674
 30
0.0
 11
115.0540737112142
 21
88.146312058114674
 31
0.0
  0
LINE
  5
124D
  8
0
 39
5.0
 10
113.0754737112143
 20
83.146312058114674
 30
0.0
 11
112.10217371121421
 21
83.146312058114674
 31
0.0
  0
LINE
  5
124E
  8
0
 39
5.0
 10
115.0540737112142
 20
88.146312058114674
 30
0.0
 11
114.3472737112142
 21
88.146312058114674
 31
0.0
  0
LINE
  5
124F
  8
0
 39
5.0
 10
113.0754737112143
 20
87.169212058114681
 30
0.0
 11
111.5958737112142
 21
87.169212058114681
 31
0.0
  0
LINE
  5
1250
  8
0
 39
5.0
 10
111.5958737112142
 20
87.169212058114681
 30
0.0
 11
111.5958737112142
 21
110.72611205811459
 31
0.0
  0
LINE
  5
1251
  8
0
 39
5.0
 10
112.68607371121421
 20
110.72611205811459
 30
0.0
 11
112.68607371121421
 21
87.169212058114681
 31
0.0
  0
LINE
  5
1252
  8
0
 39
5.0
 10
113.2112737112143
 20
113.6463120581146
 30
0.0
 11
113.2112737112143
 21
121.72821205811459
 31
0.0
  0
LINE
  5
1253
  8
0
 39
5.0
 10
110.7910737112143
 20
134.81451205811459
 30
0.0
 11
111.2612737112143
 21
135.1861407861347
 31
0.0
  0
LINE
  5
1254
  8
0
 39
5.0
 10
111.5958737112142
 20
110.72611205811459
 30
0.0
 11
112.68607371121421
 21
110.72611205811459
 31
0.0
  0
LINE
  5
1257
  8
0
 39
5.0
 10
112.35047371121431
 20
122.6368120581146
 30
0.0
 11
112.2726737112143
 21
122.6463120581146
 31
0.0
  0
LINE
  5
1258
  8
0
 39
5.0
 10
112.4314737112143
 20
122.61901205811461
 30
0.0
 11
112.35047371121431
 21
122.6368120581146
 31
0.0
  0
LINE
  5
1259
  8
0
 39
5.0
 10
112.5141737112143
 20
122.5931120581146
 30
0.0
 11
112.4314737112143
 21
122.61901205811461
 31
0.0
  0
LINE
  5
125A
  8
0
 39
5.0
 10
112.5976737112143
 20
122.55991205811461
 30
0.0
 11
112.5141737112143
 21
122.5931120581146
 31
0.0
  0
LINE
  5
125B
  8
0
 39
5.0
 10
112.68057371121429
 20
122.51931205811459
 30
0.0
 11
112.5976737112143
 21
122.55991205811461
 31
0.0
  0
LINE
  5
125C
  8
0
 39
5.0
 10
112.7616737112143
 20
122.4723120581146
 30
0.0
 11
112.68057371121429
 21
122.51931205811459
 31
0.0
  0
LINE
  5
125D
  8
0
 39
5.0
 10
112.83977371121431
 20
122.4189120581146
 30
0.0
 11
112.7616737112143
 21
122.4723120581146
 31
0.0
  0
LINE
  5
125E
  8
0
 39
5.0
 10
112.91387371121429
 20
122.3598120581146
 30
0.0
 11
112.83977371121431
 21
122.4189120581146
 31
0.0
  0
LINE
  5
125F
  8
0
 39
5.0
 10
112.98237371121429
 20
122.2951120581146
 30
0.0
 11
112.91387371121429
 21
122.3598120581146
 31
0.0
  0
LINE
  5
1260
  8
0
 39
5.0
 10
113.04447371121429
 20
122.22561205811461
 30
0.0
 11
112.98237371121429
 21
122.2951120581146
 31
0.0
  0
LINE
  5
1261
  8
0
 39
5.0
 10
113.0985737112143
 20
122.1515120581146
 30
0.0
 11
113.04447371121429
 21
122.22561205811461
 31
0.0
  0
LINE
  5
1262
  8
0
 39
5.0
 10
113.1439737112143
 20
122.0734120581146
 30
0.0
 11
113.0985737112143
 21
122.1515120581146
 31
0.0
  0
LINE
  5
1263
  8
0
 39
5.0
 10
113.17887371121429
 20
121.99141205811461
 30
0.0
 11
113.1439737112143
 21
122.0734120581146
 31
0.0
  0
LINE
  5
1264
  8
0
 39
5.0
 10
113.2026737112143
 20
121.9064120581146
 30
0.0
 11
113.17887371121429
 21
121.99141205811461
 31
0.0
  0
LINE
  5
1265
  8
0
 39
5.0
 10
113.21387371121421
 20
121.8184120581146
 30
0.0
 11
113.2026737112143
 21
121.9064120581146
 31
0.0
  0
LINE
  5
1266
  8
0
 39
5.0
 10
113.2112737112143
 20
121.72821205811459
 30
0.0
 11
113.21387371121421
 21
121.8184120581146
 31
0.0
  0
LINE
  5
1267
  8
0
 39
5.0
 10
113.2112737112143
 20
121.72821205811459
 30
0.0
 11
113.2112737112143
 21
121.72821205811459
 31
0.0
  0
LINE
  5
1268
  8
0
 39
5.0
 10
112.5403737112143
 20
132.5108120581146
 30
0.0
 11
112.5403737112143
 21
132.5108120581146
 31
0.0
  0
LINE
  5
1269
  8
0
 39
5.0
 10
112.5403737112143
 20
133.0108120581146
 30
0.0
 11
112.5403737112143
 21
132.5108120581146
 31
0.0
  0
LINE
  5
126A
  8
0
 39
5.0
 10
109.7612737112143
 20
133.0108120581146
 30
0.0
 11
112.5403737112143
 21
133.0108120581146
 31
0.0
  0
LINE
  5
126B
  8
0
 39
5.0
 10
112.5403737112143
 20
132.5108120581146
 30
0.0
 11
109.7612737112143
 21
132.5108120581146
 31
0.0
  0
LINE
  5
126C
  8
0
 39
5.0
 10
109.7612737112143
 20
134.81451205811459
 30
0.0
 11
110.7910737112143
 21
134.81451205811459
 31
0.0
  0
POLYLINE
  5
126E
  8
0
 66
     1
 10
0.0
 20
0.0
 30
0.0
 39
5.0
  0
VERTEX
  5
17A2
  8
0
 10
116.1229737112142
 20
93.989912058114669
 30
0.0
  0
VERTEX
  5
17A3
  8
0
 10
113.4671737112142
 20
93.989912058114669
 30
0.0
  0
SEQEND
  5
17A4
  8
0
  0
POLYLINE
  5
126F
  8
0
 66
     1
 10
0.0
 20
0.0
 30
0.0
 39
5.0
  0
VERTEX
  5
17A5
  8
0
 10
116.1229737112142
 20
97.035712058114669
 30
0.0
  0
VERTEX
  5
17A6
  8
0
 10
113.4671737112142
 20
97.035712058114669
 30
0.0
  0
SEQEND
  5
17A7
  8
0
  0
POLYLINE
  5
1270
  8
0
 66
     1
 10
0.0
 20
0.0
 30
0.0
 39
5.0
  0
VERTEX
  5
17A8
  8
0
 10
112.5937737112143
 20
140.79561205811461
 30
0.0
  0
VERTEX
  5
17A9
  8
0
 10
109.7612737112143
 20
140.79561205811461
 30
0.0
  0
SEQEND
  5
17AA
  8
0
  0
LINE
  5
1271
  8
2
 10
113.4671737112142
 20
113.6463120581146
 30
0.0
 11
113.4671737112142
 21
89.146312058114674
 31
0.0
  0
LINE
  5
1272
  8
0
 10
113.7612737112142
 20
89.146312058114674
 30
0.0
 11
113.7612737112142
 21
113.6463120581146
 31
0.0
  0
LINE
  5
1273
  8
1
 10
112.68607371121421
 20
87.169212058114681
 30
0.0
 11
111.5958737112142
 21
110.72611205811459
 31
0.0
  0
LINE
  5
1274
  8
1
 10
112.68607371121421
 20
110.72611205811459
 30
0.0
 11
111.5958737112142
 21
87.169212058114681
 31
0.0
  0
LINE
  5
1275
  8
0
 10
112.68607371121421
 20
113.6463120581146
 30
0.0
 11
112.68607371121421
 21
87.169212058114681
 31
0.0
  0
LINE
  5
1277
  8
0
 10
113.55542872739549
 20
57.146312058114681
 30
0.0
 11
110.7612737112143
 21
57.146312058114681
 31
0.0
  0
LINE
  5
1278
  8
1
 10
111.2612737112143
 20
55.646312058114667
 30
0.0
 11
110.7612737112143
 21
55.646312058114667
 31
0.0
  0
LINE
  5
1279
  8
1
 10
110.7612737112143
 20
57.146312058114681
 30
0.0
 11
110.7612737112143
 21
55.646312058114667
 31
0.0
  0
LINE
  5
127A
  8
0
 10
111.2612737112143
 20
54.54631205811468
 30
0.0
 11
109.7612737112143
 21
54.54631205811468
 31
0.0
  0
LINE
  5
127B
  8
0
 10
110.3612737112142
 20
58.62771205811466
 30
0.0
 11
110.3612737112142
 21
54.54631205811468
 31
0.0
  0
LINE
  5
127C
  8
0
 10
111.2612737112143
 20
55.646312058114667
 30
0.0
 11
111.2612737112143
 21
54.54631205811468
 31
0.0
  0
LINE
  5
127D
  8
0
 10
111.72977371121431
 20
59.349241224781331
 30
0.0
 11
110.3612737112142
 21
58.62771205811466
 31
0.0
  0
LINE
  5
127E
  8
0
 10
111.72977371121431
 20
59.349241224781331
 30
0.0
 11
109.7612737112143
 21
59.349241224781331
 31
0.0
  0
LINE
  5
1284
  8
0
 10
111.72977371121431
 20
63.276497576217032
 30
0.0
 11
111.72977371121431
 21
59.349241224781338
 31
0.0
  0
LINE
  5
1285
  8
0
 10
111.72977371121419
 20
68.146312058114674
 30
0.0
 11
111.72977371121419
 21
67.295512058114667
 31
0.0
  0
LINE
  5
1286
  8
2
 10
112.10217371121421
 20
68.146312058114674
 30
0.0
 11
112.10217371121421
 21
67.295512058114667
 31
0.0
  0
LINE
  5
1287
  8
0
 10
111.5627343853716
 20
68.146312058114674
 30
0.0
 11
111.5627343853716
 21
67.295512058114667
 31
0.0
  0
LINE
  5
1288
  8
0
 10
112.1027737112143
 20
67.295512058114667
 30
0.0
 11
111.5627343853716
 21
67.295512058114667
 31
0.0
  0
LINE
  5
1289
  8
0
 10
114.3472737112142
 20
89.146312058114674
 30
0.0
 11
114.3472737112142
 21
88.146312058114674
 31
0.0
  0
LINE
  5
128A
  8
1
 10
114.3472737112142
 20
89.146312058114674
 30
0.0
 11
113.4671737112142
 21
89.146312058114674
 31
0.0
  0
LINE
  5
128B
  8
0
 10
111.2612737112143
 20
118.96791205811461
 30
0.0
 11
111.2612737112143
 21
113.6463120581146
 31
0.0
  0
LINE
  5
128C
  8
2
 10
111.0612737112143
 20
118.96791205811461
 30
0.0
 11
111.0612737112143
 21
113.6463120581146
 31
0.0
  0
LINE
  5
128D
  8
0
 10
113.7612737112142
 20
113.6463120581146
 30
0.0
 11
111.0612737112143
 21
113.6463120581146
 31
0.0
  0
LINE
  5
128E
  8
0
 10
111.5958737112142
 20
113.6463120581146
 30
0.0
 11
111.5958737112142
 21
110.72611205811459
 31
0.0
  0
LINE
  5
128F
  8
0
 10
111.0612737112143
 20
120.1431120581146
 30
0.0
 11
111.0612737112143
 21
118.96791205811461
 31
0.0
  0
LINE
  5
1290
  8
0
 10
111.0612737112143
 20
122.6463120581146
 30
0.0
 11
111.0612737112143
 21
120.1431120581146
 31
0.0
  0
LINE
  5
1291
  8
2
 10
111.2612737112143
 20
122.6463120581146
 30
0.0
 11
111.2612737112143
 21
120.1431120581146
 31
0.0
  0
LINE
  5
1292
  8
0
 10
111.2612737112143
 20
135.1861407861347
 30
0.0
 11
111.2612737112143
 21
138.79561205811461
 31
0.0
  0
LINE
  5
1293
  8
2
 10
111.02897371121421
 20
138.79561205811461
 30
0.0
 11
111.02897371121421
 21
135.00253943879511
 31
0.0
  0
LINE
  5
1294
  8
0
 10
111.2612737112143
 20
135.1861407861347
 30
0.0
 11
109.7612737112143
 21
135.1861407861347
 31
0.0
  0
DIMENSION
  5
1298
  8
2
  2
*D1
 10
122.43097919913239
 20
113.6463120581146
 30
0.0
 11
120.55597919913239
 21
118.1463120581146
 31
0.0
 70
     0
 13
112.2726737112143
 23
122.6463120581146
 33
0.0
 14
113.7612737112142
 24
113.6463120581146
 34
0.0
 50
90.0
  0
DIMENSION
  5
12A5
  8
2
  2
*D2
 10
122.43097919913239
 20
83.146312058114674
 30
0.0
 11
120.55597919913239
 21
98.396312058114688
 31
0.0
 70
     0
 13
122.43097919913239
 23
113.6463120581146
 33
0.0
 14
115.0540737112142
 24
83.146312058114674
 34
0.0
 50
90.0
  0
DIMENSION
  5
12C3
  8
2
  2
*D3
 10
122.43097919913239
 20
57.146312058114667
 30
0.0
 11
120.55597919913239
 21
62.646312058114688
 31
0.0
 70
     0
 13
122.43097919913239
 23
68.146312058114674
 33
0.0
 14
110.7612737112143
 24
57.146312058114681
 34
0.0
 50
90.0
  0
DIMENSION
  5
12D2
  8
2
  2
*D4
 10
122.43097919913239
 20
55.64631205811466
 30
0.0
 11
120.55597919913239
 21
47.937978724781352
 31
0.0
 70
     0
 13
122.43097919913239
 23
57.146312058114681
 33
0.0
 14
111.2612737112143
 24
55.646312058114667
 34
0.0
 50
90.0
  0
DIMENSION
  5
12E2
  8
2
  2
*D5
 10
127.1178191496907
 20
54.546312058114673
 30
0.0
 11
125.2428191496907
 21
46.421312058114687
 31
0.0
 70
     0
 13
122.43097919913239
 23
57.146312058114681
 33
0.0
 14
111.2612737112143
 24
54.54631205811468
 34
0.0
 50
90.0
  0
DIMENSION
  5
12F2
  8
2
  2
*D6
 10
127.1178191496907
 20
122.6463120581146
 30
0.0
 11
125.2428191496907
 21
89.896312058114674
 31
0.0
 70
     0
  1
(<>)
 13
127.1178191496907
 23
57.146312058114681
 33
0.0
 14
122.43097919913239
 24
122.6463120581146
 34
0.0
 50
90.0
1001
ACAD
1000
DSTYLE
1002
{
1070
   271
1070
     1
1002
}
  0
DIMENSION
  5
1309
  8
2
  2
*D7
 10
132.43433565374909
 20
54.54631205811468
 30
0.0
 11
130.55933565374909
 21
88.596312058114691
 31
0.0
 70
     0
  1
(<>)
 13
127.1178191496907
 23
122.6463120581146
 33
0.0
 14
127.1178191496907
 24
54.54631205811468
 34
0.0
 50
90.0
  0
TEXT
  5
13AE
  8
2
 10
93.418389803286345
 20
126.7311754770333
 30
0.0
 40
2.5
  1
M3
  0
TEXT
  5
13B0
  8
2
 10
93.418389803286445
 20
120.8440435560593
 30
0.0
 40
2.5
  1
H6
  0
TEXT
  5
13B1
  8
2
 10
93.172758821838329
 20
112.687914010963
 30
0.0
 40
2.5
  1
M8
  0
TEXT
  5
13B2
  8
2
 10
93.295574563267095
 20
99.208797478581985
 30
0.0
 40
2.5
  1
H12
  0
TEXT
  5
13B3
  8
2
 10
93.418389803286445
 20
56.065466715249002
 30
0.0
 40
2.5
  1
H8
  0
TEXT
  5
13B4
  8
2
 10
96.981183501440697
 20
50.37255215514768
 30
0.0
 40
2.5
  1
M3
  0
POLYLINE
  8
2
  5
17B6
  66
     1
 10
0.000000
 20
0.000000
 30
0.000000
  70
     8
  0
VERTEX
  8
2
  5
17B7
 10
108.261
 20
121.395
 30
0.000000
  70
    32
  0
VERTEX
  8
2
  5
17B8
 10
98.1264
 20
126.091
 30
0.000000
  70
    32
  0
VERTEX
  8
2
  5
17B9
 10
92.4423
 20
126.091
 30
0.000000
  70
    32
  0
SEQEND
  8
2
  5
17BA
  0
POLYLINE
  8
2
  5
17BB
  66
     1
 10
0.000000
 20
0.000000
 30
0.000000
  70
     8
  0
VERTEX
  8
2
  5
17BC
 10
106.311
 20
117.687
 30
0.000000
  70
    32
  0
VERTEX
  8
2
  5
17BD
 10
98.0519
 20
120.593
 30
0.000000
  70
    32
  0
VERTEX
  8
2
  5
17BE
 10
92.8203
 20
120.593
 30
0.000000
  70
    32
  0
SEQEND
  8
2
  5
17BF
  0
POLYLINE
  8
2
  5
17C0
  66
     1
 10
0.000000
 20
0.000000
 30
0.000000
  70
     8
  0
VERTEX
  8
2
  5
17C1
 10
105.761
 20
113.646
 30
0.000000
  70
    32
  0
VERTEX
  8
2
  5
17C2
 10
97.6219
 20
112.434
 30
0.000000
  70
    32
  0
VERTEX
  8
2
  5
17C3
 10
92.4619
 20
112.434
 30
0.000000
  70
    32
  0
SEQEND
  8
2
  5
17C4
  0
POLYLINE
  8
2
  5
17C5
  66
     1
 10
0.000000
 20
0.000000
 30
0.000000
  70
     8
  0
VERTEX
  8
2
  5
17C6
 10
102.756
 20
95.5357
 30
0.000000
  70
    32
  0
VERTEX
  8
2
  5
17C7
 10
99.6285
 20
98.6898
 30
0.000000
  70
    32
  0
VERTEX
  8
2
  5
17C8
 10
92.4619
 20
98.6898
 30
0.000000
  70
    32
  0
SEQEND
  8
2
  5
17C9
  0
POLYLINE
  8
2
  5
17CA
  66
     1
 10
0.000000
 20
0.000000
 30
0.000000
  70
     8
  0
VERTEX
  8
2
  5
17CB
 10
105.279
 20
57.9382
 30
0.000000
  70
    32
  0
VERTEX
  8
2
  5
17CC
 10
97.7652
 20
55.7711
 30
0.000000
  70
    32
  0
VERTEX
  8
2
  5
17CD
 10
92.5336
 20
55.7711
 30
0.000000
  70
    32
  0
SEQEND
  8
2
  5
17CE
  0
POLYLINE
  8
2
  5
17CF
  66
     1
 10
0.000000
 20
0.000000
 30
0.000000
  70
     8
  0
VERTEX
  8
2
  5
17D0
 10
106.536
 20
59.4623
 30
0.000000
  70
    32
  0
VERTEX
  8
2
  5
17D1
 10
101.492
 20
50.0456
 30
0.000000
  70
    32
  0
VERTEX
  8
2
  5
17D2
 10
96.3319
 20
50.0456
 30
0.000000
  70
    32
  0
SEQEND
  8
2
  5
17D3
  0
DIMENSION
  5
143E
  8
2
  2
*D8
 10
122.43097919913239
 20
68.146312058114674
 30
0.0
 11
120.55597919913239
 21
75.646312058114688
 31
0.0
 70
     0
 13
122.43097919913239
 23
83.146312058114674
 33
0.0
 14
113.5083737112142
 24
68.146312058114674
 34
0.0
 50
90.0
  0
LINE
  5
14F4
  8
2
 10
101.31642559215111
 20
68.146312058114674
 30
0.0
 11
103.081341863468
 21
68.146312058114674
 31
0.0
  0
DIMENSION
  5
14FA
  8
2
  2
*D9
 10
97.173990419142797
 20
68.146312058114674
 30
0.0
 11
95.298990419142783
 21
75.646312058114702
 31
0.0
 70
     0
 13
104.4684737112143
 23
83.146312058114674
 33
0.0
 14
101.31642559215111
 24
68.146312058114674
 34
0.0
 50
90.0
  0
POLYLINE
  5
1664
  8
0
 66
     1
 10
0.0
 20
0.0
 30
-2.5
 39
5.0
  0
VERTEX
  5
17AB
  8
0
 10
67.464173711214301
 20
60.962312058114662
 30
-2.5
  0
VERTEX
  5
17AC
  8
0
 10
67.464173711214301
 20
61.745012058114661
 30
-2.5
  0
SEQEND
  5
17AD
  8
0
  0
LINE
  5
1665
  8
0
 39
5.0
 10
67.464173711214301
 20
61.745012058114661
 30
-2.5
 11
68.62457371121431
 21
61.745012058114661
 31
-2.5
  0
LINE
  5
1666
  8
0
 39
5.0
 10
68.62457371121431
 20
61.745012058114661
 30
-2.5
 11
69.500407463864491
 21
62.712312058114662
 31
-2.5
  0
LINE
  5
1667
  8
0
 39
5.0
 10
70.034073711214305
 20
62.126109052501768
 30
-2.5
 11
70.602973711214304
 21
62.126212058114668
 31
-2.5
  0
LINE
  5
1668
  8
0
 39
5.0
 10
72.468773711214311
 20
63.821012058114661
 30
-2.5
 11
75.964173711214301
 21
63.821012058114661
 31
-2.5
  0
LINE
  5
1669
  8
0
 39
5.0
 10
75.928473711214309
 20
62.084412058114673
 30
-2.5
 11
72.468773711214311
 21
62.084412058114673
 31
-2.5
  0
LINE
  5
166A
  8
0
 39
5.0
 10
72.468773711214311
 20
60.962312058114662
 30
-2.5
 11
72.468773711214311
 21
63.821012058114661
 31
-2.5
  0
LINE
  5
166B
  8
0
 39
5.0
 10
72.468773711214311
 20
62.084412058114673
 30
-2.5
 11
75.964173711214301
 21
62.084412058114673
 31
-2.5
  0
LINE
  5
166C
  8
0
 39
5.0
 10
78.762303935094934
 20
62.462312058114662
 30
-2.5
 11
79.464173711214301
 21
62.040087366756623
 31
-2.5
  0
LINE
  5
166D
  8
0
 39
5.0
 10
77.089273711214304
 20
60.962312058114662
 30
-2.5
 11
77.089273711214304
 21
63.897712058114671
 31
-2.5
  0
LINE
  5
166E
  8
0
 39
5.0
 10
77.089273711214304
 20
63.897712058114671
 30
-2.5
 11
76.130673711214314
 21
63.897712058114671
 31
-2.5
  0
LINE
  5
166F
  8
0
 39
5.0
 10
76.130673711214314
 20
63.897712058114671
 30
-2.5
 11
76.130673711214314
 21
60.962312058114662
 31
-2.5
  0
LINE
  5
1670
  8
0
 39
5.0
 10
76.130673711214314
 20
58.026912058114661
 30
-2.5
 11
76.130673711214314
 21
60.962312058114662
 31
-2.5
  0
LINE
  5
1671
  8
0
 39
5.0
 10
77.089273711214304
 20
58.026912058114661
 30
-2.5
 11
76.130673711214314
 21
58.026912058114661
 31
-2.5
  0
LINE
  5
1672
  8
0
 39
5.0
 10
77.089273711214304
 20
60.962312058114662
 30
-2.5
 11
77.089273711214304
 21
58.026912058114661
 31
-2.5
  0
LINE
  5
1673
  8
0
 39
5.0
 10
78.762303935094934
 20
59.462312058114662
 30
-2.5
 11
79.464173711214301
 21
59.884536749472701
 31
-2.5
  0
LINE
  5
1674
  8
0
 39
5.0
 10
72.468773711214311
 20
59.840212058114652
 30
-2.5
 11
75.964173711214301
 21
59.840212058114652
 31
-2.5
  0
LINE
  5
1675
  8
0
 39
5.0
 10
72.468773711214311
 20
60.962312058114662
 30
-2.5
 11
72.468773711214311
 21
58.103612058114663
 31
-2.5
  0
LINE
  5
1676
  8
0
 39
5.0
 10
75.928473711214309
 20
59.840212058114652
 30
-2.5
 11
72.468773711214311
 21
59.840212058114652
 31
-2.5
  0
LINE
  5
1677
  8
0
 39
5.0
 10
72.468773711214311
 20
58.103612058114663
 30
-2.5
 11
75.964173711214301
 21
58.103612058114663
 31
-2.5
  0
LINE
  5
1678
  8
0
 39
5.0
 10
70.034073711214305
 20
59.79851506372755
 30
-2.5
 11
70.602973711214304
 21
59.79841205811465
 31
-2.5
  0
LINE
  5
1679
  8
0
 39
5.0
 10
68.62457371121431
 20
60.179612058114657
 30
-2.5
 11
69.500407463864491
 21
59.212312058114662
 31
-2.5
  0
LINE
  5
167A
  8
0
 39
5.0
 10
67.464173711214301
 20
60.179612058114657
 30
-2.5
 11
68.62457371121431
 21
60.179612058114657
 31
-2.5
  0
POLYLINE
  5
167B
  8
0
 66
     1
 10
0.0
 20
0.0
 30
-2.5
 39
5.0
  0
VERTEX
  5
17AE
  8
0
 10
67.464173711214301
 20
60.962312058114662
 30
-2.5
  0
VERTEX
  5
17AF
  8
0
 10
67.464173711214301
 20
60.179612058114657
 30
-2.5
  0
SEQEND
  5
17B0
  8
0
  0
DIMENSION
  5
167C
  8
2
  2
*D10
 10
79.464173711214301
 20
47.63035437141027
 30
-2.5
 11
73.464173711214301
 21
49.50535437141027
 31
-2.5
 70
     0
 13
67.464173711214301
 23
52.827582300744631
 33
-2.5
 14
79.464173711214301
 24
59.884536749472701
 34
-2.5
  0
DIMENSION
  5
167D
  8
2
  2
*D11
 10
75.964173711214301
 20
52.827582300744631
 30
-2.5
 11
71.714173711214301
 21
54.702582300744631
 31
-2.5
 70
     0
 13
67.464173711214301
 23
60.179612058114657
 33
-2.5
 14
75.964173711214301
 24
58.103612058114663
 34
-2.5
  0
DIMENSION
  5
167E
  8
2
  2
*D12
 10
61.16359659427313
 20
59.212312058114662
 30
-2.5
 11
59.288596594273123
 21
49.837312058114669
 31
-2.5
 70
     0
  1
%%c<>
 13
69.500407463864491
 23
62.712312058114662
 33
-2.5
 14
69.500407463864491
 24
59.212312058114662
 34
-2.5
 50
90.0
  0
LINE
  5
167F
  8
0
 10
75.964173711214301
 20
63.821012058114661
 30
-2.5
 11
75.964173711214301
 21
60.962312058114662
 31
-2.5
  0
LINE
  5
1680
  8
0
 10
68.62457371121431
 20
61.745012058114661
 30
-2.5
 11
68.62457371121431
 21
60.962312058114662
 31
-2.5
  0
LINE
  5
1681
  8
0
 10
68.62457371121431
 20
60.179612058114657
 30
-2.5
 11
68.62457371121431
 21
60.962312058114662
 31
-2.5
  0
LINE
  5
1682
  8
0
 10
70.034073711214305
 20
60.962312058114662
 30
-2.5
 11
70.034073711214305
 21
62.712312058114662
 31
-2.5
  0
LINE
  5
1683
  8
0
 10
70.602973711214304
 20
62.126212058114668
 30
-2.5
 11
70.602973711214304
 21
60.962312058114662
 31
-2.5
  0
LINE
  5
1684
  8
0
 10
71.446873711214309
 20
62.712312058114662
 30
-2.5
 11
71.446873711214309
 21
60.962312058114662
 31
-2.5
  0
LINE
  5
1685
  8
0
 10
70.034073711214305
 20
62.712312058114662
 30
-2.5
 11
69.500407463864491
 21
62.712312058114662
 31
-2.5
  0
LINE
  5
1686
  8
0
 10
69.500407463864491
 20
62.712312058114662
 30
-2.5
 11
69.500407463864491
 21
60.962312058114662
 31
-2.5
  0
LINE
  5
1687
  8
0
 10
71.446873711214309
 20
62.712312058114662
 30
-2.5
 11
70.602973711214304
 21
62.126212058114668
 31
-2.5
  0
LINE
  5
1688
  8
0
 10
71.446873711214309
 20
62.712312058114662
 30
-2.5
 11
72.468773711214311
 21
62.712312058114662
 31
-2.5
  0
LINE
  5
1689
  8
0
 10
71.446873711214309
 20
59.212312058114662
 30
-2.5
 11
70.602973711214304
 21
59.79841205811465
 31
-2.5
  0
LINE
  5
168A
  8
0
 10
70.034073711214305
 20
59.212312058114662
 30
-2.5
 11
69.500407463864491
 21
59.212312058114662
 31
-2.5
  0
LINE
  5
168B
  8
0
 10
71.446873711214309
 20
59.212312058114662
 30
-2.5
 11
72.468773711214311
 21
59.212312058114662
 31
-2.5
  0
LINE
  5
168C
  8
0
 10
69.500407463864491
 20
59.212312058114662
 30
-2.5
 11
69.500407463864491
 21
60.962312058114662
 31
-2.5
  0
LINE
  5
168D
  8
0
 10
71.446873711214309
 20
59.212312058114662
 30
-2.5
 11
71.446873711214309
 21
60.962312058114662
 31
-2.5
  0
LINE
  5
168E
  8
0
 10
70.602973711214304
 20
59.79841205811465
 30
-2.5
 11
70.602973711214304
 21
60.962312058114662
 31
-2.5
  0
LINE
  5
168F
  8
0
 10
70.034073711214305
 20
60.962312058114662
 30
-2.5
 11
70.034073711214305
 21
59.212312058114662
 31
-2.5
  0
LINE
  5
1690
  8
2
 10
76.130673711214314
 20
62.194112058114669
 30
-2.5
 11
75.964173711214301
 21
62.194112058114648
 31
-2.5
  0
LINE
  5
1691
  8
0
 10
76.130673711214314
 20
62.462312058114662
 30
-2.5
 11
75.964173711214301
 21
62.462312058114662
 31
-2.5
  0
LINE
  5
1692
  8
2
 10
76.130673711214314
 20
59.730512058114648
 30
-2.5
 11
75.964173711214301
 21
59.73051205811467
 31
-2.5
  0
LINE
  5
1693
  8
0
 10
76.130673711214314
 20
59.462312058114662
 30
-2.5
 11
75.964173711214301
 21
59.462312058114662
 31
-2.5
  0
LINE
  5
1694
  8
0
 10
75.964173711214301
 20
58.103612058114663
 30
-2.5
 11
75.964173711214301
 21
60.962312058114662
 31
-2.5
  0
LINE
  5
1695
  8
2
 10
79.208136397781445
 20
62.194112058114669
 30
-2.5
 11
77.089273711214304
 21
62.194112058114669
 31
-2.5
  0
LINE
  5
1696
  8
0
 10
78.762303935094934
 20
62.462312058114662
 30
-2.5
 11
77.089273711214304
 21
62.462312058114662
 31
-2.5
  0
LINE
  5
1697
  8
0
 10
78.762303935094934
 20
62.462312058114662
 30
-2.5
 11
78.762303935094934
 21
60.962312058114662
 31
-2.5
  0
LINE
  5
1698
  8
0
 10
79.464173711214301
 20
62.040087366756623
 30
-2.5
 11
79.464173711214301
 21
60.962312058114662
 31
-2.5
  0
LINE
  5
1699
  8
2
 10
79.208136397781445
 20
59.730512058114648
 30
-2.5
 11
77.089273711214304
 21
59.730512058114648
 31
-2.5
  0
LINE
  5
169A
  8
0
 10
78.762303935094934
 20
59.462312058114662
 30
-2.5
 11
77.089273711214304
 21
59.462312058114662
 31
-2.5
  0
LINE
  5
169B
  8
0
 10
79.464173711214301
 20
59.884536749472701
 30
-2.5
 11
79.464173711214301
 21
60.962312058114662
 31
-2.5
  0
LINE
  5
169C
  8
0
 10
78.762303935094934
 20
59.462312058114662
 30
-2.5
 11
78.762303935094934
 21
60.962312058114662
 31
-2.5
  0
LINE
  5
16E7
  8
0
 39
5.0
 10
109.7612737112143
 20
138.79561205811461
 30
0.0
 11
112.5937737112143
 21
138.79561205811461
 31
0.0
  0
LINE
  5
16E8
  8
0
 39
5.0
 10
112.5937737112143
 20
138.79561205811461
 30
0.0
 11
112.5937737112143
 21
140.79561205811461
 31
0.0
  0
LINE
  5
16E9
  8
0
 39
5.0
 10
109.7612737112143
 20
138.79561205811461
 30
0.0
 11
106.92877371121421
 21
138.79561205811461
 31
0.0
  0
LINE
  5
16EA
  8
0
 39
5.0
 10
106.92877371121421
 20
138.79561205811461
 30
0.0
 11
106.92877371121421
 21
140.79561205811461
 31
0.0
  0
LINE
  5
16EB
  8
0
 39
5.0
 10
113.4671737112142
 20
90.989912058114669
 30
0.0
 11
116.1229737112142
 21
90.989912058114669
 31
0.0
  0
LINE
  5
16EC
  8
0
 39
5.0
 10
116.1229737112142
 20
90.989912058114669
 30
0.0
 11
116.1229737112142
 21
90.989912058114669
 31
0.0
  0
LINE
  5
16ED
  8
0
 39
5.0
 10
116.1229737112142
 20
90.989912058114669
 30
0.0
 11
116.1883737112143
 21
90.993212058114679
 31
0.0
  0
LINE
  5
16EE
  8
0
 39
5.0
 10
116.1883737112143
 20
90.993212058114679
 30
0.0
 11
116.25207371121419
 21
91.003212058114656
 31
0.0
  0
LINE
  5
16EF
  8
0
 39
5.0
 10
116.25207371121419
 20
91.003212058114656
 30
0.0
 11
116.3135737112143
 21
91.019412058114696
 31
0.0
  0
LINE
  5
16F0
  8
0
 39
5.0
 10
116.3135737112143
 20
91.019412058114696
 30
0.0
 11
116.3726737112142
 21
91.041512058114677
 31
0.0
  0
LINE
  5
16F1
  8
0
 39
5.0
 10
116.3726737112142
 20
91.041512058114677
 30
0.0
 11
116.42877371121421
 21
91.069112058114669
 31
0.0
  0
LINE
  5
16F2
  8
0
 39
5.0
 10
116.42877371121421
 20
91.069112058114669
 30
0.0
 11
116.48187371121431
 21
91.102012058114695
 31
0.0
  0
LINE
  5
16F3
  8
0
 39
5.0
 10
116.48187371121431
 20
91.102012058114695
 30
0.0
 11
116.5313737112142
 21
91.139712058114682
 31
0.0
  0
LINE
  5
16F4
  8
0
 39
5.0
 10
116.5313737112142
 20
91.139712058114682
 30
0.0
 11
116.5772737112143
 21
91.182212058114672
 31
0.0
  0
LINE
  5
16F5
  8
0
 39
5.0
 10
116.5772737112143
 20
91.182212058114672
 30
0.0
 11
116.6187737112142
 21
91.228612058114663
 31
0.0
  0
LINE
  5
16F6
  8
0
 39
5.0
 10
116.6187737112142
 20
91.228612058114663
 30
0.0
 11
116.6559737112143
 21
91.279112058114677
 31
0.0
  0
LINE
  5
16F7
  8
0
 39
5.0
 10
116.6559737112143
 20
91.279112058114677
 30
0.0
 11
116.68827371121419
 21
91.333112058114679
 31
0.0
  0
LINE
  5
16F8
  8
0
 39
5.0
 10
116.68827371121419
 20
91.333112058114679
 30
0.0
 11
116.7155737112142
 21
91.390412058114677
 31
0.0
  0
LINE
  5
16F9
  8
0
 39
5.0
 10
116.7155737112142
 20
91.390412058114677
 30
0.0
 11
116.7371737112143
 21
91.450512058114668
 31
0.0
  0
LINE
  5
16FA
  8
0
 39
5.0
 10
116.7371737112143
 20
91.450512058114668
 30
0.0
 11
116.7531737112142
 21
91.513212058114675
 31
0.0
  0
LINE
  5
16FB
  8
0
 39
5.0
 10
116.7531737112142
 20
91.513212058114675
 30
0.0
 11
116.7629737112143
 21
91.57801205811468
 31
0.0
  0
LINE
  5
16FC
  8
0
 39
5.0
 10
116.7629737112143
 20
91.57801205811468
 30
0.0
 11
116.7663737112142
 21
91.64491205811467
 31
0.0
  0
LINE
  5
16FD
  8
0
 39
5.0
 10
116.7663737112142
 20
91.64491205811467
 30
0.0
 11
116.7663737112142
 21
93.334912058114668
 31
0.0
  0
LINE
  5
16FE
  8
0
 39
5.0
 10
116.7663737112142
 20
93.334912058114668
 30
0.0
 11
116.7663737112142
 21
93.334912058114668
 31
0.0
  0
LINE
  5
16FF
  8
0
 39
5.0
 10
116.7663737112142
 20
93.334912058114668
 30
0.0
 11
116.7629737112143
 21
93.401512058114676
 31
0.0
  0
LINE
  5
1700
  8
0
 39
5.0
 10
116.7629737112143
 20
93.401512058114676
 30
0.0
 11
116.7531737112142
 21
93.466312058114667
 31
0.0
  0
LINE
  5
1701
  8
0
 39
5.0
 10
116.7531737112142
 20
93.466312058114667
 30
0.0
 11
116.7371737112143
 21
93.52891205811467
 31
0.0
  0
LINE
  5
1702
  8
0
 39
5.0
 10
116.7371737112143
 20
93.52891205811467
 30
0.0
 11
116.7155737112142
 21
93.589112058114679
 31
0.0
  0
LINE
  5
1703
  8
0
 39
5.0
 10
116.7155737112142
 20
93.589112058114679
 30
0.0
 11
116.68827371121419
 21
93.646212058114671
 31
0.0
  0
LINE
  5
1704
  8
0
 39
5.0
 10
116.68827371121419
 20
93.646212058114671
 30
0.0
 11
116.6559737112143
 21
93.700312058114676
 31
0.0
  0
LINE
  5
1705
  8
0
 39
5.0
 10
116.6559737112143
 20
93.700312058114676
 30
0.0
 11
116.6187737112142
 21
93.750712058114672
 31
0.0
  0
LINE
  5
1706
  8
0
 39
5.0
 10
116.6187737112142
 20
93.750712058114672
 30
0.0
 11
116.5772737112143
 21
93.797412058114674
 31
0.0
  0
LINE
  5
1707
  8
0
 39
5.0
 10
116.5772737112143
 20
93.797412058114674
 30
0.0
 11
116.5313737112142
 21
93.839712058114685
 31
0.0
  0
LINE
  5
1708
  8
0
 39
5.0
 10
116.5313737112142
 20
93.839712058114685
 30
0.0
 11
116.48187371121431
 21
93.877512058114675
 31
0.0
  0
LINE
  5
1709
  8
0
 39
5.0
 10
116.48187371121431
 20
93.877512058114675
 30
0.0
 11
116.42877371121421
 21
93.910412058114659
 31
0.0
  0
LINE
  5
170A
  8
0
 39
5.0
 10
116.42877371121421
 20
93.910412058114659
 30
0.0
 11
116.3726737112142
 21
93.938112058114655
 31
0.0
  0
LINE
  5
170B
  8
0
 39
5.0
 10
116.3726737112142
 20
93.938112058114655
 30
0.0
 11
116.3135737112143
 21
93.960112058114674
 31
0.0
  0
LINE
  5
170C
  8
0
 39
5.0
 10
116.3135737112143
 20
93.960112058114674
 30
0.0
 11
116.25207371121419
 21
93.976412058114676
 31
0.0
  0
LINE
  5
170D
  8
0
 39
5.0
 10
116.25207371121419
 20
93.976412058114676
 30
0.0
 11
116.1883737112143
 21
93.986412058114681
 31
0.0
  0
LINE
  5
170E
  8
0
 39
5.0
 10
116.1883737112143
 20
93.986412058114681
 30
0.0
 11
116.1229737112142
 21
93.989912058114669
 31
0.0
  0
LINE
  5
170F
  8
0
 39
5.0
 10
113.4671737112142
 20
94.035712058114655
 30
0.0
 11
116.1229737112142
 21
94.035712058114655
 31
0.0
  0
LINE
  5
1710
  8
0
 39
5.0
 10
116.1229737112142
 20
94.035712058114655
 30
0.0
 11
116.1229737112142
 21
94.035712058114655
 31
0.0
  0
LINE
  5
1711
  8
0
 39
5.0
 10
116.1229737112142
 20
94.035712058114655
 30
0.0
 11
116.1883737112143
 21
94.039012058114679
 31
0.0
  0
LINE
  5
1712
  8
0
 39
5.0
 10
116.1883737112143
 20
94.039012058114679
 30
0.0
 11
116.25207371121419
 21
94.049012058114684
 31
0.0
  0
LINE
  5
1713
  8
0
 39
5.0
 10
116.25207371121419
 20
94.049012058114684
 30
0.0
 11
116.3135737112143
 21
94.065212058114682
 31
0.0
  0
LINE
  5
1714
  8
0
 39
5.0
 10
116.3135737112143
 20
94.065212058114682
 30
0.0
 11
116.3726737112142
 21
94.087312058114676
 31
0.0
  0
LINE
  5
1715
  8
0
 39
5.0
 10
116.3726737112142
 20
94.087312058114676
 30
0.0
 11
116.42877371121421
 21
94.114912058114669
 31
0.0
  0
LINE
  5
1716
  8
0
 39
5.0
 10
116.42877371121421
 20
94.114912058114669
 30
0.0
 11
116.48187371121431
 21
94.147812058114681
 31
0.0
  0
LINE
  5
1717
  8
0
 39
5.0
 10
116.48187371121431
 20
94.147812058114681
 30
0.0
 11
116.5313737112142
 21
94.185512058114682
 31
0.0
  0
LINE
  5
1718
  8
0
 39
5.0
 10
116.5313737112142
 20
94.185512058114682
 30
0.0
 11
116.5772737112143
 21
94.228012058114672
 31
0.0
  0
LINE
  5
1719
  8
0
 39
5.0
 10
116.5772737112143
 20
94.228012058114672
 30
0.0
 11
116.6187737112142
 21
94.274412058114663
 31
0.0
  0
LINE
  5
171A
  8
0
 39
5.0
 10
116.6187737112142
 20
94.274412058114663
 30
0.0
 11
116.6559737112143
 21
94.324912058114677
 31
0.0
  0
LINE
  5
171B
  8
0
 39
5.0
 10
116.6559737112143
 20
94.324912058114677
 30
0.0
 11
116.68827371121419
 21
94.378912058114665
 31
0.0
  0
LINE
  5
171C
  8
0
 39
5.0
 10
116.68827371121419
 20
94.378912058114665
 30
0.0
 11
116.7155737112142
 21
94.436212058114677
 31
0.0
  0
LINE
  5
171D
  8
0
 39
5.0
 10
116.7155737112142
 20
94.436212058114677
 30
0.0
 11
116.7371737112143
 21
94.496312058114697
 31
0.0
  0
LINE
  5
171E
  8
0
 39
5.0
 10
116.7371737112143
 20
94.496312058114697
 30
0.0
 11
116.7531737112142
 21
94.559012058114675
 31
0.0
  0
LINE
  5
171F
  8
0
 39
5.0
 10
116.7531737112142
 20
94.559012058114675
 30
0.0
 11
116.7629737112143
 21
94.62381205811468
 31
0.0
  0
LINE
  5
1720
  8
0
 39
5.0
 10
116.7629737112143
 20
94.62381205811468
 30
0.0
 11
116.7663737112142
 21
94.690712058114656
 31
0.0
  0
LINE
  5
1721
  8
0
 39
5.0
 10
116.7663737112142
 20
94.690712058114656
 30
0.0
 11
116.7663737112142
 21
96.380712058114696
 31
0.0
  0
LINE
  5
1722
  8
0
 39
5.0
 10
116.7663737112142
 20
96.380712058114696
 30
0.0
 11
116.7663737112142
 21
96.380712058114696
 31
0.0
  0
LINE
  5
1723
  8
0
 39
5.0
 10
116.7663737112142
 20
96.380712058114696
 30
0.0
 11
116.7629737112143
 21
96.447312058114676
 31
0.0
  0
LINE
  5
1724
  8
0
 39
5.0
 10
116.7629737112143
 20
96.447312058114676
 30
0.0
 11
116.7531737112142
 21
96.512112058114695
 31
0.0
  0
LINE
  5
1725
  8
0
 39
5.0
 10
116.7531737112142
 20
96.512112058114695
 30
0.0
 11
116.7371737112143
 21
96.574712058114685
 31
0.0
  0
LINE
  5
1726
  8
0
 39
5.0
 10
116.7371737112143
 20
96.574712058114685
 30
0.0
 11
116.7155737112142
 21
96.634912058114665
 31
0.0
  0
LINE
  5
1727
  8
0
 39
5.0
 10
116.7155737112142
 20
96.634912058114665
 30
0.0
 11
116.68827371121419
 21
96.692012058114685
 31
0.0
  0
LINE
  5
1728
  8
0
 39
5.0
 10
116.68827371121419
 20
96.692012058114685
 30
0.0
 11
116.6559737112143
 21
96.746112058114676
 31
0.0
  0
LINE
  5
1729
  8
0
 39
5.0
 10
116.6559737112143
 20
96.746112058114676
 30
0.0
 11
116.6187737112142
 21
96.796512058114672
 31
0.0
  0
LINE
  5
172A
  8
0
 39
5.0
 10
116.6187737112142
 20
96.796512058114672
 30
0.0
 11
116.5772737112143
 21
96.843212058114673
 31
0.0
  0
LINE
  5
172B
  8
0
 39
5.0
 10
116.5772737112143
 20
96.843212058114673
 30
0.0
 11
116.5313737112142
 21
96.885512058114671
 31
0.0
  0
LINE
  5
172C
  8
0
 39
5.0
 10
116.5313737112142
 20
96.885512058114671
 30
0.0
 11
116.48187371121431
 21
96.923312058114675
 31
0.0
  0
LINE
  5
172D
  8
0
 39
5.0
 10
116.48187371121431
 20
96.923312058114675
 30
0.0
 11
116.42877371121421
 21
96.956212058114673
 31
0.0
  0
LINE
  5
172E
  8
0
 39
5.0
 10
116.42877371121421
 20
96.956212058114673
 30
0.0
 11
116.3726737112142
 21
96.983912058114683
 31
0.0
  0
LINE
  5
172F
  8
0
 39
5.0
 10
116.3726737112142
 20
96.983912058114683
 30
0.0
 11
116.3135737112143
 21
97.005912058114674
 31
0.0
  0
LINE
  5
1730
  8
0
 39
5.0
 10
116.3135737112143
 20
97.005912058114674
 30
0.0
 11
116.25207371121419
 21
97.022212058114675
 31
0.0
  0
LINE
  5
1731
  8
0
 39
5.0
 10
116.25207371121419
 20
97.022212058114675
 30
0.0
 11
116.1883737112143
 21
97.032212058114681
 31
0.0
  0
LINE
  5
1732
  8
0
 39
5.0
 10
116.1883737112143
 20
97.032212058114681
 30
0.0
 11
116.1229737112142
 21
97.035712058114669
 31
0.0
  0
LINE
  5
1733
  8
0
 39
5.0
 10
106.0553737112143
 20
94.035712058114655
 30
0.0
 11
103.3995737112143
 21
94.035712058114655
 31
0.0
  0
LINE
  5
1734
  8
0
 39
5.0
 10
103.3995737112143
 20
94.035712058114655
 30
0.0
 11
103.3995737112143
 21
94.035712058114655
 31
0.0
  0
LINE
  5
1735
  8
0
 39
5.0
 10
103.3995737112143
 20
94.035712058114655
 30
0.0
 11
103.33417371121431
 21
94.039012058114679
 31
0.0
  0
LINE
  5
1736
  8
0
 39
5.0
 10
103.33417371121431
 20
94.039012058114679
 30
0.0
 11
103.27047371121429
 21
94.049012058114684
 31
0.0
  0
LINE
  5
1737
  8
0
 39
5.0
 10
103.27047371121429
 20
94.049012058114684
 30
0.0
 11
103.2089737112142
 21
94.065212058114682
 31
0.0
  0
LINE
  5
1738
  8
0
 39
5.0
 10
103.2089737112142
 20
94.065212058114682
 30
0.0
 11
103.1498737112143
 21
94.087312058114676
 31
0.0
  0
LINE
  5
1739
  8
0
 39
5.0
 10
103.1498737112143
 20
94.087312058114676
 30
0.0
 11
103.0937737112143
 21
94.114912058114669
 31
0.0
  0
LINE
  5
173A
  8
0
 39
5.0
 10
103.0937737112143
 20
94.114912058114669
 30
0.0
 11
103.0406737112143
 21
94.147812058114681
 31
0.0
  0
LINE
  5
173B
  8
0
 39
5.0
 10
103.0406737112143
 20
94.147812058114681
 30
0.0
 11
102.9911737112143
 21
94.185512058114682
 31
0.0
  0
LINE
  5
173C
  8
0
 39
5.0
 10
102.9911737112143
 20
94.185512058114682
 30
0.0
 11
102.9452737112142
 21
94.228012058114672
 31
0.0
  0
LINE
  5
173D
  8
0
 39
5.0
 10
102.9452737112142
 20
94.228012058114672
 30
0.0
 11
102.9037737112143
 21
94.274412058114663
 31
0.0
  0
LINE
  5
173E
  8
0
 39
5.0
 10
102.9037737112143
 20
94.274412058114663
 30
0.0
 11
102.8665737112143
 21
94.324912058114677
 31
0.0
  0
LINE
  5
173F
  8
0
 39
5.0
 10
102.8665737112143
 20
94.324912058114677
 30
0.0
 11
102.83427371121429
 21
94.378912058114665
 31
0.0
  0
LINE
  5
1740
  8
0
 39
5.0
 10
102.83427371121429
 20
94.378912058114665
 30
0.0
 11
102.8069737112143
 21
94.436212058114677
 31
0.0
  0
LINE
  5
1741
  8
0
 39
5.0
 10
102.8069737112143
 20
94.436212058114677
 30
0.0
 11
102.78537371121431
 21
94.496312058114697
 31
0.0
  0
LINE
  5
1742
  8
0
 39
5.0
 10
102.78537371121431
 20
94.496312058114697
 30
0.0
 11
102.7693737112143
 21
94.559012058114675
 31
0.0
  0
LINE
  5
1743
  8
0
 39
5.0
 10
102.7693737112143
 20
94.559012058114675
 30
0.0
 11
102.7595737112143
 21
94.62381205811468
 31
0.0
  0
LINE
  5
1744
  8
0
 39
5.0
 10
102.7595737112143
 20
94.62381205811468
 30
0.0
 11
102.7561737112143
 21
94.690712058114656
 31
0.0
  0
LINE
  5
1745
  8
0
 39
5.0
 10
102.7561737112143
 20
94.690712058114656
 30
0.0
 11
102.7561737112143
 21
96.380712058114696
 31
0.0
  0
LINE
  5
1746
  8
0
 39
5.0
 10
102.7561737112143
 20
96.380712058114696
 30
0.0
 11
102.7561737112143
 21
96.380712058114696
 31
0.0
  0
LINE
  5
1747
  8
0
 39
5.0
 10
102.7561737112143
 20
96.380712058114696
 30
0.0
 11
102.7595737112143
 21
96.447312058114676
 31
0.0
  0
LINE
  5
1748
  8
0
 39
5.0
 10
102.7595737112143
 20
96.447312058114676
 30
0.0
 11
102.7693737112143
 21
96.512112058114695
 31
0.0
  0
LINE
  5
1749
  8
0
 39
5.0
 10
102.7693737112143
 20
96.512112058114695
 30
0.0
 11
102.78537371121431
 21
96.574712058114685
 31
0.0
  0
LINE
  5
174A
  8
0
 39
5.0
 10
102.78537371121431
 20
96.574712058114685
 30
0.0
 11
102.8069737112143
 21
96.634912058114665
 31
0.0
  0
LINE
  5
174B
  8
0
 39
5.0
 10
102.8069737112143
 20
96.634912058114665
 30
0.0
 11
102.83427371121429
 21
96.692012058114685
 31
0.0
  0
LINE
  5
174C
  8
0
 39
5.0
 10
102.83427371121429
 20
96.692012058114685
 30
0.0
 11
102.8665737112143
 21
96.746112058114676
 31
0.0
  0
LINE
  5
174D
  8
0
 39
5.0
 10
102.8665737112143
 20
96.746112058114676
 30
0.0
 11
102.9037737112143
 21
96.796512058114672
 31
0.0
  0
LINE
  5
174E
  8
0
 39
5.0
 10
102.9037737112143
 20
96.796512058114672
 30
0.0
 11
102.9452737112142
 21
96.843212058114673
 31
0.0
  0
LINE
  5
174F
  8
0
 39
5.0
 10
102.9452737112142
 20
96.843212058114673
 30
0.0
 11
102.9911737112143
 21
96.885512058114671
 31
0.0
  0
LINE
  5
1750
  8
0
 39
5.0
 10
102.9911737112143
 20
96.885512058114671
 30
0.0
 11
103.0406737112143
 21
96.923312058114675
 31
0.0
  0
LINE
  5
1751
  8
0
 39
5.0
 10
103.0406737112143
 20
96.923312058114675
 30
0.0
 11
103.0937737112143
 21
96.956212058114673
 31
0.0
  0
LINE
  5
1752
  8
0
 39
5.0
 10
103.0937737112143
 20
96.956212058114673
 30
0.0
 11
103.1498737112143
 21
96.983912058114683
 31
0.0
  0
LINE
  5
1753
  8
0
 39
5.0
 10
103.1498737112143
 20
96.983912058114683
 30
0.0
 11
103.2089737112142
 21
97.005912058114674
 31
0.0
  0
LINE
  5
1754
  8
0
 39
5.0
 10
103.2089737112142
 20
97.005912058114674
 30
0.0
 11
103.27047371121429
 21
97.022212058114675
 31
0.0
  0
LINE
  5
1755
  8
0
 39
5.0
 10
103.27047371121429
 20
97.022212058114675
 30
0.0
 11
103.33417371121431
 21
97.032212058114681
 31
0.0
  0
LINE
  5
1756
  8
0
 39
5.0
 10
103.33417371121431
 20
97.032212058114681
 30
0.0
 11
103.3995737112143
 21
97.035712058114669
 31
0.0
  0
LINE
  5
1757
  8
0
 39
5.0
 10
106.0553737112143
 20
90.989912058114669
 30
0.0
 11
103.3995737112143
 21
90.989912058114669
 31
0.0
  0
LINE
  5
1758
  8
0
 39
5.0
 10
103.3995737112143
 20
90.989912058114669
 30
0.0
 11
103.3995737112143
 21
90.989912058114669
 31
0.0
  0
LINE
  5
1759
  8
0
 39
5.0
 10
103.3995737112143
 20
90.989912058114669
 30
0.0
 11
103.33417371121431
 21
90.993212058114679
 31
0.0
  0
LINE
  5
175A
  8
0
 39
5.0
 10
103.33417371121431
 20
90.993212058114679
 30
0.0
 11
103.27047371121429
 21
91.003212058114656
 31
0.0
  0
LINE
  5
175B
  8
0
 39
5.0
 10
103.27047371121429
 20
91.003212058114656
 30
0.0
 11
103.2089737112142
 21
91.019412058114696
 31
0.0
  0
LINE
  5
175C
  8
0
 39
5.0
 10
103.2089737112142
 20
91.019412058114696
 30
0.0
 11
103.1498737112143
 21
91.041512058114677
 31
0.0
  0
LINE
  5
175D
  8
0
 39
5.0
 10
103.1498737112143
 20
91.041512058114677
 30
0.0
 11
103.0937737112143
 21
91.069112058114669
 31
0.0
  0
LINE
  5
175E
  8
0
 39
5.0
 10
103.0937737112143
 20
91.069112058114669
 30
0.0
 11
103.0406737112143
 21
91.102012058114695
 31
0.0
  0
LINE
  5
175F
  8
0
 39
5.0
 10
103.0406737112143
 20
91.102012058114695
 30
0.0
 11
102.9911737112143
 21
91.139712058114682
 31
0.0
  0
LINE
  5
1760
  8
0
 39
5.0
 10
102.9911737112143
 20
91.139712058114682
 30
0.0
 11
102.9452737112142
 21
91.182212058114672
 31
0.0
  0
LINE
  5
1761
  8
0
 39
5.0
 10
102.9452737112142
 20
91.182212058114672
 30
0.0
 11
102.9037737112143
 21
91.228612058114663
 31
0.0
  0
LINE
  5
1762
  8
0
 39
5.0
 10
102.9037737112143
 20
91.228612058114663
 30
0.0
 11
102.8665737112143
 21
91.279112058114677
 31
0.0
  0
LINE
  5
1763
  8
0
 39
5.0
 10
102.8665737112143
 20
91.279112058114677
 30
0.0
 11
102.83427371121429
 21
91.333112058114679
 31
0.0
  0
LINE
  5
1764
  8
0
 39
5.0
 10
102.83427371121429
 20
91.333112058114679
 30
0.0
 11
102.8069737112143
 21
91.390412058114677
 31
0.0
  0
LINE
  5
1765
  8
0
 39
5.0
 10
102.8069737112143
 20
91.390412058114677
 30
0.0
 11
102.78537371121431
 21
91.450512058114668
 31
0.0
  0
LINE
  5
1766
  8
0
 39
5.0
 10
102.78537371121431
 20
91.450512058114668
 30
0.0
 11
102.7693737112143
 21
91.513212058114675
 31
0.0
  0
LINE
  5
1767
  8
0
 39
5.0
 10
102.7693737112143
 20
91.513212058114675
 30
0.0
 11
102.7595737112143
 21
91.57801205811468
 31
0.0
  0
LINE
  5
1768
  8
0
 39
5.0
 10
102.7595737112143
 20
91.57801205811468
 30
0.0
 11
102.7561737112143
 21
91.64491205811467
 31
0.0
  0
LINE
  5
1769
  8
0
 39
5.0
 10
102.7561737112143
 20
91.64491205811467
 30
0.0
 11
102.7561737112143
 21
93.334912058114668
 31
0.0
  0
LINE
  5
176A
  8
0
 39
5.0
 10
102.7561737112143
 20
93.334912058114668
 30
0.0
 11
102.7561737112143
 21
93.334912058114668
 31
0.0
  0
LINE
  5
176B
  8
0
 39
5.0
 10
102.7561737112143
 20
93.334912058114668
 30
0.0
 11
102.7595737112143
 21
93.401512058114676
 31
0.0
  0
LINE
  5
176C
  8
0
 39
5.0
 10
102.7595737112143
 20
93.401512058114676
 30
0.0
 11
102.7693737112143
 21
93.466312058114667
 31
0.0
  0
LINE
  5
176D
  8
0
 39
5.0
 10
102.7693737112143
 20
93.466312058114667
 30
0.0
 11
102.78537371121431
 21
93.52891205811467
 31
0.0
  0
LINE
  5
176E
  8
0
 39
5.0
 10
102.78537371121431
 20
93.52891205811467
 30
0.0
 11
102.8069737112143
 21
93.589112058114679
 31
0.0
  0
LINE
  5
176F
  8
0
 39
5.0
 10
102.8069737112143
 20
93.589112058114679
 30
0.0
 11
102.83427371121429
 21
93.646212058114671
 31
0.0
  0
LINE
  5
1770
  8
0
 39
5.0
 10
102.83427371121429
 20
93.646212058114671
 30
0.0
 11
102.8665737112143
 21
93.700312058114676
 31
0.0
  0
LINE
  5
1771
  8
0
 39
5.0
 10
102.8665737112143
 20
93.700312058114676
 30
0.0
 11
102.9037737112143
 21
93.750712058114672
 31
0.0
  0
LINE
  5
1772
  8
0
 39
5.0
 10
102.9037737112143
 20
93.750712058114672
 30
0.0
 11
102.9452737112142
 21
93.797412058114674
 31
0.0
  0
LINE
  5
1773
  8
0
 39
5.0
 10
102.9452737112142
 20
93.797412058114674
 30
0.0
 11
102.9911737112143
 21
93.839712058114685
 31
0.0
  0
LINE
  5
1774
  8
0
 39
5.0
 10
102.9911737112143
 20
93.839712058114685
 30
0.0
 11
103.0406737112143
 21
93.877512058114675
 31
0.0
  0
LINE
  5
1775
  8
0
 39
5.0
 10
103.0406737112143
 20
93.877512058114675
 30
0.0
 11
103.0937737112143
 21
93.910412058114659
 31
0.0
  0
LINE
  5
1776
  8
0
 39
5.0
 10
103.0937737112143
 20
93.910412058114659
 30
0.0
 11
103.1498737112143
 21
93.938112058114655
 31
0.0
  0
LINE
  5
1777
  8
0
 39
5.0
 10
103.1498737112143
 20
93.938112058114655
 30
0.0
 11
103.2089737112142
 21
93.960112058114674
 31
0.0
  0
LINE
  5
1778
  8
0
 39
5.0
 10
103.2089737112142
 20
93.960112058114674
 30
0.0
 11
103.27047371121429
 21
93.976412058114676
 31
0.0
  0
LINE
  5
1779
  8
0
 39
5.0
 10
103.27047371121429
 20
93.976412058114676
 30
0.0
 11
103.33417371121431
 21
93.986412058114681
 31
0.0
  0
LINE
  5
177A
  8
0
 39
5.0
 10
103.33417371121431
 20
93.986412058114681
 30
0.0
 11
103.3995737112143
 21
93.989912058114669
 31
0.0
  0
ENDSEC
  0
EOF
