  0
SECTION
  2
HEADER
  9
$ACADVER
  1
AC1009
  9
$INSBASE
 10
0.0
 20
0.0
 30
0.0
  9
$EXTMIN
 10
34.350643975861978
 20
49.439113021275517
 30
0.0
  9
$EXTMAX
 10
123.3402125453931
 20
142.75455837598639
 30
7.5
  9
$LIMMIN
 10
0.0
 20
0.0
  9
$LIMMAX
 10
420.0
 20
297.0
  9
$ORTHOMODE
 70
     0
  9
$REGENMODE
 70
     1
  9
$FILLMODE
 70
     1
  9
$QTEXTMODE
 70
     0
  9
$MIRRTEXT
 70
     1
  9
$DRAGMODE
 70
     2
  9
$LTSCALE
 40
0.3
  9
$OSMODE
 70
    37
  9
$ATTMODE
 70
     1
  9
$TEXTSIZE
 40
2.5
  9
$TRACEWID
 40
1.0
  9
$TEXTSTYLE
  7
STANDARD
  9
$CLAYER
  8
2
  9
$CELTYPE
  6
BYLAYER
  9
$CECOLOR
 62
   256
  9
$DIMSCALE
 40
1.0
  9
$DIMASZ
 40
2.5
  9
$DIMEXO
 40
0.625
  9
$DIMDLI
 40
3.75
  9
$DIMRND
 40
0.0
  9
$DIMDLE
 40
0.0
  9
$DIMEXE
 40
1.25
  9
$DIMTP
 40
0.0
  9
$DIMTM
 40
0.0
  9
$DIMTXT
 40
2.5
  9
$DIMCEN
 40
2.5
  9
$DIMTSZ
 40
0.0
  9
$DIMTOL
 70
     0
  9
$DIMLIM
 70
     0
  9
$DIMTIH
 70
     0
  9
$DIMTOH
 70
     0
  9
$DIMSE1
 70
     0
  9
$DIMSE2
 70
     0
  9
$DIMTAD
 70
     1
  9
$DIMZIN
 70
     8
  9
$DIMBLK
  1

  9
$DIMASO
 70
     1
  9
$DIMSHO
 70
     1
  9
$DIMPOST
  1

  9
$DIMAPOST
  1

  9
$DIMALT
 70
     0
  9
$DIMALTD
 70
     3
  9
$DIMALTF
 40
0.03937007874016
  9
$DIMLFAC
 40
1.0
  9
$DIMTOFL
 70
     1
  9
$DIMTVP
 40
0.0
  9
$DIMTIX
 70
     0
  9
$DIMSOXD
 70
     0
  9
$DIMSAH
 70
     0
  9
$DIMBLK1
  1

  9
$DIMBLK2
  1

  9
$DIMSTYLE
  2
ISO-25
  9
$DIMCLRD
 70
     0
  9
$DIMCLRE
 70
     0
  9
$DIMCLRT
 70
     0
  9
$DIMTFAC
 40
1.0
  9
$DIMGAP
 40
0.625
  9
$LUNITS
 70
     2
  9
$LUPREC
 70
     4
  9
$SKETCHINC
 40
1.0
  9
$FILLETRAD
 40
10.0
  9
$AUNITS
 70
     0
  9
$AUPREC
 70
     0
  9
$MENU
  1
.
  9
$ELEVATION
 40
0.0
  9
$PELEVATION
 40
0.0
  9
$THICKNESS
 40
0.0
  9
$LIMCHECK
 70
     0
  9
$BLIPMODE
 70
     0
  9
$CHAMFERA
 40
10.0
  9
$CHAMFERB
 40
10.0
  9
$SKPOLY
 70
     0
  9
$TDCREATE
 40
2453446.4471506709
  9
$TDUPDATE
 40
2453551.93524375
  9
$TDINDWG
 40
0.1850476968
  9
$TDUSRTIMER
 40
0.185047581
  9
$USRTIMER
 70
     1
  9
$ANGBASE
 50
0.0
  9
$ANGDIR
 70
     0
  9
$PDMODE
 70
     0
  9
$PDSIZE
 40
0.0
  9
$PLINEWID
 40
0.0
  9
$COORDS
 70
     1
  9
$SPLFRAME
 70
     0
  9
$SPLINETYPE
 70
     6
  9
$SPLINESEGS
 70
     8
  9
$ATTDIA
 70
     0
  9
$ATTREQ
 70
     1
  9
$HANDLING
 70
-16383
  9
$HANDSEED
  5
2294
  9
$SURFTAB1
 70
     6
  9
$SURFTAB2
 70
     6
  9
$SURFTYPE
 70
     6
  9
$SURFU
 70
     6
  9
$SURFV
 70
     6
  9
$UCSNAME
  2

  9
$UCSORG
 10
0.0
 20
0.0
 30
0.0
  9
$UCSXDIR
 10
1.0
 20
0.0
 30
0.0
  9
$UCSYDIR
 10
0.0
 20
1.0
 30
0.0
  9
$PUCSNAME
  2

  9
$PUCSORG
 10
0.0
 20
0.0
 30
0.0
  9
$PUCSXDIR
 10
1.0
 20
0.0
 30
0.0
  9
$PUCSYDIR
 10
0.0
 20
1.0
 30
0.0
  9
$USERI1
 70
     0
  9
$USERI2
 70
     0
  9
$USERI3
 70
     0
  9
$USERI4
 70
     0
  9
$USERI5
 70
     0
  9
$USERR1
 40
0.0
  9
$USERR2
 40
0.0
  9
$USERR3
 40
0.0
  9
$USERR4
 40
0.0
  9
$USERR5
 40
0.0
  9
$WORLDVIEW
 70
     1
  9
$SHADEDGE
 70
     3
  9
$SHADEDIF
 70
    70
  9
$TILEMODE
 70
     1
  9
$MAXACTVP
 70
    64
  9
$PLIMCHECK
 70
     0
  9
$PEXTMIN
 10
1.0000000000000000E+020
 20
1.0000000000000000E+020
 30
1.0000000000000000E+020
  9
$PEXTMAX
 10
-1.0000000000000000E+020
 20
-1.0000000000000000E+020
 30
-1.0000000000000000E+020
  9
$PLIMMIN
 10
0.0
 20
0.0
  9
$PLIMMAX
 10
420.0
 20
297.0
  9
$UNITMODE
 70
     0
  9
$VISRETAIN
 70
     1
  9
$PLINEGEN
 70
     0
  9
$PSLTSCALE
 70
     1
  0
ENDSEC
  0
SECTION
  2
TABLES
  0
TABLE
  2
VPORT
 70
     2
  0
VPORT
  2
*ACTIVE
 70
     0
 10
0.0
 20
0.0
 11
1.0
 21
1.0
 12
101.9779194395807
 22
98.265131854651059
 13
0.0
 23
0.0
 14
10.0
 24
10.0
 15
10.0
 25
10.0
 16
0.0
 26
0.0
 36
1.0
 17
0.0
 27
0.0
 37
0.0
 40
115.0792297431619
 41
2.5392405063291141
 42
50.0
 43
0.0
 44
0.0
 50
0.0
 51
0.0
 71
     0
 72
   100
 73
     1
 74
     3
 75
     0
 76
     0
 77
     0
 78
     0
  0
ENDTAB
  0
TABLE
  2
LTYPE
 70
     3
  0
LTYPE
  2
CONTINUOUS
 70
     0
  3
Solid line
 72
    65
 73
     0
 40
0.0
  0
LTYPE
  2
CENTER
 70
     0
  3
Center ____ _ ____ _ ____ _ ____ _ ____ _ ____
 72
    65
 73
     4
 40
50.799999999999997
 49
31.75
 49
-6.3499999999999988
 49
6.3499999999999988
 49
-6.3499999999999988
  0
LTYPE
  2
DASHED2
 70
     0
  3
Dashed (.5x) _ _ _ _ _ _ _ _ _ _ _ _ _ _ _ _ _
 72
    65
 73
     2
 40
9.5249999999999986
 49
6.3499999999999988
 49
-3.1749999999999989
  0
ENDTAB
  0
TABLE
  2
LAYER
 70
     5
  0
LAYER
  2
0
 70
     0
 62
     7
  6
CONTINUOUS
  0
LAYER
  2
1
 70
     0
 62
     7
  6
CENTER
  0
LAYER
  2
2
 70
     0
 62
     7
  6
CONTINUOUS
  0
LAYER
  2
3
 70
     0
 62
     7
  6
DASHED2
  0
LAYER
  2
DEFPOINTS
 70
     0
 62
     7
  6
CONTINUOUS
  0
ENDTAB
  0
TABLE
  2
STYLE
 70
     4
  0
STYLE
  2
STANDARD
 70
     0
 40
0.0
 41
1.0
 50
0.0
 71
     0
 42
2.5
  3
txt
  4

  0
STYLE
  2
\U+00C9L\U+00C9R_\U+00C2S\U+00C2V\U+00C2B\U+00C2N
 70
     0
 40
1.0
 41
1.0
 50
0.0
 71
     0
 42
1.0
  3
\U+00E9l\U+00E9r \U+00E2S\U+00E2V\U+00E2b\U+00E2N
  4

  0
STYLE
  2
SWIS721_CN_BT
 70
     0
 40
1.0
 41
1.0
 50
0.0
 71
     0
 42
1.0
  3
Swis721 Cn BT
  4

  0
STYLE
  2

 70
     1
 40
0.0
 41
1.0
 50
0.0
 71
     0
 42
2.5
  3
ltypeshp.shx
  4

  0
ENDTAB
  0
TABLE
  2
VIEW
 70
     0
  0
ENDTAB
  0
TABLE
  2
UCS
 70
     0
  0
ENDTAB
  0
TABLE
  2
APPID
 70
     1
  0
APPID
  2
ACAD
 70
     0
  0
ENDTAB
  0
TABLE
  2
DIMSTYLE
 70
     2
  0
DIMSTYLE
  2
ISO-25
 70
     0
  3

  4

  5

  6

  7

 40
1.0
 41
2.5
 42
0.625
 43
3.75
 44
1.25
 45
0.0
 46
0.0
 47
0.0
 48
0.0
140
2.5
141
2.5
142
0.0
143
0.03937007874016
144
1.0
145
0.0
146
1.0
147
0.625
 71
     0
 72
     0
 73
     0
 74
     0
 75
     0
 76
     0
 77
     1
 78
     8
170
     0
171
     3
172
     1
173
     0
174
     0
175
     0
176
     0
177
     0
178
     0
  0
DIMSTYLE
  2
STANDARD
 70
     0
  3

  4

  5

  6

  7

 40
1.0
 41
0.18
 42
0.0625
 43
0.38
 44
0.18
 45
0.0
 46
0.0
 47
0.0
 48
0.0
140
0.18
141
0.09
142
0.0
143
25.399999999999999
144
1.0
145
0.0
146
1.0
147
0.09
 71
     0
 72
     0
 73
     1
 74
     1
 75
     0
 76
     0
 77
     0
 78
     0
170
     0
171
     2
172
     0
173
     0
174
     0
175
     0
176
     0
177
     0
178
     0
  0
ENDTAB
  0
ENDSEC
  0
SECTION
  2
BLOCKS
  0
BLOCK
  8
0
  2
$MODEL_SPACE
 70
     0
 10
0.0
 20
0.0
 30
0.0
  3
$MODEL_SPACE
  1

  0
ENDBLK
  5
21
  8
0
  0
BLOCK
 67
     1
  8
0
  2
$PAPER_SPACE
 70
     0
 10
0.0
 20
0.0
 30
0.0
  3
$PAPER_SPACE
  1

  0
ENDBLK
  5
1D
 67
     1
  8
0
  0
BLOCK
  8
0
  2
A$C3CE13CCA
 70
     0
 10
0.0
 20
0.0
 30
0.0
  3
A$C3CE13CCA
  1

  0
POLYLINE
  5
1140
  8
0
 66
     1
 10
0.0
 20
0.0
 30
0.0
 39
5.0
  0
VERTEX
  5
1D5F
  8
0
 10
0.6521600043770093
 20
0.3818293736327547
 30
0.0
  0
VERTEX
  5
1D60
  8
0
 10
0.6521600043770093
 20
0.3818293736327547
 30
0.0
  0
VERTEX
  5
1D61
  8
0
 10
0.703460004377007
 20
0.3793293736327428
 30
0.0
  0
VERTEX
  5
1D62
  8
0
 10
0.7530600043770052
 20
0.3718293736327496
 30
0.0
  0
VERTEX
  5
1D63
  8
0
 10
0.8010600043770068
 20
0.3595293736327534
 30
0.0
  0
VERTEX
  5
1D64
  8
0
 10
0.8468600043770067
 20
0.3426293736327466
 30
0.0
  0
VERTEX
  5
1D65
  8
0
 10
0.8906600043770112
 20
0.3217293736327491
 30
0.0
  0
VERTEX
  5
1D66
  8
0
 10
0.9318600043770005
 20
0.2966293736327543
 30
0.0
  0
VERTEX
  5
1D67
  8
0
 10
0.9703600043770138
 20
0.2678293736327504
 30
0.0
  0
VERTEX
  5
1D68
  8
0
 10
1.005760004377009
 20
0.2354293736327548
 30
0.0
  0
VERTEX
  5
1D69
  8
0
 10
1.0381600043770041
 20
0.2000293736327592
 30
0.0
  0
VERTEX
  5
1D6A
  8
0
 10
1.066960004377008
 20
0.1615293736327601
 30
0.0
  0
VERTEX
  5
1D6B
  8
0
 10
1.092060004377003
 20
0.1203293736327566
 30
0.0
  0
VERTEX
  5
1D6C
  8
0
 10
1.1129600043770149
 20
0.0765293736327522
 30
0.0
  0
VERTEX
  5
1D6D
  8
0
 10
1.1298600043770071
 20
0.0307293736327523
 30
0.0
  0
VERTEX
  5
1D6E
  8
0
 10
1.1421600043770179
 20
-0.0172706263672495
 30
0.0
  0
VERTEX
  5
1D6F
  8
0
 10
1.1496600043770111
 20
-0.0668706263672476
 30
0.0
  0
VERTEX
  5
1D70
  8
0
 10
1.1521600043770091
 20
-0.1181706263672453
 30
0.0
  0
VERTEX
  5
1D71
  8
0
 10
1.1521600043770091
 20
-0.1181706263672453
 30
0.0
  0
VERTEX
  5
1D72
  8
0
 10
1.1496600043770111
 20
-0.1691706263672472
 30
0.0
  0
VERTEX
  5
1D73
  8
0
 10
1.1421600043770179
 20
-0.2187706263672453
 30
0.0
  0
VERTEX
  5
1D74
  8
0
 10
1.1298600043770071
 20
-0.2666706263672438
 30
0.0
  0
VERTEX
  5
1D75
  8
0
 10
1.1129600043770149
 20
-0.3126706263672503
 30
0.0
  0
VERTEX
  5
1D76
  8
0
 10
1.092060004377003
 20
-0.3562706263672481
 30
0.0
  0
VERTEX
  5
1D77
  8
0
 10
1.066960004377008
 20
-0.3975706263672407
 30
0.0
  0
VERTEX
  5
1D78
  8
0
 10
1.0381600043770041
 20
-0.4359706263672507
 30
0.0
  0
VERTEX
  5
1D79
  8
0
 10
1.005760004377009
 20
-0.4716706263672564
 30
0.0
  0
VERTEX
  5
1D7A
  8
0
 10
0.9703600043770138
 20
-0.5037706263672419
 30
0.0
  0
VERTEX
  5
1D7B
  8
0
 10
0.9318600043770005
 20
-0.532570626367246
 30
0.0
  0
VERTEX
  5
1D7C
  8
0
 10
0.8906600043770112
 20
-0.5575706263672516
 30
0.0
  0
VERTEX
  5
1D7D
  8
0
 10
0.8468600043770067
 20
-0.578770626367259
 30
0.0
  0
VERTEX
  5
1D7E
  8
0
 10
0.8010600043770068
 20
-0.5955706263672483
 30
0.0
  0
VERTEX
  5
1D7F
  8
0
 10
0.7530600043770052
 20
-0.6079706263672478
 30
0.0
  0
VERTEX
  5
1D80
  8
0
 10
0.703460004377007
 20
-0.6154706263672553
 30
0.0
  0
VERTEX
  5
1D81
  8
0
 10
0.6521600043770093
 20
-0.6181706263672453
 30
0.0
  0
VERTEX
  5
1D82
  8
0
 10
0.6521600043770093
 20
-0.6181706263672453
 30
0.0
  0
VERTEX
  5
1D83
  8
0
 10
0.6011600043770075
 20
-0.6154706263672553
 30
0.0
  0
VERTEX
  5
1D84
  8
0
 10
0.5515600043770093
 20
-0.6079706263672478
 30
0.0
  0
VERTEX
  5
1D85
  8
0
 10
0.5036600043770108
 20
-0.5955706263672483
 30
0.0
  0
VERTEX
  5
1D86
  8
0
 10
0.4576600043770043
 20
-0.578770626367259
 30
0.0
  0
VERTEX
  5
1D87
  8
0
 10
0.4140600043770064
 20
-0.5575706263672516
 30
0.0
  0
VERTEX
  5
1D88
  8
0
 10
0.3727600043769996
 20
-0.532570626367246
 30
0.0
  0
VERTEX
  5
1D89
  8
0
 10
0.3343600043770039
 20
-0.5037706263672419
 30
0.0
  0
VERTEX
  5
1D8A
  8
0
 10
0.2986600043770124
 20
-0.4716706263672564
 30
0.0
  0
VERTEX
  5
1D8B
  8
0
 10
0.2665600043770127
 20
-0.4359706263672507
 30
0.0
  0
VERTEX
  5
1D8C
  8
0
 10
0.2377600043770087
 20
-0.3975706263672407
 30
0.0
  0
VERTEX
  5
1D8D
  8
0
 10
0.212760004377003
 20
-0.3562706263672481
 30
0.0
  0
VERTEX
  5
1D8E
  8
0
 10
0.1915600043770098
 20
-0.3126706263672503
 30
0.0
  0
VERTEX
  5
1D8F
  8
0
 10
0.1747600043770205
 20
-0.2666706263672438
 30
0.0
  0
VERTEX
  5
1D90
  8
0
 10
0.1623600043770068
 20
-0.2187706263672453
 30
0.0
  0
VERTEX
  5
1D91
  8
0
 10
0.1548600043770136
 20
-0.1691706263672472
 30
0.0
  0
VERTEX
  5
1D92
  8
0
 10
0.1521600043770093
 20
-0.1181706263672453
 30
0.0
  0
VERTEX
  5
1D93
  8
0
 10
0.1521600043770093
 20
-0.1181706263672453
 30
0.0
  0
VERTEX
  5
1D94
  8
0
 10
0.1548600043770136
 20
-0.0668706263672476
 30
0.0
  0
VERTEX
  5
1D95
  8
0
 10
0.1623600043770068
 20
-0.0172706263672495
 30
0.0
  0
VERTEX
  5
1D96
  8
0
 10
0.1747600043770205
 20
0.0307293736327523
 30
0.0
  0
VERTEX
  5
1D97
  8
0
 10
0.1915600043770098
 20
0.0765293736327522
 30
0.0
  0
VERTEX
  5
1D98
  8
0
 10
0.212760004377003
 20
0.1203293736327566
 30
0.0
  0
VERTEX
  5
1D99
  8
0
 10
0.2377600043770087
 20
0.1615293736327601
 30
0.0
  0
VERTEX
  5
1D9A
  8
0
 10
0.2665600043770127
 20
0.2000293736327592
 30
0.0
  0
VERTEX
  5
1D9B
  8
0
 10
0.2986600043770124
 20
0.2354293736327548
 30
0.0
  0
VERTEX
  5
1D9C
  8
0
 10
0.3343600043770039
 20
0.2678293736327504
 30
0.0
  0
VERTEX
  5
1D9D
  8
0
 10
0.3727600043769996
 20
0.2966293736327543
 30
0.0
  0
VERTEX
  5
1D9E
  8
0
 10
0.4140600043770064
 20
0.3217293736327491
 30
0.0
  0
VERTEX
  5
1D9F
  8
0
 10
0.4576600043770043
 20
0.3426293736327466
 30
0.0
  0
VERTEX
  5
1DA0
  8
0
 10
0.5036600043770108
 20
0.3595293736327534
 30
0.0
  0
VERTEX
  5
1DA1
  8
0
 10
0.5515600043770093
 20
0.3718293736327496
 30
0.0
  0
VERTEX
  5
1DA2
  8
0
 10
0.6011600043770075
 20
0.3793293736327428
 30
0.0
  0
VERTEX
  5
1DA3
  8
0
 10
0.6521600043770093
 20
0.3818293736327547
 30
0.0
  0
SEQEND
  5
1DA4
  8
0
  0
LINE
  5
1141
  8
1
 10
0.4576600043770043
 20
-0.578770626367259
 30
0.0
 11
1.2473600043770141
 21
-0.9706770751415518
 31
0.0
  0
LINE
  5
1142
  8
1
 10
0.8468600043770067
 20
0.3426293736327466
 30
0.0
 11
1.2473600043770141
 21
0.1416652096700517
 31
0.0
  0
POLYLINE
  5
1143
  8
0
 66
     1
 10
0.0
 20
0.0
 30
0.0
  0
VERTEX
  5
1DA5
  8
0
 10
0.6521600043770093
 20
0.3818293736327547
 30
0.0
  0
VERTEX
  5
1DA6
  8
0
 10
0.6521600043770093
 20
0.3818293736327547
 30
0.0
  0
VERTEX
  5
1DA7
  8
0
 10
0.703460004377007
 20
0.3793293736327428
 30
0.0
  0
VERTEX
  5
1DA8
  8
0
 10
0.7530600043770052
 20
0.3718293736327496
 30
0.0
  0
VERTEX
  5
1DA9
  8
0
 10
0.8010600043770068
 20
0.3595293736327534
 30
0.0
  0
VERTEX
  5
1DAA
  8
0
 10
0.8468600043770067
 20
0.3426293736327466
 30
0.0
  0
VERTEX
  5
1DAB
  8
0
 10
0.8906600043770112
 20
0.3217293736327491
 30
0.0
  0
VERTEX
  5
1DAC
  8
0
 10
0.9318600043770005
 20
0.2966293736327543
 30
0.0
  0
VERTEX
  5
1DAD
  8
0
 10
0.9703600043770138
 20
0.2678293736327504
 30
0.0
  0
VERTEX
  5
1DAE
  8
0
 10
1.005760004377009
 20
0.2354293736327548
 30
0.0
  0
VERTEX
  5
1DAF
  8
0
 10
1.0381600043770041
 20
0.2000293736327592
 30
0.0
  0
VERTEX
  5
1DB0
  8
0
 10
1.066960004377008
 20
0.1615293736327601
 30
0.0
  0
VERTEX
  5
1DB1
  8
0
 10
1.092060004377003
 20
0.1203293736327566
 30
0.0
  0
VERTEX
  5
1DB2
  8
0
 10
1.1129600043770149
 20
0.0765293736327522
 30
0.0
  0
VERTEX
  5
1DB3
  8
0
 10
1.1298600043770071
 20
0.0307293736327523
 30
0.0
  0
VERTEX
  5
1DB4
  8
0
 10
1.1421600043770179
 20
-0.0172706263672495
 30
0.0
  0
VERTEX
  5
1DB5
  8
0
 10
1.1496600043770111
 20
-0.0668706263672476
 30
0.0
  0
VERTEX
  5
1DB6
  8
0
 10
1.1521600043770091
 20
-0.1181706263672453
 30
0.0
  0
VERTEX
  5
1DB7
  8
0
 10
1.1521600043770091
 20
-0.1181706263672453
 30
0.0
  0
VERTEX
  5
1DB8
  8
0
 10
1.1496600043770111
 20
-0.1691706263672472
 30
0.0
  0
VERTEX
  5
1DB9
  8
0
 10
1.1421600043770179
 20
-0.2187706263672453
 30
0.0
  0
VERTEX
  5
1DBA
  8
0
 10
1.1298600043770071
 20
-0.2666706263672438
 30
0.0
  0
VERTEX
  5
1DBB
  8
0
 10
1.1129600043770149
 20
-0.3126706263672503
 30
0.0
  0
VERTEX
  5
1DBC
  8
0
 10
1.092060004377003
 20
-0.3562706263672481
 30
0.0
  0
VERTEX
  5
1DBD
  8
0
 10
1.066960004377008
 20
-0.3975706263672407
 30
0.0
  0
VERTEX
  5
1DBE
  8
0
 10
1.0381600043770041
 20
-0.4359706263672507
 30
0.0
  0
VERTEX
  5
1DBF
  8
0
 10
1.005760004377009
 20
-0.4716706263672564
 30
0.0
  0
VERTEX
  5
1DC0
  8
0
 10
0.9703600043770138
 20
-0.5037706263672419
 30
0.0
  0
VERTEX
  5
1DC1
  8
0
 10
0.9318600043770005
 20
-0.532570626367246
 30
0.0
  0
VERTEX
  5
1DC2
  8
0
 10
0.8906600043770112
 20
-0.5575706263672516
 30
0.0
  0
VERTEX
  5
1DC3
  8
0
 10
0.8468600043770067
 20
-0.578770626367259
 30
0.0
  0
VERTEX
  5
1DC4
  8
0
 10
0.8010600043770068
 20
-0.5955706263672483
 30
0.0
  0
VERTEX
  5
1DC5
  8
0
 10
0.7530600043770052
 20
-0.6079706263672478
 30
0.0
  0
VERTEX
  5
1DC6
  8
0
 10
0.703460004377007
 20
-0.6154706263672553
 30
0.0
  0
VERTEX
  5
1DC7
  8
0
 10
0.6521600043770093
 20
-0.6181706263672453
 30
0.0
  0
VERTEX
  5
1DC8
  8
0
 10
0.6521600043770093
 20
-0.6181706263672453
 30
0.0
  0
VERTEX
  5
1DC9
  8
0
 10
0.6011600043770075
 20
-0.6154706263672553
 30
0.0
  0
VERTEX
  5
1DCA
  8
0
 10
0.5515600043770093
 20
-0.6079706263672478
 30
0.0
  0
VERTEX
  5
1DCB
  8
0
 10
0.5036600043770108
 20
-0.5955706263672483
 30
0.0
  0
VERTEX
  5
1DCC
  8
0
 10
0.4576600043770043
 20
-0.578770626367259
 30
0.0
  0
VERTEX
  5
1DCD
  8
0
 10
0.4140600043770064
 20
-0.5575706263672516
 30
0.0
  0
VERTEX
  5
1DCE
  8
0
 10
0.3727600043769996
 20
-0.532570626367246
 30
0.0
  0
VERTEX
  5
1DCF
  8
0
 10
0.3343600043770039
 20
-0.5037706263672419
 30
0.0
  0
VERTEX
  5
1DD0
  8
0
 10
0.2986600043770124
 20
-0.4716706263672564
 30
0.0
  0
VERTEX
  5
1DD1
  8
0
 10
0.2665600043770127
 20
-0.4359706263672507
 30
0.0
  0
VERTEX
  5
1DD2
  8
0
 10
0.2377600043770087
 20
-0.3975706263672407
 30
0.0
  0
VERTEX
  5
1DD3
  8
0
 10
0.212760004377003
 20
-0.3562706263672481
 30
0.0
  0
VERTEX
  5
1DD4
  8
0
 10
0.1915600043770098
 20
-0.3126706263672503
 30
0.0
  0
VERTEX
  5
1DD5
  8
0
 10
0.1747600043770205
 20
-0.2666706263672438
 30
0.0
  0
VERTEX
  5
1DD6
  8
0
 10
0.1623600043770068
 20
-0.2187706263672453
 30
0.0
  0
VERTEX
  5
1DD7
  8
0
 10
0.1548600043770136
 20
-0.1691706263672472
 30
0.0
  0
VERTEX
  5
1DD8
  8
0
 10
0.1521600043770093
 20
-0.1181706263672453
 30
0.0
  0
VERTEX
  5
1DD9
  8
0
 10
0.1521600043770093
 20
-0.1181706263672453
 30
0.0
  0
VERTEX
  5
1DDA
  8
0
 10
0.1548600043770136
 20
-0.0668706263672476
 30
0.0
  0
VERTEX
  5
1DDB
  8
0
 10
0.1623600043770068
 20
-0.0172706263672495
 30
0.0
  0
VERTEX
  5
1DDC
  8
0
 10
0.1747600043770205
 20
0.0307293736327523
 30
0.0
  0
VERTEX
  5
1DDD
  8
0
 10
0.1915600043770098
 20
0.0765293736327522
 30
0.0
  0
VERTEX
  5
1DDE
  8
0
 10
0.212760004377003
 20
0.1203293736327566
 30
0.0
  0
VERTEX
  5
1DDF
  8
0
 10
0.2377600043770087
 20
0.1615293736327601
 30
0.0
  0
VERTEX
  5
1DE0
  8
0
 10
0.2665600043770127
 20
0.2000293736327592
 30
0.0
  0
VERTEX
  5
1DE1
  8
0
 10
0.2986600043770124
 20
0.2354293736327548
 30
0.0
  0
VERTEX
  5
1DE2
  8
0
 10
0.3343600043770039
 20
0.2678293736327504
 30
0.0
  0
VERTEX
  5
1DE3
  8
0
 10
0.3727600043769996
 20
0.2966293736327543
 30
0.0
  0
VERTEX
  5
1DE4
  8
0
 10
0.4140600043770064
 20
0.3217293736327491
 30
0.0
  0
VERTEX
  5
1DE5
  8
0
 10
0.4576600043770043
 20
0.3426293736327466
 30
0.0
  0
VERTEX
  5
1DE6
  8
0
 10
0.5036600043770108
 20
0.3595293736327534
 30
0.0
  0
VERTEX
  5
1DE7
  8
0
 10
0.5515600043770093
 20
0.3718293736327496
 30
0.0
  0
VERTEX
  5
1DE8
  8
0
 10
0.6011600043770075
 20
0.3793293736327428
 30
0.0
  0
VERTEX
  5
1DE9
  8
0
 10
0.6521600043770093
 20
0.3818293736327547
 30
0.0
  0
SEQEND
  5
1DEA
  8
0
  0
POLYLINE
  5
1144
  8
0
 66
     1
 10
0.0
 20
0.0
 30
0.0
  0
VERTEX
  5
1DEB
  8
0
 10
0.6521600043770093
 20
0.3818293736327547
 30
0.0
  0
VERTEX
  5
1DEC
  8
0
 10
0.6521600043770093
 20
0.3818293736327547
 30
0.0
  0
VERTEX
  5
1DED
  8
0
 10
0.703460004377007
 20
0.3793293736327428
 30
0.0
  0
VERTEX
  5
1DEE
  8
0
 10
0.7530600043770052
 20
0.3718293736327496
 30
0.0
  0
VERTEX
  5
1DEF
  8
0
 10
0.8010600043770068
 20
0.3595293736327534
 30
0.0
  0
VERTEX
  5
1DF0
  8
0
 10
0.8468600043770067
 20
0.3426293736327466
 30
0.0
  0
VERTEX
  5
1DF1
  8
0
 10
0.8906600043770112
 20
0.3217293736327491
 30
0.0
  0
VERTEX
  5
1DF2
  8
0
 10
0.9318600043770005
 20
0.2966293736327543
 30
0.0
  0
VERTEX
  5
1DF3
  8
0
 10
0.9703600043770138
 20
0.2678293736327504
 30
0.0
  0
VERTEX
  5
1DF4
  8
0
 10
1.005760004377009
 20
0.2354293736327548
 30
0.0
  0
VERTEX
  5
1DF5
  8
0
 10
1.0381600043770041
 20
0.2000293736327592
 30
0.0
  0
VERTEX
  5
1DF6
  8
0
 10
1.066960004377008
 20
0.1615293736327601
 30
0.0
  0
VERTEX
  5
1DF7
  8
0
 10
1.092060004377003
 20
0.1203293736327566
 30
0.0
  0
VERTEX
  5
1DF8
  8
0
 10
1.1129600043770149
 20
0.0765293736327522
 30
0.0
  0
VERTEX
  5
1DF9
  8
0
 10
1.1298600043770071
 20
0.0307293736327523
 30
0.0
  0
VERTEX
  5
1DFA
  8
0
 10
1.1421600043770179
 20
-0.0172706263672495
 30
0.0
  0
VERTEX
  5
1DFB
  8
0
 10
1.1496600043770111
 20
-0.0668706263672476
 30
0.0
  0
VERTEX
  5
1DFC
  8
0
 10
1.1521600043770091
 20
-0.1181706263672453
 30
0.0
  0
VERTEX
  5
1DFD
  8
0
 10
1.1521600043770091
 20
-0.1181706263672453
 30
0.0
  0
VERTEX
  5
1DFE
  8
0
 10
1.1496600043770111
 20
-0.1691706263672472
 30
0.0
  0
VERTEX
  5
1DFF
  8
0
 10
1.1421600043770179
 20
-0.2187706263672453
 30
0.0
  0
VERTEX
  5
1E00
  8
0
 10
1.1298600043770071
 20
-0.2666706263672438
 30
0.0
  0
VERTEX
  5
1E01
  8
0
 10
1.1129600043770149
 20
-0.3126706263672503
 30
0.0
  0
VERTEX
  5
1E02
  8
0
 10
1.092060004377003
 20
-0.3562706263672481
 30
0.0
  0
VERTEX
  5
1E03
  8
0
 10
1.066960004377008
 20
-0.3975706263672407
 30
0.0
  0
VERTEX
  5
1E04
  8
0
 10
1.0381600043770041
 20
-0.4359706263672507
 30
0.0
  0
VERTEX
  5
1E05
  8
0
 10
1.005760004377009
 20
-0.4716706263672564
 30
0.0
  0
VERTEX
  5
1E06
  8
0
 10
0.9703600043770138
 20
-0.5037706263672419
 30
0.0
  0
VERTEX
  5
1E07
  8
0
 10
0.9318600043770005
 20
-0.532570626367246
 30
0.0
  0
VERTEX
  5
1E08
  8
0
 10
0.8906600043770112
 20
-0.5575706263672516
 30
0.0
  0
VERTEX
  5
1E09
  8
0
 10
0.8468600043770067
 20
-0.578770626367259
 30
0.0
  0
VERTEX
  5
1E0A
  8
0
 10
0.8010600043770068
 20
-0.5955706263672483
 30
0.0
  0
VERTEX
  5
1E0B
  8
0
 10
0.7530600043770052
 20
-0.6079706263672478
 30
0.0
  0
VERTEX
  5
1E0C
  8
0
 10
0.703460004377007
 20
-0.6154706263672553
 30
0.0
  0
VERTEX
  5
1E0D
  8
0
 10
0.6521600043770093
 20
-0.6181706263672453
 30
0.0
  0
VERTEX
  5
1E0E
  8
0
 10
0.6521600043770093
 20
-0.6181706263672453
 30
0.0
  0
VERTEX
  5
1E0F
  8
0
 10
0.6011600043770075
 20
-0.6154706263672553
 30
0.0
  0
VERTEX
  5
1E10
  8
0
 10
0.5515600043770093
 20
-0.6079706263672478
 30
0.0
  0
VERTEX
  5
1E11
  8
0
 10
0.5036600043770108
 20
-0.5955706263672483
 30
0.0
  0
VERTEX
  5
1E12
  8
0
 10
0.4576600043770043
 20
-0.578770626367259
 30
0.0
  0
VERTEX
  5
1E13
  8
0
 10
0.4140600043770064
 20
-0.5575706263672516
 30
0.0
  0
VERTEX
  5
1E14
  8
0
 10
0.3727600043769996
 20
-0.532570626367246
 30
0.0
  0
VERTEX
  5
1E15
  8
0
 10
0.3343600043770039
 20
-0.5037706263672419
 30
0.0
  0
VERTEX
  5
1E16
  8
0
 10
0.2986600043770124
 20
-0.4716706263672564
 30
0.0
  0
VERTEX
  5
1E17
  8
0
 10
0.2665600043770127
 20
-0.4359706263672507
 30
0.0
  0
VERTEX
  5
1E18
  8
0
 10
0.2377600043770087
 20
-0.3975706263672407
 30
0.0
  0
VERTEX
  5
1E19
  8
0
 10
0.212760004377003
 20
-0.3562706263672481
 30
0.0
  0
VERTEX
  5
1E1A
  8
0
 10
0.1915600043770098
 20
-0.3126706263672503
 30
0.0
  0
VERTEX
  5
1E1B
  8
0
 10
0.1747600043770205
 20
-0.2666706263672438
 30
0.0
  0
VERTEX
  5
1E1C
  8
0
 10
0.1623600043770068
 20
-0.2187706263672453
 30
0.0
  0
VERTEX
  5
1E1D
  8
0
 10
0.1548600043770136
 20
-0.1691706263672472
 30
0.0
  0
VERTEX
  5
1E1E
  8
0
 10
0.1521600043770093
 20
-0.1181706263672453
 30
0.0
  0
VERTEX
  5
1E1F
  8
0
 10
0.1521600043770093
 20
-0.1181706263672453
 30
0.0
  0
VERTEX
  5
1E20
  8
0
 10
0.1548600043770136
 20
-0.0668706263672476
 30
0.0
  0
VERTEX
  5
1E21
  8
0
 10
0.1623600043770068
 20
-0.0172706263672495
 30
0.0
  0
VERTEX
  5
1E22
  8
0
 10
0.1747600043770205
 20
0.0307293736327523
 30
0.0
  0
VERTEX
  5
1E23
  8
0
 10
0.1915600043770098
 20
0.0765293736327522
 30
0.0
  0
VERTEX
  5
1E24
  8
0
 10
0.212760004377003
 20
0.1203293736327566
 30
0.0
  0
VERTEX
  5
1E25
  8
0
 10
0.2377600043770087
 20
0.1615293736327601
 30
0.0
  0
VERTEX
  5
1E26
  8
0
 10
0.2665600043770127
 20
0.2000293736327592
 30
0.0
  0
VERTEX
  5
1E27
  8
0
 10
0.2986600043770124
 20
0.2354293736327548
 30
0.0
  0
VERTEX
  5
1E28
  8
0
 10
0.3343600043770039
 20
0.2678293736327504
 30
0.0
  0
VERTEX
  5
1E29
  8
0
 10
0.3727600043769996
 20
0.2966293736327543
 30
0.0
  0
VERTEX
  5
1E2A
  8
0
 10
0.4140600043770064
 20
0.3217293736327491
 30
0.0
  0
VERTEX
  5
1E2B
  8
0
 10
0.4576600043770043
 20
0.3426293736327466
 30
0.0
  0
VERTEX
  5
1E2C
  8
0
 10
0.5036600043770108
 20
0.3595293736327534
 30
0.0
  0
VERTEX
  5
1E2D
  8
0
 10
0.5515600043770093
 20
0.3718293736327496
 30
0.0
  0
VERTEX
  5
1E2E
  8
0
 10
0.6011600043770075
 20
0.3793293736327428
 30
0.0
  0
VERTEX
  5
1E2F
  8
0
 10
0.6521600043770093
 20
0.3818293736327547
 30
0.0
  0
SEQEND
  5
1E30
  8
0
  0
ENDBLK
  5
1146
  8
0
  0
BLOCK
  8
0
  2
*D2
 70
     1
 10
0.0
 20
0.0
 30
0.0
  3
*D2
  1

  0
LINE
  5
1A76
  8
2
 62
     0
 10
98.592220796583888
 20
122.8899583759864
 30
0.0
 11
112.470207021929
 21
122.8899583759864
 31
0.0
  0
LINE
  5
1A77
  8
2
 62
     0
 10
100.08082079658379
 20
113.8899583759864
 30
0.0
 11
112.470207021929
 21
113.8899583759864
 31
0.0
  0
LINE
  5
1A78
  8
2
 62
     0
 10
111.220207021929
 20
120.3899583759864
 30
0.0
 11
111.220207021929
 21
116.3899583759864
 31
0.0
  0
SOLID
  5
1A79
  8
2
 62
     0
 10
110.8035403552623
 20
120.3899583759864
 30
0.0
 11
111.6368736885956
 21
120.3899583759864
 31
0.0
 12
111.220207021929
 22
122.8899583759864
 32
0.0
 13
111.220207021929
 23
122.8899583759864
 33
0.0
  0
SOLID
  5
1A7A
  8
2
 62
     0
 10
110.8035403552623
 20
116.3899583759864
 30
0.0
 11
111.6368736885956
 21
116.3899583759864
 31
0.0
 12
111.220207021929
 22
113.8899583759864
 32
0.0
 13
111.220207021929
 23
113.8899583759864
 33
0.0
  0
TEXT
  5
1A7B
  8
2
 62
     0
 10
110.5952070219289
 20
117.5566250426531
 30
0.0
 40
2.5
  1
9
 50
90.0
  0
POINT
  5
1A7C
  8
DEFPOINTS
 62
     0
 10
97.967220796583888
 20
122.8899583759864
 30
0.0
  0
POINT
  5
1A7D
  8
DEFPOINTS
 62
     0
 10
99.455820796583879
 20
113.8899583759864
 30
0.0
  0
POINT
  5
1A7E
  8
DEFPOINTS
 62
     0
 10
111.220207021929
 20
113.8899583759864
 30
0.0
  0
ENDBLK
  5
1A80
  8
0
  0
BLOCK
  8
0
  2
*D3
 70
     1
 10
0.0
 20
0.0
 30
0.0
  3
*D3
  1

  0
LINE
  5
1A83
  8
2
 62
     0
 10
110.595207021929
 20
113.8899583759864
 30
0.0
 11
109.970207021929
 21
113.8899583759864
 31
0.0
  0
LINE
  5
1A84
  8
2
 62
     0
 10
101.37362079658379
 20
95.889958375986467
 30
0.0
 11
112.470207021929
 21
95.889958375986467
 31
0.0
  0
LINE
  5
1A85
  8
2
 62
     0
 10
111.220207021929
 20
111.3899583759864
 30
0.0
 11
111.220207021929
 21
98.389958375986467
 31
0.0
  0
SOLID
  5
1A86
  8
2
 62
     0
 10
110.8035403552623
 20
111.3899583759864
 30
0.0
 11
111.6368736885956
 21
111.3899583759864
 31
0.0
 12
111.220207021929
 22
113.8899583759864
 32
0.0
 13
111.220207021929
 23
113.8899583759864
 33
0.0
  0
SOLID
  5
1A87
  8
2
 62
     0
 10
110.8035403552623
 20
98.389958375986467
 30
0.0
 11
111.6368736885956
 21
98.389958375986467
 31
0.0
 12
111.220207021929
 22
95.889958375986467
 32
0.0
 13
111.220207021929
 23
95.889958375986467
 33
0.0
  0
TEXT
  5
1A88
  8
2
 62
     0
 10
110.5952070219289
 20
103.2232917093198
 30
0.0
 40
2.5
  1
18
 50
90.0
  0
POINT
  5
1A89
  8
DEFPOINTS
 62
     0
 10
111.220207021929
 20
113.8899583759864
 30
0.0
  0
POINT
  5
1A8A
  8
DEFPOINTS
 62
     0
 10
100.74862079658379
 20
95.889958375986467
 30
0.0
  0
POINT
  5
1A8B
  8
DEFPOINTS
 62
     0
 10
111.220207021929
 20
95.889958375986467
 30
0.0
  0
ENDBLK
  5
1A8D
  8
0
  0
BLOCK
  8
0
  2
*D4
 70
     1
 10
0.0
 20
0.0
 30
0.0
  3
*D4
  1

  0
LINE
  5
1A90
  8
2
 62
     0
 10
110.5952070219289
 20
95.889958375986467
 30
0.0
 11
109.970207021929
 21
95.889958375986467
 31
0.0
  0
LINE
  5
1A91
  8
2
 62
     0
 10
101.37362079658379
 20
90.889958375986467
 30
0.0
 11
112.470207021929
 21
90.889958375986467
 31
0.0
  0
LINE
  5
1A92
  8
2
 62
     0
 10
111.220207021929
 20
98.389958375986467
 30
0.0
 11
111.220207021929
 21
100.8899583759864
 31
0.0
  0
LINE
  5
1A93
  8
2
 62
     0
 10
111.220207021929
 20
88.389958375986467
 30
0.0
 11
111.220207021929
 21
85.889958375986467
 31
0.0
  0
LINE
  5
1A94
  8
2
 62
     0
 10
111.220207021929
 20
95.889958375986467
 30
0.0
 11
111.220207021929
 21
90.889958375986467
 31
0.0
  0
SOLID
  5
1A95
  8
2
 62
     0
 10
110.8035403552623
 20
98.389958375986467
 30
0.0
 11
111.6368736885956
 21
98.389958375986467
 31
0.0
 12
111.220207021929
 22
95.889958375986467
 32
0.0
 13
111.220207021929
 23
95.889958375986467
 33
0.0
  0
SOLID
  5
1A96
  8
2
 62
     0
 10
110.8035403552623
 20
88.389958375986467
 30
0.0
 11
111.6368736885956
 21
88.389958375986467
 31
0.0
 12
111.220207021929
 22
90.889958375986467
 32
0.0
 13
111.220207021929
 23
90.889958375986467
 33
0.0
  0
TEXT
  5
1A97
  8
2
 62
     0
 10
110.5952070219289
 20
92.556625042653167
 30
0.0
 40
2.5
  1
5
 50
90.0
  0
POINT
  5
1A98
  8
DEFPOINTS
 62
     0
 10
111.220207021929
 20
95.889958375986467
 30
0.0
  0
POINT
  5
1A99
  8
DEFPOINTS
 62
     0
 10
100.74862079658379
 20
90.889958375986467
 30
0.0
  0
POINT
  5
1A9A
  8
DEFPOINTS
 62
     0
 10
111.220207021929
 20
90.889958375986467
 30
0.0
  0
ENDBLK
  5
1A9C
  8
0
  0
BLOCK
  8
0
  2
*D5
 70
     1
 10
0.0
 20
0.0
 30
0.0
  3
*D5
  1

  0
LINE
  5
1ABB
  8
2
 62
     0
 10
110.5952070219289
 20
74.889958375986467
 30
0.0
 11
109.970207021929
 21
74.889958375986467
 31
0.0
  0
LINE
  5
1ABC
  8
2
 62
     0
 10
99.080820796583879
 20
72.789958375986473
 30
0.0
 11
112.470207021929
 21
72.789958375986473
 31
0.0
  0
LINE
  5
1ABD
  8
2
 62
     0
 10
111.220207021929
 20
77.389958375986467
 30
0.0
 11
111.220207021929
 21
79.889958375986467
 31
0.0
  0
LINE
  5
1ABE
  8
2
 62
     0
 10
111.220207021929
 20
70.289958375986473
 30
0.0
 11
111.220207021929
 21
62.373291709319822
 31
0.0
  0
LINE
  5
1ABF
  8
2
 62
     0
 10
111.220207021929
 20
74.889958375986467
 30
0.0
 11
111.220207021929
 21
72.789958375986473
 31
0.0
  0
SOLID
  5
1AC0
  8
2
 62
     0
 10
110.8035403552623
 20
77.389958375986467
 30
0.0
 11
111.6368736885956
 21
77.389958375986467
 31
0.0
 12
111.220207021929
 22
74.889958375986467
 32
0.0
 13
111.220207021929
 23
74.889958375986467
 33
0.0
  0
SOLID
  5
1AC1
  8
2
 62
     0
 10
110.8035403552623
 20
70.289958375986473
 30
0.0
 11
111.6368736885956
 21
70.289958375986473
 31
0.0
 12
111.220207021929
 22
72.789958375986473
 32
0.0
 13
111.220207021929
 23
72.789958375986473
 33
0.0
  0
TEXT
  5
1AC2
  8
2
 62
     0
 10
110.5952070219289
 20
62.998291709319837
 30
0.0
 40
2.5
  1
2.1
 50
90.0
  0
POINT
  5
1AC3
  8
DEFPOINTS
 62
     0
 10
111.220207021929
 20
74.889958375986467
 30
0.0
  0
POINT
  5
1AC4
  8
DEFPOINTS
 62
     0
 10
98.455820796583879
 20
72.789958375986473
 30
0.0
  0
POINT
  5
1AC5
  8
DEFPOINTS
 62
     0
 10
111.220207021929
 20
72.789958375986473
 30
0.0
  0
ENDBLK
  5
1AC7
  8
0
  0
BLOCK
  8
0
  2
*D6
 70
     1
 10
0.0
 20
0.0
 30
0.0
  3
*D6
  1

  0
LINE
  5
1BAD
  8
2
 62
     0
 10
111.845207021929
 20
122.8899583759864
 30
0.0
 11
118.2168845271745
 21
122.8899583759864
 31
0.0
  0
LINE
  5
1BAE
  8
2
 62
     0
 10
111.8452070219289
 20
72.789958375986473
 30
0.0
 11
118.2168845271745
 21
72.789958375986473
 31
0.0
  0
LINE
  5
1BAF
  8
2
 62
     0
 10
116.9668845271745
 20
120.3899583759864
 30
0.0
 11
116.9668845271745
 21
75.289958375986473
 31
0.0
  0
SOLID
  5
1BB0
  8
2
 62
     0
 10
116.5502178605078
 20
120.3899583759864
 30
0.0
 11
117.3835511938412
 21
120.3899583759864
 31
0.0
 12
116.9668845271745
 22
122.8899583759864
 32
0.0
 13
116.9668845271745
 23
122.8899583759864
 33
0.0
  0
SOLID
  5
1BB1
  8
2
 62
     0
 10
116.5502178605078
 20
75.289958375986473
 30
0.0
 11
117.3835511938412
 21
75.289958375986473
 31
0.0
 12
116.9668845271745
 22
72.789958375986473
 32
0.0
 13
116.9668845271745
 23
72.789958375986473
 33
0.0
  0
TEXT
  5
1BB2
  8
2
 62
     0
 10
116.3418845271745
 20
93.048291709319827
 30
0.0
 40
2.5
  1
(50.1)
 50
90.0
  0
POINT
  5
1BB3
  8
DEFPOINTS
 62
     0
 10
111.220207021929
 20
122.8899583759864
 30
0.0
  0
POINT
  5
1BB4
  8
DEFPOINTS
 62
     0
 10
111.220207021929
 20
72.789958375986473
 30
0.0
  0
POINT
  5
1BB5
  8
DEFPOINTS
 62
     0
 10
116.9668845271745
 20
72.789958375986473
 30
0.0
  0
ENDBLK
  5
1AD4
  8
0
  0
BLOCK
  8
0
  2
*D7
 70
     1
 10
0.0
 20
0.0
 30
0.0
  3
*D7
  1

  0
LINE
  5
1AD7
  8
2
 62
     0
 10
116.3418845271745
 20
72.789958375986473
 30
0.0
 11
115.7168845271745
 21
72.789958375986473
 31
0.0
  0
LINE
  5
1AD8
  8
2
 62
     0
 10
99.080820796583879
 20
70.789958375986473
 30
0.0
 11
118.2168845271745
 21
70.789958375986473
 31
0.0
  0
LINE
  5
1AD9
  8
2
 62
     0
 10
116.9668845271745
 20
75.289958375986473
 30
0.0
 11
116.9668845271745
 21
77.789958375986473
 31
0.0
  0
LINE
  5
1ADA
  8
2
 62
     0
 10
116.9668845271745
 20
68.289958375986473
 30
0.0
 11
116.9668845271745
 21
62.873291709319808
 31
0.0
  0
LINE
  5
1ADB
  8
2
 62
     0
 10
116.9668845271745
 20
72.789958375986473
 30
0.0
 11
116.9668845271745
 21
70.789958375986473
 31
0.0
  0
SOLID
  5
1ADC
  8
2
 62
     0
 10
116.5502178605078
 20
75.289958375986473
 30
0.0
 11
117.3835511938412
 21
75.289958375986473
 31
0.0
 12
116.9668845271745
 22
72.789958375986473
 32
0.0
 13
116.9668845271745
 23
72.789958375986473
 33
0.0
  0
SOLID
  5
1ADD
  8
2
 62
     0
 10
116.5502178605078
 20
68.289958375986473
 30
0.0
 11
117.3835511938412
 21
68.289958375986473
 31
0.0
 12
116.9668845271745
 22
70.789958375986473
 32
0.0
 13
116.9668845271745
 23
70.789958375986473
 33
0.0
  0
TEXT
  5
1ADE
  8
2
 62
     0
 10
116.3418845271745
 20
63.49829170931983
 30
0.0
 40
2.5
  1
2
 50
90.0
  0
POINT
  5
1ADF
  8
DEFPOINTS
 62
     0
 10
116.9668845271745
 20
72.789958375986473
 30
0.0
  0
POINT
  5
1AE0
  8
DEFPOINTS
 62
     0
 10
98.455820796583879
 20
70.789958375986473
 30
0.0
  0
POINT
  5
1AE1
  8
DEFPOINTS
 62
     0
 10
116.9668845271745
 20
70.789958375986473
 30
0.0
  0
ENDBLK
  5
1AE3
  8
0
  0
BLOCK
  8
0
  2
*D8
 70
     1
 10
0.0
 20
0.0
 30
0.0
  3
*D8
  1

  0
LINE
  5
1BB6
  8
2
 62
     0
 10
117.5918845271745
 20
122.8899583759864
 30
0.0
 11
123.3402125453931
 21
122.8899583759864
 31
0.0
  0
LINE
  5
1BB7
  8
2
 62
     0
 10
117.5918845271745
 20
70.789958375986473
 30
0.0
 11
123.3402125453931
 21
70.789958375986473
 31
0.0
  0
LINE
  5
1BB8
  8
2
 62
     0
 10
122.0902125453931
 20
120.3899583759864
 30
0.0
 11
122.0902125453931
 21
73.289958375986473
 31
0.0
  0
SOLID
  5
1BB9
  8
2
 62
     0
 10
121.6735458787264
 20
120.3899583759864
 30
0.0
 11
122.5068792120598
 21
120.3899583759864
 31
0.0
 12
122.0902125453931
 22
122.8899583759864
 32
0.0
 13
122.0902125453931
 23
122.8899583759864
 33
0.0
  0
SOLID
  5
1BBA
  8
2
 62
     0
 10
121.6735458787264
 20
73.289958375986473
 30
0.0
 11
122.5068792120597
 21
73.289958375986473
 31
0.0
 12
122.0902125453931
 22
70.789958375986473
 32
0.0
 13
122.0902125453931
 23
70.789958375986473
 33
0.0
  0
TEXT
  5
1BBB
  8
2
 62
     0
 10
121.4652125453931
 20
91.839958375986484
 30
0.0
 40
2.5
  1
(52.1)
 50
90.0
  0
POINT
  5
1BBC
  8
DEFPOINTS
 62
     0
 10
116.9668845271745
 20
122.8899583759864
 30
0.0
  0
POINT
  5
1BBD
  8
DEFPOINTS
 62
     0
 10
116.9668845271745
 20
70.789958375986473
 30
0.0
  0
POINT
  5
1BBE
  8
DEFPOINTS
 62
     0
 10
122.0902125453931
 20
70.789958375986473
 30
0.0
  0
ENDBLK
  5
1AF0
  8
0
  0
BLOCK
  8
0
  2
*D9
 70
     1
 10
0.0
 20
0.0
 30
0.0
  3
*D9
  1

  0
LINE
  5
1AF6
  8
2
 62
     0
 10
102.4304207965838
 20
87.889958375986467
 30
0.0
 11
112.470207021929
 21
87.889958375986467
 31
0.0
  0
LINE
  5
1AF7
  8
2
 62
     0
 10
103.4877671380472
 20
74.889958375986467
 30
0.0
 11
112.470207021929
 21
74.889958375986467
 31
0.0
  0
LINE
  5
1AF8
  8
2
 62
     0
 10
111.220207021929
 20
85.389958375986467
 30
0.0
 11
111.220207021929
 21
77.389958375986467
 31
0.0
  0
SOLID
  5
1AF9
  8
2
 62
     0
 10
110.8035403552623
 20
85.389958375986467
 30
0.0
 11
111.6368736885956
 21
85.389958375986467
 31
0.0
 12
111.220207021929
 22
87.889958375986467
 32
0.0
 13
111.220207021929
 23
87.889958375986467
 33
0.0
  0
SOLID
  5
1AFA
  8
2
 62
     0
 10
110.8035403552623
 20
77.389958375986467
 30
0.0
 11
111.6368736885956
 21
77.389958375986467
 31
0.0
 12
111.220207021929
 22
74.889958375986467
 32
0.0
 13
111.220207021929
 23
74.889958375986467
 33
0.0
  0
TEXT
  5
1AFB
  8
2
 62
     0
 10
110.5952070219289
 20
79.723291709319824
 30
0.0
 40
2.5
  1
13
 50
90.0
  0
POINT
  5
1AFC
  8
DEFPOINTS
 62
     0
 10
101.8054207965839
 20
87.889958375986467
 30
0.0
  0
POINT
  5
1AFD
  8
DEFPOINTS
 62
     0
 10
102.8627671380472
 20
74.889958375986467
 30
0.0
  0
POINT
  5
1AFE
  8
DEFPOINTS
 62
     0
 10
111.220207021929
 20
74.889958375986467
 30
0.0
  0
ENDBLK
  5
1B00
  8
0
  0
BLOCK
  8
0
  2
*D10
 70
     1
 10
0.0
 20
0.0
 30
0.0
  3
*D10
  1

  0
LINE
  5
1B04
  8
2
 62
     0
 10
89.538020796583865
 20
90.889958375986467
 30
0.0
 11
81.373414088872437
 21
90.889958375986467
 31
0.0
  0
LINE
  5
1B05
  8
2
 62
     0
 10
89.830820796583865
 20
87.889958375986481
 30
0.0
 11
81.373414088872437
 21
87.889958375986481
 31
0.0
  0
LINE
  5
1B06
  8
2
 62
     0
 10
82.623414088872437
 20
93.389958375986467
 30
0.0
 11
82.623414088872437
 21
95.889958375986467
 31
0.0
  0
LINE
  5
1B07
  8
2
 62
     0
 10
82.623414088872437
 20
85.389958375986481
 30
0.0
 11
82.623414088872437
 21
82.889958375986481
 31
0.0
  0
LINE
  5
1B08
  8
2
 62
     0
 10
82.623414088872437
 20
90.889958375986467
 30
0.0
 11
82.623414088872437
 21
87.889958375986481
 31
0.0
  0
SOLID
  5
1B09
  8
2
 62
     0
 10
82.206747422205765
 20
93.389958375986467
 30
0.0
 11
83.040080755539108
 21
93.389958375986467
 31
0.0
 12
82.623414088872437
 22
90.889958375986467
 32
0.0
 13
82.623414088872437
 23
90.889958375986467
 33
0.0
  0
SOLID
  5
1B0A
  8
2
 62
     0
 10
82.206747422205765
 20
85.389958375986481
 30
0.0
 11
83.040080755539108
 21
85.389958375986481
 31
0.0
 12
82.623414088872437
 22
87.889958375986481
 32
0.0
 13
82.623414088872437
 23
87.889958375986481
 33
0.0
  0
TEXT
  5
1B0B
  8
2
 62
     0
 10
81.998414088872437
 20
88.556625042653167
 30
0.0
 40
2.5
  1
3
 50
90.0
  0
POINT
  5
1B0C
  8
DEFPOINTS
 62
     0
 10
90.163020796583865
 20
90.889958375986467
 30
0.0
  0
POINT
  5
1B0D
  8
DEFPOINTS
 62
     0
 10
90.455820796583865
 20
87.889958375986481
 30
0.0
  0
POINT
  5
1B0E
  8
DEFPOINTS
 62
     0
 10
82.623414088872437
 20
87.889958375986481
 30
0.0
  0
ENDBLK
  5
1B10
  8
0
  0
BLOCK
  8
0
  2
A$C7E0A75AC
 70
     0
 10
0.0
 20
0.0
 30
0.0
  3
A$C7E0A75AC
  1

  0
LINE
  5
1B17
  8
0
 39
5.0
 10
0.0
 20
0.0
 30
0.0
 11
0.0
 21
-1.67309999999999
 31
0.0
  0
LINE
  5
1B18
  8
0
 39
5.0
 10
6.7265000000000006
 20
-2.6248999999999958
 30
0.0
 11
6.7265000000000006
 21
0.0
 31
0.0
  0
LINE
  5
1B19
  8
0
 39
5.0
 10
3.479600000000004
 20
-2.1858
 30
0.0
 11
4.222599999999999
 21
-2.1858999999999891
 31
0.0
  0
LINE
  5
1B1A
  8
0
 39
5.0
 10
0.0
 20
-1.67309999999999
 30
0.0
 11
1.5610999999999959
 21
-1.67309999999999
 31
0.0
  0
LINE
  5
1B1B
  8
0
 39
5.0
 10
3.4636431336825382
 20
-2.5
 30
0.0
 11
3.479600000000004
 21
-2.1858
 31
0.0
  0
LINE
  5
1B1C
  8
0
 39
5.0
 10
4.222599999999999
 20
-2.1858999999999891
 30
0.0
 11
5.0319457330912618
 21
-2.5
 31
0.0
  0
LINE
  5
1B1D
  8
0
 39
5.0
 10
4.222599999999999
 20
2.1858999999999891
 30
0.0
 11
5.0319457330912618
 21
2.5
 31
0.0
  0
LINE
  5
1B1E
  8
0
 39
5.0
 10
3.4636431336825382
 20
2.5
 30
0.0
 11
3.479600000000004
 21
2.1858
 31
0.0
  0
POLYLINE
  5
1B1F
  8
0
 66
     1
 10
0.0
 20
0.0
 30
0.0
 39
5.0
  0
VERTEX
  5
225C
  8
0
 10
12.67969999999999
 20
-2.527900000000002
 30
0.0
  0
VERTEX
  5
225D
  8
0
 10
15.3521
 20
-2.527900000000002
 30
0.0
  0
VERTEX
  5
225E
  8
0
 10
16.0
 20
-2.0450379310344848
 30
0.0
  0
SEQEND
  5
225F
  8
0
  0
POLYLINE
  5
1B20
  8
0
 66
     1
 10
0.0
 20
0.0
 30
0.0
 39
5.0
  0
VERTEX
  5
2260
  8
0
 10
12.67969999999999
 20
2.527900000000002
 30
0.0
  0
VERTEX
  5
2261
  8
0
 10
15.3521
 20
2.527900000000002
 30
0.0
  0
VERTEX
  5
2262
  8
0
 10
16.0
 20
2.0450379310344848
 30
0.0
  0
SEQEND
  5
2263
  8
0
  0
LINE
  5
1B21
  8
0
 39
5.0
 10
12.67969999999999
 20
-4.3983999999999952
 30
0.0
 11
12.0
 21
-4.3983999999999952
 31
0.0
  0
LINE
  5
1B22
  8
0
 39
5.0
 10
12.67969999999999
 20
4.3983999999999952
 30
0.0
 11
12.0
 21
4.3983999999999952
 31
0.0
  0
LINE
  5
1B23
  8
0
 39
5.0
 10
6.7265000000000006
 20
-4.3810000000000002
 30
0.0
 11
12.0
 21
-4.3810000000000002
 31
0.0
  0
LINE
  5
1B24
  8
0
 39
5.0
 10
12.0
 20
-2.0446999999999909
 30
0.0
 11
6.7265000000000006
 21
-2.0446999999999909
 31
0.0
  0
LINE
  5
1B25
  8
0
 39
5.0
 10
12.0
 20
2.0446999999999909
 30
0.0
 11
6.7265000000000006
 21
2.0446999999999909
 31
0.0
  0
LINE
  5
1B26
  8
0
 39
5.0
 10
6.7265000000000006
 20
4.3810000000000002
 30
0.0
 11
12.0
 21
4.3810000000000002
 31
0.0
  0
LINE
  5
1B27
  8
0
 39
5.0
 10
0.0
 20
1.67309999999999
 30
0.0
 11
1.5610999999999959
 21
1.67309999999999
 31
0.0
  0
LINE
  5
1B28
  8
0
 39
5.0
 10
3.479600000000004
 20
2.1858
 30
0.0
 11
4.222599999999999
 21
2.1858999999999891
 31
0.0
  0
LINE
  5
1B29
  8
0
 39
5.0
 10
6.7265000000000006
 20
2.6248999999999958
 30
0.0
 11
6.7265000000000006
 21
0.0
 31
0.0
  0
LINE
  5
1B2A
  8
0
 39
5.0
 10
0.0
 20
0.0
 30
0.0
 11
0.0
 21
1.67309999999999
 31
0.0
  0
LINE
  5
1B2B
  8
0
 39
5.0
 10
12.67969999999999
 20
2.527900000000002
 30
0.0
 11
12.67969999999999
 21
4.3983999999999952
 31
0.0
  0
LINE
  5
1B2C
  8
0
 39
5.0
 10
12.67969999999999
 20
-2.527900000000002
 30
0.0
 11
12.67969999999999
 21
-4.3983999999999952
 31
0.0
  0
LINE
  5
1B2D
  8
0
 39
5.0
 10
6.7265000000000006
 20
-2.6248999999999958
 30
0.0
 11
6.7265000000000006
 21
0.0
 31
0.0
  0
LINE
  5
1B2E
  8
0
 10
4.222599999999999
 20
-2.1858999999999891
 30
0.0
 11
4.222599999999999
 21
0.0
 31
0.0
  0
LINE
  5
1B2F
  8
0
 10
3.479600000000004
 20
-2.1858
 30
0.0
 11
3.479600000000004
 21
0.0
 31
0.0
  0
LINE
  5
1B30
  8
0
 10
1.5610999999999959
 20
-1.67309999999999
 30
0.0
 11
1.5610999999999959
 21
0.0
 31
0.0
  0
LINE
  5
1B31
  8
0
 10
2.4228999999999981
 20
-2.5
 30
0.0
 11
2.4228999999999981
 21
0.0
 31
0.0
  0
LINE
  5
1B32
  8
0
 10
5.3578999999999999
 20
-2.5
 30
0.0
 11
5.3578999999999999
 21
0.0
 31
0.0
  0
LINE
  5
1B33
  8
0
 10
16.0
 20
-2.0450379310344848
 30
0.0
 11
16.0
 21
2.0450379310344848
 31
0.0
  0
LINE
  5
1B34
  8
0
 10
12.0
 20
4.3983999999999952
 30
0.0
 11
12.0
 21
-4.3983999999999952
 31
0.0
  0
LINE
  5
1B35
  8
0
 10
15.3521
 20
-2.527900000000002
 30
0.0
 11
15.3521
 21
0.0
 31
0.0
  0
LINE
  5
1B36
  8
0
 10
12.67969999999999
 20
2.527900000000002
 30
0.0
 11
12.67969999999999
 21
-2.527900000000002
 31
0.0
  0
LINE
  5
1B37
  8
1
 10
2.4228999999999981
 20
-2.5
 30
0.0
 11
1.5610999999999959
 21
-1.67309999999999
 31
0.0
  0
LINE
  5
1B38
  8
0
 10
6.7265000000000006
 20
-4.3810000000000002
 30
0.0
 11
6.7265000000000006
 21
-2.6248999999999958
 31
0.0
  0
LINE
  5
1B39
  8
2
 10
15.754637313432831
 20
-2.2279000000000049
 30
0.0
 11
12.679699999999981
 21
-2.2279000000000049
 31
0.0
  0
LINE
  5
1B3A
  8
1
 10
2.4228999999999981
 20
2.5
 30
0.0
 11
1.5610999999999959
 21
1.67309999999999
 31
0.0
  0
LINE
  5
1B3B
  8
0
 10
5.3578999999999999
 20
2.5
 30
0.0
 11
5.3578999999999999
 21
0.0
 31
0.0
  0
LINE
  5
1B3C
  8
0
 10
2.4228999999999981
 20
2.5
 30
0.0
 11
2.4228999999999981
 21
0.0
 31
0.0
  0
LINE
  5
1B3D
  8
0
 10
1.5610999999999959
 20
1.67309999999999
 30
0.0
 11
1.5610999999999959
 21
0.0
 31
0.0
  0
LINE
  5
1B3E
  8
0
 10
3.479600000000004
 20
2.1858
 30
0.0
 11
3.479600000000004
 21
0.0
 31
0.0
  0
LINE
  5
1B3F
  8
0
 10
4.222599999999999
 20
2.1858999999999891
 30
0.0
 11
4.222599999999999
 21
0.0
 31
0.0
  0
LINE
  5
1B40
  8
0
 10
6.7265000000000006
 20
4.3810000000000002
 30
0.0
 11
6.7265000000000006
 21
2.6248999999999958
 31
0.0
  0
LINE
  5
1B41
  8
2
 10
15.754637313432831
 20
2.2279000000000049
 30
0.0
 11
12.679699999999981
 21
2.2279000000000049
 31
0.0
  0
LINE
  5
1B42
  8
0
 10
15.3521
 20
2.527900000000002
 30
0.0
 11
15.3521
 21
0.0
 31
0.0
  0
LINE
  5
1B43
  8
0
 10
5.0319457330912618
 20
-2.5
 30
2.5
 11
6.7265000000000006
 21
-2.5
 31
2.5
  0
LINE
  5
1B44
  8
0
 10
3.4636431336825382
 20
-2.5
 30
2.5
 11
2.4228999999999909
 21
-2.5
 31
2.5
  0
LINE
  5
1B45
  8
0
 10
5.0319457330912618
 20
2.5
 30
2.5
 11
6.7265000000000006
 21
2.5
 31
2.5
  0
LINE
  5
1B46
  8
0
 10
3.4636431336825382
 20
2.5
 30
2.5
 11
2.4228999999999909
 21
2.5
 31
2.5
  0
ENDBLK
  5
1B48
  8
0
  0
BLOCK
  8
0
  2
*D12
 70
     1
 10
0.0
 20
0.0
 30
0.0
  3
*D12
  1

  0
LINE
  5
1BE9
  8
2
 62
     0
 10
92.455820796583879
 20
70.164958375986473
 30
0.0
 11
92.455820796583879
 21
59.045053111379531
 31
0.0
  0
LINE
  5
1BEA
  8
2
 62
     0
 10
98.455820796583879
 20
70.164958375986473
 30
0.0
 11
98.455820796583879
 21
59.045053111379531
 31
0.0
  0
LINE
  5
1BEB
  8
2
 62
     0
 10
89.955820796583879
 20
60.295053111379531
 30
0.0
 11
87.455820796583879
 21
60.295053111379531
 31
0.0
  0
LINE
  5
1BEC
  8
2
 62
     0
 10
100.95582079658379
 20
60.295053111379531
 30
0.0
 11
103.45582079658379
 21
60.295053111379531
 31
0.0
  0
LINE
  5
1BED
  8
2
 62
     0
 10
92.455820796583879
 20
60.295053111379531
 30
0.0
 11
98.455820796583879
 21
60.295053111379531
 31
0.0
  0
SOLID
  5
1BEE
  8
2
 62
     0
 10
89.955820796583879
 20
60.711719778046202
 30
0.0
 11
89.955820796583879
 21
59.878386444712859
 31
0.0
 12
92.455820796583879
 22
60.295053111379531
 32
0.0
 13
92.455820796583879
 23
60.295053111379531
 33
0.0
  0
SOLID
  5
1BEF
  8
2
 62
     0
 10
100.95582079658379
 20
60.711719778046202
 30
0.0
 11
100.95582079658379
 21
59.878386444712859
 31
0.0
 12
98.455820796583879
 22
60.295053111379531
 32
0.0
 13
98.455820796583879
 23
60.295053111379531
 33
0.0
  0
INSERT
  5
1BF0
  8
2
  2
*U17
 10
0.0
 20
0.0
 30
0.0
  0
POINT
  5
1BF1
  8
DEFPOINTS
 62
     0
 10
92.455820796583879
 20
70.789958375986473
 30
0.0
  0
POINT
  5
1BF2
  8
DEFPOINTS
 62
     0
 10
98.455820796583879
 20
70.789958375986473
 30
0.0
  0
POINT
  5
1BF3
  8
DEFPOINTS
 62
     0
 10
98.455820796583879
 20
60.295053111379531
 30
0.0
  0
ENDBLK
  5
1BCE
  8
0
  0
BLOCK
  8
0
  2
*D13
 70
     1
 10
0.0
 20
0.0
 30
0.0
  3
*D13
  1

  0
LINE
  5
1BDE
  8
2
 62
     0
 10
95.455820796583865
 20
69.164958375986473
 30
0.0
 11
95.455820796583865
 21
63.658672371303823
 31
0.0
  0
LINE
  5
1BDF
  8
2
 62
     0
 10
90.455820796583865
 20
74.264958375986467
 30
0.0
 11
90.455820796583865
 21
63.658672371303823
 31
0.0
  0
LINE
  5
1BE0
  8
2
 62
     0
 10
97.955820796583865
 20
64.908672371303823
 30
0.0
 11
100.45582079658379
 21
64.908672371303823
 31
0.0
  0
LINE
  5
1BE1
  8
2
 62
     0
 10
87.955820796583865
 20
64.908672371303823
 30
0.0
 11
82.539154129917208
 21
64.908672371303823
 31
0.0
  0
LINE
  5
1BE2
  8
2
 62
     0
 10
95.455820796583865
 20
64.908672371303823
 30
0.0
 11
90.455820796583865
 21
64.908672371303823
 31
0.0
  0
SOLID
  5
1BE3
  8
2
 62
     0
 10
97.955820796583865
 20
65.325339037970494
 30
0.0
 11
97.955820796583865
 21
64.492005704637151
 31
0.0
 12
95.455820796583865
 22
64.908672371303823
 32
0.0
 13
95.455820796583865
 23
64.908672371303823
 33
0.0
  0
SOLID
  5
1BE4
  8
2
 62
     0
 10
87.955820796583865
 20
65.325339037970494
 30
0.0
 11
87.955820796583865
 21
64.492005704637151
 31
0.0
 12
90.455820796583865
 22
64.908672371303823
 32
0.0
 13
90.455820796583865
 23
64.908672371303823
 33
0.0
  0
TEXT
  5
1BE5
  8
2
 62
     0
 10
83.164154129917208
 20
65.533672371303823
 30
0.0
 40
2.5
  1
5
  0
POINT
  5
1BE6
  8
DEFPOINTS
 62
     0
 10
95.455820796583865
 20
69.789958375986473
 30
0.0
  0
POINT
  5
1BE7
  8
DEFPOINTS
 62
     0
 10
90.455820796583865
 20
74.889958375986467
 30
0.0
  0
POINT
  5
1BE8
  8
DEFPOINTS
 62
     0
 10
90.455820796583865
 20
64.908672371303823
 30
0.0
  0
ENDBLK
  5
1BDD
  8
0
  0
BLOCK
  8
0
  2
*D14
 70
     1
 10
0.0
 20
0.0
 30
0.0
  3
*D14
  1

  0
LINE
  5
1BF7
  8
2
 62
     0
 10
43.796382874303049
 20
77.797158375986484
 30
0.0
 11
43.796382874303049
 21
67.118886757821045
 31
0.0
  0
LINE
  5
1BF8
  8
2
 62
     0
 10
55.796382874303049
 20
75.071858375986466
 30
0.0
 11
55.796382874303049
 21
67.118886757821045
 31
0.0
  0
LINE
  5
1BF9
  8
2
 62
     0
 10
46.296382874303049
 20
68.368886757821045
 30
0.0
 11
53.296382874303049
 21
68.368886757821045
 31
0.0
  0
SOLID
  5
1BFA
  8
2
 62
     0
 10
46.296382874303049
 20
68.78555342448773
 30
0.0
 11
46.296382874303049
 21
67.952220091154373
 31
0.0
 12
43.796382874303049
 22
68.368886757821045
 32
0.0
 13
43.796382874303049
 23
68.368886757821045
 33
0.0
  0
SOLID
  5
1BFB
  8
2
 62
     0
 10
53.296382874303049
 20
68.78555342448773
 30
0.0
 11
53.296382874303049
 21
67.952220091154373
 31
0.0
 12
55.796382874303049
 22
68.368886757821045
 32
0.0
 13
55.796382874303049
 23
68.368886757821045
 33
0.0
  0
TEXT
  5
1BFC
  8
2
 62
     0
 10
48.129716207636378
 20
68.993886757821045
 30
0.0
 40
2.5
  1
12
  0
POINT
  5
1BFD
  8
DEFPOINTS
 62
     0
 10
43.796382874303049
 20
78.422158375986484
 30
2.5
  0
POINT
  5
1BFE
  8
DEFPOINTS
 62
     0
 10
55.796382874303049
 20
75.696858375986466
 30
2.5
  0
POINT
  5
1BFF
  8
DEFPOINTS
 62
     0
 10
55.796382874303049
 20
68.368886757821045
 30
0.0
  0
ENDBLK
  5
1C01
  8
0
  0
BLOCK
  8
0
  2
*D15
 70
     1
 10
0.0
 20
0.0
 30
0.0
  3
*D15
  1

  0
LINE
  5
1C04
  8
2
 62
     0
 10
43.796382874303049
 20
67.743886757821045
 30
0.0
 11
43.796382874303049
 21
61.980992576684798
 31
0.0
  0
LINE
  5
1C05
  8
2
 62
     0
 10
59.796382874303042
 20
77.425220444951989
 30
0.0
 11
59.796382874303042
 21
61.980992576684798
 31
0.0
  0
LINE
  5
1C06
  8
2
 62
     0
 10
46.296382874303049
 20
63.230992576684798
 30
0.0
 11
57.296382874303042
 21
63.230992576684798
 31
0.0
  0
SOLID
  5
1C07
  8
2
 62
     0
 10
46.296382874303049
 20
63.647659243351463
 30
0.0
 11
46.296382874303049
 21
62.814325910018127
 31
0.0
 12
43.796382874303049
 22
63.230992576684798
 32
0.0
 13
43.796382874303049
 23
63.230992576684798
 33
0.0
  0
SOLID
  5
1C08
  8
2
 62
     0
 10
57.296382874303042
 20
63.647659243351463
 30
0.0
 11
57.296382874303042
 21
62.814325910018127
 31
0.0
 12
59.796382874303042
 22
63.230992576684798
 32
0.0
 13
59.796382874303042
 23
63.230992576684798
 33
0.0
  0
TEXT
  5
1C09
  8
2
 62
     0
 10
50.129716207636392
 20
63.855992576684798
 30
0.0
 40
2.5
  1
16
  0
POINT
  5
1C0A
  8
DEFPOINTS
 62
     0
 10
43.796382874303049
 20
68.368886757821045
 30
0.0
  0
POINT
  5
1C0B
  8
DEFPOINTS
 62
     0
 10
59.796382874303042
 20
78.050220444951989
 30
2.5
  0
POINT
  5
1C0C
  8
DEFPOINTS
 62
     0
 10
59.796382874303042
 20
63.230992576684798
 30
0.0
  0
ENDBLK
  5
1C0E
  8
0
  0
BLOCK
  8
0
  2
*D16
 70
     1
 10
0.0
 20
0.0
 30
0.0
  3
*D16
  1

  0
LINE
  5
1C20
  8
2
 62
     0
 10
45.59428287430304
 20
82.595258375986475
 30
0.0
 11
36.225643975861999
 21
82.595258375986475
 31
0.0
  0
LINE
  5
1C21
  8
2
 62
     0
 10
45.59428287430304
 20
77.595258375986475
 30
0.0
 11
36.225643975861992
 21
77.595258375986475
 31
0.0
  0
LINE
  5
1C22
  8
2
 62
     0
 10
37.475643975861999
 20
85.095258375986475
 30
0.0
 11
37.475643975861999
 21
87.595258375986475
 31
0.0
  0
LINE
  5
1C23
  8
2
 62
     0
 10
37.475643975861992
 20
75.095258375986475
 30
0.0
 11
37.475643975861992
 21
67.178591709319804
 31
0.0
  0
LINE
  5
1C24
  8
2
 62
     0
 10
37.475643975861999
 20
82.595258375986475
 30
0.0
 11
37.475643975861992
 21
77.595258375986475
 31
0.0
  0
SOLID
  5
1C25
  8
2
 62
     0
 10
37.058977309195328
 20
85.095258375986475
 30
0.0
 11
37.892310642528663
 21
85.095258375986475
 31
0.0
 12
37.475643975861999
 22
82.595258375986475
 32
0.0
 13
37.475643975861999
 23
82.595258375986475
 33
0.0
  0
SOLID
  5
1C26
  8
2
 62
     0
 10
37.058977309195328
 20
75.095258375986475
 30
0.0
 11
37.892310642528649
 21
75.095258375986475
 31
0.0
 12
37.475643975861992
 22
77.595258375986475
 32
0.0
 13
37.475643975861992
 23
77.595258375986475
 33
0.0
  0
INSERT
  5
1C27
  8
2
  2
*U18
 10
0.0
 20
0.0
 30
0.0
  0
POINT
  5
1C28
  8
DEFPOINTS
 62
     0
 10
46.21928287430304
 20
82.595258375986475
 30
2.5
  0
POINT
  5
1C29
  8
DEFPOINTS
 62
     0
 10
46.21928287430304
 20
77.595258375986475
 30
2.5
  0
POINT
  5
1C2A
  8
DEFPOINTS
 62
     0
 10
37.475643975861992
 20
77.595258375986475
 30
0.0
  0
ENDBLK
  5
1C1F
  8
0
  0
BLOCK
  8
0
  2
*U17
 70
     1
 10
0.0
 20
0.0
 30
0.0
  3
*U17
  1

  0
TEXT
  5
226D
  8
2
 62
     0
 10
93.37248746325055
 20
60.920053111379531
 30
0.0
 40
2.5
  1
\U+2205
  0
TEXT
  5
226E
  8
2
 62
     0
 10
95.87248746325055
 20
60.920053111379531
 30
0.0
 40
2.5
  1
6
  0
ENDBLK
  5
2270
  8
0
  0
BLOCK
  8
0
  2
*U18
 70
     1
 10
0.0
 20
0.0
 30
0.0
  3
*U18
  1

  0
TEXT
  5
2272
  8
2
 62
     0
 10
36.850643975861978
 20
67.803591709319832
 30
0.0
 40
2.5
  1
\U+2205
 50
90.0
  0
TEXT
  5
2273
  8
2
 62
     0
 10
36.850643975861978
 20
70.303591709319832
 30
0.0
 40
2.5
  1
5
 50
90.0
  0
ENDBLK
  5
2275
  8
0
  0
ENDSEC
  0
SECTION
  2
ENTITIES
  0
TEXT
  5
87A
  8
2
 10
77.671803012473461
 20
49.439113021275539
 30
0.0
 40
2.5399440000000002
  1
No. 50.329
 51
-0.0000015352344868
  7
\U+00C9L\U+00C9R_\U+00C2S\U+00C2V\U+00C2B\U+00C2N
  0
POLYLINE
  5
88B
  8
0
 62
     0
 66
     1
 10
0.0
 20
0.0
 30
0.0
 39
5.0
  0
VERTEX
  5
1C79
  8
0
 62
     0
 10
95.455820796583865
 20
133.2975583759864
 30
0.0
  0
VERTEX
  5
1C7A
  8
0
 62
     0
 10
91.764220796583885
 20
133.2975583759864
 30
0.0
  0
VERTEX
  5
1C7B
  8
0
 62
     0
 10
91.764220796583885
 20
132.75455837598639
 30
0.0
  0
VERTEX
  5
1C7C
  8
0
 62
     0
 10
95.455820796583865
 20
132.75455837598639
 30
0.0
  0
SEQEND
  5
1C7D
  8
0
 62
     0
  0
POLYLINE
  5
8A5
  8
0
 66
     1
 10
0.0
 20
0.0
 30
0.0
 39
5.0
  0
VERTEX
  5
1C7E
  8
0
 10
89.094120796583866
 20
105.7234583759864
 30
0.0
  0
VERTEX
  5
1C7F
  8
0
 10
91.749920796583865
 20
105.7234583759864
 30
0.0
  0
SEQEND
  5
1C80
  8
0
  0
POLYLINE
  5
8A6
  8
0
 66
     1
 10
0.0
 20
0.0
 30
0.0
 39
5.0
  0
VERTEX
  5
1C81
  8
0
 10
89.094120796583866
 20
102.6776583759864
 30
0.0
  0
VERTEX
  5
1C82
  8
0
 10
91.749920796583865
 20
102.6776583759864
 30
0.0
  0
SEQEND
  5
1C83
  8
0
  0
POLYLINE
  5
9EE
  8
2
 66
     1
 10
0.0
 20
0.0
 30
0.0
 39
5.0
  0
VERTEX
  5
1C84
  8
2
 10
90.455820796583865
 20
82.576458375986476
 30
0.0
  0
VERTEX
  5
1C85
  8
2
 10
93.487320796583873
 20
82.576458375986476
 30
0.0
  0
SEQEND
  5
1C86
  8
2
  0
POLYLINE
  5
9F0
  8
2
 66
     1
 10
0.0
 20
0.0
 30
0.0
 39
5.0
  0
VERTEX
  5
1C87
  8
2
 10
93.487320796583873
 20
87.082058375986463
 30
0.0
  0
VERTEX
  5
1C88
  8
2
 10
93.487320796583873
 20
83.063043894088835
 30
0.0
  0
SEQEND
  5
1C89
  8
2
  0
POLYLINE
  5
A48
  8
0
 66
     1
 10
0.0
 20
0.0
 30
0.0
 39
5.0
  0
VERTEX
  5
1C8A
  8
0
 10
93.026020796583879
 20
111.1517583759864
 30
0.0
  0
VERTEX
  5
1C8B
  8
0
 10
93.026020796583879
 20
111.1517583759864
 30
0.0
  0
VERTEX
  5
1C8C
  8
0
 10
93.077320796583876
 20
111.14925837598641
 30
0.0
  0
VERTEX
  5
1C8D
  8
0
 10
93.126920796583875
 20
111.1417583759864
 30
0.0
  0
VERTEX
  5
1C8E
  8
0
 10
93.174920796583876
 20
111.1294583759864
 30
0.0
  0
VERTEX
  5
1C8F
  8
0
 10
93.220720796583876
 20
111.1125583759864
 30
0.0
  0
VERTEX
  5
1C90
  8
0
 10
93.264520796583881
 20
111.0916583759864
 30
0.0
  0
VERTEX
  5
1C91
  8
0
 10
93.305720796583856
 20
111.0665583759864
 30
0.0
  0
VERTEX
  5
1C92
  8
0
 10
93.344220796583883
 20
111.0377583759864
 30
0.0
  0
VERTEX
  5
1C93
  8
0
 10
93.379620796583865
 20
111.0053583759864
 30
0.0
  0
VERTEX
  5
1C94
  8
0
 10
93.412020796583874
 20
110.96995837598639
 30
0.0
  0
VERTEX
  5
1C95
  8
0
 10
93.440820796583878
 20
110.9314583759864
 30
0.0
  0
VERTEX
  5
1C96
  8
0
 10
93.465920796583873
 20
110.89025837598641
 30
0.0
  0
VERTEX
  5
1C97
  8
0
 10
93.486820796583885
 20
110.8464583759864
 30
0.0
  0
VERTEX
  5
1C98
  8
0
 10
93.503720796583877
 20
110.8006583759864
 30
0.0
  0
VERTEX
  5
1C99
  8
0
 10
93.516020796583888
 20
110.7526583759864
 30
0.0
  0
VERTEX
  5
1C9A
  8
0
 10
93.523520796583881
 20
110.7030583759864
 30
0.0
  0
VERTEX
  5
1C9B
  8
0
 10
93.526020796583865
 20
110.6517583759864
 30
0.0
  0
VERTEX
  5
1C9C
  8
0
 10
93.526020796583865
 20
110.6517583759864
 30
0.0
  0
VERTEX
  5
1C9D
  8
0
 10
93.523520796583881
 20
110.6007583759864
 30
0.0
  0
VERTEX
  5
1C9E
  8
0
 10
93.516020796583888
 20
110.5511583759864
 30
0.0
  0
VERTEX
  5
1C9F
  8
0
 10
93.503720796583877
 20
110.50325837598641
 30
0.0
  0
VERTEX
  5
1CA0
  8
0
 10
93.486820796583885
 20
110.4572583759864
 30
0.0
  0
VERTEX
  5
1CA1
  8
0
 10
93.465920796583873
 20
110.4136583759864
 30
0.0
  0
VERTEX
  5
1CA2
  8
0
 10
93.440820796583878
 20
110.37235837598639
 30
0.0
  0
VERTEX
  5
1CA3
  8
0
 10
93.412020796583874
 20
110.3339583759864
 30
0.0
  0
VERTEX
  5
1CA4
  8
0
 10
93.379620796583865
 20
110.29825837598641
 30
0.0
  0
VERTEX
  5
1CA5
  8
0
 10
93.344220796583883
 20
110.26615837598639
 30
0.0
  0
VERTEX
  5
1CA6
  8
0
 10
93.305720796583856
 20
110.2373583759864
 30
0.0
  0
VERTEX
  5
1CA7
  8
0
 10
93.264520796583881
 20
110.2123583759864
 30
0.0
  0
VERTEX
  5
1CA8
  8
0
 10
93.220720796583876
 20
110.1911583759864
 30
0.0
  0
VERTEX
  5
1CA9
  8
0
 10
93.174920796583876
 20
110.1743583759864
 30
0.0
  0
VERTEX
  5
1CAA
  8
0
 10
93.126920796583875
 20
110.1619583759864
 30
0.0
  0
VERTEX
  5
1CAB
  8
0
 10
93.077320796583876
 20
110.15445837598639
 30
0.0
  0
VERTEX
  5
1CAC
  8
0
 10
93.026020796583879
 20
110.1517583759864
 30
0.0
  0
VERTEX
  5
1CAD
  8
0
 10
93.026020796583879
 20
110.1517583759864
 30
0.0
  0
VERTEX
  5
1CAE
  8
0
 10
92.975020796583877
 20
110.15445837598639
 30
0.0
  0
VERTEX
  5
1CAF
  8
0
 10
92.925420796583865
 20
110.1619583759864
 30
0.0
  0
VERTEX
  5
1CB0
  8
0
 10
92.877520796583866
 20
110.1743583759864
 30
0.0
  0
VERTEX
  5
1CB1
  8
0
 10
92.831520796583874
 20
110.1911583759864
 30
0.0
  0
VERTEX
  5
1CB2
  8
0
 10
92.787920796583876
 20
110.2123583759864
 30
0.0
  0
VERTEX
  5
1CB3
  8
0
 10
92.746620796583869
 20
110.2373583759864
 30
0.0
  0
VERTEX
  5
1CB4
  8
0
 10
92.708220796583873
 20
110.26615837598639
 30
0.0
  0
VERTEX
  5
1CB5
  8
0
 10
92.672520796583896
 20
110.29825837598641
 30
0.0
  0
VERTEX
  5
1CB6
  8
0
 10
92.640420796583882
 20
110.3339583759864
 30
0.0
  0
VERTEX
  5
1CB7
  8
0
 10
92.611620796583878
 20
110.37235837598639
 30
0.0
  0
VERTEX
  5
1CB8
  8
0
 10
92.586620796583873
 20
110.4136583759864
 30
0.0
  0
VERTEX
  5
1CB9
  8
0
 10
92.565420796583865
 20
110.4572583759864
 30
0.0
  0
VERTEX
  5
1CBA
  8
0
 10
92.54862079658389
 20
110.50325837598641
 30
0.0
  0
VERTEX
  5
1CBB
  8
0
 10
92.536220796583876
 20
110.5511583759864
 30
0.0
  0
VERTEX
  5
1CBC
  8
0
 10
92.528720796583883
 20
110.6007583759864
 30
0.0
  0
VERTEX
  5
1CBD
  8
0
 10
92.526020796583865
 20
110.6517583759864
 30
0.0
  0
VERTEX
  5
1CBE
  8
0
 10
92.526020796583865
 20
110.6517583759864
 30
0.0
  0
VERTEX
  5
1CBF
  8
0
 10
92.528720796583883
 20
110.7030583759864
 30
0.0
  0
VERTEX
  5
1CC0
  8
0
 10
92.536220796583876
 20
110.7526583759864
 30
0.0
  0
VERTEX
  5
1CC1
  8
0
 10
92.54862079658389
 20
110.8006583759864
 30
0.0
  0
VERTEX
  5
1CC2
  8
0
 10
92.565420796583865
 20
110.8464583759864
 30
0.0
  0
VERTEX
  5
1CC3
  8
0
 10
92.586620796583873
 20
110.89025837598641
 30
0.0
  0
VERTEX
  5
1CC4
  8
0
 10
92.611620796583878
 20
110.9314583759864
 30
0.0
  0
VERTEX
  5
1CC5
  8
0
 10
92.640420796583882
 20
110.96995837598639
 30
0.0
  0
VERTEX
  5
1CC6
  8
0
 10
92.672520796583896
 20
111.0053583759864
 30
0.0
  0
VERTEX
  5
1CC7
  8
0
 10
92.708220796583873
 20
111.0377583759864
 30
0.0
  0
VERTEX
  5
1CC8
  8
0
 10
92.746620796583869
 20
111.0665583759864
 30
0.0
  0
VERTEX
  5
1CC9
  8
0
 10
92.787920796583876
 20
111.0916583759864
 30
0.0
  0
VERTEX
  5
1CCA
  8
0
 10
92.831520796583874
 20
111.1125583759864
 30
0.0
  0
VERTEX
  5
1CCB
  8
0
 10
92.877520796583866
 20
111.1294583759864
 30
0.0
  0
VERTEX
  5
1CCC
  8
0
 10
92.925420796583865
 20
111.1417583759864
 30
0.0
  0
VERTEX
  5
1CCD
  8
0
 10
92.975020796583877
 20
111.14925837598641
 30
0.0
  0
VERTEX
  5
1CCE
  8
0
 10
93.026020796583879
 20
111.1517583759864
 30
0.0
  0
SEQEND
  5
1CCF
  8
0
  0
POLYLINE
  5
A68
  8
0
 66
     1
 10
0.0
 20
0.0
 30
0.0
  0
VERTEX
  5
1CD0
  8
0
 10
93.026020796583879
 20
111.1517583759864
 30
0.0
  0
VERTEX
  5
1CD1
  8
0
 10
93.026020796583879
 20
111.1517583759864
 30
0.0
  0
VERTEX
  5
1CD2
  8
0
 10
93.077320796583876
 20
111.14925837598641
 30
0.0
  0
VERTEX
  5
1CD3
  8
0
 10
93.126920796583875
 20
111.1417583759864
 30
0.0
  0
VERTEX
  5
1CD4
  8
0
 10
93.174920796583876
 20
111.1294583759864
 30
0.0
  0
VERTEX
  5
1CD5
  8
0
 10
93.220720796583876
 20
111.1125583759864
 30
0.0
  0
VERTEX
  5
1CD6
  8
0
 10
93.264520796583881
 20
111.0916583759864
 30
0.0
  0
VERTEX
  5
1CD7
  8
0
 10
93.305720796583856
 20
111.0665583759864
 30
0.0
  0
VERTEX
  5
1CD8
  8
0
 10
93.344220796583883
 20
111.0377583759864
 30
0.0
  0
VERTEX
  5
1CD9
  8
0
 10
93.379620796583865
 20
111.0053583759864
 30
0.0
  0
VERTEX
  5
1CDA
  8
0
 10
93.412020796583874
 20
110.96995837598639
 30
0.0
  0
VERTEX
  5
1CDB
  8
0
 10
93.440820796583878
 20
110.9314583759864
 30
0.0
  0
VERTEX
  5
1CDC
  8
0
 10
93.465920796583873
 20
110.89025837598641
 30
0.0
  0
VERTEX
  5
1CDD
  8
0
 10
93.486820796583885
 20
110.8464583759864
 30
0.0
  0
VERTEX
  5
1CDE
  8
0
 10
93.503720796583877
 20
110.8006583759864
 30
0.0
  0
VERTEX
  5
1CDF
  8
0
 10
93.516020796583888
 20
110.7526583759864
 30
0.0
  0
VERTEX
  5
1CE0
  8
0
 10
93.523520796583881
 20
110.7030583759864
 30
0.0
  0
VERTEX
  5
1CE1
  8
0
 10
93.526020796583865
 20
110.6517583759864
 30
0.0
  0
VERTEX
  5
1CE2
  8
0
 10
93.526020796583865
 20
110.6517583759864
 30
0.0
  0
VERTEX
  5
1CE3
  8
0
 10
93.523520796583881
 20
110.6007583759864
 30
0.0
  0
VERTEX
  5
1CE4
  8
0
 10
93.516020796583888
 20
110.5511583759864
 30
0.0
  0
VERTEX
  5
1CE5
  8
0
 10
93.503720796583877
 20
110.50325837598641
 30
0.0
  0
VERTEX
  5
1CE6
  8
0
 10
93.486820796583885
 20
110.4572583759864
 30
0.0
  0
VERTEX
  5
1CE7
  8
0
 10
93.465920796583873
 20
110.4136583759864
 30
0.0
  0
VERTEX
  5
1CE8
  8
0
 10
93.440820796583878
 20
110.37235837598639
 30
0.0
  0
VERTEX
  5
1CE9
  8
0
 10
93.412020796583874
 20
110.3339583759864
 30
0.0
  0
VERTEX
  5
1CEA
  8
0
 10
93.379620796583865
 20
110.29825837598641
 30
0.0
  0
VERTEX
  5
1CEB
  8
0
 10
93.344220796583883
 20
110.26615837598639
 30
0.0
  0
VERTEX
  5
1CEC
  8
0
 10
93.305720796583856
 20
110.2373583759864
 30
0.0
  0
VERTEX
  5
1CED
  8
0
 10
93.264520796583881
 20
110.2123583759864
 30
0.0
  0
VERTEX
  5
1CEE
  8
0
 10
93.220720796583876
 20
110.1911583759864
 30
0.0
  0
VERTEX
  5
1CEF
  8
0
 10
93.174920796583876
 20
110.1743583759864
 30
0.0
  0
VERTEX
  5
1CF0
  8
0
 10
93.126920796583875
 20
110.1619583759864
 30
0.0
  0
VERTEX
  5
1CF1
  8
0
 10
93.077320796583876
 20
110.15445837598639
 30
0.0
  0
VERTEX
  5
1CF2
  8
0
 10
93.026020796583879
 20
110.1517583759864
 30
0.0
  0
VERTEX
  5
1CF3
  8
0
 10
93.026020796583879
 20
110.1517583759864
 30
0.0
  0
VERTEX
  5
1CF4
  8
0
 10
92.975020796583877
 20
110.15445837598639
 30
0.0
  0
VERTEX
  5
1CF5
  8
0
 10
92.925420796583865
 20
110.1619583759864
 30
0.0
  0
VERTEX
  5
1CF6
  8
0
 10
92.877520796583866
 20
110.1743583759864
 30
0.0
  0
VERTEX
  5
1CF7
  8
0
 10
92.831520796583874
 20
110.1911583759864
 30
0.0
  0
VERTEX
  5
1CF8
  8
0
 10
92.787920796583876
 20
110.2123583759864
 30
0.0
  0
VERTEX
  5
1CF9
  8
0
 10
92.746620796583869
 20
110.2373583759864
 30
0.0
  0
VERTEX
  5
1CFA
  8
0
 10
92.708220796583873
 20
110.26615837598639
 30
0.0
  0
VERTEX
  5
1CFB
  8
0
 10
92.672520796583896
 20
110.29825837598641
 30
0.0
  0
VERTEX
  5
1CFC
  8
0
 10
92.640420796583882
 20
110.3339583759864
 30
0.0
  0
VERTEX
  5
1CFD
  8
0
 10
92.611620796583878
 20
110.37235837598639
 30
0.0
  0
VERTEX
  5
1CFE
  8
0
 10
92.586620796583873
 20
110.4136583759864
 30
0.0
  0
VERTEX
  5
1CFF
  8
0
 10
92.565420796583865
 20
110.4572583759864
 30
0.0
  0
VERTEX
  5
1D00
  8
0
 10
92.54862079658389
 20
110.50325837598641
 30
0.0
  0
VERTEX
  5
1D01
  8
0
 10
92.536220796583876
 20
110.5511583759864
 30
0.0
  0
VERTEX
  5
1D02
  8
0
 10
92.528720796583883
 20
110.6007583759864
 30
0.0
  0
VERTEX
  5
1D03
  8
0
 10
92.526020796583865
 20
110.6517583759864
 30
0.0
  0
VERTEX
  5
1D04
  8
0
 10
92.526020796583865
 20
110.6517583759864
 30
0.0
  0
VERTEX
  5
1D05
  8
0
 10
92.528720796583883
 20
110.7030583759864
 30
0.0
  0
VERTEX
  5
1D06
  8
0
 10
92.536220796583876
 20
110.7526583759864
 30
0.0
  0
VERTEX
  5
1D07
  8
0
 10
92.54862079658389
 20
110.8006583759864
 30
0.0
  0
VERTEX
  5
1D08
  8
0
 10
92.565420796583865
 20
110.8464583759864
 30
0.0
  0
VERTEX
  5
1D09
  8
0
 10
92.586620796583873
 20
110.89025837598641
 30
0.0
  0
VERTEX
  5
1D0A
  8
0
 10
92.611620796583878
 20
110.9314583759864
 30
0.0
  0
VERTEX
  5
1D0B
  8
0
 10
92.640420796583882
 20
110.96995837598639
 30
0.0
  0
VERTEX
  5
1D0C
  8
0
 10
92.672520796583896
 20
111.0053583759864
 30
0.0
  0
VERTEX
  5
1D0D
  8
0
 10
92.708220796583873
 20
111.0377583759864
 30
0.0
  0
VERTEX
  5
1D0E
  8
0
 10
92.746620796583869
 20
111.0665583759864
 30
0.0
  0
VERTEX
  5
1D0F
  8
0
 10
92.787920796583876
 20
111.0916583759864
 30
0.0
  0
VERTEX
  5
1D10
  8
0
 10
92.831520796583874
 20
111.1125583759864
 30
0.0
  0
VERTEX
  5
1D11
  8
0
 10
92.877520796583866
 20
111.1294583759864
 30
0.0
  0
VERTEX
  5
1D12
  8
0
 10
92.925420796583865
 20
111.1417583759864
 30
0.0
  0
VERTEX
  5
1D13
  8
0
 10
92.975020796583877
 20
111.14925837598641
 30
0.0
  0
VERTEX
  5
1D14
  8
0
 10
93.026020796583879
 20
111.1517583759864
 30
0.0
  0
SEQEND
  5
1D15
  8
0
  0
POLYLINE
  5
A6A
  8
0
 66
     1
 10
0.0
 20
0.0
 30
0.0
  0
VERTEX
  5
1D16
  8
0
 10
93.026020796583879
 20
111.1517583759864
 30
0.0
  0
VERTEX
  5
1D17
  8
0
 10
93.026020796583879
 20
111.1517583759864
 30
0.0
  0
VERTEX
  5
1D18
  8
0
 10
93.077320796583876
 20
111.14925837598641
 30
0.0
  0
VERTEX
  5
1D19
  8
0
 10
93.126920796583875
 20
111.1417583759864
 30
0.0
  0
VERTEX
  5
1D1A
  8
0
 10
93.174920796583876
 20
111.1294583759864
 30
0.0
  0
VERTEX
  5
1D1B
  8
0
 10
93.220720796583876
 20
111.1125583759864
 30
0.0
  0
VERTEX
  5
1D1C
  8
0
 10
93.264520796583881
 20
111.0916583759864
 30
0.0
  0
VERTEX
  5
1D1D
  8
0
 10
93.305720796583856
 20
111.0665583759864
 30
0.0
  0
VERTEX
  5
1D1E
  8
0
 10
93.344220796583883
 20
111.0377583759864
 30
0.0
  0
VERTEX
  5
1D1F
  8
0
 10
93.379620796583865
 20
111.0053583759864
 30
0.0
  0
VERTEX
  5
1D20
  8
0
 10
93.412020796583874
 20
110.96995837598639
 30
0.0
  0
VERTEX
  5
1D21
  8
0
 10
93.440820796583878
 20
110.9314583759864
 30
0.0
  0
VERTEX
  5
1D22
  8
0
 10
93.465920796583873
 20
110.89025837598641
 30
0.0
  0
VERTEX
  5
1D23
  8
0
 10
93.486820796583885
 20
110.8464583759864
 30
0.0
  0
VERTEX
  5
1D24
  8
0
 10
93.503720796583877
 20
110.8006583759864
 30
0.0
  0
VERTEX
  5
1D25
  8
0
 10
93.516020796583888
 20
110.7526583759864
 30
0.0
  0
VERTEX
  5
1D26
  8
0
 10
93.523520796583881
 20
110.7030583759864
 30
0.0
  0
VERTEX
  5
1D27
  8
0
 10
93.526020796583865
 20
110.6517583759864
 30
0.0
  0
VERTEX
  5
1D28
  8
0
 10
93.526020796583865
 20
110.6517583759864
 30
0.0
  0
VERTEX
  5
1D29
  8
0
 10
93.523520796583881
 20
110.6007583759864
 30
0.0
  0
VERTEX
  5
1D2A
  8
0
 10
93.516020796583888
 20
110.5511583759864
 30
0.0
  0
VERTEX
  5
1D2B
  8
0
 10
93.503720796583877
 20
110.50325837598641
 30
0.0
  0
VERTEX
  5
1D2C
  8
0
 10
93.486820796583885
 20
110.4572583759864
 30
0.0
  0
VERTEX
  5
1D2D
  8
0
 10
93.465920796583873
 20
110.4136583759864
 30
0.0
  0
VERTEX
  5
1D2E
  8
0
 10
93.440820796583878
 20
110.37235837598639
 30
0.0
  0
VERTEX
  5
1D2F
  8
0
 10
93.412020796583874
 20
110.3339583759864
 30
0.0
  0
VERTEX
  5
1D30
  8
0
 10
93.379620796583865
 20
110.29825837598641
 30
0.0
  0
VERTEX
  5
1D31
  8
0
 10
93.344220796583883
 20
110.26615837598639
 30
0.0
  0
VERTEX
  5
1D32
  8
0
 10
93.305720796583856
 20
110.2373583759864
 30
0.0
  0
VERTEX
  5
1D33
  8
0
 10
93.264520796583881
 20
110.2123583759864
 30
0.0
  0
VERTEX
  5
1D34
  8
0
 10
93.220720796583876
 20
110.1911583759864
 30
0.0
  0
VERTEX
  5
1D35
  8
0
 10
93.174920796583876
 20
110.1743583759864
 30
0.0
  0
VERTEX
  5
1D36
  8
0
 10
93.126920796583875
 20
110.1619583759864
 30
0.0
  0
VERTEX
  5
1D37
  8
0
 10
93.077320796583876
 20
110.15445837598639
 30
0.0
  0
VERTEX
  5
1D38
  8
0
 10
93.026020796583879
 20
110.1517583759864
 30
0.0
  0
VERTEX
  5
1D39
  8
0
 10
93.026020796583879
 20
110.1517583759864
 30
0.0
  0
VERTEX
  5
1D3A
  8
0
 10
92.975020796583877
 20
110.15445837598639
 30
0.0
  0
VERTEX
  5
1D3B
  8
0
 10
92.925420796583865
 20
110.1619583759864
 30
0.0
  0
VERTEX
  5
1D3C
  8
0
 10
92.877520796583866
 20
110.1743583759864
 30
0.0
  0
VERTEX
  5
1D3D
  8
0
 10
92.831520796583874
 20
110.1911583759864
 30
0.0
  0
VERTEX
  5
1D3E
  8
0
 10
92.787920796583876
 20
110.2123583759864
 30
0.0
  0
VERTEX
  5
1D3F
  8
0
 10
92.746620796583869
 20
110.2373583759864
 30
0.0
  0
VERTEX
  5
1D40
  8
0
 10
92.708220796583873
 20
110.26615837598639
 30
0.0
  0
VERTEX
  5
1D41
  8
0
 10
92.672520796583896
 20
110.29825837598641
 30
0.0
  0
VERTEX
  5
1D42
  8
0
 10
92.640420796583882
 20
110.3339583759864
 30
0.0
  0
VERTEX
  5
1D43
  8
0
 10
92.611620796583878
 20
110.37235837598639
 30
0.0
  0
VERTEX
  5
1D44
  8
0
 10
92.586620796583873
 20
110.4136583759864
 30
0.0
  0
VERTEX
  5
1D45
  8
0
 10
92.565420796583865
 20
110.4572583759864
 30
0.0
  0
VERTEX
  5
1D46
  8
0
 10
92.54862079658389
 20
110.50325837598641
 30
0.0
  0
VERTEX
  5
1D47
  8
0
 10
92.536220796583876
 20
110.5511583759864
 30
0.0
  0
VERTEX
  5
1D48
  8
0
 10
92.528720796583883
 20
110.6007583759864
 30
0.0
  0
VERTEX
  5
1D49
  8
0
 10
92.526020796583865
 20
110.6517583759864
 30
0.0
  0
VERTEX
  5
1D4A
  8
0
 10
92.526020796583865
 20
110.6517583759864
 30
0.0
  0
VERTEX
  5
1D4B
  8
0
 10
92.528720796583883
 20
110.7030583759864
 30
0.0
  0
VERTEX
  5
1D4C
  8
0
 10
92.536220796583876
 20
110.7526583759864
 30
0.0
  0
VERTEX
  5
1D4D
  8
0
 10
92.54862079658389
 20
110.8006583759864
 30
0.0
  0
VERTEX
  5
1D4E
  8
0
 10
92.565420796583865
 20
110.8464583759864
 30
0.0
  0
VERTEX
  5
1D4F
  8
0
 10
92.586620796583873
 20
110.89025837598641
 30
0.0
  0
VERTEX
  5
1D50
  8
0
 10
92.611620796583878
 20
110.9314583759864
 30
0.0
  0
VERTEX
  5
1D51
  8
0
 10
92.640420796583882
 20
110.96995837598639
 30
0.0
  0
VERTEX
  5
1D52
  8
0
 10
92.672520796583896
 20
111.0053583759864
 30
0.0
  0
VERTEX
  5
1D53
  8
0
 10
92.708220796583873
 20
111.0377583759864
 30
0.0
  0
VERTEX
  5
1D54
  8
0
 10
92.746620796583869
 20
111.0665583759864
 30
0.0
  0
VERTEX
  5
1D55
  8
0
 10
92.787920796583876
 20
111.0916583759864
 30
0.0
  0
VERTEX
  5
1D56
  8
0
 10
92.831520796583874
 20
111.1125583759864
 30
0.0
  0
VERTEX
  5
1D57
  8
0
 10
92.877520796583866
 20
111.1294583759864
 30
0.0
  0
VERTEX
  5
1D58
  8
0
 10
92.925420796583865
 20
111.1417583759864
 30
0.0
  0
VERTEX
  5
1D59
  8
0
 10
92.975020796583877
 20
111.14925837598641
 30
0.0
  0
VERTEX
  5
1D5A
  8
0
 10
93.026020796583879
 20
111.1517583759864
 30
0.0
  0
SEQEND
  5
1D5B
  8
0
  0
POLYLINE
  5
B87
  8
2
 66
     1
 10
0.0
 20
0.0
 30
0.0
 39
5.0
  0
VERTEX
  5
1D5C
  8
2
 10
93.838120796583894
 20
119.16515837598639
 30
0.0
  0
VERTEX
  5
1D5D
  8
2
 10
93.838120796583894
 20
113.8899583759864
 30
0.0
  0
SEQEND
  5
1D5E
  8
2
  0
LINE
  5
10A1
  8
0
 39
5.0
 10
95.455820796583865
 20
135.25705837598639
 30
0.0
 11
93.992520796583875
 21
135.25705837598639
 31
0.0
  0
LINE
  5
10A3
  8
2
 39
5.0
 10
93.434520796583868
 20
135.45938518219839
 30
0.0
 11
93.434520796583897
 21
139.58155837598639
 31
0.0
  0
LINE
  5
10AA
  8
0
 39
5.0
 10
95.455820796583865
 20
139.58155837598639
 30
0.0
 11
90.855820796583885
 21
139.58155837598639
 31
0.0
  0
LINE
  5
10AC
  8
0
 10
95.455820796583865
 20
135.63295837598639
 30
0.0
 11
92.955820796583865
 21
135.63295837598639
 31
0.0
  0
LINE
  5
10BE
  8
0
 39
5.0
 10
92.944420796583856
 20
122.8899583759864
 30
0.0
 11
95.455820796583865
 21
122.8899583759864
 31
0.0
  0
LINE
  5
10C1
  8
0
 39
5.0
 10
92.005820796583876
 20
113.8899583759864
 30
0.0
 11
92.005820796583876
 21
121.9718583759864
 31
0.0
  0
LINE
  5
10C2
  8
0
 39
5.0
 10
92.005820796583876
 20
121.9718583759864
 30
0.0
 11
92.005820796583876
 21
121.9718583759864
 31
0.0
  0
LINE
  5
10C3
  8
0
 39
5.0
 10
92.005820796583876
 20
121.9718583759864
 30
0.0
 11
92.003220796583875
 21
122.06235837598641
 31
0.0
  0
LINE
  5
10C4
  8
0
 39
5.0
 10
92.003220796583875
 20
122.06235837598641
 30
0.0
 11
92.014420796583863
 21
122.1502583759864
 31
0.0
  0
LINE
  5
10C5
  8
0
 39
5.0
 10
92.014420796583863
 20
122.1502583759864
 30
0.0
 11
92.038220796583872
 21
122.2354583759864
 31
0.0
  0
LINE
  5
10C6
  8
0
 39
5.0
 10
92.038220796583872
 20
122.2354583759864
 30
0.0
 11
92.073120796583879
 21
122.3172583759864
 31
0.0
  0
LINE
  5
10C7
  8
0
 39
5.0
 10
92.073120796583879
 20
122.3172583759864
 30
0.0
 11
92.11852079658388
 21
122.3955583759864
 31
0.0
  0
LINE
  5
10C8
  8
0
 39
5.0
 10
92.11852079658388
 20
122.3955583759864
 30
0.0
 11
92.172620796583885
 21
122.4695583759864
 31
0.0
  0
LINE
  5
10C9
  8
0
 39
5.0
 10
92.172620796583885
 20
122.4695583759864
 30
0.0
 11
92.234720796583872
 21
122.5391583759864
 31
0.0
  0
LINE
  5
10CA
  8
0
 39
5.0
 10
92.234720796583872
 20
122.5391583759864
 30
0.0
 11
92.303220796583872
 21
122.6036583759864
 31
0.0
  0
LINE
  5
10CB
  8
0
 39
5.0
 10
92.303220796583872
 20
122.6036583759864
 30
0.0
 11
92.377320796583874
 21
122.66295837598641
 31
0.0
  0
LINE
  5
10CC
  8
0
 39
5.0
 10
92.377320796583874
 20
122.66295837598641
 30
0.0
 11
92.455420796583866
 21
122.7163583759864
 31
0.0
  0
LINE
  5
10CD
  8
0
 39
5.0
 10
92.455420796583866
 20
122.7163583759864
 30
0.0
 11
92.536520796583872
 21
122.7634583759864
 31
0.0
  0
LINE
  5
10CE
  8
0
 39
5.0
 10
92.536520796583872
 20
122.7634583759864
 30
0.0
 11
92.619420796583867
 21
122.80385837598639
 31
0.0
  0
LINE
  5
10CF
  8
0
 39
5.0
 10
92.619420796583867
 20
122.80385837598639
 30
0.0
 11
92.702920796583868
 21
122.83725837598639
 31
0.0
  0
LINE
  5
10D0
  8
0
 39
5.0
 10
92.702920796583868
 20
122.83725837598639
 30
0.0
 11
92.785620796583871
 21
122.86295837598639
 31
0.0
  0
LINE
  5
10D1
  8
0
 39
5.0
 10
92.785620796583871
 20
122.86295837598639
 30
0.0
 11
92.866620796583874
 21
122.8807583759864
 31
0.0
  0
LINE
  5
10D2
  8
0
 39
5.0
 10
92.866620796583874
 20
122.8807583759864
 30
0.0
 11
92.944420796583856
 21
122.8899583759864
 31
0.0
  0
LINE
  5
10D5
  8
0
 39
5.0
 10
95.455820796583865
 20
120.3767583759864
 30
0.0
 11
92.955820796583865
 21
120.3767583759864
 31
0.0
  0
LINE
  5
10DC
  8
0
 39
5.0
 10
92.955820796583865
 20
119.16515837598639
 30
0.0
 11
95.455820796583865
 21
119.16515837598639
 31
0.0
  0
LINE
  5
10DF
  8
0
 62
     7
 39
5.0
 10
93.092720796583905
 20
120.3767583759864
 30
0.0
 11
93.092720796583876
 21
119.16515837598639
 31
0.0
  0
LINE
  5
10EF
  8
0
 10
93.092720796583905
 20
122.8899583759864
 30
0.0
 11
93.092720796583905
 21
120.3767583759864
 31
0.0
  0
LINE
  5
10F5
  8
0
 39
5.0
 10
93.621220796583884
 20
94.912858375986474
 30
0.0
 11
93.621220796583884
 21
112.0654583759864
 31
0.0
  0
LINE
  5
10F9
  8
0
 39
5.0
 10
93.487320796583873
 20
83.063043894088835
 30
0.0
 11
93.114920796583874
 21
83.467058375986454
 31
0.0
  0
LINE
  5
10FA
  8
0
 39
5.0
 10
93.114920796583874
 20
83.467058375986454
 30
0.0
 11
93.114320796583883
 21
87.082058375986463
 31
0.0
  0
LINE
  5
10FE
  8
0
 39
5.0
 10
93.114920796583846
 20
87.889958375986467
 30
0.0
 11
93.114920796583874
 21
94.912858375986474
 31
0.0
  0
LINE
  5
110A
  8
0
 39
5.0
 10
93.621220796583884
 20
112.0654583759864
 30
0.0
 11
93.621220796583884
 21
113.8899583759864
 31
0.0
  0
LINE
  5
1115
  8
0
 39
5.0
 10
90.163020796583865
 20
90.889958375986467
 30
0.0
 11
90.163020796583865
 21
95.889958375986467
 31
0.0
  0
LINE
  5
1116
  8
0
 39
5.0
 10
90.163020796583865
 20
95.889958375986467
 30
0.0
 11
90.869820796583895
 21
95.889958375986467
 31
0.0
  0
LINE
  5
1126
  8
1
 10
93.220720796583876
 20
111.1125583759864
 30
0.0
 11
93.621220796583884
 21
110.9115942120237
 31
0.0
  0
LINE
  5
112A
  8
1
 10
92.831520796583874
 20
110.1911583759864
 30
0.0
 11
93.621220796583884
 21
109.7992519272121
 31
0.0
  0
POLYLINE
  5
1158
  8
0
 66
     1
 10
0.0
 20
0.0
 30
0.0
 39
5.0
  0
VERTEX
  5
1E31
  8
0
 10
93.026020796583879
 20
108.1517583759864
 30
0.0
  0
VERTEX
  5
1E32
  8
0
 10
93.026020796583879
 20
108.1517583759864
 30
0.0
  0
VERTEX
  5
1E33
  8
0
 10
93.077320796583876
 20
108.14925837598641
 30
0.0
  0
VERTEX
  5
1E34
  8
0
 10
93.126920796583875
 20
108.1417583759864
 30
0.0
  0
VERTEX
  5
1E35
  8
0
 10
93.174920796583876
 20
108.1294583759864
 30
0.0
  0
VERTEX
  5
1E36
  8
0
 10
93.220720796583876
 20
108.1125583759864
 30
0.0
  0
VERTEX
  5
1E37
  8
0
 10
93.264520796583881
 20
108.0916583759864
 30
0.0
  0
VERTEX
  5
1E38
  8
0
 10
93.305720796583856
 20
108.0665583759864
 30
0.0
  0
VERTEX
  5
1E39
  8
0
 10
93.344220796583883
 20
108.0377583759864
 30
0.0
  0
VERTEX
  5
1E3A
  8
0
 10
93.379620796583865
 20
108.0053583759864
 30
0.0
  0
VERTEX
  5
1E3B
  8
0
 10
93.412020796583874
 20
107.96995837598639
 30
0.0
  0
VERTEX
  5
1E3C
  8
0
 10
93.440820796583878
 20
107.9314583759864
 30
0.0
  0
VERTEX
  5
1E3D
  8
0
 10
93.465920796583873
 20
107.89025837598641
 30
0.0
  0
VERTEX
  5
1E3E
  8
0
 10
93.486820796583885
 20
107.8464583759864
 30
0.0
  0
VERTEX
  5
1E3F
  8
0
 10
93.503720796583877
 20
107.8006583759864
 30
0.0
  0
VERTEX
  5
1E40
  8
0
 10
93.516020796583888
 20
107.7526583759864
 30
0.0
  0
VERTEX
  5
1E41
  8
0
 10
93.523520796583881
 20
107.7030583759864
 30
0.0
  0
VERTEX
  5
1E42
  8
0
 10
93.526020796583865
 20
107.6517583759864
 30
0.0
  0
VERTEX
  5
1E43
  8
0
 10
93.526020796583865
 20
107.6517583759864
 30
0.0
  0
VERTEX
  5
1E44
  8
0
 10
93.523520796583881
 20
107.6007583759864
 30
0.0
  0
VERTEX
  5
1E45
  8
0
 10
93.516020796583888
 20
107.5511583759864
 30
0.0
  0
VERTEX
  5
1E46
  8
0
 10
93.503720796583877
 20
107.50325837598641
 30
0.0
  0
VERTEX
  5
1E47
  8
0
 10
93.486820796583885
 20
107.4572583759864
 30
0.0
  0
VERTEX
  5
1E48
  8
0
 10
93.465920796583873
 20
107.4136583759864
 30
0.0
  0
VERTEX
  5
1E49
  8
0
 10
93.440820796583878
 20
107.37235837598639
 30
0.0
  0
VERTEX
  5
1E4A
  8
0
 10
93.412020796583874
 20
107.3339583759864
 30
0.0
  0
VERTEX
  5
1E4B
  8
0
 10
93.379620796583865
 20
107.29825837598641
 30
0.0
  0
VERTEX
  5
1E4C
  8
0
 10
93.344220796583883
 20
107.26615837598639
 30
0.0
  0
VERTEX
  5
1E4D
  8
0
 10
93.305720796583856
 20
107.2373583759864
 30
0.0
  0
VERTEX
  5
1E4E
  8
0
 10
93.264520796583881
 20
107.2123583759864
 30
0.0
  0
VERTEX
  5
1E4F
  8
0
 10
93.220720796583876
 20
107.1911583759864
 30
0.0
  0
VERTEX
  5
1E50
  8
0
 10
93.174920796583876
 20
107.1743583759864
 30
0.0
  0
VERTEX
  5
1E51
  8
0
 10
93.126920796583875
 20
107.1619583759864
 30
0.0
  0
VERTEX
  5
1E52
  8
0
 10
93.077320796583876
 20
107.15445837598639
 30
0.0
  0
VERTEX
  5
1E53
  8
0
 10
93.026020796583879
 20
107.1517583759864
 30
0.0
  0
VERTEX
  5
1E54
  8
0
 10
93.026020796583879
 20
107.1517583759864
 30
0.0
  0
VERTEX
  5
1E55
  8
0
 10
92.975020796583877
 20
107.15445837598639
 30
0.0
  0
VERTEX
  5
1E56
  8
0
 10
92.925420796583865
 20
107.1619583759864
 30
0.0
  0
VERTEX
  5
1E57
  8
0
 10
92.877520796583866
 20
107.1743583759864
 30
0.0
  0
VERTEX
  5
1E58
  8
0
 10
92.831520796583874
 20
107.1911583759864
 30
0.0
  0
VERTEX
  5
1E59
  8
0
 10
92.787920796583876
 20
107.2123583759864
 30
0.0
  0
VERTEX
  5
1E5A
  8
0
 10
92.746620796583869
 20
107.2373583759864
 30
0.0
  0
VERTEX
  5
1E5B
  8
0
 10
92.708220796583873
 20
107.26615837598639
 30
0.0
  0
VERTEX
  5
1E5C
  8
0
 10
92.672520796583896
 20
107.29825837598641
 30
0.0
  0
VERTEX
  5
1E5D
  8
0
 10
92.640420796583882
 20
107.3339583759864
 30
0.0
  0
VERTEX
  5
1E5E
  8
0
 10
92.611620796583878
 20
107.37235837598639
 30
0.0
  0
VERTEX
  5
1E5F
  8
0
 10
92.586620796583873
 20
107.4136583759864
 30
0.0
  0
VERTEX
  5
1E60
  8
0
 10
92.565420796583865
 20
107.4572583759864
 30
0.0
  0
VERTEX
  5
1E61
  8
0
 10
92.54862079658389
 20
107.50325837598641
 30
0.0
  0
VERTEX
  5
1E62
  8
0
 10
92.536220796583876
 20
107.5511583759864
 30
0.0
  0
VERTEX
  5
1E63
  8
0
 10
92.528720796583883
 20
107.6007583759864
 30
0.0
  0
VERTEX
  5
1E64
  8
0
 10
92.526020796583865
 20
107.6517583759864
 30
0.0
  0
VERTEX
  5
1E65
  8
0
 10
92.526020796583865
 20
107.6517583759864
 30
0.0
  0
VERTEX
  5
1E66
  8
0
 10
92.528720796583883
 20
107.7030583759864
 30
0.0
  0
VERTEX
  5
1E67
  8
0
 10
92.536220796583876
 20
107.7526583759864
 30
0.0
  0
VERTEX
  5
1E68
  8
0
 10
92.54862079658389
 20
107.8006583759864
 30
0.0
  0
VERTEX
  5
1E69
  8
0
 10
92.565420796583865
 20
107.8464583759864
 30
0.0
  0
VERTEX
  5
1E6A
  8
0
 10
92.586620796583873
 20
107.89025837598641
 30
0.0
  0
VERTEX
  5
1E6B
  8
0
 10
92.611620796583878
 20
107.9314583759864
 30
0.0
  0
VERTEX
  5
1E6C
  8
0
 10
92.640420796583882
 20
107.96995837598639
 30
0.0
  0
VERTEX
  5
1E6D
  8
0
 10
92.672520796583896
 20
108.0053583759864
 30
0.0
  0
VERTEX
  5
1E6E
  8
0
 10
92.708220796583873
 20
108.0377583759864
 30
0.0
  0
VERTEX
  5
1E6F
  8
0
 10
92.746620796583869
 20
108.0665583759864
 30
0.0
  0
VERTEX
  5
1E70
  8
0
 10
92.787920796583876
 20
108.0916583759864
 30
0.0
  0
VERTEX
  5
1E71
  8
0
 10
92.831520796583874
 20
108.1125583759864
 30
0.0
  0
VERTEX
  5
1E72
  8
0
 10
92.877520796583866
 20
108.1294583759864
 30
0.0
  0
VERTEX
  5
1E73
  8
0
 10
92.925420796583865
 20
108.1417583759864
 30
0.0
  0
VERTEX
  5
1E74
  8
0
 10
92.975020796583877
 20
108.14925837598641
 30
0.0
  0
VERTEX
  5
1E75
  8
0
 10
93.026020796583879
 20
108.1517583759864
 30
0.0
  0
SEQEND
  5
1E76
  8
0
  0
LINE
  5
1159
  8
1
 10
92.831520796583874
 20
107.1911583759864
 30
0.0
 11
93.621220796583884
 21
106.7992519272121
 31
0.0
  0
LINE
  5
115A
  8
1
 10
93.220720796583876
 20
108.1125583759864
 30
0.0
 11
93.621220796583884
 21
107.9115942120237
 31
0.0
  0
POLYLINE
  5
115B
  8
0
 66
     1
 10
0.0
 20
0.0
 30
0.0
  0
VERTEX
  5
1E77
  8
0
 10
93.026020796583879
 20
108.1517583759864
 30
0.0
  0
VERTEX
  5
1E78
  8
0
 10
93.026020796583879
 20
108.1517583759864
 30
0.0
  0
VERTEX
  5
1E79
  8
0
 10
93.077320796583876
 20
108.14925837598641
 30
0.0
  0
VERTEX
  5
1E7A
  8
0
 10
93.126920796583875
 20
108.1417583759864
 30
0.0
  0
VERTEX
  5
1E7B
  8
0
 10
93.174920796583876
 20
108.1294583759864
 30
0.0
  0
VERTEX
  5
1E7C
  8
0
 10
93.220720796583876
 20
108.1125583759864
 30
0.0
  0
VERTEX
  5
1E7D
  8
0
 10
93.264520796583881
 20
108.0916583759864
 30
0.0
  0
VERTEX
  5
1E7E
  8
0
 10
93.305720796583856
 20
108.0665583759864
 30
0.0
  0
VERTEX
  5
1E7F
  8
0
 10
93.344220796583883
 20
108.0377583759864
 30
0.0
  0
VERTEX
  5
1E80
  8
0
 10
93.379620796583865
 20
108.0053583759864
 30
0.0
  0
VERTEX
  5
1E81
  8
0
 10
93.412020796583874
 20
107.96995837598639
 30
0.0
  0
VERTEX
  5
1E82
  8
0
 10
93.440820796583878
 20
107.9314583759864
 30
0.0
  0
VERTEX
  5
1E83
  8
0
 10
93.465920796583873
 20
107.89025837598641
 30
0.0
  0
VERTEX
  5
1E84
  8
0
 10
93.486820796583885
 20
107.8464583759864
 30
0.0
  0
VERTEX
  5
1E85
  8
0
 10
93.503720796583877
 20
107.8006583759864
 30
0.0
  0
VERTEX
  5
1E86
  8
0
 10
93.516020796583888
 20
107.7526583759864
 30
0.0
  0
VERTEX
  5
1E87
  8
0
 10
93.523520796583881
 20
107.7030583759864
 30
0.0
  0
VERTEX
  5
1E88
  8
0
 10
93.526020796583865
 20
107.6517583759864
 30
0.0
  0
VERTEX
  5
1E89
  8
0
 10
93.526020796583865
 20
107.6517583759864
 30
0.0
  0
VERTEX
  5
1E8A
  8
0
 10
93.523520796583881
 20
107.6007583759864
 30
0.0
  0
VERTEX
  5
1E8B
  8
0
 10
93.516020796583888
 20
107.5511583759864
 30
0.0
  0
VERTEX
  5
1E8C
  8
0
 10
93.503720796583877
 20
107.50325837598641
 30
0.0
  0
VERTEX
  5
1E8D
  8
0
 10
93.486820796583885
 20
107.4572583759864
 30
0.0
  0
VERTEX
  5
1E8E
  8
0
 10
93.465920796583873
 20
107.4136583759864
 30
0.0
  0
VERTEX
  5
1E8F
  8
0
 10
93.440820796583878
 20
107.37235837598639
 30
0.0
  0
VERTEX
  5
1E90
  8
0
 10
93.412020796583874
 20
107.3339583759864
 30
0.0
  0
VERTEX
  5
1E91
  8
0
 10
93.379620796583865
 20
107.29825837598641
 30
0.0
  0
VERTEX
  5
1E92
  8
0
 10
93.344220796583883
 20
107.26615837598639
 30
0.0
  0
VERTEX
  5
1E93
  8
0
 10
93.305720796583856
 20
107.2373583759864
 30
0.0
  0
VERTEX
  5
1E94
  8
0
 10
93.264520796583881
 20
107.2123583759864
 30
0.0
  0
VERTEX
  5
1E95
  8
0
 10
93.220720796583876
 20
107.1911583759864
 30
0.0
  0
VERTEX
  5
1E96
  8
0
 10
93.174920796583876
 20
107.1743583759864
 30
0.0
  0
VERTEX
  5
1E97
  8
0
 10
93.126920796583875
 20
107.1619583759864
 30
0.0
  0
VERTEX
  5
1E98
  8
0
 10
93.077320796583876
 20
107.15445837598639
 30
0.0
  0
VERTEX
  5
1E99
  8
0
 10
93.026020796583879
 20
107.1517583759864
 30
0.0
  0
VERTEX
  5
1E9A
  8
0
 10
93.026020796583879
 20
107.1517583759864
 30
0.0
  0
VERTEX
  5
1E9B
  8
0
 10
92.975020796583877
 20
107.15445837598639
 30
0.0
  0
VERTEX
  5
1E9C
  8
0
 10
92.925420796583865
 20
107.1619583759864
 30
0.0
  0
VERTEX
  5
1E9D
  8
0
 10
92.877520796583866
 20
107.1743583759864
 30
0.0
  0
VERTEX
  5
1E9E
  8
0
 10
92.831520796583874
 20
107.1911583759864
 30
0.0
  0
VERTEX
  5
1E9F
  8
0
 10
92.787920796583876
 20
107.2123583759864
 30
0.0
  0
VERTEX
  5
1EA0
  8
0
 10
92.746620796583869
 20
107.2373583759864
 30
0.0
  0
VERTEX
  5
1EA1
  8
0
 10
92.708220796583873
 20
107.26615837598639
 30
0.0
  0
VERTEX
  5
1EA2
  8
0
 10
92.672520796583896
 20
107.29825837598641
 30
0.0
  0
VERTEX
  5
1EA3
  8
0
 10
92.640420796583882
 20
107.3339583759864
 30
0.0
  0
VERTEX
  5
1EA4
  8
0
 10
92.611620796583878
 20
107.37235837598639
 30
0.0
  0
VERTEX
  5
1EA5
  8
0
 10
92.586620796583873
 20
107.4136583759864
 30
0.0
  0
VERTEX
  5
1EA6
  8
0
 10
92.565420796583865
 20
107.4572583759864
 30
0.0
  0
VERTEX
  5
1EA7
  8
0
 10
92.54862079658389
 20
107.50325837598641
 30
0.0
  0
VERTEX
  5
1EA8
  8
0
 10
92.536220796583876
 20
107.5511583759864
 30
0.0
  0
VERTEX
  5
1EA9
  8
0
 10
92.528720796583883
 20
107.6007583759864
 30
0.0
  0
VERTEX
  5
1EAA
  8
0
 10
92.526020796583865
 20
107.6517583759864
 30
0.0
  0
VERTEX
  5
1EAB
  8
0
 10
92.526020796583865
 20
107.6517583759864
 30
0.0
  0
VERTEX
  5
1EAC
  8
0
 10
92.528720796583883
 20
107.7030583759864
 30
0.0
  0
VERTEX
  5
1EAD
  8
0
 10
92.536220796583876
 20
107.7526583759864
 30
0.0
  0
VERTEX
  5
1EAE
  8
0
 10
92.54862079658389
 20
107.8006583759864
 30
0.0
  0
VERTEX
  5
1EAF
  8
0
 10
92.565420796583865
 20
107.8464583759864
 30
0.0
  0
VERTEX
  5
1EB0
  8
0
 10
92.586620796583873
 20
107.89025837598641
 30
0.0
  0
VERTEX
  5
1EB1
  8
0
 10
92.611620796583878
 20
107.9314583759864
 30
0.0
  0
VERTEX
  5
1EB2
  8
0
 10
92.640420796583882
 20
107.96995837598639
 30
0.0
  0
VERTEX
  5
1EB3
  8
0
 10
92.672520796583896
 20
108.0053583759864
 30
0.0
  0
VERTEX
  5
1EB4
  8
0
 10
92.708220796583873
 20
108.0377583759864
 30
0.0
  0
VERTEX
  5
1EB5
  8
0
 10
92.746620796583869
 20
108.0665583759864
 30
0.0
  0
VERTEX
  5
1EB6
  8
0
 10
92.787920796583876
 20
108.0916583759864
 30
0.0
  0
VERTEX
  5
1EB7
  8
0
 10
92.831520796583874
 20
108.1125583759864
 30
0.0
  0
VERTEX
  5
1EB8
  8
0
 10
92.877520796583866
 20
108.1294583759864
 30
0.0
  0
VERTEX
  5
1EB9
  8
0
 10
92.925420796583865
 20
108.1417583759864
 30
0.0
  0
VERTEX
  5
1EBA
  8
0
 10
92.975020796583877
 20
108.14925837598641
 30
0.0
  0
VERTEX
  5
1EBB
  8
0
 10
93.026020796583879
 20
108.1517583759864
 30
0.0
  0
SEQEND
  5
1EBC
  8
0
  0
POLYLINE
  5
115C
  8
0
 66
     1
 10
0.0
 20
0.0
 30
0.0
  0
VERTEX
  5
1EBD
  8
0
 10
93.026020796583879
 20
108.1517583759864
 30
0.0
  0
VERTEX
  5
1EBE
  8
0
 10
93.026020796583879
 20
108.1517583759864
 30
0.0
  0
VERTEX
  5
1EBF
  8
0
 10
93.077320796583876
 20
108.14925837598641
 30
0.0
  0
VERTEX
  5
1EC0
  8
0
 10
93.126920796583875
 20
108.1417583759864
 30
0.0
  0
VERTEX
  5
1EC1
  8
0
 10
93.174920796583876
 20
108.1294583759864
 30
0.0
  0
VERTEX
  5
1EC2
  8
0
 10
93.220720796583876
 20
108.1125583759864
 30
0.0
  0
VERTEX
  5
1EC3
  8
0
 10
93.264520796583881
 20
108.0916583759864
 30
0.0
  0
VERTEX
  5
1EC4
  8
0
 10
93.305720796583856
 20
108.0665583759864
 30
0.0
  0
VERTEX
  5
1EC5
  8
0
 10
93.344220796583883
 20
108.0377583759864
 30
0.0
  0
VERTEX
  5
1EC6
  8
0
 10
93.379620796583865
 20
108.0053583759864
 30
0.0
  0
VERTEX
  5
1EC7
  8
0
 10
93.412020796583874
 20
107.96995837598639
 30
0.0
  0
VERTEX
  5
1EC8
  8
0
 10
93.440820796583878
 20
107.9314583759864
 30
0.0
  0
VERTEX
  5
1EC9
  8
0
 10
93.465920796583873
 20
107.89025837598641
 30
0.0
  0
VERTEX
  5
1ECA
  8
0
 10
93.486820796583885
 20
107.8464583759864
 30
0.0
  0
VERTEX
  5
1ECB
  8
0
 10
93.503720796583877
 20
107.8006583759864
 30
0.0
  0
VERTEX
  5
1ECC
  8
0
 10
93.516020796583888
 20
107.7526583759864
 30
0.0
  0
VERTEX
  5
1ECD
  8
0
 10
93.523520796583881
 20
107.7030583759864
 30
0.0
  0
VERTEX
  5
1ECE
  8
0
 10
93.526020796583865
 20
107.6517583759864
 30
0.0
  0
VERTEX
  5
1ECF
  8
0
 10
93.526020796583865
 20
107.6517583759864
 30
0.0
  0
VERTEX
  5
1ED0
  8
0
 10
93.523520796583881
 20
107.6007583759864
 30
0.0
  0
VERTEX
  5
1ED1
  8
0
 10
93.516020796583888
 20
107.5511583759864
 30
0.0
  0
VERTEX
  5
1ED2
  8
0
 10
93.503720796583877
 20
107.50325837598641
 30
0.0
  0
VERTEX
  5
1ED3
  8
0
 10
93.486820796583885
 20
107.4572583759864
 30
0.0
  0
VERTEX
  5
1ED4
  8
0
 10
93.465920796583873
 20
107.4136583759864
 30
0.0
  0
VERTEX
  5
1ED5
  8
0
 10
93.440820796583878
 20
107.37235837598639
 30
0.0
  0
VERTEX
  5
1ED6
  8
0
 10
93.412020796583874
 20
107.3339583759864
 30
0.0
  0
VERTEX
  5
1ED7
  8
0
 10
93.379620796583865
 20
107.29825837598641
 30
0.0
  0
VERTEX
  5
1ED8
  8
0
 10
93.344220796583883
 20
107.26615837598639
 30
0.0
  0
VERTEX
  5
1ED9
  8
0
 10
93.305720796583856
 20
107.2373583759864
 30
0.0
  0
VERTEX
  5
1EDA
  8
0
 10
93.264520796583881
 20
107.2123583759864
 30
0.0
  0
VERTEX
  5
1EDB
  8
0
 10
93.220720796583876
 20
107.1911583759864
 30
0.0
  0
VERTEX
  5
1EDC
  8
0
 10
93.174920796583876
 20
107.1743583759864
 30
0.0
  0
VERTEX
  5
1EDD
  8
0
 10
93.126920796583875
 20
107.1619583759864
 30
0.0
  0
VERTEX
  5
1EDE
  8
0
 10
93.077320796583876
 20
107.15445837598639
 30
0.0
  0
VERTEX
  5
1EDF
  8
0
 10
93.026020796583879
 20
107.1517583759864
 30
0.0
  0
VERTEX
  5
1EE0
  8
0
 10
93.026020796583879
 20
107.1517583759864
 30
0.0
  0
VERTEX
  5
1EE1
  8
0
 10
92.975020796583877
 20
107.15445837598639
 30
0.0
  0
VERTEX
  5
1EE2
  8
0
 10
92.925420796583865
 20
107.1619583759864
 30
0.0
  0
VERTEX
  5
1EE3
  8
0
 10
92.877520796583866
 20
107.1743583759864
 30
0.0
  0
VERTEX
  5
1EE4
  8
0
 10
92.831520796583874
 20
107.1911583759864
 30
0.0
  0
VERTEX
  5
1EE5
  8
0
 10
92.787920796583876
 20
107.2123583759864
 30
0.0
  0
VERTEX
  5
1EE6
  8
0
 10
92.746620796583869
 20
107.2373583759864
 30
0.0
  0
VERTEX
  5
1EE7
  8
0
 10
92.708220796583873
 20
107.26615837598639
 30
0.0
  0
VERTEX
  5
1EE8
  8
0
 10
92.672520796583896
 20
107.29825837598641
 30
0.0
  0
VERTEX
  5
1EE9
  8
0
 10
92.640420796583882
 20
107.3339583759864
 30
0.0
  0
VERTEX
  5
1EEA
  8
0
 10
92.611620796583878
 20
107.37235837598639
 30
0.0
  0
VERTEX
  5
1EEB
  8
0
 10
92.586620796583873
 20
107.4136583759864
 30
0.0
  0
VERTEX
  5
1EEC
  8
0
 10
92.565420796583865
 20
107.4572583759864
 30
0.0
  0
VERTEX
  5
1EED
  8
0
 10
92.54862079658389
 20
107.50325837598641
 30
0.0
  0
VERTEX
  5
1EEE
  8
0
 10
92.536220796583876
 20
107.5511583759864
 30
0.0
  0
VERTEX
  5
1EEF
  8
0
 10
92.528720796583883
 20
107.6007583759864
 30
0.0
  0
VERTEX
  5
1EF0
  8
0
 10
92.526020796583865
 20
107.6517583759864
 30
0.0
  0
VERTEX
  5
1EF1
  8
0
 10
92.526020796583865
 20
107.6517583759864
 30
0.0
  0
VERTEX
  5
1EF2
  8
0
 10
92.528720796583883
 20
107.7030583759864
 30
0.0
  0
VERTEX
  5
1EF3
  8
0
 10
92.536220796583876
 20
107.7526583759864
 30
0.0
  0
VERTEX
  5
1EF4
  8
0
 10
92.54862079658389
 20
107.8006583759864
 30
0.0
  0
VERTEX
  5
1EF5
  8
0
 10
92.565420796583865
 20
107.8464583759864
 30
0.0
  0
VERTEX
  5
1EF6
  8
0
 10
92.586620796583873
 20
107.89025837598641
 30
0.0
  0
VERTEX
  5
1EF7
  8
0
 10
92.611620796583878
 20
107.9314583759864
 30
0.0
  0
VERTEX
  5
1EF8
  8
0
 10
92.640420796583882
 20
107.96995837598639
 30
0.0
  0
VERTEX
  5
1EF9
  8
0
 10
92.672520796583896
 20
108.0053583759864
 30
0.0
  0
VERTEX
  5
1EFA
  8
0
 10
92.708220796583873
 20
108.0377583759864
 30
0.0
  0
VERTEX
  5
1EFB
  8
0
 10
92.746620796583869
 20
108.0665583759864
 30
0.0
  0
VERTEX
  5
1EFC
  8
0
 10
92.787920796583876
 20
108.0916583759864
 30
0.0
  0
VERTEX
  5
1EFD
  8
0
 10
92.831520796583874
 20
108.1125583759864
 30
0.0
  0
VERTEX
  5
1EFE
  8
0
 10
92.877520796583866
 20
108.1294583759864
 30
0.0
  0
VERTEX
  5
1EFF
  8
0
 10
92.925420796583865
 20
108.1417583759864
 30
0.0
  0
VERTEX
  5
1F00
  8
0
 10
92.975020796583877
 20
108.14925837598641
 30
0.0
  0
VERTEX
  5
1F01
  8
0
 10
93.026020796583879
 20
108.1517583759864
 30
0.0
  0
SEQEND
  5
1F02
  8
0
  0
POLYLINE
  5
1166
  8
0
 66
     1
 10
0.0
 20
0.0
 30
0.0
 39
5.0
  0
VERTEX
  5
1F03
  8
0
 10
93.026020796583879
 20
105.1517583759864
 30
0.0
  0
VERTEX
  5
1F04
  8
0
 10
93.026020796583879
 20
105.1517583759864
 30
0.0
  0
VERTEX
  5
1F05
  8
0
 10
93.077320796583876
 20
105.14925837598641
 30
0.0
  0
VERTEX
  5
1F06
  8
0
 10
93.126920796583875
 20
105.1417583759864
 30
0.0
  0
VERTEX
  5
1F07
  8
0
 10
93.174920796583876
 20
105.1294583759864
 30
0.0
  0
VERTEX
  5
1F08
  8
0
 10
93.220720796583876
 20
105.1125583759864
 30
0.0
  0
VERTEX
  5
1F09
  8
0
 10
93.264520796583881
 20
105.0916583759864
 30
0.0
  0
VERTEX
  5
1F0A
  8
0
 10
93.305720796583856
 20
105.0665583759864
 30
0.0
  0
VERTEX
  5
1F0B
  8
0
 10
93.344220796583883
 20
105.0377583759864
 30
0.0
  0
VERTEX
  5
1F0C
  8
0
 10
93.379620796583865
 20
105.0053583759864
 30
0.0
  0
VERTEX
  5
1F0D
  8
0
 10
93.412020796583874
 20
104.96995837598639
 30
0.0
  0
VERTEX
  5
1F0E
  8
0
 10
93.440820796583878
 20
104.9314583759864
 30
0.0
  0
VERTEX
  5
1F0F
  8
0
 10
93.465920796583873
 20
104.89025837598641
 30
0.0
  0
VERTEX
  5
1F10
  8
0
 10
93.486820796583885
 20
104.8464583759864
 30
0.0
  0
VERTEX
  5
1F11
  8
0
 10
93.503720796583877
 20
104.8006583759864
 30
0.0
  0
VERTEX
  5
1F12
  8
0
 10
93.516020796583888
 20
104.7526583759864
 30
0.0
  0
VERTEX
  5
1F13
  8
0
 10
93.523520796583881
 20
104.7030583759864
 30
0.0
  0
VERTEX
  5
1F14
  8
0
 10
93.526020796583865
 20
104.6517583759864
 30
0.0
  0
VERTEX
  5
1F15
  8
0
 10
93.526020796583865
 20
104.6517583759864
 30
0.0
  0
VERTEX
  5
1F16
  8
0
 10
93.523520796583881
 20
104.6007583759864
 30
0.0
  0
VERTEX
  5
1F17
  8
0
 10
93.516020796583888
 20
104.5511583759864
 30
0.0
  0
VERTEX
  5
1F18
  8
0
 10
93.503720796583877
 20
104.50325837598641
 30
0.0
  0
VERTEX
  5
1F19
  8
0
 10
93.486820796583885
 20
104.4572583759864
 30
0.0
  0
VERTEX
  5
1F1A
  8
0
 10
93.465920796583873
 20
104.4136583759864
 30
0.0
  0
VERTEX
  5
1F1B
  8
0
 10
93.440820796583878
 20
104.37235837598639
 30
0.0
  0
VERTEX
  5
1F1C
  8
0
 10
93.412020796583874
 20
104.3339583759864
 30
0.0
  0
VERTEX
  5
1F1D
  8
0
 10
93.379620796583865
 20
104.29825837598641
 30
0.0
  0
VERTEX
  5
1F1E
  8
0
 10
93.344220796583883
 20
104.26615837598639
 30
0.0
  0
VERTEX
  5
1F1F
  8
0
 10
93.305720796583856
 20
104.2373583759864
 30
0.0
  0
VERTEX
  5
1F20
  8
0
 10
93.264520796583881
 20
104.2123583759864
 30
0.0
  0
VERTEX
  5
1F21
  8
0
 10
93.220720796583876
 20
104.1911583759864
 30
0.0
  0
VERTEX
  5
1F22
  8
0
 10
93.174920796583876
 20
104.1743583759864
 30
0.0
  0
VERTEX
  5
1F23
  8
0
 10
93.126920796583875
 20
104.1619583759864
 30
0.0
  0
VERTEX
  5
1F24
  8
0
 10
93.077320796583876
 20
104.15445837598639
 30
0.0
  0
VERTEX
  5
1F25
  8
0
 10
93.026020796583879
 20
104.1517583759864
 30
0.0
  0
VERTEX
  5
1F26
  8
0
 10
93.026020796583879
 20
104.1517583759864
 30
0.0
  0
VERTEX
  5
1F27
  8
0
 10
92.975020796583877
 20
104.15445837598639
 30
0.0
  0
VERTEX
  5
1F28
  8
0
 10
92.925420796583865
 20
104.1619583759864
 30
0.0
  0
VERTEX
  5
1F29
  8
0
 10
92.877520796583866
 20
104.1743583759864
 30
0.0
  0
VERTEX
  5
1F2A
  8
0
 10
92.831520796583874
 20
104.1911583759864
 30
0.0
  0
VERTEX
  5
1F2B
  8
0
 10
92.787920796583876
 20
104.2123583759864
 30
0.0
  0
VERTEX
  5
1F2C
  8
0
 10
92.746620796583869
 20
104.2373583759864
 30
0.0
  0
VERTEX
  5
1F2D
  8
0
 10
92.708220796583873
 20
104.26615837598639
 30
0.0
  0
VERTEX
  5
1F2E
  8
0
 10
92.672520796583896
 20
104.29825837598641
 30
0.0
  0
VERTEX
  5
1F2F
  8
0
 10
92.640420796583882
 20
104.3339583759864
 30
0.0
  0
VERTEX
  5
1F30
  8
0
 10
92.611620796583878
 20
104.37235837598639
 30
0.0
  0
VERTEX
  5
1F31
  8
0
 10
92.586620796583873
 20
104.4136583759864
 30
0.0
  0
VERTEX
  5
1F32
  8
0
 10
92.565420796583865
 20
104.4572583759864
 30
0.0
  0
VERTEX
  5
1F33
  8
0
 10
92.54862079658389
 20
104.50325837598641
 30
0.0
  0
VERTEX
  5
1F34
  8
0
 10
92.536220796583876
 20
104.5511583759864
 30
0.0
  0
VERTEX
  5
1F35
  8
0
 10
92.528720796583883
 20
104.6007583759864
 30
0.0
  0
VERTEX
  5
1F36
  8
0
 10
92.526020796583865
 20
104.6517583759864
 30
0.0
  0
VERTEX
  5
1F37
  8
0
 10
92.526020796583865
 20
104.6517583759864
 30
0.0
  0
VERTEX
  5
1F38
  8
0
 10
92.528720796583883
 20
104.7030583759864
 30
0.0
  0
VERTEX
  5
1F39
  8
0
 10
92.536220796583876
 20
104.7526583759864
 30
0.0
  0
VERTEX
  5
1F3A
  8
0
 10
92.54862079658389
 20
104.8006583759864
 30
0.0
  0
VERTEX
  5
1F3B
  8
0
 10
92.565420796583865
 20
104.8464583759864
 30
0.0
  0
VERTEX
  5
1F3C
  8
0
 10
92.586620796583873
 20
104.89025837598641
 30
0.0
  0
VERTEX
  5
1F3D
  8
0
 10
92.611620796583878
 20
104.9314583759864
 30
0.0
  0
VERTEX
  5
1F3E
  8
0
 10
92.640420796583882
 20
104.96995837598639
 30
0.0
  0
VERTEX
  5
1F3F
  8
0
 10
92.672520796583896
 20
105.0053583759864
 30
0.0
  0
VERTEX
  5
1F40
  8
0
 10
92.708220796583873
 20
105.0377583759864
 30
0.0
  0
VERTEX
  5
1F41
  8
0
 10
92.746620796583869
 20
105.0665583759864
 30
0.0
  0
VERTEX
  5
1F42
  8
0
 10
92.787920796583876
 20
105.0916583759864
 30
0.0
  0
VERTEX
  5
1F43
  8
0
 10
92.831520796583874
 20
105.1125583759864
 30
0.0
  0
VERTEX
  5
1F44
  8
0
 10
92.877520796583866
 20
105.1294583759864
 30
0.0
  0
VERTEX
  5
1F45
  8
0
 10
92.925420796583865
 20
105.1417583759864
 30
0.0
  0
VERTEX
  5
1F46
  8
0
 10
92.975020796583877
 20
105.14925837598641
 30
0.0
  0
VERTEX
  5
1F47
  8
0
 10
93.026020796583879
 20
105.1517583759864
 30
0.0
  0
SEQEND
  5
1F48
  8
0
  0
LINE
  5
1167
  8
1
 10
92.831520796583874
 20
104.1911583759864
 30
0.0
 11
93.621220796583884
 21
103.7992519272121
 31
0.0
  0
LINE
  5
1168
  8
1
 10
93.220720796583876
 20
105.1125583759864
 30
0.0
 11
93.621220796583884
 21
104.9115942120237
 31
0.0
  0
POLYLINE
  5
1169
  8
0
 66
     1
 10
0.0
 20
0.0
 30
0.0
  0
VERTEX
  5
1F49
  8
0
 10
93.026020796583879
 20
105.1517583759864
 30
0.0
  0
VERTEX
  5
1F4A
  8
0
 10
93.026020796583879
 20
105.1517583759864
 30
0.0
  0
VERTEX
  5
1F4B
  8
0
 10
93.077320796583876
 20
105.14925837598641
 30
0.0
  0
VERTEX
  5
1F4C
  8
0
 10
93.126920796583875
 20
105.1417583759864
 30
0.0
  0
VERTEX
  5
1F4D
  8
0
 10
93.174920796583876
 20
105.1294583759864
 30
0.0
  0
VERTEX
  5
1F4E
  8
0
 10
93.220720796583876
 20
105.1125583759864
 30
0.0
  0
VERTEX
  5
1F4F
  8
0
 10
93.264520796583881
 20
105.0916583759864
 30
0.0
  0
VERTEX
  5
1F50
  8
0
 10
93.305720796583856
 20
105.0665583759864
 30
0.0
  0
VERTEX
  5
1F51
  8
0
 10
93.344220796583883
 20
105.0377583759864
 30
0.0
  0
VERTEX
  5
1F52
  8
0
 10
93.379620796583865
 20
105.0053583759864
 30
0.0
  0
VERTEX
  5
1F53
  8
0
 10
93.412020796583874
 20
104.96995837598639
 30
0.0
  0
VERTEX
  5
1F54
  8
0
 10
93.440820796583878
 20
104.9314583759864
 30
0.0
  0
VERTEX
  5
1F55
  8
0
 10
93.465920796583873
 20
104.89025837598641
 30
0.0
  0
VERTEX
  5
1F56
  8
0
 10
93.486820796583885
 20
104.8464583759864
 30
0.0
  0
VERTEX
  5
1F57
  8
0
 10
93.503720796583877
 20
104.8006583759864
 30
0.0
  0
VERTEX
  5
1F58
  8
0
 10
93.516020796583888
 20
104.7526583759864
 30
0.0
  0
VERTEX
  5
1F59
  8
0
 10
93.523520796583881
 20
104.7030583759864
 30
0.0
  0
VERTEX
  5
1F5A
  8
0
 10
93.526020796583865
 20
104.6517583759864
 30
0.0
  0
VERTEX
  5
1F5B
  8
0
 10
93.526020796583865
 20
104.6517583759864
 30
0.0
  0
VERTEX
  5
1F5C
  8
0
 10
93.523520796583881
 20
104.6007583759864
 30
0.0
  0
VERTEX
  5
1F5D
  8
0
 10
93.516020796583888
 20
104.5511583759864
 30
0.0
  0
VERTEX
  5
1F5E
  8
0
 10
93.503720796583877
 20
104.50325837598641
 30
0.0
  0
VERTEX
  5
1F5F
  8
0
 10
93.486820796583885
 20
104.4572583759864
 30
0.0
  0
VERTEX
  5
1F60
  8
0
 10
93.465920796583873
 20
104.4136583759864
 30
0.0
  0
VERTEX
  5
1F61
  8
0
 10
93.440820796583878
 20
104.37235837598639
 30
0.0
  0
VERTEX
  5
1F62
  8
0
 10
93.412020796583874
 20
104.3339583759864
 30
0.0
  0
VERTEX
  5
1F63
  8
0
 10
93.379620796583865
 20
104.29825837598641
 30
0.0
  0
VERTEX
  5
1F64
  8
0
 10
93.344220796583883
 20
104.26615837598639
 30
0.0
  0
VERTEX
  5
1F65
  8
0
 10
93.305720796583856
 20
104.2373583759864
 30
0.0
  0
VERTEX
  5
1F66
  8
0
 10
93.264520796583881
 20
104.2123583759864
 30
0.0
  0
VERTEX
  5
1F67
  8
0
 10
93.220720796583876
 20
104.1911583759864
 30
0.0
  0
VERTEX
  5
1F68
  8
0
 10
93.174920796583876
 20
104.1743583759864
 30
0.0
  0
VERTEX
  5
1F69
  8
0
 10
93.126920796583875
 20
104.1619583759864
 30
0.0
  0
VERTEX
  5
1F6A
  8
0
 10
93.077320796583876
 20
104.15445837598639
 30
0.0
  0
VERTEX
  5
1F6B
  8
0
 10
93.026020796583879
 20
104.1517583759864
 30
0.0
  0
VERTEX
  5
1F6C
  8
0
 10
93.026020796583879
 20
104.1517583759864
 30
0.0
  0
VERTEX
  5
1F6D
  8
0
 10
92.975020796583877
 20
104.15445837598639
 30
0.0
  0
VERTEX
  5
1F6E
  8
0
 10
92.925420796583865
 20
104.1619583759864
 30
0.0
  0
VERTEX
  5
1F6F
  8
0
 10
92.877520796583866
 20
104.1743583759864
 30
0.0
  0
VERTEX
  5
1F70
  8
0
 10
92.831520796583874
 20
104.1911583759864
 30
0.0
  0
VERTEX
  5
1F71
  8
0
 10
92.787920796583876
 20
104.2123583759864
 30
0.0
  0
VERTEX
  5
1F72
  8
0
 10
92.746620796583869
 20
104.2373583759864
 30
0.0
  0
VERTEX
  5
1F73
  8
0
 10
92.708220796583873
 20
104.26615837598639
 30
0.0
  0
VERTEX
  5
1F74
  8
0
 10
92.672520796583896
 20
104.29825837598641
 30
0.0
  0
VERTEX
  5
1F75
  8
0
 10
92.640420796583882
 20
104.3339583759864
 30
0.0
  0
VERTEX
  5
1F76
  8
0
 10
92.611620796583878
 20
104.37235837598639
 30
0.0
  0
VERTEX
  5
1F77
  8
0
 10
92.586620796583873
 20
104.4136583759864
 30
0.0
  0
VERTEX
  5
1F78
  8
0
 10
92.565420796583865
 20
104.4572583759864
 30
0.0
  0
VERTEX
  5
1F79
  8
0
 10
92.54862079658389
 20
104.50325837598641
 30
0.0
  0
VERTEX
  5
1F7A
  8
0
 10
92.536220796583876
 20
104.5511583759864
 30
0.0
  0
VERTEX
  5
1F7B
  8
0
 10
92.528720796583883
 20
104.6007583759864
 30
0.0
  0
VERTEX
  5
1F7C
  8
0
 10
92.526020796583865
 20
104.6517583759864
 30
0.0
  0
VERTEX
  5
1F7D
  8
0
 10
92.526020796583865
 20
104.6517583759864
 30
0.0
  0
VERTEX
  5
1F7E
  8
0
 10
92.528720796583883
 20
104.7030583759864
 30
0.0
  0
VERTEX
  5
1F7F
  8
0
 10
92.536220796583876
 20
104.7526583759864
 30
0.0
  0
VERTEX
  5
1F80
  8
0
 10
92.54862079658389
 20
104.8006583759864
 30
0.0
  0
VERTEX
  5
1F81
  8
0
 10
92.565420796583865
 20
104.8464583759864
 30
0.0
  0
VERTEX
  5
1F82
  8
0
 10
92.586620796583873
 20
104.89025837598641
 30
0.0
  0
VERTEX
  5
1F83
  8
0
 10
92.611620796583878
 20
104.9314583759864
 30
0.0
  0
VERTEX
  5
1F84
  8
0
 10
92.640420796583882
 20
104.96995837598639
 30
0.0
  0
VERTEX
  5
1F85
  8
0
 10
92.672520796583896
 20
105.0053583759864
 30
0.0
  0
VERTEX
  5
1F86
  8
0
 10
92.708220796583873
 20
105.0377583759864
 30
0.0
  0
VERTEX
  5
1F87
  8
0
 10
92.746620796583869
 20
105.0665583759864
 30
0.0
  0
VERTEX
  5
1F88
  8
0
 10
92.787920796583876
 20
105.0916583759864
 30
0.0
  0
VERTEX
  5
1F89
  8
0
 10
92.831520796583874
 20
105.1125583759864
 30
0.0
  0
VERTEX
  5
1F8A
  8
0
 10
92.877520796583866
 20
105.1294583759864
 30
0.0
  0
VERTEX
  5
1F8B
  8
0
 10
92.925420796583865
 20
105.1417583759864
 30
0.0
  0
VERTEX
  5
1F8C
  8
0
 10
92.975020796583877
 20
105.14925837598641
 30
0.0
  0
VERTEX
  5
1F8D
  8
0
 10
93.026020796583879
 20
105.1517583759864
 30
0.0
  0
SEQEND
  5
1F8E
  8
0
  0
POLYLINE
  5
116A
  8
0
 66
     1
 10
0.0
 20
0.0
 30
0.0
  0
VERTEX
  5
1F8F
  8
0
 10
93.026020796583879
 20
105.1517583759864
 30
0.0
  0
VERTEX
  5
1F90
  8
0
 10
93.026020796583879
 20
105.1517583759864
 30
0.0
  0
VERTEX
  5
1F91
  8
0
 10
93.077320796583876
 20
105.14925837598641
 30
0.0
  0
VERTEX
  5
1F92
  8
0
 10
93.126920796583875
 20
105.1417583759864
 30
0.0
  0
VERTEX
  5
1F93
  8
0
 10
93.174920796583876
 20
105.1294583759864
 30
0.0
  0
VERTEX
  5
1F94
  8
0
 10
93.220720796583876
 20
105.1125583759864
 30
0.0
  0
VERTEX
  5
1F95
  8
0
 10
93.264520796583881
 20
105.0916583759864
 30
0.0
  0
VERTEX
  5
1F96
  8
0
 10
93.305720796583856
 20
105.0665583759864
 30
0.0
  0
VERTEX
  5
1F97
  8
0
 10
93.344220796583883
 20
105.0377583759864
 30
0.0
  0
VERTEX
  5
1F98
  8
0
 10
93.379620796583865
 20
105.0053583759864
 30
0.0
  0
VERTEX
  5
1F99
  8
0
 10
93.412020796583874
 20
104.96995837598639
 30
0.0
  0
VERTEX
  5
1F9A
  8
0
 10
93.440820796583878
 20
104.9314583759864
 30
0.0
  0
VERTEX
  5
1F9B
  8
0
 10
93.465920796583873
 20
104.89025837598641
 30
0.0
  0
VERTEX
  5
1F9C
  8
0
 10
93.486820796583885
 20
104.8464583759864
 30
0.0
  0
VERTEX
  5
1F9D
  8
0
 10
93.503720796583877
 20
104.8006583759864
 30
0.0
  0
VERTEX
  5
1F9E
  8
0
 10
93.516020796583888
 20
104.7526583759864
 30
0.0
  0
VERTEX
  5
1F9F
  8
0
 10
93.523520796583881
 20
104.7030583759864
 30
0.0
  0
VERTEX
  5
1FA0
  8
0
 10
93.526020796583865
 20
104.6517583759864
 30
0.0
  0
VERTEX
  5
1FA1
  8
0
 10
93.526020796583865
 20
104.6517583759864
 30
0.0
  0
VERTEX
  5
1FA2
  8
0
 10
93.523520796583881
 20
104.6007583759864
 30
0.0
  0
VERTEX
  5
1FA3
  8
0
 10
93.516020796583888
 20
104.5511583759864
 30
0.0
  0
VERTEX
  5
1FA4
  8
0
 10
93.503720796583877
 20
104.50325837598641
 30
0.0
  0
VERTEX
  5
1FA5
  8
0
 10
93.486820796583885
 20
104.4572583759864
 30
0.0
  0
VERTEX
  5
1FA6
  8
0
 10
93.465920796583873
 20
104.4136583759864
 30
0.0
  0
VERTEX
  5
1FA7
  8
0
 10
93.440820796583878
 20
104.37235837598639
 30
0.0
  0
VERTEX
  5
1FA8
  8
0
 10
93.412020796583874
 20
104.3339583759864
 30
0.0
  0
VERTEX
  5
1FA9
  8
0
 10
93.379620796583865
 20
104.29825837598641
 30
0.0
  0
VERTEX
  5
1FAA
  8
0
 10
93.344220796583883
 20
104.26615837598639
 30
0.0
  0
VERTEX
  5
1FAB
  8
0
 10
93.305720796583856
 20
104.2373583759864
 30
0.0
  0
VERTEX
  5
1FAC
  8
0
 10
93.264520796583881
 20
104.2123583759864
 30
0.0
  0
VERTEX
  5
1FAD
  8
0
 10
93.220720796583876
 20
104.1911583759864
 30
0.0
  0
VERTEX
  5
1FAE
  8
0
 10
93.174920796583876
 20
104.1743583759864
 30
0.0
  0
VERTEX
  5
1FAF
  8
0
 10
93.126920796583875
 20
104.1619583759864
 30
0.0
  0
VERTEX
  5
1FB0
  8
0
 10
93.077320796583876
 20
104.15445837598639
 30
0.0
  0
VERTEX
  5
1FB1
  8
0
 10
93.026020796583879
 20
104.1517583759864
 30
0.0
  0
VERTEX
  5
1FB2
  8
0
 10
93.026020796583879
 20
104.1517583759864
 30
0.0
  0
VERTEX
  5
1FB3
  8
0
 10
92.975020796583877
 20
104.15445837598639
 30
0.0
  0
VERTEX
  5
1FB4
  8
0
 10
92.925420796583865
 20
104.1619583759864
 30
0.0
  0
VERTEX
  5
1FB5
  8
0
 10
92.877520796583866
 20
104.1743583759864
 30
0.0
  0
VERTEX
  5
1FB6
  8
0
 10
92.831520796583874
 20
104.1911583759864
 30
0.0
  0
VERTEX
  5
1FB7
  8
0
 10
92.787920796583876
 20
104.2123583759864
 30
0.0
  0
VERTEX
  5
1FB8
  8
0
 10
92.746620796583869
 20
104.2373583759864
 30
0.0
  0
VERTEX
  5
1FB9
  8
0
 10
92.708220796583873
 20
104.26615837598639
 30
0.0
  0
VERTEX
  5
1FBA
  8
0
 10
92.672520796583896
 20
104.29825837598641
 30
0.0
  0
VERTEX
  5
1FBB
  8
0
 10
92.640420796583882
 20
104.3339583759864
 30
0.0
  0
VERTEX
  5
1FBC
  8
0
 10
92.611620796583878
 20
104.37235837598639
 30
0.0
  0
VERTEX
  5
1FBD
  8
0
 10
92.586620796583873
 20
104.4136583759864
 30
0.0
  0
VERTEX
  5
1FBE
  8
0
 10
92.565420796583865
 20
104.4572583759864
 30
0.0
  0
VERTEX
  5
1FBF
  8
0
 10
92.54862079658389
 20
104.50325837598641
 30
0.0
  0
VERTEX
  5
1FC0
  8
0
 10
92.536220796583876
 20
104.5511583759864
 30
0.0
  0
VERTEX
  5
1FC1
  8
0
 10
92.528720796583883
 20
104.6007583759864
 30
0.0
  0
VERTEX
  5
1FC2
  8
0
 10
92.526020796583865
 20
104.6517583759864
 30
0.0
  0
VERTEX
  5
1FC3
  8
0
 10
92.526020796583865
 20
104.6517583759864
 30
0.0
  0
VERTEX
  5
1FC4
  8
0
 10
92.528720796583883
 20
104.7030583759864
 30
0.0
  0
VERTEX
  5
1FC5
  8
0
 10
92.536220796583876
 20
104.7526583759864
 30
0.0
  0
VERTEX
  5
1FC6
  8
0
 10
92.54862079658389
 20
104.8006583759864
 30
0.0
  0
VERTEX
  5
1FC7
  8
0
 10
92.565420796583865
 20
104.8464583759864
 30
0.0
  0
VERTEX
  5
1FC8
  8
0
 10
92.586620796583873
 20
104.89025837598641
 30
0.0
  0
VERTEX
  5
1FC9
  8
0
 10
92.611620796583878
 20
104.9314583759864
 30
0.0
  0
VERTEX
  5
1FCA
  8
0
 10
92.640420796583882
 20
104.96995837598639
 30
0.0
  0
VERTEX
  5
1FCB
  8
0
 10
92.672520796583896
 20
105.0053583759864
 30
0.0
  0
VERTEX
  5
1FCC
  8
0
 10
92.708220796583873
 20
105.0377583759864
 30
0.0
  0
VERTEX
  5
1FCD
  8
0
 10
92.746620796583869
 20
105.0665583759864
 30
0.0
  0
VERTEX
  5
1FCE
  8
0
 10
92.787920796583876
 20
105.0916583759864
 30
0.0
  0
VERTEX
  5
1FCF
  8
0
 10
92.831520796583874
 20
105.1125583759864
 30
0.0
  0
VERTEX
  5
1FD0
  8
0
 10
92.877520796583866
 20
105.1294583759864
 30
0.0
  0
VERTEX
  5
1FD1
  8
0
 10
92.925420796583865
 20
105.1417583759864
 30
0.0
  0
VERTEX
  5
1FD2
  8
0
 10
92.975020796583877
 20
105.14925837598641
 30
0.0
  0
VERTEX
  5
1FD3
  8
0
 10
93.026020796583879
 20
105.1517583759864
 30
0.0
  0
SEQEND
  5
1FD4
  8
0
  0
POLYLINE
  5
1174
  8
0
 66
     1
 10
0.0
 20
0.0
 30
0.0
 39
5.0
  0
VERTEX
  5
1FD5
  8
0
 10
93.026020796583879
 20
102.1517583759864
 30
0.0
  0
VERTEX
  5
1FD6
  8
0
 10
93.026020796583879
 20
102.1517583759864
 30
0.0
  0
VERTEX
  5
1FD7
  8
0
 10
93.077320796583876
 20
102.14925837598641
 30
0.0
  0
VERTEX
  5
1FD8
  8
0
 10
93.126920796583875
 20
102.1417583759864
 30
0.0
  0
VERTEX
  5
1FD9
  8
0
 10
93.174920796583876
 20
102.1294583759864
 30
0.0
  0
VERTEX
  5
1FDA
  8
0
 10
93.220720796583876
 20
102.1125583759864
 30
0.0
  0
VERTEX
  5
1FDB
  8
0
 10
93.264520796583881
 20
102.0916583759864
 30
0.0
  0
VERTEX
  5
1FDC
  8
0
 10
93.305720796583856
 20
102.0665583759864
 30
0.0
  0
VERTEX
  5
1FDD
  8
0
 10
93.344220796583883
 20
102.0377583759864
 30
0.0
  0
VERTEX
  5
1FDE
  8
0
 10
93.379620796583865
 20
102.0053583759864
 30
0.0
  0
VERTEX
  5
1FDF
  8
0
 10
93.412020796583874
 20
101.96995837598639
 30
0.0
  0
VERTEX
  5
1FE0
  8
0
 10
93.440820796583878
 20
101.9314583759864
 30
0.0
  0
VERTEX
  5
1FE1
  8
0
 10
93.465920796583873
 20
101.89025837598641
 30
0.0
  0
VERTEX
  5
1FE2
  8
0
 10
93.486820796583885
 20
101.8464583759864
 30
0.0
  0
VERTEX
  5
1FE3
  8
0
 10
93.503720796583877
 20
101.8006583759864
 30
0.0
  0
VERTEX
  5
1FE4
  8
0
 10
93.516020796583888
 20
101.7526583759864
 30
0.0
  0
VERTEX
  5
1FE5
  8
0
 10
93.523520796583881
 20
101.7030583759864
 30
0.0
  0
VERTEX
  5
1FE6
  8
0
 10
93.526020796583865
 20
101.6517583759864
 30
0.0
  0
VERTEX
  5
1FE7
  8
0
 10
93.526020796583865
 20
101.6517583759864
 30
0.0
  0
VERTEX
  5
1FE8
  8
0
 10
93.523520796583881
 20
101.6007583759864
 30
0.0
  0
VERTEX
  5
1FE9
  8
0
 10
93.516020796583888
 20
101.5511583759864
 30
0.0
  0
VERTEX
  5
1FEA
  8
0
 10
93.503720796583877
 20
101.50325837598641
 30
0.0
  0
VERTEX
  5
1FEB
  8
0
 10
93.486820796583885
 20
101.4572583759864
 30
0.0
  0
VERTEX
  5
1FEC
  8
0
 10
93.465920796583873
 20
101.4136583759864
 30
0.0
  0
VERTEX
  5
1FED
  8
0
 10
93.440820796583878
 20
101.37235837598639
 30
0.0
  0
VERTEX
  5
1FEE
  8
0
 10
93.412020796583874
 20
101.3339583759864
 30
0.0
  0
VERTEX
  5
1FEF
  8
0
 10
93.379620796583865
 20
101.29825837598641
 30
0.0
  0
VERTEX
  5
1FF0
  8
0
 10
93.344220796583883
 20
101.26615837598639
 30
0.0
  0
VERTEX
  5
1FF1
  8
0
 10
93.305720796583856
 20
101.2373583759864
 30
0.0
  0
VERTEX
  5
1FF2
  8
0
 10
93.264520796583881
 20
101.2123583759864
 30
0.0
  0
VERTEX
  5
1FF3
  8
0
 10
93.220720796583876
 20
101.1911583759864
 30
0.0
  0
VERTEX
  5
1FF4
  8
0
 10
93.174920796583876
 20
101.1743583759864
 30
0.0
  0
VERTEX
  5
1FF5
  8
0
 10
93.126920796583875
 20
101.1619583759864
 30
0.0
  0
VERTEX
  5
1FF6
  8
0
 10
93.077320796583876
 20
101.15445837598639
 30
0.0
  0
VERTEX
  5
1FF7
  8
0
 10
93.026020796583879
 20
101.1517583759864
 30
0.0
  0
VERTEX
  5
1FF8
  8
0
 10
93.026020796583879
 20
101.1517583759864
 30
0.0
  0
VERTEX
  5
1FF9
  8
0
 10
92.975020796583877
 20
101.15445837598639
 30
0.0
  0
VERTEX
  5
1FFA
  8
0
 10
92.925420796583865
 20
101.1619583759864
 30
0.0
  0
VERTEX
  5
1FFB
  8
0
 10
92.877520796583866
 20
101.1743583759864
 30
0.0
  0
VERTEX
  5
1FFC
  8
0
 10
92.831520796583874
 20
101.1911583759864
 30
0.0
  0
VERTEX
  5
1FFD
  8
0
 10
92.787920796583876
 20
101.2123583759864
 30
0.0
  0
VERTEX
  5
1FFE
  8
0
 10
92.746620796583869
 20
101.2373583759864
 30
0.0
  0
VERTEX
  5
1FFF
  8
0
 10
92.708220796583873
 20
101.26615837598639
 30
0.0
  0
VERTEX
  5
2000
  8
0
 10
92.672520796583896
 20
101.29825837598641
 30
0.0
  0
VERTEX
  5
2001
  8
0
 10
92.640420796583882
 20
101.3339583759864
 30
0.0
  0
VERTEX
  5
2002
  8
0
 10
92.611620796583878
 20
101.37235837598639
 30
0.0
  0
VERTEX
  5
2003
  8
0
 10
92.586620796583873
 20
101.4136583759864
 30
0.0
  0
VERTEX
  5
2004
  8
0
 10
92.565420796583865
 20
101.4572583759864
 30
0.0
  0
VERTEX
  5
2005
  8
0
 10
92.54862079658389
 20
101.50325837598641
 30
0.0
  0
VERTEX
  5
2006
  8
0
 10
92.536220796583876
 20
101.5511583759864
 30
0.0
  0
VERTEX
  5
2007
  8
0
 10
92.528720796583883
 20
101.6007583759864
 30
0.0
  0
VERTEX
  5
2008
  8
0
 10
92.526020796583865
 20
101.6517583759864
 30
0.0
  0
VERTEX
  5
2009
  8
0
 10
92.526020796583865
 20
101.6517583759864
 30
0.0
  0
VERTEX
  5
200A
  8
0
 10
92.528720796583883
 20
101.7030583759864
 30
0.0
  0
VERTEX
  5
200B
  8
0
 10
92.536220796583876
 20
101.7526583759864
 30
0.0
  0
VERTEX
  5
200C
  8
0
 10
92.54862079658389
 20
101.8006583759864
 30
0.0
  0
VERTEX
  5
200D
  8
0
 10
92.565420796583865
 20
101.8464583759864
 30
0.0
  0
VERTEX
  5
200E
  8
0
 10
92.586620796583873
 20
101.89025837598641
 30
0.0
  0
VERTEX
  5
200F
  8
0
 10
92.611620796583878
 20
101.9314583759864
 30
0.0
  0
VERTEX
  5
2010
  8
0
 10
92.640420796583882
 20
101.96995837598639
 30
0.0
  0
VERTEX
  5
2011
  8
0
 10
92.672520796583896
 20
102.0053583759864
 30
0.0
  0
VERTEX
  5
2012
  8
0
 10
92.708220796583873
 20
102.0377583759864
 30
0.0
  0
VERTEX
  5
2013
  8
0
 10
92.746620796583869
 20
102.0665583759864
 30
0.0
  0
VERTEX
  5
2014
  8
0
 10
92.787920796583876
 20
102.0916583759864
 30
0.0
  0
VERTEX
  5
2015
  8
0
 10
92.831520796583874
 20
102.1125583759864
 30
0.0
  0
VERTEX
  5
2016
  8
0
 10
92.877520796583866
 20
102.1294583759864
 30
0.0
  0
VERTEX
  5
2017
  8
0
 10
92.925420796583865
 20
102.1417583759864
 30
0.0
  0
VERTEX
  5
2018
  8
0
 10
92.975020796583877
 20
102.14925837598641
 30
0.0
  0
VERTEX
  5
2019
  8
0
 10
93.026020796583879
 20
102.1517583759864
 30
0.0
  0
SEQEND
  5
201A
  8
0
  0
LINE
  5
1175
  8
1
 10
92.831520796583874
 20
101.1911583759864
 30
0.0
 11
93.621220796583884
 21
100.7992519272121
 31
0.0
  0
LINE
  5
1176
  8
1
 10
93.220720796583876
 20
102.1125583759864
 30
0.0
 11
93.621220796583884
 21
101.9115942120237
 31
0.0
  0
POLYLINE
  5
1177
  8
0
 66
     1
 10
0.0
 20
0.0
 30
0.0
  0
VERTEX
  5
201B
  8
0
 10
93.026020796583879
 20
102.1517583759864
 30
0.0
  0
VERTEX
  5
201C
  8
0
 10
93.026020796583879
 20
102.1517583759864
 30
0.0
  0
VERTEX
  5
201D
  8
0
 10
93.077320796583876
 20
102.14925837598641
 30
0.0
  0
VERTEX
  5
201E
  8
0
 10
93.126920796583875
 20
102.1417583759864
 30
0.0
  0
VERTEX
  5
201F
  8
0
 10
93.174920796583876
 20
102.1294583759864
 30
0.0
  0
VERTEX
  5
2020
  8
0
 10
93.220720796583876
 20
102.1125583759864
 30
0.0
  0
VERTEX
  5
2021
  8
0
 10
93.264520796583881
 20
102.0916583759864
 30
0.0
  0
VERTEX
  5
2022
  8
0
 10
93.305720796583856
 20
102.0665583759864
 30
0.0
  0
VERTEX
  5
2023
  8
0
 10
93.344220796583883
 20
102.0377583759864
 30
0.0
  0
VERTEX
  5
2024
  8
0
 10
93.379620796583865
 20
102.0053583759864
 30
0.0
  0
VERTEX
  5
2025
  8
0
 10
93.412020796583874
 20
101.96995837598639
 30
0.0
  0
VERTEX
  5
2026
  8
0
 10
93.440820796583878
 20
101.9314583759864
 30
0.0
  0
VERTEX
  5
2027
  8
0
 10
93.465920796583873
 20
101.89025837598641
 30
0.0
  0
VERTEX
  5
2028
  8
0
 10
93.486820796583885
 20
101.8464583759864
 30
0.0
  0
VERTEX
  5
2029
  8
0
 10
93.503720796583877
 20
101.8006583759864
 30
0.0
  0
VERTEX
  5
202A
  8
0
 10
93.516020796583888
 20
101.7526583759864
 30
0.0
  0
VERTEX
  5
202B
  8
0
 10
93.523520796583881
 20
101.7030583759864
 30
0.0
  0
VERTEX
  5
202C
  8
0
 10
93.526020796583865
 20
101.6517583759864
 30
0.0
  0
VERTEX
  5
202D
  8
0
 10
93.526020796583865
 20
101.6517583759864
 30
0.0
  0
VERTEX
  5
202E
  8
0
 10
93.523520796583881
 20
101.6007583759864
 30
0.0
  0
VERTEX
  5
202F
  8
0
 10
93.516020796583888
 20
101.5511583759864
 30
0.0
  0
VERTEX
  5
2030
  8
0
 10
93.503720796583877
 20
101.50325837598641
 30
0.0
  0
VERTEX
  5
2031
  8
0
 10
93.486820796583885
 20
101.4572583759864
 30
0.0
  0
VERTEX
  5
2032
  8
0
 10
93.465920796583873
 20
101.4136583759864
 30
0.0
  0
VERTEX
  5
2033
  8
0
 10
93.440820796583878
 20
101.37235837598639
 30
0.0
  0
VERTEX
  5
2034
  8
0
 10
93.412020796583874
 20
101.3339583759864
 30
0.0
  0
VERTEX
  5
2035
  8
0
 10
93.379620796583865
 20
101.29825837598641
 30
0.0
  0
VERTEX
  5
2036
  8
0
 10
93.344220796583883
 20
101.26615837598639
 30
0.0
  0
VERTEX
  5
2037
  8
0
 10
93.305720796583856
 20
101.2373583759864
 30
0.0
  0
VERTEX
  5
2038
  8
0
 10
93.264520796583881
 20
101.2123583759864
 30
0.0
  0
VERTEX
  5
2039
  8
0
 10
93.220720796583876
 20
101.1911583759864
 30
0.0
  0
VERTEX
  5
203A
  8
0
 10
93.174920796583876
 20
101.1743583759864
 30
0.0
  0
VERTEX
  5
203B
  8
0
 10
93.126920796583875
 20
101.1619583759864
 30
0.0
  0
VERTEX
  5
203C
  8
0
 10
93.077320796583876
 20
101.15445837598639
 30
0.0
  0
VERTEX
  5
203D
  8
0
 10
93.026020796583879
 20
101.1517583759864
 30
0.0
  0
VERTEX
  5
203E
  8
0
 10
93.026020796583879
 20
101.1517583759864
 30
0.0
  0
VERTEX
  5
203F
  8
0
 10
92.975020796583877
 20
101.15445837598639
 30
0.0
  0
VERTEX
  5
2040
  8
0
 10
92.925420796583865
 20
101.1619583759864
 30
0.0
  0
VERTEX
  5
2041
  8
0
 10
92.877520796583866
 20
101.1743583759864
 30
0.0
  0
VERTEX
  5
2042
  8
0
 10
92.831520796583874
 20
101.1911583759864
 30
0.0
  0
VERTEX
  5
2043
  8
0
 10
92.787920796583876
 20
101.2123583759864
 30
0.0
  0
VERTEX
  5
2044
  8
0
 10
92.746620796583869
 20
101.2373583759864
 30
0.0
  0
VERTEX
  5
2045
  8
0
 10
92.708220796583873
 20
101.26615837598639
 30
0.0
  0
VERTEX
  5
2046
  8
0
 10
92.672520796583896
 20
101.29825837598641
 30
0.0
  0
VERTEX
  5
2047
  8
0
 10
92.640420796583882
 20
101.3339583759864
 30
0.0
  0
VERTEX
  5
2048
  8
0
 10
92.611620796583878
 20
101.37235837598639
 30
0.0
  0
VERTEX
  5
2049
  8
0
 10
92.586620796583873
 20
101.4136583759864
 30
0.0
  0
VERTEX
  5
204A
  8
0
 10
92.565420796583865
 20
101.4572583759864
 30
0.0
  0
VERTEX
  5
204B
  8
0
 10
92.54862079658389
 20
101.50325837598641
 30
0.0
  0
VERTEX
  5
204C
  8
0
 10
92.536220796583876
 20
101.5511583759864
 30
0.0
  0
VERTEX
  5
204D
  8
0
 10
92.528720796583883
 20
101.6007583759864
 30
0.0
  0
VERTEX
  5
204E
  8
0
 10
92.526020796583865
 20
101.6517583759864
 30
0.0
  0
VERTEX
  5
204F
  8
0
 10
92.526020796583865
 20
101.6517583759864
 30
0.0
  0
VERTEX
  5
2050
  8
0
 10
92.528720796583883
 20
101.7030583759864
 30
0.0
  0
VERTEX
  5
2051
  8
0
 10
92.536220796583876
 20
101.7526583759864
 30
0.0
  0
VERTEX
  5
2052
  8
0
 10
92.54862079658389
 20
101.8006583759864
 30
0.0
  0
VERTEX
  5
2053
  8
0
 10
92.565420796583865
 20
101.8464583759864
 30
0.0
  0
VERTEX
  5
2054
  8
0
 10
92.586620796583873
 20
101.89025837598641
 30
0.0
  0
VERTEX
  5
2055
  8
0
 10
92.611620796583878
 20
101.9314583759864
 30
0.0
  0
VERTEX
  5
2056
  8
0
 10
92.640420796583882
 20
101.96995837598639
 30
0.0
  0
VERTEX
  5
2057
  8
0
 10
92.672520796583896
 20
102.0053583759864
 30
0.0
  0
VERTEX
  5
2058
  8
0
 10
92.708220796583873
 20
102.0377583759864
 30
0.0
  0
VERTEX
  5
2059
  8
0
 10
92.746620796583869
 20
102.0665583759864
 30
0.0
  0
VERTEX
  5
205A
  8
0
 10
92.787920796583876
 20
102.0916583759864
 30
0.0
  0
VERTEX
  5
205B
  8
0
 10
92.831520796583874
 20
102.1125583759864
 30
0.0
  0
VERTEX
  5
205C
  8
0
 10
92.877520796583866
 20
102.1294583759864
 30
0.0
  0
VERTEX
  5
205D
  8
0
 10
92.925420796583865
 20
102.1417583759864
 30
0.0
  0
VERTEX
  5
205E
  8
0
 10
92.975020796583877
 20
102.14925837598641
 30
0.0
  0
VERTEX
  5
205F
  8
0
 10
93.026020796583879
 20
102.1517583759864
 30
0.0
  0
SEQEND
  5
2060
  8
0
  0
POLYLINE
  5
1178
  8
0
 66
     1
 10
0.0
 20
0.0
 30
0.0
  0
VERTEX
  5
2061
  8
0
 10
93.026020796583879
 20
102.1517583759864
 30
0.0
  0
VERTEX
  5
2062
  8
0
 10
93.026020796583879
 20
102.1517583759864
 30
0.0
  0
VERTEX
  5
2063
  8
0
 10
93.077320796583876
 20
102.14925837598641
 30
0.0
  0
VERTEX
  5
2064
  8
0
 10
93.126920796583875
 20
102.1417583759864
 30
0.0
  0
VERTEX
  5
2065
  8
0
 10
93.174920796583876
 20
102.1294583759864
 30
0.0
  0
VERTEX
  5
2066
  8
0
 10
93.220720796583876
 20
102.1125583759864
 30
0.0
  0
VERTEX
  5
2067
  8
0
 10
93.264520796583881
 20
102.0916583759864
 30
0.0
  0
VERTEX
  5
2068
  8
0
 10
93.305720796583856
 20
102.0665583759864
 30
0.0
  0
VERTEX
  5
2069
  8
0
 10
93.344220796583883
 20
102.0377583759864
 30
0.0
  0
VERTEX
  5
206A
  8
0
 10
93.379620796583865
 20
102.0053583759864
 30
0.0
  0
VERTEX
  5
206B
  8
0
 10
93.412020796583874
 20
101.96995837598639
 30
0.0
  0
VERTEX
  5
206C
  8
0
 10
93.440820796583878
 20
101.9314583759864
 30
0.0
  0
VERTEX
  5
206D
  8
0
 10
93.465920796583873
 20
101.89025837598641
 30
0.0
  0
VERTEX
  5
206E
  8
0
 10
93.486820796583885
 20
101.8464583759864
 30
0.0
  0
VERTEX
  5
206F
  8
0
 10
93.503720796583877
 20
101.8006583759864
 30
0.0
  0
VERTEX
  5
2070
  8
0
 10
93.516020796583888
 20
101.7526583759864
 30
0.0
  0
VERTEX
  5
2071
  8
0
 10
93.523520796583881
 20
101.7030583759864
 30
0.0
  0
VERTEX
  5
2072
  8
0
 10
93.526020796583865
 20
101.6517583759864
 30
0.0
  0
VERTEX
  5
2073
  8
0
 10
93.526020796583865
 20
101.6517583759864
 30
0.0
  0
VERTEX
  5
2074
  8
0
 10
93.523520796583881
 20
101.6007583759864
 30
0.0
  0
VERTEX
  5
2075
  8
0
 10
93.516020796583888
 20
101.5511583759864
 30
0.0
  0
VERTEX
  5
2076
  8
0
 10
93.503720796583877
 20
101.50325837598641
 30
0.0
  0
VERTEX
  5
2077
  8
0
 10
93.486820796583885
 20
101.4572583759864
 30
0.0
  0
VERTEX
  5
2078
  8
0
 10
93.465920796583873
 20
101.4136583759864
 30
0.0
  0
VERTEX
  5
2079
  8
0
 10
93.440820796583878
 20
101.37235837598639
 30
0.0
  0
VERTEX
  5
207A
  8
0
 10
93.412020796583874
 20
101.3339583759864
 30
0.0
  0
VERTEX
  5
207B
  8
0
 10
93.379620796583865
 20
101.29825837598641
 30
0.0
  0
VERTEX
  5
207C
  8
0
 10
93.344220796583883
 20
101.26615837598639
 30
0.0
  0
VERTEX
  5
207D
  8
0
 10
93.305720796583856
 20
101.2373583759864
 30
0.0
  0
VERTEX
  5
207E
  8
0
 10
93.264520796583881
 20
101.2123583759864
 30
0.0
  0
VERTEX
  5
207F
  8
0
 10
93.220720796583876
 20
101.1911583759864
 30
0.0
  0
VERTEX
  5
2080
  8
0
 10
93.174920796583876
 20
101.1743583759864
 30
0.0
  0
VERTEX
  5
2081
  8
0
 10
93.126920796583875
 20
101.1619583759864
 30
0.0
  0
VERTEX
  5
2082
  8
0
 10
93.077320796583876
 20
101.15445837598639
 30
0.0
  0
VERTEX
  5
2083
  8
0
 10
93.026020796583879
 20
101.1517583759864
 30
0.0
  0
VERTEX
  5
2084
  8
0
 10
93.026020796583879
 20
101.1517583759864
 30
0.0
  0
VERTEX
  5
2085
  8
0
 10
92.975020796583877
 20
101.15445837598639
 30
0.0
  0
VERTEX
  5
2086
  8
0
 10
92.925420796583865
 20
101.1619583759864
 30
0.0
  0
VERTEX
  5
2087
  8
0
 10
92.877520796583866
 20
101.1743583759864
 30
0.0
  0
VERTEX
  5
2088
  8
0
 10
92.831520796583874
 20
101.1911583759864
 30
0.0
  0
VERTEX
  5
2089
  8
0
 10
92.787920796583876
 20
101.2123583759864
 30
0.0
  0
VERTEX
  5
208A
  8
0
 10
92.746620796583869
 20
101.2373583759864
 30
0.0
  0
VERTEX
  5
208B
  8
0
 10
92.708220796583873
 20
101.26615837598639
 30
0.0
  0
VERTEX
  5
208C
  8
0
 10
92.672520796583896
 20
101.29825837598641
 30
0.0
  0
VERTEX
  5
208D
  8
0
 10
92.640420796583882
 20
101.3339583759864
 30
0.0
  0
VERTEX
  5
208E
  8
0
 10
92.611620796583878
 20
101.37235837598639
 30
0.0
  0
VERTEX
  5
208F
  8
0
 10
92.586620796583873
 20
101.4136583759864
 30
0.0
  0
VERTEX
  5
2090
  8
0
 10
92.565420796583865
 20
101.4572583759864
 30
0.0
  0
VERTEX
  5
2091
  8
0
 10
92.54862079658389
 20
101.50325837598641
 30
0.0
  0
VERTEX
  5
2092
  8
0
 10
92.536220796583876
 20
101.5511583759864
 30
0.0
  0
VERTEX
  5
2093
  8
0
 10
92.528720796583883
 20
101.6007583759864
 30
0.0
  0
VERTEX
  5
2094
  8
0
 10
92.526020796583865
 20
101.6517583759864
 30
0.0
  0
VERTEX
  5
2095
  8
0
 10
92.526020796583865
 20
101.6517583759864
 30
0.0
  0
VERTEX
  5
2096
  8
0
 10
92.528720796583883
 20
101.7030583759864
 30
0.0
  0
VERTEX
  5
2097
  8
0
 10
92.536220796583876
 20
101.7526583759864
 30
0.0
  0
VERTEX
  5
2098
  8
0
 10
92.54862079658389
 20
101.8006583759864
 30
0.0
  0
VERTEX
  5
2099
  8
0
 10
92.565420796583865
 20
101.8464583759864
 30
0.0
  0
VERTEX
  5
209A
  8
0
 10
92.586620796583873
 20
101.89025837598641
 30
0.0
  0
VERTEX
  5
209B
  8
0
 10
92.611620796583878
 20
101.9314583759864
 30
0.0
  0
VERTEX
  5
209C
  8
0
 10
92.640420796583882
 20
101.96995837598639
 30
0.0
  0
VERTEX
  5
209D
  8
0
 10
92.672520796583896
 20
102.0053583759864
 30
0.0
  0
VERTEX
  5
209E
  8
0
 10
92.708220796583873
 20
102.0377583759864
 30
0.0
  0
VERTEX
  5
209F
  8
0
 10
92.746620796583869
 20
102.0665583759864
 30
0.0
  0
VERTEX
  5
20A0
  8
0
 10
92.787920796583876
 20
102.0916583759864
 30
0.0
  0
VERTEX
  5
20A1
  8
0
 10
92.831520796583874
 20
102.1125583759864
 30
0.0
  0
VERTEX
  5
20A2
  8
0
 10
92.877520796583866
 20
102.1294583759864
 30
0.0
  0
VERTEX
  5
20A3
  8
0
 10
92.925420796583865
 20
102.1417583759864
 30
0.0
  0
VERTEX
  5
20A4
  8
0
 10
92.975020796583877
 20
102.14925837598641
 30
0.0
  0
VERTEX
  5
20A5
  8
0
 10
93.026020796583879
 20
102.1517583759864
 30
0.0
  0
SEQEND
  5
20A6
  8
0
  0
POLYLINE
  5
1182
  8
0
 66
     1
 10
0.0
 20
0.0
 30
0.0
 39
5.0
  0
VERTEX
  5
20A7
  8
0
 10
93.026020796583879
 20
99.151758375986475
 30
0.0
  0
VERTEX
  5
20A8
  8
0
 10
93.026020796583879
 20
99.151758375986475
 30
0.0
  0
VERTEX
  5
20A9
  8
0
 10
93.077320796583876
 20
99.149258375986463
 30
0.0
  0
VERTEX
  5
20AA
  8
0
 10
93.126920796583875
 20
99.141758375986484
 30
0.0
  0
VERTEX
  5
20AB
  8
0
 10
93.174920796583876
 20
99.129458375986474
 30
0.0
  0
VERTEX
  5
20AC
  8
0
 10
93.220720796583876
 20
99.112558375986467
 30
0.0
  0
VERTEX
  5
20AD
  8
0
 10
93.264520796583881
 20
99.091658375986469
 30
0.0
  0
VERTEX
  5
20AE
  8
0
 10
93.305720796583856
 20
99.066558375986475
 30
0.0
  0
VERTEX
  5
20AF
  8
0
 10
93.344220796583883
 20
99.037758375986471
 30
0.0
  0
VERTEX
  5
20B0
  8
0
 10
93.379620796583865
 20
99.005358375986475
 30
0.0
  0
VERTEX
  5
20B1
  8
0
 10
93.412020796583874
 20
98.969958375986479
 30
0.0
  0
VERTEX
  5
20B2
  8
0
 10
93.440820796583878
 20
98.93145837598648
 30
0.0
  0
VERTEX
  5
20B3
  8
0
 10
93.465920796583873
 20
98.890258375986477
 30
0.0
  0
VERTEX
  5
20B4
  8
0
 10
93.486820796583885
 20
98.846458375986472
 30
0.0
  0
VERTEX
  5
20B5
  8
0
 10
93.503720796583877
 20
98.800658375986487
 30
0.0
  0
VERTEX
  5
20B6
  8
0
 10
93.516020796583888
 20
98.752658375986471
 30
0.0
  0
VERTEX
  5
20B7
  8
0
 10
93.523520796583881
 20
98.703058375986487
 30
0.0
  0
VERTEX
  5
20B8
  8
0
 10
93.526020796583865
 20
98.651758375986475
 30
0.0
  0
VERTEX
  5
20B9
  8
0
 10
93.526020796583865
 20
98.651758375986475
 30
0.0
  0
VERTEX
  5
20BA
  8
0
 10
93.523520796583881
 20
98.600758375986473
 30
0.0
  0
VERTEX
  5
20BB
  8
0
 10
93.516020796583888
 20
98.551158375986475
 30
0.0
  0
VERTEX
  5
20BC
  8
0
 10
93.503720796583877
 20
98.503258375986476
 30
0.0
  0
VERTEX
  5
20BD
  8
0
 10
93.486820796583885
 20
98.457258375986484
 30
0.0
  0
VERTEX
  5
20BE
  8
0
 10
93.465920796583873
 20
98.413658375986472
 30
0.0
  0
VERTEX
  5
20BF
  8
0
 10
93.440820796583878
 20
98.372358375986465
 30
0.0
  0
VERTEX
  5
20C0
  8
0
 10
93.412020796583874
 20
98.333958375986469
 30
0.0
  0
VERTEX
  5
20C1
  8
0
 10
93.379620796583865
 20
98.298258375986464
 30
0.0
  0
VERTEX
  5
20C2
  8
0
 10
93.344220796583883
 20
98.266158375986478
 30
0.0
  0
VERTEX
  5
20C3
  8
0
 10
93.305720796583856
 20
98.237358375986474
 30
0.0
  0
VERTEX
  5
20C4
  8
0
 10
93.264520796583881
 20
98.212358375986469
 30
0.0
  0
VERTEX
  5
20C5
  8
0
 10
93.220720796583876
 20
98.191158375986461
 30
0.0
  0
VERTEX
  5
20C6
  8
0
 10
93.174920796583876
 20
98.174358375986472
 30
0.0
  0
VERTEX
  5
20C7
  8
0
 10
93.126920796583875
 20
98.161958375986487
 30
0.0
  0
VERTEX
  5
20C8
  8
0
 10
93.077320796583876
 20
98.154458375986465
 30
0.0
  0
VERTEX
  5
20C9
  8
0
 10
93.026020796583879
 20
98.151758375986475
 30
0.0
  0
VERTEX
  5
20CA
  8
0
 10
93.026020796583879
 20
98.151758375986475
 30
0.0
  0
VERTEX
  5
20CB
  8
0
 10
92.975020796583877
 20
98.154458375986465
 30
0.0
  0
VERTEX
  5
20CC
  8
0
 10
92.925420796583865
 20
98.161958375986487
 30
0.0
  0
VERTEX
  5
20CD
  8
0
 10
92.877520796583866
 20
98.174358375986472
 30
0.0
  0
VERTEX
  5
20CE
  8
0
 10
92.831520796583874
 20
98.191158375986461
 30
0.0
  0
VERTEX
  5
20CF
  8
0
 10
92.787920796583876
 20
98.212358375986469
 30
0.0
  0
VERTEX
  5
20D0
  8
0
 10
92.746620796583869
 20
98.237358375986474
 30
0.0
  0
VERTEX
  5
20D1
  8
0
 10
92.708220796583873
 20
98.266158375986478
 30
0.0
  0
VERTEX
  5
20D2
  8
0
 10
92.672520796583896
 20
98.298258375986464
 30
0.0
  0
VERTEX
  5
20D3
  8
0
 10
92.640420796583882
 20
98.333958375986469
 30
0.0
  0
VERTEX
  5
20D4
  8
0
 10
92.611620796583878
 20
98.372358375986465
 30
0.0
  0
VERTEX
  5
20D5
  8
0
 10
92.586620796583873
 20
98.413658375986472
 30
0.0
  0
VERTEX
  5
20D6
  8
0
 10
92.565420796583865
 20
98.457258375986484
 30
0.0
  0
VERTEX
  5
20D7
  8
0
 10
92.54862079658389
 20
98.503258375986476
 30
0.0
  0
VERTEX
  5
20D8
  8
0
 10
92.536220796583876
 20
98.551158375986475
 30
0.0
  0
VERTEX
  5
20D9
  8
0
 10
92.528720796583883
 20
98.600758375986473
 30
0.0
  0
VERTEX
  5
20DA
  8
0
 10
92.526020796583865
 20
98.651758375986475
 30
0.0
  0
VERTEX
  5
20DB
  8
0
 10
92.526020796583865
 20
98.651758375986475
 30
0.0
  0
VERTEX
  5
20DC
  8
0
 10
92.528720796583883
 20
98.703058375986487
 30
0.0
  0
VERTEX
  5
20DD
  8
0
 10
92.536220796583876
 20
98.752658375986471
 30
0.0
  0
VERTEX
  5
20DE
  8
0
 10
92.54862079658389
 20
98.800658375986487
 30
0.0
  0
VERTEX
  5
20DF
  8
0
 10
92.565420796583865
 20
98.846458375986472
 30
0.0
  0
VERTEX
  5
20E0
  8
0
 10
92.586620796583873
 20
98.890258375986477
 30
0.0
  0
VERTEX
  5
20E1
  8
0
 10
92.611620796583878
 20
98.93145837598648
 30
0.0
  0
VERTEX
  5
20E2
  8
0
 10
92.640420796583882
 20
98.969958375986479
 30
0.0
  0
VERTEX
  5
20E3
  8
0
 10
92.672520796583896
 20
99.005358375986475
 30
0.0
  0
VERTEX
  5
20E4
  8
0
 10
92.708220796583873
 20
99.037758375986471
 30
0.0
  0
VERTEX
  5
20E5
  8
0
 10
92.746620796583869
 20
99.066558375986475
 30
0.0
  0
VERTEX
  5
20E6
  8
0
 10
92.787920796583876
 20
99.091658375986469
 30
0.0
  0
VERTEX
  5
20E7
  8
0
 10
92.831520796583874
 20
99.112558375986467
 30
0.0
  0
VERTEX
  5
20E8
  8
0
 10
92.877520796583866
 20
99.129458375986474
 30
0.0
  0
VERTEX
  5
20E9
  8
0
 10
92.925420796583865
 20
99.141758375986484
 30
0.0
  0
VERTEX
  5
20EA
  8
0
 10
92.975020796583877
 20
99.149258375986463
 30
0.0
  0
VERTEX
  5
20EB
  8
0
 10
93.026020796583879
 20
99.151758375986475
 30
0.0
  0
SEQEND
  5
20EC
  8
0
  0
LINE
  5
1183
  8
1
 10
92.831520796583874
 20
98.191158375986461
 30
0.0
 11
93.621220796583884
 21
97.799251927212168
 31
0.0
  0
LINE
  5
1184
  8
1
 10
93.220720796583876
 20
99.112558375986467
 30
0.0
 11
93.621220796583884
 21
98.911594212023772
 31
0.0
  0
POLYLINE
  5
1185
  8
0
 66
     1
 10
0.0
 20
0.0
 30
0.0
  0
VERTEX
  5
20ED
  8
0
 10
93.026020796583879
 20
99.151758375986475
 30
0.0
  0
VERTEX
  5
20EE
  8
0
 10
93.026020796583879
 20
99.151758375986475
 30
0.0
  0
VERTEX
  5
20EF
  8
0
 10
93.077320796583876
 20
99.149258375986463
 30
0.0
  0
VERTEX
  5
20F0
  8
0
 10
93.126920796583875
 20
99.141758375986484
 30
0.0
  0
VERTEX
  5
20F1
  8
0
 10
93.174920796583876
 20
99.129458375986474
 30
0.0
  0
VERTEX
  5
20F2
  8
0
 10
93.220720796583876
 20
99.112558375986467
 30
0.0
  0
VERTEX
  5
20F3
  8
0
 10
93.264520796583881
 20
99.091658375986469
 30
0.0
  0
VERTEX
  5
20F4
  8
0
 10
93.305720796583856
 20
99.066558375986475
 30
0.0
  0
VERTEX
  5
20F5
  8
0
 10
93.344220796583883
 20
99.037758375986471
 30
0.0
  0
VERTEX
  5
20F6
  8
0
 10
93.379620796583865
 20
99.005358375986475
 30
0.0
  0
VERTEX
  5
20F7
  8
0
 10
93.412020796583874
 20
98.969958375986479
 30
0.0
  0
VERTEX
  5
20F8
  8
0
 10
93.440820796583878
 20
98.93145837598648
 30
0.0
  0
VERTEX
  5
20F9
  8
0
 10
93.465920796583873
 20
98.890258375986477
 30
0.0
  0
VERTEX
  5
20FA
  8
0
 10
93.486820796583885
 20
98.846458375986472
 30
0.0
  0
VERTEX
  5
20FB
  8
0
 10
93.503720796583877
 20
98.800658375986487
 30
0.0
  0
VERTEX
  5
20FC
  8
0
 10
93.516020796583888
 20
98.752658375986471
 30
0.0
  0
VERTEX
  5
20FD
  8
0
 10
93.523520796583881
 20
98.703058375986487
 30
0.0
  0
VERTEX
  5
20FE
  8
0
 10
93.526020796583865
 20
98.651758375986475
 30
0.0
  0
VERTEX
  5
20FF
  8
0
 10
93.526020796583865
 20
98.651758375986475
 30
0.0
  0
VERTEX
  5
2100
  8
0
 10
93.523520796583881
 20
98.600758375986473
 30
0.0
  0
VERTEX
  5
2101
  8
0
 10
93.516020796583888
 20
98.551158375986475
 30
0.0
  0
VERTEX
  5
2102
  8
0
 10
93.503720796583877
 20
98.503258375986476
 30
0.0
  0
VERTEX
  5
2103
  8
0
 10
93.486820796583885
 20
98.457258375986484
 30
0.0
  0
VERTEX
  5
2104
  8
0
 10
93.465920796583873
 20
98.413658375986472
 30
0.0
  0
VERTEX
  5
2105
  8
0
 10
93.440820796583878
 20
98.372358375986465
 30
0.0
  0
VERTEX
  5
2106
  8
0
 10
93.412020796583874
 20
98.333958375986469
 30
0.0
  0
VERTEX
  5
2107
  8
0
 10
93.379620796583865
 20
98.298258375986464
 30
0.0
  0
VERTEX
  5
2108
  8
0
 10
93.344220796583883
 20
98.266158375986478
 30
0.0
  0
VERTEX
  5
2109
  8
0
 10
93.305720796583856
 20
98.237358375986474
 30
0.0
  0
VERTEX
  5
210A
  8
0
 10
93.264520796583881
 20
98.212358375986469
 30
0.0
  0
VERTEX
  5
210B
  8
0
 10
93.220720796583876
 20
98.191158375986461
 30
0.0
  0
VERTEX
  5
210C
  8
0
 10
93.174920796583876
 20
98.174358375986472
 30
0.0
  0
VERTEX
  5
210D
  8
0
 10
93.126920796583875
 20
98.161958375986487
 30
0.0
  0
VERTEX
  5
210E
  8
0
 10
93.077320796583876
 20
98.154458375986465
 30
0.0
  0
VERTEX
  5
210F
  8
0
 10
93.026020796583879
 20
98.151758375986475
 30
0.0
  0
VERTEX
  5
2110
  8
0
 10
93.026020796583879
 20
98.151758375986475
 30
0.0
  0
VERTEX
  5
2111
  8
0
 10
92.975020796583877
 20
98.154458375986465
 30
0.0
  0
VERTEX
  5
2112
  8
0
 10
92.925420796583865
 20
98.161958375986487
 30
0.0
  0
VERTEX
  5
2113
  8
0
 10
92.877520796583866
 20
98.174358375986472
 30
0.0
  0
VERTEX
  5
2114
  8
0
 10
92.831520796583874
 20
98.191158375986461
 30
0.0
  0
VERTEX
  5
2115
  8
0
 10
92.787920796583876
 20
98.212358375986469
 30
0.0
  0
VERTEX
  5
2116
  8
0
 10
92.746620796583869
 20
98.237358375986474
 30
0.0
  0
VERTEX
  5
2117
  8
0
 10
92.708220796583873
 20
98.266158375986478
 30
0.0
  0
VERTEX
  5
2118
  8
0
 10
92.672520796583896
 20
98.298258375986464
 30
0.0
  0
VERTEX
  5
2119
  8
0
 10
92.640420796583882
 20
98.333958375986469
 30
0.0
  0
VERTEX
  5
211A
  8
0
 10
92.611620796583878
 20
98.372358375986465
 30
0.0
  0
VERTEX
  5
211B
  8
0
 10
92.586620796583873
 20
98.413658375986472
 30
0.0
  0
VERTEX
  5
211C
  8
0
 10
92.565420796583865
 20
98.457258375986484
 30
0.0
  0
VERTEX
  5
211D
  8
0
 10
92.54862079658389
 20
98.503258375986476
 30
0.0
  0
VERTEX
  5
211E
  8
0
 10
92.536220796583876
 20
98.551158375986475
 30
0.0
  0
VERTEX
  5
211F
  8
0
 10
92.528720796583883
 20
98.600758375986473
 30
0.0
  0
VERTEX
  5
2120
  8
0
 10
92.526020796583865
 20
98.651758375986475
 30
0.0
  0
VERTEX
  5
2121
  8
0
 10
92.526020796583865
 20
98.651758375986475
 30
0.0
  0
VERTEX
  5
2122
  8
0
 10
92.528720796583883
 20
98.703058375986487
 30
0.0
  0
VERTEX
  5
2123
  8
0
 10
92.536220796583876
 20
98.752658375986471
 30
0.0
  0
VERTEX
  5
2124
  8
0
 10
92.54862079658389
 20
98.800658375986487
 30
0.0
  0
VERTEX
  5
2125
  8
0
 10
92.565420796583865
 20
98.846458375986472
 30
0.0
  0
VERTEX
  5
2126
  8
0
 10
92.586620796583873
 20
98.890258375986477
 30
0.0
  0
VERTEX
  5
2127
  8
0
 10
92.611620796583878
 20
98.93145837598648
 30
0.0
  0
VERTEX
  5
2128
  8
0
 10
92.640420796583882
 20
98.969958375986479
 30
0.0
  0
VERTEX
  5
2129
  8
0
 10
92.672520796583896
 20
99.005358375986475
 30
0.0
  0
VERTEX
  5
212A
  8
0
 10
92.708220796583873
 20
99.037758375986471
 30
0.0
  0
VERTEX
  5
212B
  8
0
 10
92.746620796583869
 20
99.066558375986475
 30
0.0
  0
VERTEX
  5
212C
  8
0
 10
92.787920796583876
 20
99.091658375986469
 30
0.0
  0
VERTEX
  5
212D
  8
0
 10
92.831520796583874
 20
99.112558375986467
 30
0.0
  0
VERTEX
  5
212E
  8
0
 10
92.877520796583866
 20
99.129458375986474
 30
0.0
  0
VERTEX
  5
212F
  8
0
 10
92.925420796583865
 20
99.141758375986484
 30
0.0
  0
VERTEX
  5
2130
  8
0
 10
92.975020796583877
 20
99.149258375986463
 30
0.0
  0
VERTEX
  5
2131
  8
0
 10
93.026020796583879
 20
99.151758375986475
 30
0.0
  0
SEQEND
  5
2132
  8
0
  0
POLYLINE
  5
1186
  8
0
 66
     1
 10
0.0
 20
0.0
 30
0.0
  0
VERTEX
  5
2133
  8
0
 10
93.026020796583879
 20
99.151758375986475
 30
0.0
  0
VERTEX
  5
2134
  8
0
 10
93.026020796583879
 20
99.151758375986475
 30
0.0
  0
VERTEX
  5
2135
  8
0
 10
93.077320796583876
 20
99.149258375986463
 30
0.0
  0
VERTEX
  5
2136
  8
0
 10
93.126920796583875
 20
99.141758375986484
 30
0.0
  0
VERTEX
  5
2137
  8
0
 10
93.174920796583876
 20
99.129458375986474
 30
0.0
  0
VERTEX
  5
2138
  8
0
 10
93.220720796583876
 20
99.112558375986467
 30
0.0
  0
VERTEX
  5
2139
  8
0
 10
93.264520796583881
 20
99.091658375986469
 30
0.0
  0
VERTEX
  5
213A
  8
0
 10
93.305720796583856
 20
99.066558375986475
 30
0.0
  0
VERTEX
  5
213B
  8
0
 10
93.344220796583883
 20
99.037758375986471
 30
0.0
  0
VERTEX
  5
213C
  8
0
 10
93.379620796583865
 20
99.005358375986475
 30
0.0
  0
VERTEX
  5
213D
  8
0
 10
93.412020796583874
 20
98.969958375986479
 30
0.0
  0
VERTEX
  5
213E
  8
0
 10
93.440820796583878
 20
98.93145837598648
 30
0.0
  0
VERTEX
  5
213F
  8
0
 10
93.465920796583873
 20
98.890258375986477
 30
0.0
  0
VERTEX
  5
2140
  8
0
 10
93.486820796583885
 20
98.846458375986472
 30
0.0
  0
VERTEX
  5
2141
  8
0
 10
93.503720796583877
 20
98.800658375986487
 30
0.0
  0
VERTEX
  5
2142
  8
0
 10
93.516020796583888
 20
98.752658375986471
 30
0.0
  0
VERTEX
  5
2143
  8
0
 10
93.523520796583881
 20
98.703058375986487
 30
0.0
  0
VERTEX
  5
2144
  8
0
 10
93.526020796583865
 20
98.651758375986475
 30
0.0
  0
VERTEX
  5
2145
  8
0
 10
93.526020796583865
 20
98.651758375986475
 30
0.0
  0
VERTEX
  5
2146
  8
0
 10
93.523520796583881
 20
98.600758375986473
 30
0.0
  0
VERTEX
  5
2147
  8
0
 10
93.516020796583888
 20
98.551158375986475
 30
0.0
  0
VERTEX
  5
2148
  8
0
 10
93.503720796583877
 20
98.503258375986476
 30
0.0
  0
VERTEX
  5
2149
  8
0
 10
93.486820796583885
 20
98.457258375986484
 30
0.0
  0
VERTEX
  5
214A
  8
0
 10
93.465920796583873
 20
98.413658375986472
 30
0.0
  0
VERTEX
  5
214B
  8
0
 10
93.440820796583878
 20
98.372358375986465
 30
0.0
  0
VERTEX
  5
214C
  8
0
 10
93.412020796583874
 20
98.333958375986469
 30
0.0
  0
VERTEX
  5
214D
  8
0
 10
93.379620796583865
 20
98.298258375986464
 30
0.0
  0
VERTEX
  5
214E
  8
0
 10
93.344220796583883
 20
98.266158375986478
 30
0.0
  0
VERTEX
  5
214F
  8
0
 10
93.305720796583856
 20
98.237358375986474
 30
0.0
  0
VERTEX
  5
2150
  8
0
 10
93.264520796583881
 20
98.212358375986469
 30
0.0
  0
VERTEX
  5
2151
  8
0
 10
93.220720796583876
 20
98.191158375986461
 30
0.0
  0
VERTEX
  5
2152
  8
0
 10
93.174920796583876
 20
98.174358375986472
 30
0.0
  0
VERTEX
  5
2153
  8
0
 10
93.126920796583875
 20
98.161958375986487
 30
0.0
  0
VERTEX
  5
2154
  8
0
 10
93.077320796583876
 20
98.154458375986465
 30
0.0
  0
VERTEX
  5
2155
  8
0
 10
93.026020796583879
 20
98.151758375986475
 30
0.0
  0
VERTEX
  5
2156
  8
0
 10
93.026020796583879
 20
98.151758375986475
 30
0.0
  0
VERTEX
  5
2157
  8
0
 10
92.975020796583877
 20
98.154458375986465
 30
0.0
  0
VERTEX
  5
2158
  8
0
 10
92.925420796583865
 20
98.161958375986487
 30
0.0
  0
VERTEX
  5
2159
  8
0
 10
92.877520796583866
 20
98.174358375986472
 30
0.0
  0
VERTEX
  5
215A
  8
0
 10
92.831520796583874
 20
98.191158375986461
 30
0.0
  0
VERTEX
  5
215B
  8
0
 10
92.787920796583876
 20
98.212358375986469
 30
0.0
  0
VERTEX
  5
215C
  8
0
 10
92.746620796583869
 20
98.237358375986474
 30
0.0
  0
VERTEX
  5
215D
  8
0
 10
92.708220796583873
 20
98.266158375986478
 30
0.0
  0
VERTEX
  5
215E
  8
0
 10
92.672520796583896
 20
98.298258375986464
 30
0.0
  0
VERTEX
  5
215F
  8
0
 10
92.640420796583882
 20
98.333958375986469
 30
0.0
  0
VERTEX
  5
2160
  8
0
 10
92.611620796583878
 20
98.372358375986465
 30
0.0
  0
VERTEX
  5
2161
  8
0
 10
92.586620796583873
 20
98.413658375986472
 30
0.0
  0
VERTEX
  5
2162
  8
0
 10
92.565420796583865
 20
98.457258375986484
 30
0.0
  0
VERTEX
  5
2163
  8
0
 10
92.54862079658389
 20
98.503258375986476
 30
0.0
  0
VERTEX
  5
2164
  8
0
 10
92.536220796583876
 20
98.551158375986475
 30
0.0
  0
VERTEX
  5
2165
  8
0
 10
92.528720796583883
 20
98.600758375986473
 30
0.0
  0
VERTEX
  5
2166
  8
0
 10
92.526020796583865
 20
98.651758375986475
 30
0.0
  0
VERTEX
  5
2167
  8
0
 10
92.526020796583865
 20
98.651758375986475
 30
0.0
  0
VERTEX
  5
2168
  8
0
 10
92.528720796583883
 20
98.703058375986487
 30
0.0
  0
VERTEX
  5
2169
  8
0
 10
92.536220796583876
 20
98.752658375986471
 30
0.0
  0
VERTEX
  5
216A
  8
0
 10
92.54862079658389
 20
98.800658375986487
 30
0.0
  0
VERTEX
  5
216B
  8
0
 10
92.565420796583865
 20
98.846458375986472
 30
0.0
  0
VERTEX
  5
216C
  8
0
 10
92.586620796583873
 20
98.890258375986477
 30
0.0
  0
VERTEX
  5
216D
  8
0
 10
92.611620796583878
 20
98.93145837598648
 30
0.0
  0
VERTEX
  5
216E
  8
0
 10
92.640420796583882
 20
98.969958375986479
 30
0.0
  0
VERTEX
  5
216F
  8
0
 10
92.672520796583896
 20
99.005358375986475
 30
0.0
  0
VERTEX
  5
2170
  8
0
 10
92.708220796583873
 20
99.037758375986471
 30
0.0
  0
VERTEX
  5
2171
  8
0
 10
92.746620796583869
 20
99.066558375986475
 30
0.0
  0
VERTEX
  5
2172
  8
0
 10
92.787920796583876
 20
99.091658375986469
 30
0.0
  0
VERTEX
  5
2173
  8
0
 10
92.831520796583874
 20
99.112558375986467
 30
0.0
  0
VERTEX
  5
2174
  8
0
 10
92.877520796583866
 20
99.129458375986474
 30
0.0
  0
VERTEX
  5
2175
  8
0
 10
92.925420796583865
 20
99.141758375986484
 30
0.0
  0
VERTEX
  5
2176
  8
0
 10
92.975020796583877
 20
99.149258375986463
 30
0.0
  0
VERTEX
  5
2177
  8
0
 10
93.026020796583879
 20
99.151758375986475
 30
0.0
  0
SEQEND
  5
2178
  8
0
  0
POLYLINE
  5
1190
  8
0
 66
     1
 10
0.0
 20
0.0
 30
0.0
 39
5.0
  0
VERTEX
  5
2179
  8
0
 10
93.026020796583879
 20
96.151758375986475
 30
0.0
  0
VERTEX
  5
217A
  8
0
 10
93.026020796583879
 20
96.151758375986475
 30
0.0
  0
VERTEX
  5
217B
  8
0
 10
93.077320796583876
 20
96.149258375986463
 30
0.0
  0
VERTEX
  5
217C
  8
0
 10
93.126920796583875
 20
96.14175837598647
 30
0.0
  0
VERTEX
  5
217D
  8
0
 10
93.174920796583876
 20
96.129458375986474
 30
0.0
  0
VERTEX
  5
217E
  8
0
 10
93.220720796583876
 20
96.112558375986481
 30
0.0
  0
VERTEX
  5
217F
  8
0
 10
93.264520796583881
 20
96.091658375986469
 30
0.0
  0
VERTEX
  5
2180
  8
0
 10
93.305720796583856
 20
96.066558375986475
 30
0.0
  0
VERTEX
  5
2181
  8
0
 10
93.344220796583883
 20
96.037758375986471
 30
0.0
  0
VERTEX
  5
2182
  8
0
 10
93.379620796583865
 20
96.005358375986475
 30
0.0
  0
VERTEX
  5
2183
  8
0
 10
93.412020796583874
 20
95.969958375986465
 30
0.0
  0
VERTEX
  5
2184
  8
0
 10
93.440820796583878
 20
95.93145837598648
 30
0.0
  0
VERTEX
  5
2185
  8
0
 10
93.465920796583873
 20
95.890258375986477
 30
0.0
  0
VERTEX
  5
2186
  8
0
 10
93.486820796583885
 20
95.846458375986487
 30
0.0
  0
VERTEX
  5
2187
  8
0
 10
93.503720796583877
 20
95.800658375986472
 30
0.0
  0
VERTEX
  5
2188
  8
0
 10
93.516020796583888
 20
95.752658375986485
 30
0.0
  0
VERTEX
  5
2189
  8
0
 10
93.523520796583881
 20
95.703058375986473
 30
0.0
  0
VERTEX
  5
218A
  8
0
 10
93.526020796583865
 20
95.651758375986475
 30
0.0
  0
VERTEX
  5
218B
  8
0
 10
93.526020796583865
 20
95.651758375986475
 30
0.0
  0
VERTEX
  5
218C
  8
0
 10
93.523520796583881
 20
95.600758375986473
 30
0.0
  0
VERTEX
  5
218D
  8
0
 10
93.516020796583888
 20
95.551158375986475
 30
0.0
  0
VERTEX
  5
218E
  8
0
 10
93.503720796583877
 20
95.503258375986476
 30
0.0
  0
VERTEX
  5
218F
  8
0
 10
93.486820796583885
 20
95.45725837598647
 30
0.0
  0
VERTEX
  5
2190
  8
0
 10
93.465920796583873
 20
95.413658375986472
 30
0.0
  0
VERTEX
  5
2191
  8
0
 10
93.440820796583878
 20
95.372358375986494
 30
0.0
  0
VERTEX
  5
2192
  8
0
 10
93.412020796583874
 20
95.333958375986455
 30
0.0
  0
VERTEX
  5
2193
  8
0
 10
93.379620796583865
 20
95.298258375986464
 30
0.0
  0
VERTEX
  5
2194
  8
0
 10
93.344220796583883
 20
95.266158375986464
 30
0.0
  0
VERTEX
  5
2195
  8
0
 10
93.305720796583856
 20
95.237358375986474
 30
0.0
  0
VERTEX
  5
2196
  8
0
 10
93.264520796583881
 20
95.212358375986469
 30
0.0
  0
VERTEX
  5
2197
  8
0
 10
93.220720796583876
 20
95.191158375986447
 30
0.0
  0
VERTEX
  5
2198
  8
0
 10
93.174920796583876
 20
95.174358375986472
 30
0.0
  0
VERTEX
  5
2199
  8
0
 10
93.126920796583875
 20
95.161958375986472
 30
0.0
  0
VERTEX
  5
219A
  8
0
 10
93.077320796583876
 20
95.154458375986465
 30
0.0
  0
VERTEX
  5
219B
  8
0
 10
93.026020796583879
 20
95.151758375986475
 30
0.0
  0
VERTEX
  5
219C
  8
0
 10
93.026020796583879
 20
95.151758375986475
 30
0.0
  0
VERTEX
  5
219D
  8
0
 10
92.975020796583877
 20
95.154458375986465
 30
0.0
  0
VERTEX
  5
219E
  8
0
 10
92.925420796583865
 20
95.161958375986472
 30
0.0
  0
VERTEX
  5
219F
  8
0
 10
92.877520796583866
 20
95.174358375986472
 30
0.0
  0
VERTEX
  5
21A0
  8
0
 10
92.831520796583874
 20
95.191158375986447
 30
0.0
  0
VERTEX
  5
21A1
  8
0
 10
92.787920796583876
 20
95.212358375986469
 30
0.0
  0
VERTEX
  5
21A2
  8
0
 10
92.746620796583869
 20
95.237358375986474
 30
0.0
  0
VERTEX
  5
21A3
  8
0
 10
92.708220796583873
 20
95.266158375986464
 30
0.0
  0
VERTEX
  5
21A4
  8
0
 10
92.672520796583896
 20
95.298258375986464
 30
0.0
  0
VERTEX
  5
21A5
  8
0
 10
92.640420796583882
 20
95.333958375986455
 30
0.0
  0
VERTEX
  5
21A6
  8
0
 10
92.611620796583878
 20
95.372358375986494
 30
0.0
  0
VERTEX
  5
21A7
  8
0
 10
92.586620796583873
 20
95.413658375986472
 30
0.0
  0
VERTEX
  5
21A8
  8
0
 10
92.565420796583865
 20
95.45725837598647
 30
0.0
  0
VERTEX
  5
21A9
  8
0
 10
92.54862079658389
 20
95.503258375986476
 30
0.0
  0
VERTEX
  5
21AA
  8
0
 10
92.536220796583876
 20
95.551158375986475
 30
0.0
  0
VERTEX
  5
21AB
  8
0
 10
92.528720796583883
 20
95.600758375986473
 30
0.0
  0
VERTEX
  5
21AC
  8
0
 10
92.526020796583865
 20
95.651758375986475
 30
0.0
  0
VERTEX
  5
21AD
  8
0
 10
92.526020796583865
 20
95.651758375986475
 30
0.0
  0
VERTEX
  5
21AE
  8
0
 10
92.528720796583883
 20
95.703058375986473
 30
0.0
  0
VERTEX
  5
21AF
  8
0
 10
92.536220796583876
 20
95.752658375986485
 30
0.0
  0
VERTEX
  5
21B0
  8
0
 10
92.54862079658389
 20
95.800658375986472
 30
0.0
  0
VERTEX
  5
21B1
  8
0
 10
92.565420796583865
 20
95.846458375986487
 30
0.0
  0
VERTEX
  5
21B2
  8
0
 10
92.586620796583873
 20
95.890258375986477
 30
0.0
  0
VERTEX
  5
21B3
  8
0
 10
92.611620796583878
 20
95.93145837598648
 30
0.0
  0
VERTEX
  5
21B4
  8
0
 10
92.640420796583882
 20
95.969958375986465
 30
0.0
  0
VERTEX
  5
21B5
  8
0
 10
92.672520796583896
 20
96.005358375986475
 30
0.0
  0
VERTEX
  5
21B6
  8
0
 10
92.708220796583873
 20
96.037758375986471
 30
0.0
  0
VERTEX
  5
21B7
  8
0
 10
92.746620796583869
 20
96.066558375986475
 30
0.0
  0
VERTEX
  5
21B8
  8
0
 10
92.787920796583876
 20
96.091658375986469
 30
0.0
  0
VERTEX
  5
21B9
  8
0
 10
92.831520796583874
 20
96.112558375986481
 30
0.0
  0
VERTEX
  5
21BA
  8
0
 10
92.877520796583866
 20
96.129458375986474
 30
0.0
  0
VERTEX
  5
21BB
  8
0
 10
92.925420796583865
 20
96.14175837598647
 30
0.0
  0
VERTEX
  5
21BC
  8
0
 10
92.975020796583877
 20
96.149258375986463
 30
0.0
  0
VERTEX
  5
21BD
  8
0
 10
93.026020796583879
 20
96.151758375986475
 30
0.0
  0
SEQEND
  5
21BE
  8
0
  0
LINE
  5
1191
  8
1
 10
92.831520796583874
 20
95.191158375986447
 30
0.0
 11
93.392301336652423
 21
94.912858375986474
 31
0.0
  0
LINE
  5
1192
  8
1
 10
93.220720796583876
 20
96.112558375986481
 30
0.0
 11
93.621220796583884
 21
95.911594212023772
 31
0.0
  0
POLYLINE
  5
1193
  8
0
 66
     1
 10
0.0
 20
0.0
 30
0.0
  0
VERTEX
  5
21BF
  8
0
 10
93.026020796583879
 20
96.151758375986475
 30
0.0
  0
VERTEX
  5
21C0
  8
0
 10
93.026020796583879
 20
96.151758375986475
 30
0.0
  0
VERTEX
  5
21C1
  8
0
 10
93.077320796583876
 20
96.149258375986463
 30
0.0
  0
VERTEX
  5
21C2
  8
0
 10
93.126920796583875
 20
96.14175837598647
 30
0.0
  0
VERTEX
  5
21C3
  8
0
 10
93.174920796583876
 20
96.129458375986474
 30
0.0
  0
VERTEX
  5
21C4
  8
0
 10
93.220720796583876
 20
96.112558375986481
 30
0.0
  0
VERTEX
  5
21C5
  8
0
 10
93.264520796583881
 20
96.091658375986469
 30
0.0
  0
VERTEX
  5
21C6
  8
0
 10
93.305720796583856
 20
96.066558375986475
 30
0.0
  0
VERTEX
  5
21C7
  8
0
 10
93.344220796583883
 20
96.037758375986471
 30
0.0
  0
VERTEX
  5
21C8
  8
0
 10
93.379620796583865
 20
96.005358375986475
 30
0.0
  0
VERTEX
  5
21C9
  8
0
 10
93.412020796583874
 20
95.969958375986465
 30
0.0
  0
VERTEX
  5
21CA
  8
0
 10
93.440820796583878
 20
95.93145837598648
 30
0.0
  0
VERTEX
  5
21CB
  8
0
 10
93.465920796583873
 20
95.890258375986477
 30
0.0
  0
VERTEX
  5
21CC
  8
0
 10
93.486820796583885
 20
95.846458375986487
 30
0.0
  0
VERTEX
  5
21CD
  8
0
 10
93.503720796583877
 20
95.800658375986472
 30
0.0
  0
VERTEX
  5
21CE
  8
0
 10
93.516020796583888
 20
95.752658375986485
 30
0.0
  0
VERTEX
  5
21CF
  8
0
 10
93.523520796583881
 20
95.703058375986473
 30
0.0
  0
VERTEX
  5
21D0
  8
0
 10
93.526020796583865
 20
95.651758375986475
 30
0.0
  0
VERTEX
  5
21D1
  8
0
 10
93.526020796583865
 20
95.651758375986475
 30
0.0
  0
VERTEX
  5
21D2
  8
0
 10
93.523520796583881
 20
95.600758375986473
 30
0.0
  0
VERTEX
  5
21D3
  8
0
 10
93.516020796583888
 20
95.551158375986475
 30
0.0
  0
VERTEX
  5
21D4
  8
0
 10
93.503720796583877
 20
95.503258375986476
 30
0.0
  0
VERTEX
  5
21D5
  8
0
 10
93.486820796583885
 20
95.45725837598647
 30
0.0
  0
VERTEX
  5
21D6
  8
0
 10
93.465920796583873
 20
95.413658375986472
 30
0.0
  0
VERTEX
  5
21D7
  8
0
 10
93.440820796583878
 20
95.372358375986494
 30
0.0
  0
VERTEX
  5
21D8
  8
0
 10
93.412020796583874
 20
95.333958375986455
 30
0.0
  0
VERTEX
  5
21D9
  8
0
 10
93.379620796583865
 20
95.298258375986464
 30
0.0
  0
VERTEX
  5
21DA
  8
0
 10
93.344220796583883
 20
95.266158375986464
 30
0.0
  0
VERTEX
  5
21DB
  8
0
 10
93.305720796583856
 20
95.237358375986474
 30
0.0
  0
VERTEX
  5
21DC
  8
0
 10
93.264520796583881
 20
95.212358375986469
 30
0.0
  0
VERTEX
  5
21DD
  8
0
 10
93.220720796583876
 20
95.191158375986447
 30
0.0
  0
VERTEX
  5
21DE
  8
0
 10
93.174920796583876
 20
95.174358375986472
 30
0.0
  0
VERTEX
  5
21DF
  8
0
 10
93.126920796583875
 20
95.161958375986472
 30
0.0
  0
VERTEX
  5
21E0
  8
0
 10
93.077320796583876
 20
95.154458375986465
 30
0.0
  0
VERTEX
  5
21E1
  8
0
 10
93.026020796583879
 20
95.151758375986475
 30
0.0
  0
VERTEX
  5
21E2
  8
0
 10
93.026020796583879
 20
95.151758375986475
 30
0.0
  0
VERTEX
  5
21E3
  8
0
 10
92.975020796583877
 20
95.154458375986465
 30
0.0
  0
VERTEX
  5
21E4
  8
0
 10
92.925420796583865
 20
95.161958375986472
 30
0.0
  0
VERTEX
  5
21E5
  8
0
 10
92.877520796583866
 20
95.174358375986472
 30
0.0
  0
VERTEX
  5
21E6
  8
0
 10
92.831520796583874
 20
95.191158375986447
 30
0.0
  0
VERTEX
  5
21E7
  8
0
 10
92.787920796583876
 20
95.212358375986469
 30
0.0
  0
VERTEX
  5
21E8
  8
0
 10
92.746620796583869
 20
95.237358375986474
 30
0.0
  0
VERTEX
  5
21E9
  8
0
 10
92.708220796583873
 20
95.266158375986464
 30
0.0
  0
VERTEX
  5
21EA
  8
0
 10
92.672520796583896
 20
95.298258375986464
 30
0.0
  0
VERTEX
  5
21EB
  8
0
 10
92.640420796583882
 20
95.333958375986455
 30
0.0
  0
VERTEX
  5
21EC
  8
0
 10
92.611620796583878
 20
95.372358375986494
 30
0.0
  0
VERTEX
  5
21ED
  8
0
 10
92.586620796583873
 20
95.413658375986472
 30
0.0
  0
VERTEX
  5
21EE
  8
0
 10
92.565420796583865
 20
95.45725837598647
 30
0.0
  0
VERTEX
  5
21EF
  8
0
 10
92.54862079658389
 20
95.503258375986476
 30
0.0
  0
VERTEX
  5
21F0
  8
0
 10
92.536220796583876
 20
95.551158375986475
 30
0.0
  0
VERTEX
  5
21F1
  8
0
 10
92.528720796583883
 20
95.600758375986473
 30
0.0
  0
VERTEX
  5
21F2
  8
0
 10
92.526020796583865
 20
95.651758375986475
 30
0.0
  0
VERTEX
  5
21F3
  8
0
 10
92.526020796583865
 20
95.651758375986475
 30
0.0
  0
VERTEX
  5
21F4
  8
0
 10
92.528720796583883
 20
95.703058375986473
 30
0.0
  0
VERTEX
  5
21F5
  8
0
 10
92.536220796583876
 20
95.752658375986485
 30
0.0
  0
VERTEX
  5
21F6
  8
0
 10
92.54862079658389
 20
95.800658375986472
 30
0.0
  0
VERTEX
  5
21F7
  8
0
 10
92.565420796583865
 20
95.846458375986487
 30
0.0
  0
VERTEX
  5
21F8
  8
0
 10
92.586620796583873
 20
95.890258375986477
 30
0.0
  0
VERTEX
  5
21F9
  8
0
 10
92.611620796583878
 20
95.93145837598648
 30
0.0
  0
VERTEX
  5
21FA
  8
0
 10
92.640420796583882
 20
95.969958375986465
 30
0.0
  0
VERTEX
  5
21FB
  8
0
 10
92.672520796583896
 20
96.005358375986475
 30
0.0
  0
VERTEX
  5
21FC
  8
0
 10
92.708220796583873
 20
96.037758375986471
 30
0.0
  0
VERTEX
  5
21FD
  8
0
 10
92.746620796583869
 20
96.066558375986475
 30
0.0
  0
VERTEX
  5
21FE
  8
0
 10
92.787920796583876
 20
96.091658375986469
 30
0.0
  0
VERTEX
  5
21FF
  8
0
 10
92.831520796583874
 20
96.112558375986481
 30
0.0
  0
VERTEX
  5
2200
  8
0
 10
92.877520796583866
 20
96.129458375986474
 30
0.0
  0
VERTEX
  5
2201
  8
0
 10
92.925420796583865
 20
96.14175837598647
 30
0.0
  0
VERTEX
  5
2202
  8
0
 10
92.975020796583877
 20
96.149258375986463
 30
0.0
  0
VERTEX
  5
2203
  8
0
 10
93.026020796583879
 20
96.151758375986475
 30
0.0
  0
SEQEND
  5
2204
  8
0
  0
POLYLINE
  5
1194
  8
0
 66
     1
 10
0.0
 20
0.0
 30
0.0
  0
VERTEX
  5
2205
  8
0
 10
93.026020796583879
 20
96.151758375986475
 30
0.0
  0
VERTEX
  5
2206
  8
0
 10
93.026020796583879
 20
96.151758375986475
 30
0.0
  0
VERTEX
  5
2207
  8
0
 10
93.077320796583876
 20
96.149258375986463
 30
0.0
  0
VERTEX
  5
2208
  8
0
 10
93.126920796583875
 20
96.14175837598647
 30
0.0
  0
VERTEX
  5
2209
  8
0
 10
93.174920796583876
 20
96.129458375986474
 30
0.0
  0
VERTEX
  5
220A
  8
0
 10
93.220720796583876
 20
96.112558375986481
 30
0.0
  0
VERTEX
  5
220B
  8
0
 10
93.264520796583881
 20
96.091658375986469
 30
0.0
  0
VERTEX
  5
220C
  8
0
 10
93.305720796583856
 20
96.066558375986475
 30
0.0
  0
VERTEX
  5
220D
  8
0
 10
93.344220796583883
 20
96.037758375986471
 30
0.0
  0
VERTEX
  5
220E
  8
0
 10
93.379620796583865
 20
96.005358375986475
 30
0.0
  0
VERTEX
  5
220F
  8
0
 10
93.412020796583874
 20
95.969958375986465
 30
0.0
  0
VERTEX
  5
2210
  8
0
 10
93.440820796583878
 20
95.93145837598648
 30
0.0
  0
VERTEX
  5
2211
  8
0
 10
93.465920796583873
 20
95.890258375986477
 30
0.0
  0
VERTEX
  5
2212
  8
0
 10
93.486820796583885
 20
95.846458375986487
 30
0.0
  0
VERTEX
  5
2213
  8
0
 10
93.503720796583877
 20
95.800658375986472
 30
0.0
  0
VERTEX
  5
2214
  8
0
 10
93.516020796583888
 20
95.752658375986485
 30
0.0
  0
VERTEX
  5
2215
  8
0
 10
93.523520796583881
 20
95.703058375986473
 30
0.0
  0
VERTEX
  5
2216
  8
0
 10
93.526020796583865
 20
95.651758375986475
 30
0.0
  0
VERTEX
  5
2217
  8
0
 10
93.526020796583865
 20
95.651758375986475
 30
0.0
  0
VERTEX
  5
2218
  8
0
 10
93.523520796583881
 20
95.600758375986473
 30
0.0
  0
VERTEX
  5
2219
  8
0
 10
93.516020796583888
 20
95.551158375986475
 30
0.0
  0
VERTEX
  5
221A
  8
0
 10
93.503720796583877
 20
95.503258375986476
 30
0.0
  0
VERTEX
  5
221B
  8
0
 10
93.486820796583885
 20
95.45725837598647
 30
0.0
  0
VERTEX
  5
221C
  8
0
 10
93.465920796583873
 20
95.413658375986472
 30
0.0
  0
VERTEX
  5
221D
  8
0
 10
93.440820796583878
 20
95.372358375986494
 30
0.0
  0
VERTEX
  5
221E
  8
0
 10
93.412020796583874
 20
95.333958375986455
 30
0.0
  0
VERTEX
  5
221F
  8
0
 10
93.379620796583865
 20
95.298258375986464
 30
0.0
  0
VERTEX
  5
2220
  8
0
 10
93.344220796583883
 20
95.266158375986464
 30
0.0
  0
VERTEX
  5
2221
  8
0
 10
93.305720796583856
 20
95.237358375986474
 30
0.0
  0
VERTEX
  5
2222
  8
0
 10
93.264520796583881
 20
95.212358375986469
 30
0.0
  0
VERTEX
  5
2223
  8
0
 10
93.220720796583876
 20
95.191158375986447
 30
0.0
  0
VERTEX
  5
2224
  8
0
 10
93.174920796583876
 20
95.174358375986472
 30
0.0
  0
VERTEX
  5
2225
  8
0
 10
93.126920796583875
 20
95.161958375986472
 30
0.0
  0
VERTEX
  5
2226
  8
0
 10
93.077320796583876
 20
95.154458375986465
 30
0.0
  0
VERTEX
  5
2227
  8
0
 10
93.026020796583879
 20
95.151758375986475
 30
0.0
  0
VERTEX
  5
2228
  8
0
 10
93.026020796583879
 20
95.151758375986475
 30
0.0
  0
VERTEX
  5
2229
  8
0
 10
92.975020796583877
 20
95.154458375986465
 30
0.0
  0
VERTEX
  5
222A
  8
0
 10
92.925420796583865
 20
95.161958375986472
 30
0.0
  0
VERTEX
  5
222B
  8
0
 10
92.877520796583866
 20
95.174358375986472
 30
0.0
  0
VERTEX
  5
222C
  8
0
 10
92.831520796583874
 20
95.191158375986447
 30
0.0
  0
VERTEX
  5
222D
  8
0
 10
92.787920796583876
 20
95.212358375986469
 30
0.0
  0
VERTEX
  5
222E
  8
0
 10
92.746620796583869
 20
95.237358375986474
 30
0.0
  0
VERTEX
  5
222F
  8
0
 10
92.708220796583873
 20
95.266158375986464
 30
0.0
  0
VERTEX
  5
2230
  8
0
 10
92.672520796583896
 20
95.298258375986464
 30
0.0
  0
VERTEX
  5
2231
  8
0
 10
92.640420796583882
 20
95.333958375986455
 30
0.0
  0
VERTEX
  5
2232
  8
0
 10
92.611620796583878
 20
95.372358375986494
 30
0.0
  0
VERTEX
  5
2233
  8
0
 10
92.586620796583873
 20
95.413658375986472
 30
0.0
  0
VERTEX
  5
2234
  8
0
 10
92.565420796583865
 20
95.45725837598647
 30
0.0
  0
VERTEX
  5
2235
  8
0
 10
92.54862079658389
 20
95.503258375986476
 30
0.0
  0
VERTEX
  5
2236
  8
0
 10
92.536220796583876
 20
95.551158375986475
 30
0.0
  0
VERTEX
  5
2237
  8
0
 10
92.528720796583883
 20
95.600758375986473
 30
0.0
  0
VERTEX
  5
2238
  8
0
 10
92.526020796583865
 20
95.651758375986475
 30
0.0
  0
VERTEX
  5
2239
  8
0
 10
92.526020796583865
 20
95.651758375986475
 30
0.0
  0
VERTEX
  5
223A
  8
0
 10
92.528720796583883
 20
95.703058375986473
 30
0.0
  0
VERTEX
  5
223B
  8
0
 10
92.536220796583876
 20
95.752658375986485
 30
0.0
  0
VERTEX
  5
223C
  8
0
 10
92.54862079658389
 20
95.800658375986472
 30
0.0
  0
VERTEX
  5
223D
  8
0
 10
92.565420796583865
 20
95.846458375986487
 30
0.0
  0
VERTEX
  5
223E
  8
0
 10
92.586620796583873
 20
95.890258375986477
 30
0.0
  0
VERTEX
  5
223F
  8
0
 10
92.611620796583878
 20
95.93145837598648
 30
0.0
  0
VERTEX
  5
2240
  8
0
 10
92.640420796583882
 20
95.969958375986465
 30
0.0
  0
VERTEX
  5
2241
  8
0
 10
92.672520796583896
 20
96.005358375986475
 30
0.0
  0
VERTEX
  5
2242
  8
0
 10
92.708220796583873
 20
96.037758375986471
 30
0.0
  0
VERTEX
  5
2243
  8
0
 10
92.746620796583869
 20
96.066558375986475
 30
0.0
  0
VERTEX
  5
2244
  8
0
 10
92.787920796583876
 20
96.091658375986469
 30
0.0
  0
VERTEX
  5
2245
  8
0
 10
92.831520796583874
 20
96.112558375986481
 30
0.0
  0
VERTEX
  5
2246
  8
0
 10
92.877520796583866
 20
96.129458375986474
 30
0.0
  0
VERTEX
  5
2247
  8
0
 10
92.925420796583865
 20
96.14175837598647
 30
0.0
  0
VERTEX
  5
2248
  8
0
 10
92.975020796583877
 20
96.149258375986463
 30
0.0
  0
VERTEX
  5
2249
  8
0
 10
93.026020796583879
 20
96.151758375986475
 30
0.0
  0
SEQEND
  5
224A
  8
0
  0
LINE
  5
1198
  8
0
 39
5.0
 10
92.531020796583874
 20
112.0654583759864
 30
0.0
 11
93.621220796583884
 21
112.0654583759864
 31
0.0
  0
LINE
  5
119B
  8
0
 10
90.869820796583895
 20
96.800358375986477
 30
0.0
 11
91.749920796583865
 21
96.800358375986477
 31
0.0
  0
LINE
  5
119C
  8
0
 10
90.869820796583895
 20
96.800358375986477
 30
0.0
 11
90.869820796583895
 21
95.889958375986467
 31
0.0
  0
POLYLINE
  5
11A9
  8
2
 66
     1
 10
0.0
 20
0.0
 30
0.0
 39
5.0
  0
VERTEX
  5
224B
  8
2
 10
91.749920796583865
 20
102.7234583759864
 30
0.0
  0
VERTEX
  5
224C
  8
2
 10
91.749920796583865
 20
102.6776583759864
 30
0.0
  0
SEQEND
  5
224D
  8
2
  0
POLYLINE
  5
11AA
  8
2
 66
     1
 10
0.0
 20
0.0
 30
0.0
 39
5.0
  0
VERTEX
  5
224E
  8
2
 10
91.749920796583865
 20
99.677658375986482
 30
0.0
  0
VERTEX
  5
224F
  8
2
 10
91.749920796583865
 20
96.800358375986477
 30
0.0
  0
SEQEND
  5
2250
  8
2
  0
LINE
  5
11AC
  8
2
 10
91.749920796583865
 20
113.8899583759864
 30
0.0
 11
91.749920796583865
 21
99.677658375986482
 31
0.0
  0
LINE
  5
1301
  8
0
 10
90.455820796583865
 20
87.889958375986467
 30
0.0
 11
93.753100015317472
 21
87.889958375986467
 31
0.0
  0
LINE
  5
1305
  8
0
 39
5.0
 10
92.141620796583879
 20
94.912858375986474
 30
0.0
 11
92.141620796583879
 21
90.889958375986467
 31
0.0
  0
LINE
  5
1308
  8
0
 39
5.0
 10
93.621220796583884
 20
94.912858375986445
 30
0.0
 11
92.141620796583879
 21
94.912858375986474
 31
0.0
  0
LINE
  5
130B
  8
0
 39
5.0
 10
93.114920796583874
 20
90.889958375986467
 30
0.0
 11
90.163020796583865
 21
90.889958375986467
 31
0.0
  0
LINE
  5
1313
  8
0
 10
93.114320796583883
 20
87.082058375986463
 30
0.0
 11
93.753100015317472
 21
87.082058375986463
 31
0.0
  0
LINE
  5
1315
  8
0
 10
93.753100015317472
 20
87.082058375986463
 30
0.0
 11
93.753100015317472
 21
87.889958375986467
 31
0.0
  0
LINE
  5
136D
  8
0
 10
93.487320796583873
 20
83.063043894088835
 30
0.0
 11
95.455820796583865
 21
83.063043894088835
 31
0.0
  0
LINE
  5
1372
  8
0
 39
5.0
 10
93.487320796583873
 20
82.178658375986473
 30
0.0
 11
90.455820796583865
 21
82.178658375986473
 31
0.0
  0
LINE
  5
1376
  8
0
 10
93.487320796583873
 20
82.178658375986473
 30
0.0
 11
93.487320796583873
 21
83.063043894088835
 31
0.0
  0
LINE
  5
137A
  8
2
 10
93.487320796583873
 20
82.178658375986473
 30
0.0
 11
93.918047672607941
 21
81.322534201533884
 31
0.0
  0
LINE
  5
137C
  8
0
 39
5.0
 10
93.487320796583873
 20
78.011858375986478
 30
0.0
 11
90.455820796583865
 21
78.011858375986478
 31
0.0
  0
POLYLINE
  5
137D
  8
2
 66
     1
 10
0.0
 20
0.0
 30
0.0
 39
5.0
  0
VERTEX
  5
2251
  8
2
 10
90.455820796583865
 20
77.614058375986474
 30
0.0
  0
VERTEX
  5
2252
  8
2
 10
93.487320796583873
 20
77.614058375986474
 30
0.0
  0
SEQEND
  5
2253
  8
2
  0
LINE
  5
137E
  8
2
 10
93.487320796583873
 20
78.011858375986478
 30
0.0
 11
93.918047672607941
 21
78.867982550439081
 31
0.0
  0
LINE
  5
1382
  8
0
 39
5.0
 10
93.703120796583875
 20
74.889958375986467
 30
0.0
 11
93.703120796583875
 21
72.789958375986473
 31
0.0
  0
LINE
  5
1389
  8
0
 10
93.487320796583873
 20
78.011858375986478
 30
0.0
 11
93.487320796583873
 21
77.149323686022711
 31
0.0
  0
LINE
  5
138D
  8
0
 62
     7
 39
5.0
 10
95.455820796583865
 20
76.341858375986476
 30
0.0
 11
94.455820796583893
 21
76.341858375986476
 31
0.0
  0
LINE
  5
1390
  8
0
 10
93.487320796583873
 20
77.149323686022711
 30
0.0
 11
95.455820796583865
 21
77.149323686022711
 31
0.0
  0
LINE
  5
13F3
  8
2
 10
93.114320796583883
 20
87.889958375986467
 30
0.0
 11
93.114320796583883
 21
87.082058375986463
 31
0.0
  0
LINE
  5
13F4
  8
0
 10
93.487320796583873
 20
87.889958375986467
 30
0.0
 11
93.487320796583873
 21
87.082058375986463
 31
0.0
  0
LINE
  5
1429
  8
0
 10
90.855820796583885
 20
141.75455837598639
 30
0.0
 11
95.455820796583865
 21
141.75455837598639
 31
0.0
  0
LINE
  5
170C
  8
0
 10
92.955820796583865
 20
139.58155837598639
 30
0.0
 11
92.955820796583865
 21
135.63295837598639
 31
0.0
  0
LINE
  5
170E
  8
0
 10
90.855820796583885
 20
141.75455837598639
 30
0.0
 11
90.855820796583885
 21
139.58155837598639
 31
0.0
  0
LINE
  5
1712
  8
1
 10
93.992520796583875
 20
135.25705837598639
 30
0.0
 11
92.955820796583865
 21
135.63295837598639
 31
0.0
  0
LINE
  5
1716
  8
0
 10
93.155820796583896
 20
141.75455837598639
 30
0.0
 11
93.155820796583896
 21
139.58155837598639
 31
0.0
  0
LINE
  5
171A
  8
2
 10
92.955820796583865
 20
119.16515837598639
 30
0.0
 11
92.955820796583865
 21
122.8899583759864
 31
0.0
  0
LINE
  5
1724
  8
0
 10
92.531020796583874
 20
94.912858375986474
 30
0.0
 11
92.531020796583874
 21
113.8899583759864
 31
0.0
  0
LINE
  5
1728
  8
0
 10
91.455820796583865
 20
113.8899583759864
 30
0.0
 11
91.455820796583865
 21
105.7234583759864
 31
0.0
  0
LINE
  5
1729
  8
0
 10
91.455820796583865
 20
102.7234583759864
 30
0.0
 11
91.455820796583865
 21
102.6776583759864
 31
0.0
  0
LINE
  5
172A
  8
0
 10
91.455820796583865
 20
99.677658375986482
 30
0.0
 11
91.455820796583865
 21
96.800358375986477
 31
0.0
  0
LINE
  5
1732
  8
0
 10
90.455820796583865
 20
87.889958375986481
 30
0.0
 11
90.455820796583865
 21
74.889958375986467
 31
0.0
  0
LINE
  5
1735
  8
0
 10
94.455820796583879
 20
76.341858375986476
 30
0.0
 11
94.455820796583879
 21
70.789958375986473
 31
0.0
  0
LINE
  5
1737
  8
0
 10
93.487320796583873
 20
77.149323686022711
 30
0.0
 11
94.455820796583893
 21
76.341858375986476
 31
0.0
  0
LINE
  5
1739
  8
0
 10
92.455820796583879
 20
72.789958375986473
 30
0.0
 11
92.455820796583879
 21
70.789958375986473
 31
0.0
  0
LINE
  5
174E
  8
0
 39
5.0
 10
98.905820796583882
 20
113.8899583759864
 30
0.0
 11
98.905820796583882
 21
121.9718583759864
 31
0.0
  0
LINE
  5
174F
  8
0
 39
5.0
 10
98.905820796583882
 20
121.9718583759864
 30
0.0
 11
98.905820796583882
 21
121.9718583759864
 31
0.0
  0
LINE
  5
1750
  8
0
 39
5.0
 10
98.905820796583882
 20
121.9718583759864
 30
0.0
 11
98.908420796583897
 21
122.06235837598641
 31
0.0
  0
LINE
  5
1751
  8
0
 39
5.0
 10
98.908420796583897
 20
122.06235837598641
 30
0.0
 11
98.897220796583895
 21
122.1502583759864
 31
0.0
  0
LINE
  5
1752
  8
0
 39
5.0
 10
98.897220796583895
 20
122.1502583759864
 30
0.0
 11
98.873420796583886
 21
122.2354583759864
 31
0.0
  0
LINE
  5
1753
  8
0
 39
5.0
 10
98.873420796583886
 20
122.2354583759864
 30
0.0
 11
98.838520796583893
 21
122.3172583759864
 31
0.0
  0
LINE
  5
1754
  8
0
 39
5.0
 10
98.838520796583893
 20
122.3172583759864
 30
0.0
 11
98.793120796583878
 21
122.3955583759864
 31
0.0
  0
LINE
  5
1755
  8
0
 39
5.0
 10
98.793120796583878
 20
122.3955583759864
 30
0.0
 11
98.739020796583887
 21
122.4695583759864
 31
0.0
  0
LINE
  5
1756
  8
0
 39
5.0
 10
98.739020796583887
 20
122.4695583759864
 30
0.0
 11
98.6769207965839
 21
122.5391583759864
 31
0.0
  0
LINE
  5
1757
  8
0
 39
5.0
 10
98.6769207965839
 20
122.5391583759864
 30
0.0
 11
98.608420796583886
 21
122.6036583759864
 31
0.0
  0
LINE
  5
1758
  8
0
 39
5.0
 10
98.608420796583886
 20
122.6036583759864
 30
0.0
 11
98.534320796583884
 21
122.66295837598641
 31
0.0
  0
LINE
  5
1759
  8
0
 39
5.0
 10
98.534320796583884
 20
122.66295837598641
 30
0.0
 11
98.456220796583906
 21
122.7163583759864
 31
0.0
  0
LINE
  5
175A
  8
0
 39
5.0
 10
98.456220796583906
 20
122.7163583759864
 30
0.0
 11
98.375120796583886
 21
122.7634583759864
 31
0.0
  0
LINE
  5
175B
  8
0
 39
5.0
 10
98.375120796583886
 20
122.7634583759864
 30
0.0
 11
98.292220796583877
 21
122.80385837598639
 31
0.0
  0
LINE
  5
175C
  8
0
 39
5.0
 10
98.292220796583877
 20
122.80385837598639
 30
0.0
 11
98.20872079658389
 21
122.83725837598639
 31
0.0
  0
LINE
  5
175D
  8
0
 39
5.0
 10
98.20872079658389
 20
122.83725837598639
 30
0.0
 11
98.126020796583902
 21
122.86295837598639
 31
0.0
  0
LINE
  5
175E
  8
0
 39
5.0
 10
98.126020796583902
 20
122.86295837598639
 30
0.0
 11
98.045020796583884
 21
122.8807583759864
 31
0.0
  0
LINE
  5
1760
  8
0
 39
5.0
 10
98.045020796583884
 20
122.8807583759864
 30
0.0
 11
97.967220796583888
 21
122.8899583759864
 31
0.0
  0
LINE
  5
1761
  8
0
 39
5.0
 10
97.967220796583888
 20
122.8899583759864
 30
0.0
 11
95.455820796583865
 21
122.8899583759864
 31
0.0
  0
LINE
  5
1765
  8
2
 39
5.0
 10
97.477120796583904
 20
135.45938518219839
 30
0.0
 11
97.477120796583876
 21
139.58155837598639
 31
0.0
  0
LINE
  5
1766
  8
0
 39
5.0
 10
95.455820796583865
 20
139.58155837598639
 30
0.0
 11
100.0558207965838
 21
139.58155837598639
 31
0.0
  0
LINE
  5
1767
  8
0
 39
5.0
 10
97.208520796583883
 20
74.889958375986453
 30
0.0
 11
97.208520796583883
 21
72.789958375986473
 31
0.0
  0
LINE
  5
1768
  8
0
 39
5.0
 10
95.455820796583865
 20
90.889958375986467
 30
0.0
 11
100.74862079658379
 21
90.889958375986467
 31
0.0
  0
POLYLINE
  5
176B
  8
2
 66
     1
 10
0.0
 20
0.0
 30
0.0
 39
5.0
  0
VERTEX
  5
2254
  8
2
 10
99.161720796583865
 20
99.677658375986482
 30
0.0
  0
VERTEX
  5
2255
  8
2
 10
99.161720796583865
 20
96.800358375986477
 30
0.0
  0
SEQEND
  5
2256
  8
2
  0
LINE
  5
1775
  8
0
 39
5.0
 10
100.74862079658379
 20
95.889958375986467
 30
0.0
 11
95.455820796583865
 21
95.889958375986467
 31
0.0
  0
LINE
  5
1776
  8
0
 39
5.0
 10
100.74862079658379
 20
90.889958375986467
 30
0.0
 11
100.74862079658379
 21
95.889958375986467
 31
0.0
  0
LINE
  5
177B
  8
0
 39
5.0
 10
97.796720796583884
 20
87.889958375986467
 30
0.0
 11
97.796720796583884
 21
90.889958375986467
 31
0.0
  0
LINE
  5
1780
  8
0
 39
5.0
 10
95.455820796583865
 20
135.25705837598639
 30
0.0
 11
96.919120796583883
 21
135.25705837598639
 31
0.0
  0
POLYLINE
  5
1786
  8
0
 62
     0
 66
     1
 10
0.0
 20
0.0
 30
0.0
 39
5.0
  0
VERTEX
  5
2257
  8
0
 62
     0
 10
95.455820796583865
 20
133.2975583759864
 30
0.0
  0
VERTEX
  5
2258
  8
0
 62
     0
 10
99.147420796583873
 20
133.2975583759864
 30
0.0
  0
VERTEX
  5
2259
  8
0
 62
     0
 10
99.147420796583873
 20
132.75455837598639
 30
0.0
  0
VERTEX
  5
225A
  8
0
 62
     0
 10
95.455820796583865
 20
132.75455837598639
 30
0.0
  0
SEQEND
  5
225B
  8
0
 62
     0
  0
LINE
  5
1788
  8
2
 10
99.161720796583865
 20
113.8899583759864
 30
0.0
 11
99.161720796583865
 21
105.7234583759864
 31
0.0
  0
LINE
  5
178E
  8
0
 10
98.455820796583879
 20
72.789958375986473
 30
0.0
 11
98.455820796583879
 21
70.789958375986473
 31
0.0
  0
LINE
  5
1794
  8
0
 10
101.8054207965839
 20
87.889958375986467
 30
0.0
 11
95.455820796583865
 21
87.889958375986467
 31
0.0
  0
LINE
  5
1799
  8
0
 10
99.455820796583879
 20
99.677658375986482
 30
0.0
 11
99.455820796583879
 21
96.800358375986463
 31
0.0
  0
LINE
  5
179A
  8
0
 10
100.04182079658381
 20
96.800358375986477
 30
0.0
 11
100.04182079658381
 21
95.889958375986467
 31
0.0
  0
LINE
  5
179B
  8
0
 10
100.04182079658381
 20
96.800358375986477
 30
0.0
 11
95.455820796583865
 21
96.800358375986477
 31
0.0
  0
LINE
  5
17A9
  8
0
 10
100.0558207965838
 20
141.75455837598639
 30
0.0
 11
95.455820796583865
 21
141.75455837598639
 31
0.0
  0
LINE
  5
17AA
  8
0
 10
95.455820796583865
 20
135.63295837598639
 30
0.0
 11
97.955820796583865
 21
135.63295837598639
 31
0.0
  0
LINE
  5
17AB
  8
0
 10
99.455820796583879
 20
113.8899583759864
 30
0.0
 11
99.455820796583879
 21
105.7234583759864
 31
0.0
  0
LINE
  5
17BA
  8
0
 10
97.955820796583865
 20
139.58155837598639
 30
0.0
 11
97.955820796583865
 21
135.63295837598639
 31
0.0
  0
LINE
  5
17BB
  8
1
 10
96.919120796583883
 20
135.25705837598639
 30
0.0
 11
97.955820796583865
 21
135.63295837598639
 31
0.0
  0
LINE
  5
17BC
  8
0
 10
97.755820796583876
 20
141.75455837598639
 30
0.0
 11
97.755820796583876
 21
139.58155837598639
 31
0.0
  0
LINE
  5
17BD
  8
0
 10
100.0558207965838
 20
141.75455837598639
 30
0.0
 11
100.0558207965838
 21
139.58155837598639
 31
0.0
  0
LINE
  5
17C1
  8
0
 10
98.908420796583897
 20
122.06235837598641
 30
0.0
 11
95.455820796583865
 21
122.06235837598641
 31
0.0
  0
LINE
  5
17C4
  8
0
 39
5.0
 10
91.749920796583893
 20
102.7234583759864
 30
0.0
 11
89.094120796583866
 21
102.7234583759864
 31
0.0
  0
LINE
  5
17C5
  8
0
 39
5.0
 10
89.094120796583866
 20
102.7234583759864
 30
0.0
 11
89.094120796583866
 21
102.7234583759864
 31
0.0
  0
LINE
  5
17C6
  8
0
 39
5.0
 10
89.094120796583866
 20
102.7234583759864
 30
0.0
 11
89.028720796583883
 21
102.7269583759864
 31
0.0
  0
LINE
  5
17C7
  8
0
 39
5.0
 10
89.028720796583883
 20
102.7269583759864
 30
0.0
 11
88.965020796583886
 21
102.7369583759864
 31
0.0
  0
LINE
  5
17C8
  8
0
 39
5.0
 10
88.965020796583886
 20
102.7369583759864
 30
0.0
 11
88.903520796583877
 21
102.75325837598641
 31
0.0
  0
LINE
  5
17C9
  8
0
 39
5.0
 10
88.903520796583877
 20
102.75325837598641
 30
0.0
 11
88.844420796583876
 21
102.7752583759864
 31
0.0
  0
LINE
  5
17CA
  8
0
 39
5.0
 10
88.844420796583876
 20
102.7752583759864
 30
0.0
 11
88.788320796583889
 21
102.80295837598641
 31
0.0
  0
LINE
  5
17CB
  8
0
 39
5.0
 10
88.788320796583889
 20
102.80295837598641
 30
0.0
 11
88.735220796583889
 21
102.8358583759864
 31
0.0
  0
LINE
  5
17CC
  8
0
 39
5.0
 10
88.735220796583889
 20
102.8358583759864
 30
0.0
 11
88.68572079658388
 21
102.87365837598639
 31
0.0
  0
LINE
  5
17CD
  8
0
 39
5.0
 10
88.68572079658388
 20
102.87365837598639
 30
0.0
 11
88.639820796583876
 21
102.91595837598641
 31
0.0
  0
LINE
  5
17CE
  8
0
 39
5.0
 10
88.639820796583876
 20
102.91595837598641
 30
0.0
 11
88.598320796583863
 21
102.96265837598639
 31
0.0
  0
LINE
  5
17CF
  8
0
 39
5.0
 10
88.598320796583863
 20
102.96265837598639
 30
0.0
 11
88.561120796583864
 21
103.0130583759864
 31
0.0
  0
LINE
  5
17D0
  8
0
 39
5.0
 10
88.561120796583864
 20
103.0130583759864
 30
0.0
 11
88.528820796583886
 21
103.06715837598639
 31
0.0
  0
LINE
  5
17D1
  8
0
 39
5.0
 10
88.528820796583886
 20
103.06715837598639
 30
0.0
 11
88.50152079658389
 21
103.1242583759864
 31
0.0
  0
LINE
  5
17D2
  8
0
 39
5.0
 10
88.50152079658389
 20
103.1242583759864
 30
0.0
 11
88.479920796583869
 21
103.1844583759864
 31
0.0
  0
LINE
  5
17D3
  8
0
 39
5.0
 10
88.479920796583869
 20
103.1844583759864
 30
0.0
 11
88.463920796583878
 21
103.2470583759864
 31
0.0
  0
LINE
  5
17D4
  8
0
 39
5.0
 10
88.463920796583878
 20
103.2470583759864
 30
0.0
 11
88.454120796583865
 21
103.3118583759864
 31
0.0
  0
LINE
  5
17D5
  8
0
 39
5.0
 10
88.454120796583865
 20
103.3118583759864
 30
0.0
 11
88.45072079658388
 21
103.3784583759864
 31
0.0
  0
LINE
  5
17D6
  8
0
 39
5.0
 10
88.45072079658388
 20
103.3784583759864
 30
0.0
 11
88.45072079658388
 21
105.0684583759864
 31
0.0
  0
LINE
  5
17D7
  8
0
 39
5.0
 10
88.45072079658388
 20
105.0684583759864
 30
0.0
 11
88.45072079658388
 21
105.0684583759864
 31
0.0
  0
LINE
  5
17D8
  8
0
 39
5.0
 10
88.45072079658388
 20
105.0684583759864
 30
0.0
 11
88.454120796583865
 21
105.1353583759864
 31
0.0
  0
LINE
  5
17D9
  8
0
 39
5.0
 10
88.454120796583865
 20
105.1353583759864
 30
0.0
 11
88.463920796583878
 21
105.2001583759864
 31
0.0
  0
LINE
  5
17DA
  8
0
 39
5.0
 10
88.463920796583878
 20
105.2001583759864
 30
0.0
 11
88.479920796583869
 21
105.2628583759864
 31
0.0
  0
LINE
  5
17DB
  8
0
 39
5.0
 10
88.479920796583869
 20
105.2628583759864
 30
0.0
 11
88.50152079658389
 21
105.3229583759864
 31
0.0
  0
LINE
  5
17DC
  8
0
 39
5.0
 10
88.50152079658389
 20
105.3229583759864
 30
0.0
 11
88.528820796583886
 21
105.3802583759864
 31
0.0
  0
LINE
  5
17DD
  8
0
 39
5.0
 10
88.528820796583886
 20
105.3802583759864
 30
0.0
 11
88.561120796583864
 21
105.4342583759864
 31
0.0
  0
LINE
  5
17DE
  8
0
 39
5.0
 10
88.561120796583864
 20
105.4342583759864
 30
0.0
 11
88.598320796583863
 21
105.4847583759864
 31
0.0
  0
LINE
  5
17DF
  8
0
 39
5.0
 10
88.598320796583863
 20
105.4847583759864
 30
0.0
 11
88.639820796583876
 21
105.53115837598639
 31
0.0
  0
LINE
  5
17E0
  8
0
 39
5.0
 10
88.639820796583876
 20
105.53115837598639
 30
0.0
 11
88.68572079658388
 21
105.5736583759864
 31
0.0
  0
LINE
  5
17E1
  8
0
 39
5.0
 10
88.68572079658388
 20
105.5736583759864
 30
0.0
 11
88.735220796583889
 21
105.6113583759864
 31
0.0
  0
LINE
  5
17E2
  8
0
 39
5.0
 10
88.735220796583889
 20
105.6113583759864
 30
0.0
 11
88.788320796583889
 21
105.6442583759864
 31
0.0
  0
LINE
  5
17E3
  8
0
 39
5.0
 10
88.788320796583889
 20
105.6442583759864
 30
0.0
 11
88.844420796583876
 21
105.6718583759864
 31
0.0
  0
LINE
  5
17E4
  8
0
 39
5.0
 10
88.844420796583876
 20
105.6718583759864
 30
0.0
 11
88.903520796583877
 21
105.6939583759864
 31
0.0
  0
LINE
  5
17E5
  8
0
 39
5.0
 10
88.903520796583877
 20
105.6939583759864
 30
0.0
 11
88.965020796583886
 21
105.7101583759864
 31
0.0
  0
LINE
  5
17E6
  8
0
 39
5.0
 10
88.965020796583886
 20
105.7101583759864
 30
0.0
 11
89.028720796583883
 21
105.7201583759864
 31
0.0
  0
LINE
  5
17E7
  8
0
 39
5.0
 10
89.028720796583883
 20
105.7201583759864
 30
0.0
 11
89.094120796583866
 21
105.7234583759864
 31
0.0
  0
LINE
  5
17E8
  8
0
 39
5.0
 10
91.749920796583893
 20
99.677658375986482
 30
0.0
 11
89.094120796583866
 21
99.677658375986482
 31
0.0
  0
LINE
  5
17E9
  8
0
 39
5.0
 10
89.094120796583866
 20
99.677658375986482
 30
0.0
 11
89.094120796583866
 21
99.677658375986482
 31
0.0
  0
LINE
  5
17EA
  8
0
 39
5.0
 10
89.094120796583866
 20
99.677658375986482
 30
0.0
 11
89.028720796583883
 21
99.68115837598647
 31
0.0
  0
LINE
  5
17EB
  8
0
 39
5.0
 10
89.028720796583883
 20
99.68115837598647
 30
0.0
 11
88.965020796583886
 21
99.691158375986461
 31
0.0
  0
LINE
  5
17EC
  8
0
 39
5.0
 10
88.965020796583886
 20
99.691158375986461
 30
0.0
 11
88.903520796583877
 21
99.707458375986477
 31
0.0
  0
LINE
  5
17ED
  8
0
 39
5.0
 10
88.903520796583877
 20
99.707458375986477
 30
0.0
 11
88.844420796583876
 21
99.729458375986468
 31
0.0
  0
LINE
  5
17EE
  8
0
 39
5.0
 10
88.844420796583876
 20
99.729458375986468
 30
0.0
 11
88.788320796583889
 21
99.757158375986464
 31
0.0
  0
LINE
  5
17EF
  8
0
 39
5.0
 10
88.788320796583889
 20
99.757158375986464
 30
0.0
 11
88.735220796583889
 21
99.79005837598649
 31
0.0
  0
LINE
  5
17F0
  8
0
 39
5.0
 10
88.735220796583889
 20
99.79005837598649
 30
0.0
 11
88.68572079658388
 21
99.82785837598648
 31
0.0
  0
LINE
  5
17F1
  8
0
 39
5.0
 10
88.68572079658388
 20
99.82785837598648
 30
0.0
 11
88.639820796583876
 21
99.870158375986463
 31
0.0
  0
LINE
  5
17F2
  8
0
 39
5.0
 10
88.639820796583876
 20
99.870158375986463
 30
0.0
 11
88.598320796583863
 21
99.916858375986479
 31
0.0
  0
LINE
  5
17F3
  8
0
 39
5.0
 10
88.598320796583863
 20
99.916858375986479
 30
0.0
 11
88.561120796583864
 21
99.967258375986475
 31
0.0
  0
LINE
  5
17F4
  8
0
 39
5.0
 10
88.561120796583864
 20
99.967258375986475
 30
0.0
 11
88.528820796583886
 21
100.0213583759864
 31
0.0
  0
LINE
  5
17F5
  8
0
 39
5.0
 10
88.528820796583886
 20
100.0213583759864
 30
0.0
 11
88.50152079658389
 21
100.0784583759864
 31
0.0
  0
LINE
  5
17F6
  8
0
 39
5.0
 10
88.50152079658389
 20
100.0784583759864
 30
0.0
 11
88.479920796583869
 21
100.1386583759864
 31
0.0
  0
LINE
  5
17F7
  8
0
 39
5.0
 10
88.479920796583869
 20
100.1386583759864
 30
0.0
 11
88.463920796583878
 21
100.2012583759864
 31
0.0
  0
LINE
  5
17F8
  8
0
 39
5.0
 10
88.463920796583878
 20
100.2012583759864
 30
0.0
 11
88.454120796583865
 21
100.2660583759864
 31
0.0
  0
LINE
  5
17F9
  8
0
 39
5.0
 10
88.454120796583865
 20
100.2660583759864
 30
0.0
 11
88.45072079658388
 21
100.3326583759864
 31
0.0
  0
LINE
  5
17FA
  8
0
 39
5.0
 10
88.45072079658388
 20
100.3326583759864
 30
0.0
 11
88.45072079658388
 21
102.0226583759864
 31
0.0
  0
LINE
  5
17FB
  8
0
 39
5.0
 10
88.45072079658388
 20
102.0226583759864
 30
0.0
 11
88.45072079658388
 21
102.0226583759864
 31
0.0
  0
LINE
  5
17FC
  8
0
 39
5.0
 10
88.45072079658388
 20
102.0226583759864
 30
0.0
 11
88.454120796583865
 21
102.0895583759864
 31
0.0
  0
LINE
  5
17FD
  8
0
 39
5.0
 10
88.454120796583865
 20
102.0895583759864
 30
0.0
 11
88.463920796583878
 21
102.1543583759864
 31
0.0
  0
LINE
  5
17FE
  8
0
 39
5.0
 10
88.463920796583878
 20
102.1543583759864
 30
0.0
 11
88.479920796583869
 21
102.2170583759864
 31
0.0
  0
LINE
  5
17FF
  8
0
 39
5.0
 10
88.479920796583869
 20
102.2170583759864
 30
0.0
 11
88.50152079658389
 21
102.2771583759864
 31
0.0
  0
LINE
  5
1800
  8
0
 39
5.0
 10
88.50152079658389
 20
102.2771583759864
 30
0.0
 11
88.528820796583886
 21
102.3344583759864
 31
0.0
  0
LINE
  5
1801
  8
0
 39
5.0
 10
88.528820796583886
 20
102.3344583759864
 30
0.0
 11
88.561120796583864
 21
102.3884583759864
 31
0.0
  0
LINE
  5
1802
  8
0
 39
5.0
 10
88.561120796583864
 20
102.3884583759864
 30
0.0
 11
88.598320796583863
 21
102.4389583759864
 31
0.0
  0
LINE
  5
1803
  8
0
 39
5.0
 10
88.598320796583863
 20
102.4389583759864
 30
0.0
 11
88.639820796583876
 21
102.48535837598639
 31
0.0
  0
LINE
  5
1804
  8
0
 39
5.0
 10
88.639820796583876
 20
102.48535837598639
 30
0.0
 11
88.68572079658388
 21
102.5278583759864
 31
0.0
  0
LINE
  5
1805
  8
0
 39
5.0
 10
88.68572079658388
 20
102.5278583759864
 30
0.0
 11
88.735220796583889
 21
102.5655583759864
 31
0.0
  0
LINE
  5
1806
  8
0
 39
5.0
 10
88.735220796583889
 20
102.5655583759864
 30
0.0
 11
88.788320796583889
 21
102.5984583759864
 31
0.0
  0
LINE
  5
1807
  8
0
 39
5.0
 10
88.788320796583889
 20
102.5984583759864
 30
0.0
 11
88.844420796583876
 21
102.6260583759864
 31
0.0
  0
LINE
  5
1808
  8
0
 39
5.0
 10
88.844420796583876
 20
102.6260583759864
 30
0.0
 11
88.903520796583877
 21
102.6481583759864
 31
0.0
  0
LINE
  5
1809
  8
0
 39
5.0
 10
88.903520796583877
 20
102.6481583759864
 30
0.0
 11
88.965020796583886
 21
102.6643583759864
 31
0.0
  0
LINE
  5
180A
  8
0
 39
5.0
 10
88.965020796583886
 20
102.6643583759864
 30
0.0
 11
89.028720796583883
 21
102.6743583759864
 31
0.0
  0
LINE
  5
180B
  8
0
 39
5.0
 10
89.028720796583883
 20
102.6743583759864
 30
0.0
 11
89.094120796583866
 21
102.6776583759864
 31
0.0
  0
LINE
  5
18B9
  8
0
 39
5.0
 10
101.64542079658381
 20
105.7249583759864
 30
0.0
 11
101.7427207965838
 21
105.70195837598639
 31
0.0
  0
LINE
  5
18BA
  8
0
 39
5.0
 10
101.7427207965838
 20
105.70195837598639
 30
0.0
 11
101.83592079658381
 21
105.67025837598641
 31
0.0
  0
LINE
  5
18BB
  8
0
 39
5.0
 10
101.83592079658381
 20
105.67025837598641
 30
0.0
 11
101.9248207965838
 21
105.63085837598641
 31
0.0
  0
LINE
  5
18BC
  8
0
 39
5.0
 10
101.9248207965838
 20
105.63085837598641
 30
0.0
 11
102.0086207965838
 21
105.5838583759864
 31
0.0
  0
LINE
  5
18BD
  8
0
 39
5.0
 10
102.0086207965838
 20
105.5838583759864
 30
0.0
 11
102.0869207965838
 21
105.52985837598639
 31
0.0
  0
LINE
  5
18BE
  8
0
 39
5.0
 10
102.0869207965838
 20
105.52985837598639
 30
0.0
 11
102.15912079658381
 21
105.4692583759864
 31
0.0
  0
LINE
  5
18BF
  8
0
 39
5.0
 10
102.15912079658381
 20
105.4692583759864
 30
0.0
 11
102.22502079658381
 21
105.40275837598639
 31
0.0
  0
LINE
  5
18C0
  8
0
 39
5.0
 10
102.22502079658381
 20
105.40275837598639
 30
0.0
 11
102.28372079658379
 21
105.33075837598641
 31
0.0
  0
LINE
  5
18C1
  8
0
 39
5.0
 10
102.28372079658379
 20
105.33075837598641
 30
0.0
 11
102.3348207965838
 21
105.2536583759864
 31
0.0
  0
LINE
  5
18C2
  8
0
 39
5.0
 10
102.3348207965838
 20
105.2536583759864
 30
0.0
 11
102.3776207965839
 21
105.1718583759864
 31
0.0
  0
LINE
  5
18C3
  8
0
 39
5.0
 10
102.3776207965839
 20
105.1718583759864
 30
0.0
 11
102.4120207965838
 21
105.0861583759864
 31
0.0
  0
LINE
  5
18C4
  8
0
 39
5.0
 10
102.4120207965838
 20
105.0861583759864
 30
0.0
 11
102.4371207965838
 21
104.9965583759864
 31
0.0
  0
LINE
  5
18C5
  8
0
 39
5.0
 10
102.4371207965838
 20
104.9965583759864
 30
0.0
 11
102.4526207965838
 21
104.90395837598641
 31
0.0
  0
LINE
  5
18C6
  8
0
 39
5.0
 10
102.4526207965838
 20
104.90395837598641
 30
0.0
 11
102.4577207965838
 21
104.8084583759864
 31
0.0
  0
LINE
  5
18C7
  8
0
 39
5.0
 10
102.4577207965838
 20
104.8084583759864
 30
0.0
 11
102.4577207965838
 21
103.61715837598641
 31
0.0
  0
LINE
  5
18C8
  8
0
 39
5.0
 10
102.4577207965838
 20
103.61715837598641
 30
0.0
 11
102.4577207965838
 21
103.61715837598641
 31
0.0
  0
LINE
  5
18C9
  8
0
 39
5.0
 10
102.4577207965838
 20
103.61715837598641
 30
0.0
 11
102.4526207965838
 21
103.5219583759864
 31
0.0
  0
LINE
  5
18CA
  8
0
 39
5.0
 10
102.4526207965838
 20
103.5219583759864
 30
0.0
 11
102.4371207965838
 21
103.4293583759864
 31
0.0
  0
LINE
  5
18CB
  8
0
 39
5.0
 10
102.4371207965838
 20
103.4293583759864
 30
0.0
 11
102.4120207965838
 21
103.3399583759864
 31
0.0
  0
LINE
  5
18CC
  8
0
 39
5.0
 10
102.4120207965838
 20
103.3399583759864
 30
0.0
 11
102.3776207965839
 21
103.2539583759864
 31
0.0
  0
LINE
  5
18CD
  8
0
 39
5.0
 10
102.3776207965839
 20
103.2539583759864
 30
0.0
 11
102.3348207965838
 21
103.17235837598641
 31
0.0
  0
LINE
  5
18CE
  8
0
 39
5.0
 10
102.3348207965838
 20
103.17235837598641
 30
0.0
 11
102.28372079658379
 21
103.0951583759864
 31
0.0
  0
LINE
  5
18CF
  8
0
 39
5.0
 10
102.28372079658379
 20
103.0951583759864
 30
0.0
 11
102.22502079658381
 21
103.0231583759864
 31
0.0
  0
LINE
  5
18D0
  8
0
 39
5.0
 10
102.22502079658381
 20
103.0231583759864
 30
0.0
 11
102.15912079658381
 21
102.9565583759864
 31
0.0
  0
LINE
  5
18D1
  8
0
 39
5.0
 10
102.15912079658381
 20
102.9565583759864
 30
0.0
 11
102.0869207965838
 21
102.8961583759864
 31
0.0
  0
LINE
  5
18D2
  8
0
 39
5.0
 10
102.0869207965838
 20
102.8961583759864
 30
0.0
 11
102.0086207965838
 21
102.8421583759864
 31
0.0
  0
LINE
  5
18D3
  8
0
 39
5.0
 10
102.0086207965838
 20
102.8421583759864
 30
0.0
 11
101.9248207965838
 21
102.79525837598641
 31
0.0
  0
LINE
  5
18D4
  8
0
 39
5.0
 10
101.9248207965838
 20
102.79525837598641
 30
0.0
 11
101.83592079658381
 21
102.7555583759864
 31
0.0
  0
LINE
  5
18D5
  8
0
 39
5.0
 10
101.83592079658381
 20
102.7555583759864
 30
0.0
 11
101.7427207965838
 21
102.72415837598641
 31
0.0
  0
LINE
  5
18D6
  8
0
 39
5.0
 10
101.7427207965838
 20
102.72415837598641
 30
0.0
 11
101.73979762061821
 21
102.7234583759864
 31
0.0
  0
LINE
  5
18D7
  8
0
 39
5.0
 10
99.544737963965844
 20
102.7234583759864
 30
0.0
 11
99.541820796583892
 21
102.72415837598641
 31
0.0
  0
LINE
  5
18D8
  8
0
 39
5.0
 10
99.541820796583892
 20
102.72415837598641
 30
0.0
 11
99.448420796583889
 21
102.7555583759864
 31
0.0
  0
LINE
  5
18D9
  8
0
 39
5.0
 10
99.448420796583889
 20
102.7555583759864
 30
0.0
 11
99.359620796583883
 21
102.79525837598641
 31
0.0
  0
LINE
  5
18DA
  8
0
 39
5.0
 10
99.359620796583883
 20
102.79525837598641
 30
0.0
 11
99.275720796583883
 21
102.8421583759864
 31
0.0
  0
LINE
  5
18DB
  8
0
 39
5.0
 10
99.275720796583883
 20
102.8421583759864
 30
0.0
 11
99.197520796583888
 21
102.8961583759864
 31
0.0
  0
LINE
  5
18DC
  8
0
 39
5.0
 10
99.197520796583888
 20
102.8961583759864
 30
0.0
 11
99.125020796583883
 21
102.9565583759864
 31
0.0
  0
LINE
  5
18DD
  8
0
 39
5.0
 10
99.125020796583883
 20
102.9565583759864
 30
0.0
 11
99.059420796583865
 21
103.0231583759864
 31
0.0
  0
LINE
  5
18DE
  8
0
 39
5.0
 10
99.059420796583865
 20
103.0231583759864
 30
0.0
 11
99.000720796583863
 21
103.0951583759864
 31
0.0
  0
LINE
  5
18DF
  8
0
 39
5.0
 10
99.000720796583863
 20
103.0951583759864
 30
0.0
 11
98.949620796583872
 21
103.17235837598641
 31
0.0
  0
LINE
  5
18E0
  8
0
 39
5.0
 10
98.949620796583872
 20
103.17235837598641
 30
0.0
 11
98.826320796583872
 21
103.4063416318004
 31
0.0
  0
LINE
  5
18E1
  8
0
 39
5.0
 10
98.815420796583865
 20
103.42324136169491
 30
0.0
 11
98.815420796583865
 21
103.42324136169491
 31
0.0
  0
LINE
  5
18E2
  8
0
 39
5.0
 10
98.826320796583872
 20
103.4484100624822
 30
0.0
 11
98.764620796583884
 21
103.30594136169491
 31
0.0
  0
LINE
  5
18E3
  8
0
 39
5.0
 10
98.764620796583884
 20
103.30594136169491
 30
0.0
 11
98.705020796583881
 21
103.20284136169489
 31
0.0
  0
LINE
  5
18E4
  8
0
 39
5.0
 10
98.705020796583881
 20
103.20284136169489
 30
0.0
 11
98.637920796583884
 21
103.1130413616949
 31
0.0
  0
LINE
  5
18E5
  8
0
 39
5.0
 10
98.637920796583884
 20
103.1130413616949
 30
0.0
 11
98.564520796583892
 21
103.0353413616949
 31
0.0
  0
LINE
  5
18E6
  8
0
 39
5.0
 10
98.564520796583892
 20
103.0353413616949
 30
0.0
 11
98.486420796583886
 21
102.96904136169491
 31
0.0
  0
LINE
  5
18E7
  8
0
 39
5.0
 10
98.486420796583886
 20
102.96904136169491
 30
0.0
 11
98.404420796583864
 21
102.9127413616949
 31
0.0
  0
LINE
  5
18E8
  8
0
 39
5.0
 10
98.404420796583864
 20
102.9127413616949
 30
0.0
 11
98.320120796583893
 21
102.8657413616949
 31
0.0
  0
LINE
  5
18E9
  8
0
 39
5.0
 10
98.320120796583893
 20
102.8657413616949
 30
0.0
 11
98.234520796583894
 21
102.8268413616949
 31
0.0
  0
LINE
  5
18EA
  8
0
 39
5.0
 10
98.234520796583894
 20
102.8268413616949
 30
0.0
 11
98.149420796583883
 21
102.79534136169489
 31
0.0
  0
LINE
  5
18EB
  8
0
 39
5.0
 10
98.149420796583883
 20
102.79534136169489
 30
0.0
 11
98.065420796583879
 21
102.7698413616949
 31
0.0
  0
LINE
  5
18EC
  8
0
 39
5.0
 10
98.065420796583879
 20
102.7698413616949
 30
0.0
 11
97.984220796583884
 21
102.7496413616949
 31
0.0
  0
LINE
  5
18ED
  8
0
 39
5.0
 10
97.984220796583884
 20
102.7496413616949
 30
0.0
 11
97.906920796583876
 21
102.7334413616949
 31
0.0
  0
LINE
  5
18EE
  8
0
 39
5.0
 10
97.906920796583876
 20
102.7334413616949
 30
0.0
 11
97.851201806583305
 21
102.7234583759864
 31
0.0
  0
LINE
  5
18EF
  8
0
 39
5.0
 10
98.949620796583872
 20
105.2745583759864
 30
0.0
 11
98.826320796583872
 21
105.04057512017241
 31
0.0
  0
LINE
  5
18F0
  8
0
 39
5.0
 10
98.486420796583886
 20
105.477875390278
 30
0.0
 11
98.404420796583864
 21
105.53417539027799
 31
0.0
  0
LINE
  5
18F1
  8
0
 39
5.0
 10
98.826320796583872
 20
104.9985066894906
 30
0.0
 11
98.764620796583884
 21
105.140975390278
 31
0.0
  0
LINE
  5
18F2
  8
0
 39
5.0
 10
97.906920796583876
 20
105.71347539027801
 30
0.0
 11
97.851201806583305
 21
105.7234583759864
 31
0.0
  0
LINE
  5
18F3
  8
0
 39
5.0
 10
97.984220796583884
 20
105.69727539027799
 30
0.0
 11
97.906920796583876
 21
105.71347539027801
 31
0.0
  0
LINE
  5
18F4
  8
0
 39
5.0
 10
98.065420796583879
 20
105.67707539027801
 30
0.0
 11
97.984220796583884
 21
105.69727539027799
 31
0.0
  0
LINE
  5
18F5
  8
0
 39
5.0
 10
98.149420796583883
 20
105.651575390278
 30
0.0
 11
98.065420796583879
 21
105.67707539027801
 31
0.0
  0
LINE
  5
18F6
  8
0
 39
5.0
 10
98.234520796583894
 20
105.620075390278
 30
0.0
 11
98.149420796583883
 21
105.651575390278
 31
0.0
  0
LINE
  5
18F7
  8
0
 39
5.0
 10
98.320120796583893
 20
105.58117539027801
 30
0.0
 11
98.234520796583894
 21
105.620075390278
 31
0.0
  0
LINE
  5
18F8
  8
0
 39
5.0
 10
98.404420796583864
 20
105.53417539027799
 30
0.0
 11
98.320120796583893
 21
105.58117539027801
 31
0.0
  0
LINE
  5
18F9
  8
0
 39
5.0
 10
98.564520796583892
 20
105.411575390278
 30
0.0
 11
98.486420796583886
 21
105.477875390278
 31
0.0
  0
LINE
  5
18FA
  8
0
 39
5.0
 10
98.637920796583884
 20
105.333875390278
 30
0.0
 11
98.564520796583892
 21
105.411575390278
 31
0.0
  0
LINE
  5
18FB
  8
0
 39
5.0
 10
98.705020796583881
 20
105.244075390278
 30
0.0
 11
98.637920796583884
 21
105.333875390278
 31
0.0
  0
LINE
  5
18FC
  8
0
 39
5.0
 10
98.764620796583884
 20
105.140975390278
 30
0.0
 11
98.705020796583881
 21
105.244075390278
 31
0.0
  0
LINE
  5
18FD
  8
0
 39
5.0
 10
98.815420796583865
 20
105.023675390278
 30
0.0
 11
98.815420796583865
 21
105.023675390278
 31
0.0
  0
LINE
  5
18FE
  8
0
 39
5.0
 10
99.544737963965844
 20
105.7234583759864
 30
0.0
 11
99.541820796583892
 21
105.7227583759864
 31
0.0
  0
LINE
  5
18FF
  8
0
 39
5.0
 10
99.000720796583863
 20
105.35175837598641
 30
0.0
 11
98.949620796583872
 21
105.2745583759864
 31
0.0
  0
LINE
  5
1900
  8
0
 39
5.0
 10
99.059420796583865
 20
105.4237583759864
 30
0.0
 11
99.000720796583863
 21
105.35175837598641
 31
0.0
  0
LINE
  5
1901
  8
0
 39
5.0
 10
99.125020796583883
 20
105.4903583759865
 30
0.0
 11
99.059420796583865
 21
105.4237583759864
 31
0.0
  0
LINE
  5
1902
  8
0
 39
5.0
 10
99.197520796583888
 20
105.5507583759864
 30
0.0
 11
99.125020796583883
 21
105.4903583759865
 31
0.0
  0
LINE
  5
1903
  8
0
 39
5.0
 10
99.275720796583883
 20
105.60475837598641
 30
0.0
 11
99.197520796583888
 21
105.5507583759864
 31
0.0
  0
LINE
  5
1904
  8
0
 39
5.0
 10
99.359620796583883
 20
105.6516583759864
 30
0.0
 11
99.275720796583883
 21
105.60475837598641
 31
0.0
  0
LINE
  5
1905
  8
0
 39
5.0
 10
99.448420796583889
 20
105.6913583759864
 30
0.0
 11
99.359620796583883
 21
105.6516583759864
 31
0.0
  0
LINE
  5
1906
  8
0
 39
5.0
 10
99.541820796583892
 20
105.7227583759864
 30
0.0
 11
99.448420796583889
 21
105.6913583759864
 31
0.0
  0
LINE
  5
1907
  8
0
 39
5.0
 10
99.541820796583892
 20
102.6769583759864
 30
0.0
 11
99.448420796583889
 21
102.6455583759864
 31
0.0
  0
LINE
  5
1908
  8
0
 39
5.0
 10
99.448420796583889
 20
102.6455583759864
 30
0.0
 11
99.359620796583883
 21
102.6058583759864
 31
0.0
  0
LINE
  5
1909
  8
0
 39
5.0
 10
99.359620796583883
 20
102.6058583759864
 30
0.0
 11
99.275720796583883
 21
102.55895837598641
 31
0.0
  0
LINE
  5
190A
  8
0
 39
5.0
 10
99.275720796583883
 20
102.55895837598641
 30
0.0
 11
99.197520796583888
 21
102.5049583759864
 31
0.0
  0
LINE
  5
190B
  8
0
 39
5.0
 10
99.197520796583888
 20
102.5049583759864
 30
0.0
 11
99.125020796583883
 21
102.4445583759864
 31
0.0
  0
LINE
  5
190C
  8
0
 39
5.0
 10
99.125020796583883
 20
102.4445583759864
 30
0.0
 11
99.059420796583865
 21
102.3779583759864
 31
0.0
  0
LINE
  5
190D
  8
0
 39
5.0
 10
99.059420796583865
 20
102.3779583759864
 30
0.0
 11
99.000720796583863
 21
102.30595837598641
 31
0.0
  0
LINE
  5
190E
  8
0
 39
5.0
 10
99.000720796583863
 20
102.30595837598641
 30
0.0
 11
98.949620796583872
 21
102.2287583759864
 31
0.0
  0
LINE
  5
190F
  8
0
 39
5.0
 10
99.544737963965844
 20
102.6776583759864
 30
0.0
 11
99.541820796583892
 21
102.6769583759864
 31
0.0
  0
LINE
  5
1910
  8
0
 39
5.0
 10
98.815420796583865
 20
101.977875390278
 30
0.0
 11
98.815420796583865
 21
101.977875390278
 31
0.0
  0
LINE
  5
1911
  8
0
 39
5.0
 10
98.764620796583884
 20
102.095175390278
 30
0.0
 11
98.705020796583881
 21
102.198275390278
 31
0.0
  0
LINE
  5
1912
  8
0
 39
5.0
 10
98.705020796583881
 20
102.198275390278
 30
0.0
 11
98.637920796583884
 21
102.288075390278
 31
0.0
  0
LINE
  5
1913
  8
0
 39
5.0
 10
98.637920796583884
 20
102.288075390278
 30
0.0
 11
98.564520796583892
 21
102.365775390278
 31
0.0
  0
LINE
  5
1914
  8
0
 39
5.0
 10
98.564520796583892
 20
102.365775390278
 30
0.0
 11
98.486420796583886
 21
102.432075390278
 31
0.0
  0
LINE
  5
1915
  8
0
 39
5.0
 10
98.404420796583864
 20
102.48837539027799
 30
0.0
 11
98.320120796583893
 21
102.53537539027801
 31
0.0
  0
LINE
  5
1916
  8
0
 39
5.0
 10
98.320120796583893
 20
102.53537539027801
 30
0.0
 11
98.234520796583894
 21
102.574275390278
 31
0.0
  0
LINE
  5
1917
  8
0
 39
5.0
 10
98.234520796583894
 20
102.574275390278
 30
0.0
 11
98.149420796583883
 21
102.605775390278
 31
0.0
  0
LINE
  5
1918
  8
0
 39
5.0
 10
98.149420796583883
 20
102.605775390278
 30
0.0
 11
98.065420796583879
 21
102.63127539027801
 31
0.0
  0
LINE
  5
1919
  8
0
 39
5.0
 10
98.065420796583879
 20
102.63127539027801
 30
0.0
 11
97.984220796583884
 21
102.65147539027799
 31
0.0
  0
LINE
  5
191A
  8
0
 39
5.0
 10
97.984220796583884
 20
102.65147539027799
 30
0.0
 11
97.906920796583876
 21
102.66767539027801
 31
0.0
  0
LINE
  5
191B
  8
0
 39
5.0
 10
97.906920796583876
 20
102.66767539027801
 30
0.0
 11
97.851201806583305
 21
102.6776583759864
 31
0.0
  0
LINE
  5
191C
  8
0
 39
5.0
 10
98.826320796583872
 20
101.9527066894906
 30
0.0
 11
98.764620796583884
 21
102.095175390278
 31
0.0
  0
LINE
  5
191D
  8
0
 39
5.0
 10
98.486420796583886
 20
102.432075390278
 30
0.0
 11
98.404420796583864
 21
102.48837539027799
 31
0.0
  0
LINE
  5
191E
  8
0
 39
5.0
 10
98.949620796583872
 20
102.2287583759864
 30
0.0
 11
98.826320796583872
 21
101.99477512017241
 31
0.0
  0
LINE
  5
191F
  8
0
 39
5.0
 10
98.949620796583872
 20
100.12655837598641
 30
0.0
 11
98.826320796583872
 21
100.3605416318004
 31
0.0
  0
LINE
  5
1920
  8
0
 39
5.0
 10
98.486420796583886
 20
99.923241361694906
 30
0.0
 11
98.404420796583864
 21
99.866941361694913
 31
0.0
  0
LINE
  5
1921
  8
0
 39
5.0
 10
98.826320796583872
 20
100.4026100624822
 30
0.0
 11
98.764620796583884
 21
100.26014136169481
 31
0.0
  0
LINE
  5
1922
  8
0
 39
5.0
 10
97.906920796583876
 20
99.687641361694901
 30
0.0
 11
97.851201806583305
 21
99.677658375986482
 31
0.0
  0
LINE
  5
1923
  8
0
 39
5.0
 10
97.984220796583884
 20
99.703841361694899
 30
0.0
 11
97.906920796583876
 21
99.687641361694901
 31
0.0
  0
LINE
  5
1924
  8
0
 39
5.0
 10
98.065420796583879
 20
99.724041361694901
 30
0.0
 11
97.984220796583884
 21
99.703841361694899
 31
0.0
  0
LINE
  5
1925
  8
0
 39
5.0
 10
98.149420796583883
 20
99.749541361694924
 30
0.0
 11
98.065420796583879
 21
99.724041361694901
 31
0.0
  0
LINE
  5
1926
  8
0
 39
5.0
 10
98.234520796583894
 20
99.781041361694903
 30
0.0
 11
98.149420796583883
 21
99.749541361694924
 31
0.0
  0
LINE
  5
1927
  8
0
 39
5.0
 10
98.320120796583893
 20
99.819941361694902
 30
0.0
 11
98.234520796583894
 21
99.781041361694903
 31
0.0
  0
LINE
  5
1928
  8
0
 39
5.0
 10
98.404420796583864
 20
99.866941361694913
 30
0.0
 11
98.320120796583893
 21
99.819941361694902
 31
0.0
  0
LINE
  5
1929
  8
0
 39
5.0
 10
98.564520796583892
 20
99.989541361694904
 30
0.0
 11
98.486420796583886
 21
99.923241361694906
 31
0.0
  0
LINE
  5
192A
  8
0
 39
5.0
 10
98.637920796583884
 20
100.0672413616949
 30
0.0
 11
98.564520796583892
 21
99.989541361694904
 31
0.0
  0
LINE
  5
192B
  8
0
 39
5.0
 10
98.705020796583881
 20
100.15704136169489
 30
0.0
 11
98.637920796583884
 21
100.0672413616949
 31
0.0
  0
LINE
  5
192C
  8
0
 39
5.0
 10
98.764620796583884
 20
100.26014136169481
 30
0.0
 11
98.705020796583881
 21
100.15704136169489
 31
0.0
  0
LINE
  5
192D
  8
0
 39
5.0
 10
98.815420796583865
 20
100.37744136169491
 30
0.0
 11
98.815420796583865
 21
100.37744136169491
 31
0.0
  0
LINE
  5
192E
  8
0
 39
5.0
 10
101.7427207965838
 20
99.678358375986477
 30
0.0
 11
101.73979762061821
 21
99.677658375986482
 31
0.0
  0
LINE
  5
192F
  8
0
 39
5.0
 10
99.544737963965844
 20
99.677658375986482
 30
0.0
 11
99.541820796583892
 21
99.678358375986477
 31
0.0
  0
LINE
  5
1930
  8
0
 39
5.0
 10
99.000720796583863
 20
100.0493583759864
 30
0.0
 11
98.949620796583872
 21
100.12655837598641
 31
0.0
  0
LINE
  5
1931
  8
0
 39
5.0
 10
99.059420796583865
 20
99.977358375986455
 30
0.0
 11
99.000720796583863
 21
100.0493583759864
 31
0.0
  0
LINE
  5
1932
  8
0
 39
5.0
 10
99.125020796583883
 20
99.910758375986447
 30
0.0
 11
99.059420796583865
 21
99.977358375986455
 31
0.0
  0
LINE
  5
1933
  8
0
 39
5.0
 10
99.197520796583888
 20
99.85035837598646
 30
0.0
 11
99.125020796583883
 21
99.910758375986447
 31
0.0
  0
LINE
  5
1934
  8
0
 39
5.0
 10
99.275720796583883
 20
99.796358375986458
 30
0.0
 11
99.197520796583888
 21
99.85035837598646
 31
0.0
  0
LINE
  5
1935
  8
0
 39
5.0
 10
99.359620796583883
 20
99.749458375986464
 30
0.0
 11
99.275720796583883
 21
99.796358375986458
 31
0.0
  0
LINE
  5
1936
  8
0
 39
5.0
 10
99.448420796583889
 20
99.709758375986453
 30
0.0
 11
99.359620796583883
 21
99.749458375986464
 31
0.0
  0
LINE
  5
1937
  8
0
 39
5.0
 10
99.541820796583892
 20
99.678358375986477
 30
0.0
 11
99.448420796583889
 21
99.709758375986453
 31
0.0
  0
LINE
  5
1938
  8
0
 39
5.0
 10
101.83592079658381
 20
99.709758375986453
 30
0.0
 11
101.7427207965838
 21
99.678358375986477
 31
0.0
  0
LINE
  5
1939
  8
0
 39
5.0
 10
101.9248207965838
 20
99.749458375986464
 30
0.0
 11
101.83592079658381
 21
99.709758375986453
 31
0.0
  0
LINE
  5
193A
  8
0
 39
5.0
 10
102.0086207965838
 20
99.796358375986458
 30
0.0
 11
101.9248207965838
 21
99.749458375986464
 31
0.0
  0
LINE
  5
193B
  8
0
 39
5.0
 10
102.0869207965838
 20
99.85035837598646
 30
0.0
 11
102.0086207965838
 21
99.796358375986458
 31
0.0
  0
LINE
  5
193C
  8
0
 39
5.0
 10
102.15912079658381
 20
99.910758375986447
 30
0.0
 11
102.0869207965838
 21
99.85035837598646
 31
0.0
  0
LINE
  5
193D
  8
0
 39
5.0
 10
102.22502079658381
 20
99.977358375986455
 30
0.0
 11
102.15912079658381
 21
99.910758375986447
 31
0.0
  0
LINE
  5
193E
  8
0
 39
5.0
 10
102.28372079658379
 20
100.0493583759864
 30
0.0
 11
102.22502079658381
 21
99.977358375986455
 31
0.0
  0
LINE
  5
193F
  8
0
 39
5.0
 10
102.3348207965838
 20
100.12655837598641
 30
0.0
 11
102.28372079658379
 21
100.0493583759864
 31
0.0
  0
LINE
  5
1940
  8
0
 39
5.0
 10
102.3776207965839
 20
100.2081583759864
 30
0.0
 11
102.3348207965838
 21
100.12655837598641
 31
0.0
  0
LINE
  5
1941
  8
0
 39
5.0
 10
102.4120207965838
 20
100.2941583759864
 30
0.0
 11
102.3776207965839
 21
100.2081583759864
 31
0.0
  0
LINE
  5
1942
  8
0
 39
5.0
 10
102.4371207965838
 20
100.3835583759864
 30
0.0
 11
102.4120207965838
 21
100.2941583759864
 31
0.0
  0
LINE
  5
1943
  8
0
 39
5.0
 10
102.4526207965838
 20
100.4761583759864
 30
0.0
 11
102.4371207965838
 21
100.3835583759864
 31
0.0
  0
LINE
  5
1944
  8
0
 39
5.0
 10
102.4577207965838
 20
100.57135837598641
 30
0.0
 11
102.4526207965838
 21
100.4761583759864
 31
0.0
  0
LINE
  5
1945
  8
0
 39
5.0
 10
102.4577207965838
 20
100.57135837598641
 30
0.0
 11
102.4577207965838
 21
100.57135837598641
 31
0.0
  0
LINE
  5
1946
  8
0
 39
5.0
 10
102.4577207965838
 20
101.7626583759864
 30
0.0
 11
102.4577207965838
 21
100.57135837598641
 31
0.0
  0
LINE
  5
1947
  8
0
 39
5.0
 10
102.4526207965838
 20
101.85815837598641
 30
0.0
 11
102.4577207965838
 21
101.7626583759864
 31
0.0
  0
LINE
  5
1948
  8
0
 39
5.0
 10
102.4371207965838
 20
101.9507583759864
 30
0.0
 11
102.4526207965838
 21
101.85815837598641
 31
0.0
  0
LINE
  5
1949
  8
0
 39
5.0
 10
102.4120207965838
 20
102.0403583759864
 30
0.0
 11
102.4371207965838
 21
101.9507583759864
 31
0.0
  0
LINE
  5
194A
  8
0
 39
5.0
 10
102.3776207965839
 20
102.1260583759864
 30
0.0
 11
102.4120207965838
 21
102.0403583759864
 31
0.0
  0
LINE
  5
194B
  8
0
 39
5.0
 10
102.3348207965838
 20
102.2078583759864
 30
0.0
 11
102.3776207965839
 21
102.1260583759864
 31
0.0
  0
LINE
  5
194C
  8
0
 39
5.0
 10
102.28372079658379
 20
102.28495837598641
 30
0.0
 11
102.3348207965838
 21
102.2078583759864
 31
0.0
  0
LINE
  5
194D
  8
0
 39
5.0
 10
102.22502079658381
 20
102.35695837598639
 30
0.0
 11
102.28372079658379
 21
102.28495837598641
 31
0.0
  0
LINE
  5
194E
  8
0
 39
5.0
 10
102.15912079658381
 20
102.4234583759864
 30
0.0
 11
102.22502079658381
 21
102.35695837598639
 31
0.0
  0
LINE
  5
194F
  8
0
 39
5.0
 10
102.0869207965838
 20
102.48405837598639
 30
0.0
 11
102.15912079658381
 21
102.4234583759864
 31
0.0
  0
LINE
  5
1950
  8
0
 39
5.0
 10
102.0086207965838
 20
102.5380583759864
 30
0.0
 11
102.0869207965838
 21
102.48405837598639
 31
0.0
  0
LINE
  5
1951
  8
0
 39
5.0
 10
101.9248207965838
 20
102.58505837598641
 30
0.0
 11
102.0086207965838
 21
102.5380583759864
 31
0.0
  0
LINE
  5
1952
  8
0
 39
5.0
 10
101.83592079658381
 20
102.62445837598641
 30
0.0
 11
101.9248207965838
 21
102.58505837598641
 31
0.0
  0
LINE
  5
1953
  8
0
 39
5.0
 10
101.7427207965838
 20
102.65615837598639
 30
0.0
 11
101.83592079658381
 21
102.62445837598641
 31
0.0
  0
LINE
  5
1954
  8
0
 39
5.0
 10
101.64542079658381
 20
102.6791583759864
 30
0.0
 11
101.7427207965838
 21
102.65615837598639
 31
0.0
  0
LINE
  5
1955
  8
3
 10
99.632588187888246
 20
102.6776583759864
 30
0.0
 11
101.6517664487577
 21
102.6776583759864
 31
0.0
  0
LINE
  5
1956
  8
0
 10
101.73979762061821
 20
102.7234583759864
 30
0.0
 11
95.455820796583865
 21
102.7234583759864
 31
0.0
  0
LINE
  5
1957
  8
0
 10
101.73979762061821
 20
99.677658375986482
 30
0.0
 11
95.455820796583865
 21
99.677658375986482
 31
0.0
  0
LINE
  5
1958
  8
0
 10
101.6517664487577
 20
102.6776583759864
 30
0.0
 11
95.455820796583865
 21
102.6776583759864
 31
0.0
  0
LINE
  5
1959
  8
3
 10
98.303035079883159
 20
102.6776583759864
 30
0.0
 11
95.455820796583865
 21
102.6776583759864
 31
0.0
  0
LINE
  5
195A
  8
0
 10
98.826320796583872
 20
100.3605416318004
 30
0.0
 11
98.826320796583872
 21
101.99477512017241
 31
0.0
  0
LINE
  5
195B
  8
3
 10
99.632588187888246
 20
105.7234583759864
 30
0.0
 11
101.6517664487577
 21
105.7234583759864
 31
0.0
  0
LINE
  5
195C
  8
0
 10
101.6517664487577
 20
105.7234583759864
 30
0.0
 11
95.455820796583865
 21
105.7234583759864
 31
0.0
  0
LINE
  5
195D
  8
3
 10
98.303035079883159
 20
105.7234583759864
 30
0.0
 11
95.455820796583865
 21
105.7234583759864
 31
0.0
  0
LINE
  5
195E
  8
0
 10
98.826320796583872
 20
103.4063416318004
 30
0.0
 11
98.826320796583872
 21
105.04057512017241
 31
0.0
  0
LINE
  5
19B2
  8
0
 39
5.0
 10
102.8635207965838
 20
87.889958375986467
 30
0.0
 11
102.8635207965838
 21
87.889958375986467
 31
0.0
  0
LINE
  5
19B3
  8
0
 39
5.0
 10
102.8635207965838
 20
87.889958375986467
 30
0.0
 11
102.9240207965839
 21
87.884958375986471
 31
0.0
  0
LINE
  5
19B4
  8
0
 39
5.0
 10
102.9240207965839
 20
87.884958375986471
 30
0.0
 11
102.9826207965838
 21
87.869858375986468
 31
0.0
  0
LINE
  5
19B5
  8
0
 39
5.0
 10
102.9826207965838
 20
87.869858375986468
 30
0.0
 11
103.03932079658379
 21
87.845458375986468
 31
0.0
  0
LINE
  5
19B6
  8
0
 39
5.0
 10
103.03932079658379
 20
87.845458375986468
 30
0.0
 11
103.09362079658391
 21
87.811958375986478
 31
0.0
  0
LINE
  5
19B7
  8
0
 39
5.0
 10
103.09362079658391
 20
87.811958375986478
 30
0.0
 11
103.14542079658381
 21
87.770258375986486
 31
0.0
  0
LINE
  5
19B8
  8
0
 39
5.0
 10
103.14542079658381
 20
87.770258375986486
 30
0.0
 11
103.19422079658381
 21
87.720558375986485
 31
0.0
  0
LINE
  5
19B9
  8
0
 39
5.0
 10
103.19422079658381
 20
87.720558375986485
 30
0.0
 11
103.2399207965839
 21
87.663458375986465
 31
0.0
  0
LINE
  5
19BA
  8
0
 39
5.0
 10
103.2399207965839
 20
87.663458375986465
 30
0.0
 11
103.2819207965838
 21
87.599358375986455
 31
0.0
  0
LINE
  5
19BB
  8
0
 39
5.0
 10
103.2819207965838
 20
87.599358375986455
 30
0.0
 11
103.3203207965839
 21
87.529158375986469
 31
0.0
  0
LINE
  5
19BC
  8
0
 39
5.0
 10
103.3203207965839
 20
87.529158375986469
 30
0.0
 11
103.3545207965838
 21
87.452858375986466
 31
0.0
  0
LINE
  5
19BD
  8
0
 39
5.0
 10
103.3545207965838
 20
87.452858375986466
 30
0.0
 11
103.38432079658379
 21
87.371258375986471
 31
0.0
  0
LINE
  5
19BE
  8
0
 39
5.0
 10
103.38432079658379
 20
87.371258375986471
 30
0.0
 11
103.4092207965839
 21
87.284658375986453
 31
0.0
  0
LINE
  5
19BF
  8
0
 39
5.0
 10
103.4092207965839
 20
87.284658375986453
 30
0.0
 11
103.42922079658381
 21
87.193958375986455
 31
0.0
  0
LINE
  5
19C0
  8
0
 39
5.0
 10
103.42922079658381
 20
87.193958375986455
 30
0.0
 11
103.44382079658379
 21
87.099158375986477
 31
0.0
  0
LINE
  5
19C1
  8
0
 39
5.0
 10
103.44382079658379
 20
87.099158375986477
 30
0.0
 11
103.45282079658379
 21
87.001158375986478
 31
0.0
  0
LINE
  5
19C2
  8
0
 39
5.0
 10
103.45282079658379
 20
87.001158375986478
 30
0.0
 11
103.45582079658379
 21
86.900158375986464
 31
0.0
  0
LINE
  5
19C3
  8
0
 39
5.0
 10
103.45582079658379
 20
86.900158375986464
 30
0.0
 11
103.45582079658379
 21
75.91145837598647
 31
0.0
  0
LINE
  5
19C4
  8
0
 39
5.0
 10
103.45582079658379
 20
75.91145837598647
 30
0.0
 11
103.45582079658379
 21
75.91145837598647
 31
0.0
  0
LINE
  5
19C5
  8
0
 39
5.0
 10
103.45582079658379
 20
75.91145837598647
 30
0.0
 11
103.45282079658379
 21
75.810758375986467
 31
0.0
  0
LINE
  5
19C6
  8
0
 39
5.0
 10
103.45282079658379
 20
75.810758375986467
 30
0.0
 11
103.44382079658379
 21
75.712758375986468
 31
0.0
  0
LINE
  5
19C7
  8
0
 39
5.0
 10
103.44382079658379
 20
75.712758375986468
 30
0.0
 11
103.42922079658381
 21
75.618158375986468
 31
0.0
  0
LINE
  5
19C8
  8
0
 39
5.0
 10
103.42922079658381
 20
75.618158375986468
 30
0.0
 11
103.4092207965839
 21
75.527158375986474
 31
0.0
  0
LINE
  5
19C9
  8
0
 39
5.0
 10
103.4092207965839
 20
75.527158375986474
 30
0.0
 11
103.38432079658379
 21
75.440858375986465
 31
0.0
  0
LINE
  5
19CA
  8
0
 39
5.0
 10
103.38432079658379
 20
75.440858375986465
 30
0.0
 11
103.3545207965838
 21
75.359158375986468
 31
0.0
  0
LINE
  5
19CB
  8
0
 39
5.0
 10
103.3545207965838
 20
75.359158375986468
 30
0.0
 11
103.3203207965839
 21
75.282958375986468
 31
0.0
  0
LINE
  5
19CC
  8
0
 39
5.0
 10
103.3203207965839
 20
75.282958375986468
 30
0.0
 11
103.2819207965838
 21
75.212458375986472
 31
0.0
  0
LINE
  5
19CD
  8
0
 39
5.0
 10
103.2819207965838
 20
75.212458375986472
 30
0.0
 11
103.2399207965839
 21
75.148558375986468
 31
0.0
  0
LINE
  5
19CE
  8
0
 39
5.0
 10
103.2399207965839
 20
75.148558375986468
 30
0.0
 11
103.19422079658381
 21
75.091458375986477
 31
0.0
  0
LINE
  5
19CF
  8
0
 39
5.0
 10
103.19422079658381
 20
75.091458375986477
 30
0.0
 11
103.14542079658381
 21
75.041758375986475
 31
0.0
  0
LINE
  5
19D0
  8
0
 39
5.0
 10
103.14542079658381
 20
75.041758375986475
 30
0.0
 11
103.09362079658391
 21
74.999858375986463
 31
0.0
  0
LINE
  5
19D1
  8
0
 39
5.0
 10
103.09362079658391
 20
74.999858375986463
 30
0.0
 11
103.03932079658379
 21
74.966558375986466
 31
0.0
  0
LINE
  5
19D2
  8
0
 39
5.0
 10
103.03932079658379
 20
74.966558375986466
 30
0.0
 11
102.8627671380472
 21
74.889958375986467
 31
0.0
  0
LINE
  5
19D5
  8
0
 39
5.0
 10
100.8729207965838
 20
74.921658375986468
 30
0.0
 11
100.8729207965838
 21
74.921658375986468
 31
0.0
  0
LINE
  5
19D7
  8
0
 39
5.0
 10
100.9559221210872
 20
74.889958375986467
 30
0.0
 11
100.7541207965839
 21
74.941958375986445
 31
0.0
  0
LINE
  5
19D8
  8
0
 39
5.0
 10
100.7541207965839
 20
74.941958375986474
 30
0.0
 11
100.6975207965838
 21
74.966558375986537
 31
0.0
  0
LINE
  5
19D9
  8
0
 39
5.0
 10
100.6975207965838
 20
74.966558375986466
 30
0.0
 11
100.6430207965838
 21
74.999858375986463
 31
0.0
  0
LINE
  5
19DA
  8
0
 39
5.0
 10
100.6430207965838
 20
74.999858375986463
 30
0.0
 11
100.5914207965838
 21
75.041758375986475
 31
0.0
  0
LINE
  5
19DB
  8
0
 39
5.0
 10
100.5914207965838
 20
75.041758375986475
 30
0.0
 11
100.5425207965838
 21
75.091458375986477
 31
0.0
  0
LINE
  5
19DC
  8
0
 39
5.0
 10
100.5425207965838
 20
75.091458375986477
 30
0.0
 11
100.4970207965838
 21
75.148558375986468
 31
0.0
  0
LINE
  5
19DD
  8
0
 39
5.0
 10
100.4970207965838
 20
75.148558375986468
 30
0.0
 11
100.4547207965839
 21
75.212458375986472
 31
0.0
  0
LINE
  5
19DE
  8
0
 39
5.0
 10
100.4547207965839
 20
75.212458375986472
 30
0.0
 11
100.4165207965838
 21
75.282958375986468
 31
0.0
  0
LINE
  5
19DF
  8
0
 39
5.0
 10
100.4165207965838
 20
75.282958375986468
 30
0.0
 11
100.3823207965838
 21
75.359158375986468
 31
0.0
  0
LINE
  5
19E0
  8
0
 39
5.0
 10
100.3823207965838
 20
75.359158375986468
 30
0.0
 11
100.35262079658381
 21
75.440858375986465
 31
0.0
  0
LINE
  5
19E1
  8
0
 39
5.0
 10
100.35262079658381
 20
75.440858375986465
 30
0.0
 11
100.32742079658379
 21
75.527158375986474
 31
0.0
  0
LINE
  5
19E2
  8
0
 39
5.0
 10
100.32742079658379
 20
75.527158375986474
 30
0.0
 11
100.3075207965838
 21
75.618158375986468
 31
0.0
  0
LINE
  5
19E3
  8
0
 39
5.0
 10
100.3075207965838
 20
75.618158375986468
 30
0.0
 11
100.2928207965839
 21
75.712758375986468
 31
0.0
  0
LINE
  5
19E4
  8
0
 39
5.0
 10
100.2928207965839
 20
75.712758375986468
 30
0.0
 11
100.2912404851825
 21
75.729966211245141
 31
0.0
  0
LINE
  5
19E6
  8
0
 10
95.455820796583865
 20
87.889958375986467
 30
0.0
 11
102.8635207965838
 21
87.889958375986467
 31
0.0
  0
LINE
  5
19E9
  8
0
 39
5.0
 10
99.280598428162847
 20
87.889958375986467
 30
0.0
 11
99.484420796584004
 21
87.845058375986468
 31
0.0
  0
LINE
  5
19EA
  8
0
 39
5.0
 10
99.484420796583905
 20
87.845058375986468
 30
0.0
 11
99.614920796583917
 21
87.806058375986467
 31
0.0
  0
LINE
  5
19EB
  8
0
 39
5.0
 10
99.614920796583917
 20
87.806058375986467
 30
0.0
 11
99.737120796583895
 21
87.759858375986454
 31
0.0
  0
LINE
  5
19EC
  8
0
 39
5.0
 10
99.737120796583895
 20
87.759858375986454
 30
0.0
 11
99.849720796583895
 21
87.707058375986463
 31
0.0
  0
LINE
  5
19ED
  8
0
 39
5.0
 10
99.849720796583895
 20
87.707058375986463
 30
0.0
 11
99.952320796583905
 21
87.649058375986471
 31
0.0
  0
LINE
  5
19EE
  8
0
 39
5.0
 10
99.952320796583905
 20
87.649058375986471
 30
0.0
 11
100.0434207965838
 21
87.586358375986478
 31
0.0
  0
LINE
  5
19EF
  8
0
 39
5.0
 10
100.0434207965838
 20
87.586358375986478
 30
0.0
 11
100.1222207965838
 21
87.520358375986476
 31
0.0
  0
LINE
  5
19F0
  8
0
 39
5.0
 10
100.1222207965838
 20
87.520358375986476
 30
0.0
 11
100.1877207965838
 21
87.451758375986472
 31
0.0
  0
LINE
  5
19F1
  8
0
 39
5.0
 10
100.1877207965838
 20
87.451758375986472
 30
0.0
 11
100.2390207965839
 21
87.381758375986465
 31
0.0
  0
LINE
  5
19F2
  8
0
 39
5.0
 10
100.2390207965839
 20
87.381758375986465
 30
0.0
 11
100.2749207965839
 21
87.311058375986477
 31
0.0
  0
LINE
  5
19F3
  8
0
 39
5.0
 10
100.2749207965839
 20
87.311058375986477
 30
0.0
 11
100.2945207965838
 21
87.240858375986477
 31
0.0
  0
LINE
  5
19F4
  8
0
 39
5.0
 10
100.2945207965838
 20
87.240858375986477
 30
0.0
 11
100.2968207965838
 21
87.171958375986478
 31
0.0
  0
LINE
  5
19F5
  8
0
 39
5.0
 10
100.2968207965838
 20
87.171958375986478
 30
0.0
 11
100.2968207965838
 21
75.746358375986475
 31
0.0
  0
LINE
  5
19F6
  8
0
 39
5.0
 10
100.2968207965838
 20
75.746358375986475
 30
0.0
 11
100.2968207965838
 21
75.746358375986475
 31
0.0
  0
LINE
  5
19F7
  8
0
 39
5.0
 10
100.2968207965838
 20
75.746358375986475
 30
0.0
 11
100.2552207965839
 21
75.624158375986454
 31
0.0
  0
LINE
  5
19F8
  8
0
 39
5.0
 10
100.2552207965839
 20
75.624158375986454
 30
0.0
 11
100.21182079658379
 21
75.513058375986475
 31
0.0
  0
LINE
  5
19F9
  8
0
 39
5.0
 10
100.21182079658379
 20
75.513058375986475
 30
0.0
 11
100.1645207965839
 21
75.412758375986471
 31
0.0
  0
LINE
  5
19FA
  8
0
 39
5.0
 10
100.1645207965839
 20
75.412758375986471
 30
0.0
 11
100.11072079658381
 21
75.322658375986464
 31
0.0
  0
LINE
  5
19FB
  8
0
 39
5.0
 10
100.11072079658381
 20
75.322658375986464
 30
0.0
 11
100.0485207965838
 21
75.242758375986469
 31
0.0
  0
LINE
  5
19FC
  8
0
 39
5.0
 10
100.0485207965838
 20
75.242758375986469
 30
0.0
 11
99.975220796583898
 21
75.172258375986473
 31
0.0
  0
LINE
  5
19FD
  8
0
 39
5.0
 10
99.975220796583898
 20
75.172258375986473
 30
0.0
 11
99.888720796583897
 21
75.110958375986471
 31
0.0
  0
LINE
  5
19FE
  8
0
 39
5.0
 10
99.888720796583897
 20
75.110958375986471
 30
0.0
 11
99.786320796583894
 21
75.058258375986469
 31
0.0
  0
LINE
  5
19FF
  8
0
 39
5.0
 10
99.786320796583894
 20
75.058258375986469
 30
0.0
 11
99.666220796583872
 21
75.014058375986465
 31
0.0
  0
LINE
  5
1A00
  8
0
 39
5.0
 10
99.666220796583872
 20
75.014058375986465
 30
0.0
 11
99.525720796583897
 21
74.977758375986468
 31
0.0
  0
LINE
  5
1A01
  8
0
 39
5.0
 10
99.525720796583926
 20
74.977758375986483
 30
0.0
 11
99.028492324361736
 21
74.889958375986467
 31
0.0
  0
LINE
  5
1A0B
  8
0
 10
91.455820796583865
 20
113.8899583759864
 30
0.0
 11
93.838120796583894
 21
113.8899583759864
 31
0.0
  0
LINE
  5
1A0C
  8
0
 39
5.0
 10
93.621220796583884
 20
113.8899583759864
 30
0.0
 11
93.621220796583884
 21
119.16515837598639
 31
0.0
  0
LINE
  5
1A0E
  8
1
 10
95.455820796583865
 20
69.789958375986473
 30
0.0
 11
95.455820796583865
 21
142.75455837598639
 31
0.0
  0
LINE
  5
1A0F
  8
0
 10
95.455820796583865
 20
113.8899583759864
 30
0.0
 11
99.455820796583879
 21
113.8899583759864
 31
0.0
  0
LINE
  5
1A3E
  8
1
 10
43.796382874303049
 20
80.095258375986475
 30
2.5
 11
96.455820796583893
 21
80.095258375986475
 31
2.5
  0
LINE
  5
1A40
  8
0
 10
102.8627671380472
 20
74.889958375986467
 30
0.0
 11
95.455820796583865
 21
74.889958375986467
 31
0.0
  0
LINE
  5
1A41
  8
0
 10
93.703120796583875
 20
74.889958375986467
 30
0.0
 11
90.455820796583865
 21
74.889958375986467
 31
0.0
  0
LINE
  5
1A44
  8
0
 10
98.455820796583879
 20
70.789958375986473
 30
0.0
 11
92.455820796583879
 21
70.789958375986473
 31
0.0
  0
LINE
  5
1A45
  8
1
 10
92.455820796583879
 20
72.789958375986473
 30
0.0
 11
93.70312079658386
 21
72.789958375986458
 31
0.0
  0
LINE
  5
1A46
  8
0
 10
95.455820796583865
 20
72.789958375986473
 30
0.0
 11
98.455820796583879
 21
72.789958375986473
 31
0.0
  0
DIMENSION
  5
1A74
  8
2
  2
*D2
 10
111.220207021929
 20
113.8899583759864
 30
0.0
 11
109.345207021929
 21
118.3899583759864
 31
0.0
 70
     0
 13
97.967220796583888
 23
122.8899583759864
 33
0.0
 14
99.455820796583879
 24
113.8899583759864
 34
0.0
 50
90.0
  0
DIMENSION
  5
1A81
  8
2
  2
*D3
 10
111.220207021929
 20
95.889958375986467
 30
0.0
 11
109.3452070219289
 21
104.8899583759864
 31
0.0
 70
     0
 13
111.220207021929
 23
113.8899583759864
 33
0.0
 14
100.74862079658379
 24
95.889958375986467
 34
0.0
 50
90.0
  0
DIMENSION
  5
1A8E
  8
2
  2
*D4
 10
111.220207021929
 20
90.889958375986467
 30
0.0
 11
109.3452070219289
 21
93.389958375986495
 31
0.0
 70
     0
 13
111.220207021929
 23
95.889958375986467
 33
0.0
 14
100.74862079658379
 24
90.889958375986467
 34
0.0
 50
90.0
  0
DIMENSION
  5
1AB9
  8
2
  2
*D5
 10
111.220207021929
 20
72.789958375986473
 30
0.0
 11
109.3452070219289
 21
65.081625042653172
 31
0.0
 70
     0
 13
111.220207021929
 23
74.889958375986467
 33
0.0
 14
98.455820796583879
 24
72.789958375986473
 34
0.0
 50
90.0
  0
DIMENSION
  5
1AC8
  8
2
  2
*D6
 10
116.9668845271745
 20
72.789958375986473
 30
0.0
 11
115.0918845271745
 21
97.839958375986498
 31
0.0
 70
     0
  1
(<>)
 13
111.220207021929
 23
122.8899583759864
 33
0.0
 14
111.220207021929
 24
72.789958375986473
 34
0.0
 50
90.0
  0
DIMENSION
  5
1AD5
  8
2
  2
*D7
 10
116.9668845271745
 20
70.789958375986473
 30
0.0
 11
115.0918845271745
 21
64.331625042653172
 31
0.0
 70
     0
 13
116.9668845271745
 23
72.789958375986473
 33
0.0
 14
98.455820796583879
 24
70.789958375986473
 34
0.0
 50
90.0
  0
DIMENSION
  5
1AE4
  8
2
  2
*D8
 10
122.0902125453931
 20
70.789958375986473
 30
0.0
 11
120.2152125453931
 21
96.839958375986484
 31
0.0
 70
     0
  1
(<>)
 13
116.9668845271745
 23
122.8899583759864
 33
0.0
 14
116.9668845271745
 24
70.789958375986473
 34
0.0
 50
90.0
  0
DIMENSION
  5
1AF4
  8
2
  2
*D9
 10
111.220207021929
 20
74.889958375986467
 30
0.0
 11
109.3452070219289
 21
81.389958375986495
 31
0.0
 70
     0
 13
101.8054207965839
 23
87.889958375986467
 33
0.0
 14
102.8627671380472
 24
74.889958375986467
 34
0.0
 50
90.0
  0
DIMENSION
  5
1B02
  8
2
  2
*D10
 10
82.623414088872437
 20
87.889958375986481
 30
0.0
 11
80.748414088872437
 21
89.389958375986481
 31
0.0
 70
     0
 13
90.163020796583865
 23
90.889958375986467
 33
0.0
 14
90.455820796583865
 24
87.889958375986481
 34
0.0
 50
90.0
  0
LINE
  5
1B7B
  8
0
 39
5.0
 10
43.796382874303049
 20
80.095258375986475
 30
2.5
 11
43.796382874303049
 21
78.422158375986484
 31
2.5
  0
LINE
  5
1B7C
  8
0
 39
5.0
 10
50.52288287430305
 20
77.470358375986478
 30
2.5
 11
50.52288287430305
 21
80.095258375986475
 31
2.5
  0
LINE
  5
1B7D
  8
0
 39
5.0
 10
47.275982874303047
 20
77.909458375986475
 30
2.5
 11
48.018982874303042
 21
77.909358375986486
 31
2.5
  0
LINE
  5
1B7E
  8
0
 39
5.0
 10
43.796382874303049
 20
78.422158375986484
 30
2.5
 11
45.357482874303038
 21
78.422158375986484
 31
2.5
  0
LINE
  5
1B7F
  8
0
 39
5.0
 10
47.26002600798558
 20
77.595258375986475
 30
2.5
 11
47.275982874303047
 21
77.909458375986475
 31
2.5
  0
LINE
  5
1B80
  8
0
 39
5.0
 10
48.018982874303042
 20
77.909358375986486
 30
2.5
 11
48.828328607394312
 21
77.595258375986475
 31
2.5
  0
LINE
  5
1B81
  8
0
 39
5.0
 10
48.018982874303042
 20
82.281158375986465
 30
2.5
 11
48.828328607394312
 21
82.595258375986475
 31
2.5
  0
LINE
  5
1B82
  8
0
 39
5.0
 10
47.26002600798558
 20
82.595258375986475
 30
2.5
 11
47.275982874303047
 21
82.281058375986476
 31
2.5
  0
POLYLINE
  5
1B83
  8
0
 66
     1
 10
0.0
 20
0.0
 30
2.5
 39
5.0
  0
VERTEX
  5
2264
  8
0
 10
56.476082874303053
 20
77.567358375986473
 30
2.5
  0
VERTEX
  5
2265
  8
0
 10
59.148482874303063
 20
77.567358375986473
 30
2.5
  0
VERTEX
  5
2266
  8
0
 10
59.796382874303042
 20
78.050220444951989
 30
2.5
  0
SEQEND
  5
2267
  8
0
  0
POLYLINE
  5
1B84
  8
0
 66
     1
 10
0.0
 20
0.0
 30
2.5
 39
5.0
  0
VERTEX
  5
2268
  8
0
 10
56.476082874303053
 20
82.623158375986463
 30
2.5
  0
VERTEX
  5
2269
  8
0
 10
59.148482874303063
 20
82.623158375986463
 30
2.5
  0
VERTEX
  5
226A
  8
0
 10
59.796382874303042
 20
82.140296307020961
 30
2.5
  0
SEQEND
  5
226B
  8
0
  0
LINE
  5
1B85
  8
0
 39
5.0
 10
56.476082874303053
 20
75.696858375986466
 30
2.5
 11
55.796382874303049
 21
75.696858375986466
 31
2.5
  0
LINE
  5
1B86
  8
0
 39
5.0
 10
56.476082874303053
 20
84.493658375986456
 30
2.5
 11
55.796382874303049
 21
84.493658375986456
 31
2.5
  0
LINE
  5
1B87
  8
0
 39
5.0
 10
50.52288287430305
 20
75.714258375986475
 30
2.5
 11
55.796382874303049
 21
75.714258375986475
 31
2.5
  0
LINE
  5
1B88
  8
0
 39
5.0
 10
55.796382874303049
 20
78.050558375986483
 30
2.5
 11
50.52288287430305
 21
78.050558375986483
 31
2.5
  0
LINE
  5
1B89
  8
0
 39
5.0
 10
55.796382874303049
 20
82.139958375986467
 30
2.5
 11
50.52288287430305
 21
82.139958375986467
 31
2.5
  0
LINE
  5
1B8A
  8
0
 39
5.0
 10
50.52288287430305
 20
84.476258375986475
 30
2.5
 11
55.796382874303049
 21
84.476258375986475
 31
2.5
  0
LINE
  5
1B8B
  8
0
 39
5.0
 10
43.796382874303049
 20
81.768358375986466
 30
2.5
 11
45.357482874303038
 21
81.768358375986466
 31
2.5
  0
LINE
  5
1B8C
  8
0
 39
5.0
 10
47.275982874303047
 20
82.281058375986476
 30
2.5
 11
48.018982874303042
 21
82.281158375986465
 31
2.5
  0
LINE
  5
1B8D
  8
0
 39
5.0
 10
50.52288287430305
 20
82.720158375986472
 30
2.5
 11
50.52288287430305
 21
80.095258375986475
 31
2.5
  0
LINE
  5
1B8E
  8
0
 39
5.0
 10
43.796382874303049
 20
80.095258375986475
 30
2.5
 11
43.796382874303049
 21
81.768358375986466
 31
2.5
  0
LINE
  5
1B8F
  8
0
 39
5.0
 10
56.476082874303053
 20
82.623158375986463
 30
2.5
 11
56.476082874303053
 21
84.493658375986456
 31
2.5
  0
LINE
  5
1B90
  8
0
 39
5.0
 10
56.476082874303053
 20
77.567358375986473
 30
2.5
 11
56.476082874303053
 21
75.696858375986466
 31
2.5
  0
LINE
  5
1B91
  8
0
 39
5.0
 10
50.52288287430305
 20
77.470358375986478
 30
2.5
 11
50.52288287430305
 21
80.095258375986475
 31
2.5
  0
LINE
  5
1B92
  8
0
 10
48.018982874303042
 20
77.909358375986486
 30
2.5
 11
48.018982874303042
 21
80.095258375986475
 31
2.5
  0
LINE
  5
1B93
  8
0
 10
47.275982874303047
 20
77.909458375986475
 30
2.5
 11
47.275982874303047
 21
80.095258375986475
 31
2.5
  0
LINE
  5
1B94
  8
0
 10
45.357482874303038
 20
78.422158375986484
 30
2.5
 11
45.357482874303038
 21
80.095258375986475
 31
2.5
  0
LINE
  5
1B95
  8
0
 10
46.21928287430304
 20
77.595258375986475
 30
2.5
 11
46.21928287430304
 21
80.095258375986475
 31
2.5
  0
LINE
  5
1B96
  8
0
 10
49.15428287430305
 20
77.595258375986475
 30
2.5
 11
49.15428287430305
 21
80.095258375986475
 31
2.5
  0
LINE
  5
1B97
  8
0
 10
59.796382874303042
 20
78.050220444951989
 30
2.5
 11
59.796382874303042
 21
82.140296307020961
 31
2.5
  0
LINE
  5
1B98
  8
0
 10
55.796382874303049
 20
84.493658375986456
 30
2.5
 11
55.796382874303049
 21
75.696858375986466
 31
2.5
  0
LINE
  5
1B99
  8
0
 10
59.148482874303063
 20
77.567358375986473
 30
2.5
 11
59.148482874303063
 21
80.095258375986475
 31
2.5
  0
LINE
  5
1B9A
  8
0
 10
56.476082874303053
 20
82.623158375986463
 30
2.5
 11
56.476082874303053
 21
77.567358375986473
 31
2.5
  0
LINE
  5
1B9B
  8
1
 10
46.21928287430304
 20
77.595258375986475
 30
2.5
 11
45.357482874303038
 21
78.422158375986484
 31
2.5
  0
LINE
  5
1B9C
  8
0
 10
50.52288287430305
 20
75.714258375986475
 30
2.5
 11
50.52288287430305
 21
77.470358375986478
 31
2.5
  0
LINE
  5
1B9D
  8
2
 10
59.551020187735887
 20
77.86735837598647
 30
2.5
 11
56.476082874303032
 21
77.86735837598647
 31
2.5
  0
LINE
  5
1B9E
  8
1
 10
46.21928287430304
 20
82.595258375986475
 30
2.5
 11
45.357482874303038
 21
81.768358375986466
 31
2.5
  0
LINE
  5
1B9F
  8
0
 10
49.15428287430305
 20
82.595258375986475
 30
2.5
 11
49.15428287430305
 21
80.095258375986475
 31
2.5
  0
LINE
  5
1BA0
  8
0
 10
46.21928287430304
 20
82.595258375986475
 30
2.5
 11
46.21928287430304
 21
80.095258375986475
 31
2.5
  0
LINE
  5
1BA1
  8
0
 10
45.357482874303038
 20
81.768358375986466
 30
2.5
 11
45.357482874303038
 21
80.095258375986475
 31
2.5
  0
LINE
  5
1BA2
  8
0
 10
47.275982874303047
 20
82.281058375986476
 30
2.5
 11
47.275982874303047
 21
80.095258375986475
 31
2.5
  0
LINE
  5
1BA3
  8
0
 10
48.018982874303042
 20
82.281158375986465
 30
2.5
 11
48.018982874303042
 21
80.095258375986475
 31
2.5
  0
LINE
  5
1BA4
  8
0
 10
50.52288287430305
 20
84.476258375986475
 30
2.5
 11
50.52288287430305
 21
82.720158375986472
 31
2.5
  0
LINE
  5
1BA5
  8
2
 10
59.551020187735887
 20
82.32315837598648
 30
2.5
 11
56.476082874303032
 21
82.32315837598648
 31
2.5
  0
LINE
  5
1BA6
  8
0
 10
59.148482874303063
 20
82.623158375986463
 30
2.5
 11
59.148482874303063
 21
80.095258375986475
 31
2.5
  0
LINE
  5
1BA7
  8
0
 10
48.828328607394312
 20
77.595258375986475
 30
5.0
 11
50.52288287430305
 21
77.595258375986475
 31
5.0
  0
LINE
  5
1BA8
  8
0
 10
47.26002600798558
 20
77.595258375986475
 30
5.0
 11
46.21928287430304
 21
77.595258375986475
 31
5.0
  0
LINE
  5
1BA9
  8
0
 10
48.828328607394312
 20
82.595258375986475
 30
5.0
 11
50.52288287430305
 21
82.595258375986475
 31
5.0
  0
LINE
  5
1BAA
  8
0
 10
47.26002600798558
 20
82.595258375986475
 30
5.0
 11
46.21928287430304
 21
82.595258375986475
 31
5.0
  0
DIMENSION
  5
1BC0
  8
2
  2
*D12
 10
98.455820796583879
 20
60.295053111379531
 30
0.0
 11
95.455820796583865
 21
62.170053111379531
 31
0.0
 70
     0
  1
%%c<>
 13
92.455820796583879
 23
70.789958375986473
 33
0.0
 14
98.455820796583879
 24
70.789958375986473
 34
0.0
  0
DIMENSION
  5
1BCF
  8
2
  2
*D13
 10
90.455820796583865
 20
64.908672371303823
 30
0.0
 11
83.99748746325055
 21
64.908672371303823
 31
0.0
 70
   128
 13
95.455820796583865
 23
69.789958375986473
 33
0.0
 14
90.455820796583865
 24
74.889958375986467
 34
0.0
  0
DIMENSION
  5
1BF5
  8
2
  2
*D14
 10
55.796382874303049
 20
68.368886757821045
 30
0.0
 11
49.796382874303042
 21
70.243886757821045
 31
0.0
 70
     0
 13
43.796382874303049
 23
78.422158375986484
 33
2.5
 14
55.796382874303049
 24
75.696858375986466
 34
2.5
  0
DIMENSION
  5
1C02
  8
2
  2
*D15
 10
59.796382874303042
 20
63.230992576684798
 30
0.0
 11
51.796382874303049
 21
65.105992576684798
 31
0.0
 70
     0
 13
43.796382874303049
 23
68.368886757821045
 33
0.0
 14
59.796382874303042
 24
78.050220444951989
 34
2.5
  0
DIMENSION
  5
1C11
  8
2
  2
*D16
 10
37.475643975861992
 20
77.595258375986475
 30
0.0
 11
35.600643975861978
 21
69.886925042653161
 31
0.0
 70
     0
  1
%%c<>
 13
46.21928287430304
 23
82.595258375986475
 33
2.5
 14
46.21928287430304
 24
77.595258375986475
 34
2.5
 50
90.0
  0
TEXT
  5
1C2F
  8
2
 10
71.262050707364423
 20
131.75025932169709
 30
0.0
 40
2.5
  1
M5
  0
TEXT
  5
1C30
  8
2
 10
71.111218768920367
 20
124.9720293727031
 30
0.0
 40
2.5
  1
H6
  0
TEXT
  5
1C31
  8
2
 10
71.262050707364423
 20
116.98878079207731
 30
0.0
 40
2.5
  1
M8x0.75
  0
TEXT
  5
1C33
  8
2
 10
71.262050707364423
 20
109.7586687685824
 30
0.0
 40
2.5
  1
H12
  0
TEXT
  5
1C36
  8
2
 10
71.078756980401636
 20
71.603518116963045
 30
0.0
 40
2.5
  1
M5x0.8
  0
TEXT
  5
1C37
  8
2
 10
109.7771644806929
 20
56.953941260804783
 30
0.0
 40
2.5
  1
H14
  0
POLYLINE
  8
2
  5
2276
  66
     1
 10
0.000000
 20
0.000000
 30
0.000000
  70
     8
  0
VERTEX
  8
2
  5
2277
 10
92.9558
 20
121.028
 30
0.000000
  70
    32
  0
VERTEX
  8
2
  5
2278
 10
75.8433
 20
131.268
 30
0.000000
  70
    32
  0
VERTEX
  8
2
  5
2279
 10
70.3604
 20
131.268
 30
0.000000
  70
    32
  0
SEQEND
  8
2
  5
227A
  0
POLYLINE
  8
2
  5
227B
  66
     1
 10
0.000000
 20
0.000000
 30
0.000000
  70
     8
  0
VERTEX
  8
2
  5
227C
 10
92.0058
 20
117.931
 30
0.000000
  70
    32
  0
VERTEX
  8
2
  5
227D
 10
75.5585
 20
124.654
 30
0.000000
  70
    32
  0
VERTEX
  8
2
  5
227E
 10
70.3604
 20
124.654
 30
0.000000
  70
    32
  0
SEQEND
  8
2
  5
227F
  0
POLYLINE
  8
2
  5
2280
  66
     1
 10
0.000000
 20
0.000000
 30
0.000000
  70
     8
  0
VERTEX
  8
2
  5
2281
 10
91.4558
 20
109.807
 30
0.000000
  70
    32
  0
VERTEX
  8
2
  5
2282
 10
86.1683
 20
116.761
 30
0.000000
  70
    32
  0
VERTEX
  8
2
  5
2283
 10
70.5740
 20
116.761
 30
0.000000
  70
    32
  0
SEQEND
  8
2
  5
2284
  0
POLYLINE
  8
2
  5
2285
  66
     1
 10
0.000000
 20
0.000000
 30
0.000000
  70
     8
  0
VERTEX
  8
2
  5
2286
 10
88.4639
 20
105.200
 30
0.000000
  70
    32
  0
VERTEX
  8
2
  5
2287
 10
77.6235
 20
109.312
 30
0.000000
  70
    32
  0
VERTEX
  8
2
  5
2288
 10
70.5028
 20
109.312
 30
0.000000
  70
    32
  0
SEQEND
  8
2
  5
2289
  0
POLYLINE
  8
2
  5
228A
  66
     1
 10
0.000000
 20
0.000000
 30
0.000000
  70
     8
  0
VERTEX
  8
2
  5
228B
 10
91.9716
 20
77.6141
 30
0.000000
  70
    32
  0
VERTEX
  8
2
  5
228C
 10
83.6049
 20
71.1796
 30
0.000000
  70
    32
  0
VERTEX
  8
2
  5
228D
 10
70.4316
 20
71.1796
 30
0.000000
  70
    32
  0
SEQEND
  8
2
  5
228E
  0
POLYLINE
  8
2
  5
228F
  66
     1
 10
0.000000
 20
0.000000
 30
0.000000
  70
     8
  0
VERTEX
  8
2
  5
2290
 10
100.520
 20
75.1200
 30
0.000000
  70
    32
  0
VERTEX
  8
2
  5
2291
 10
109.026
 20
56.5984
 30
0.000000
  70
    32
  0
VERTEX
  8
2
  5
2292
 10
115.862
 20
56.5984
 30
0.000000
  70
    32
  0
SEQEND
  8
2
  5
2293
  0
LINE
  5
1C51
  8
0
 39
5.0
 10
100.2968207965838
 20
87.124954294353785
 30
0.0
 11
100.3075207965838
 21
87.193958375986455
 31
0.0
  0
LINE
  5
1C52
  8
0
 39
5.0
 10
100.3075207965838
 20
87.193958375986455
 30
0.0
 11
100.32742079658379
 21
87.284658375986453
 31
0.0
  0
LINE
  5
1C53
  8
0
 39
5.0
 10
100.32742079658379
 20
87.284658375986453
 30
0.0
 11
100.35262079658381
 21
87.371258375986471
 31
0.0
  0
LINE
  5
1C54
  8
0
 39
5.0
 10
100.35262079658381
 20
87.371258375986471
 30
0.0
 11
100.3823207965838
 21
87.452858375986466
 31
0.0
  0
LINE
  5
1C55
  8
0
 39
5.0
 10
100.3823207965838
 20
87.452858375986466
 30
0.0
 11
100.4165207965838
 21
87.529158375986469
 31
0.0
  0
LINE
  5
1C56
  8
0
 39
5.0
 10
100.4165207965838
 20
87.529158375986469
 30
0.0
 11
100.4547207965839
 21
87.599358375986455
 31
0.0
  0
LINE
  5
1C57
  8
0
 39
5.0
 10
100.4547207965839
 20
87.599358375986455
 30
0.0
 11
100.4970207965838
 21
87.663458375986465
 31
0.0
  0
LINE
  5
1C58
  8
0
 39
5.0
 10
100.4970207965838
 20
87.663458375986465
 30
0.0
 11
100.5425207965838
 21
87.720558375986485
 31
0.0
  0
LINE
  5
1C59
  8
0
 39
5.0
 10
100.5425207965838
 20
87.720558375986485
 30
0.0
 11
100.5914207965838
 21
87.770258375986486
 31
0.0
  0
LINE
  5
1C5A
  8
0
 39
5.0
 10
100.5914207965838
 20
87.770258375986486
 30
0.0
 11
100.6430207965838
 21
87.811958375986478
 31
0.0
  0
LINE
  5
1C5B
  8
0
 39
5.0
 10
100.6430207965838
 20
87.811958375986478
 30
0.0
 11
100.6975207965838
 21
87.845458375986468
 31
0.0
  0
LINE
  5
1C5C
  8
0
 39
5.0
 10
100.6975207965838
 20
87.845458375986468
 30
0.0
 11
100.7541207965839
 21
87.869858375986468
 31
0.0
  0
LINE
  5
1C5D
  8
0
 39
5.0
 10
100.7541207965839
 20
87.869858375986468
 30
0.0
 11
100.8127207965838
 21
87.884958375986471
 31
0.0
  0
LINE
  5
1C5E
  8
0
 39
5.0
 10
100.8127207965838
 20
87.884958375986471
 30
0.0
 11
100.8729207965838
 21
87.889958375986467
 31
0.0
  0
ENDSEC
  0
EOF
