  0
SECTION
  2
HEADER
  9
$ACADVER
  1
AC1009
  9
$INSBASE
 10
0.0
 20
0.0
 30
0.0
  9
$EXTMIN
 10
34.350643975861971
 20
20.427513288025089
 30
0.0
  9
$EXTMAX
 10
123.3402125453931
 20
142.75455837598639
 30
7.5
  9
$LIMMIN
 10
0.0
 20
0.0
  9
$LIMMAX
 10
420.0
 20
297.0
  9
$ORTHOMODE
 70
     0
  9
$REGENMODE
 70
     1
  9
$FILLMODE
 70
     1
  9
$QTEXTMODE
 70
     0
  9
$MIRRTEXT
 70
     1
  9
$DRAGMODE
 70
     2
  9
$LTSCALE
 40
0.3
  9
$OSMODE
 70
    37
  9
$ATTMODE
 70
     1
  9
$TEXTSIZE
 40
2.5
  9
$TRACEWID
 40
1.0
  9
$TEXTSTYLE
  7
STANDARD
  9
$CLAYER
  8
2
  9
$CELTYPE
  6
BYLAYER
  9
$CECOLOR
 62
   256
  9
$DIMSCALE
 40
1.0
  9
$DIMASZ
 40
2.5
  9
$DIMEXO
 40
0.625
  9
$DIMDLI
 40
3.75
  9
$DIMRND
 40
0.0
  9
$DIMDLE
 40
0.0
  9
$DIMEXE
 40
1.25
  9
$DIMTP
 40
0.0
  9
$DIMTM
 40
0.0
  9
$DIMTXT
 40
2.5
  9
$DIMCEN
 40
2.5
  9
$DIMTSZ
 40
0.0
  9
$DIMTOL
 70
     0
  9
$DIMLIM
 70
     0
  9
$DIMTIH
 70
     0
  9
$DIMTOH
 70
     0
  9
$DIMSE1
 70
     0
  9
$DIMSE2
 70
     0
  9
$DIMTAD
 70
     1
  9
$DIMZIN
 70
     8
  9
$DIMBLK
  1

  9
$DIMASO
 70
     1
  9
$DIMSHO
 70
     1
  9
$DIMPOST
  1

  9
$DIMAPOST
  1

  9
$DIMALT
 70
     0
  9
$DIMALTD
 70
     3
  9
$DIMALTF
 40
0.03937007874016
  9
$DIMLFAC
 40
1.0
  9
$DIMTOFL
 70
     1
  9
$DIMTVP
 40
0.0
  9
$DIMTIX
 70
     0
  9
$DIMSOXD
 70
     0
  9
$DIMSAH
 70
     0
  9
$DIMBLK1
  1

  9
$DIMBLK2
  1

  9
$DIMSTYLE
  2
ISO-25
  9
$DIMCLRD
 70
     0
  9
$DIMCLRE
 70
     0
  9
$DIMCLRT
 70
     0
  9
$DIMTFAC
 40
1.0
  9
$DIMGAP
 40
0.625
  9
$LUNITS
 70
     2
  9
$LUPREC
 70
     4
  9
$SKETCHINC
 40
1.0
  9
$FILLETRAD
 40
10.0
  9
$AUNITS
 70
     0
  9
$AUPREC
 70
     0
  9
$MENU
  1
.
  9
$ELEVATION
 40
0.0
  9
$PELEVATION
 40
0.0
  9
$THICKNESS
 40
0.0
  9
$LIMCHECK
 70
     0
  9
$BLIPMODE
 70
     0
  9
$CHAMFERA
 40
10.0
  9
$CHAMFERB
 40
10.0
  9
$SKPOLY
 70
     0
  9
$TDCREATE
 40
2453446.4471506709
  9
$TDUPDATE
 40
2453551.93567655
  9
$TDINDWG
 40
0.1934166782
  9
$TDUSRTIMER
 40
0.1934165625
  9
$USRTIMER
 70
     1
  9
$ANGBASE
 50
0.0
  9
$ANGDIR
 70
     0
  9
$PDMODE
 70
     0
  9
$PDSIZE
 40
0.0
  9
$PLINEWID
 40
0.0
  9
$COORDS
 70
     1
  9
$SPLFRAME
 70
     0
  9
$SPLINETYPE
 70
     6
  9
$SPLINESEGS
 70
     8
  9
$ATTDIA
 70
     0
  9
$ATTREQ
 70
     1
  9
$HANDLING
 70
-16383
  9
$HANDSEED
  5
26F7
  9
$SURFTAB1
 70
     6
  9
$SURFTAB2
 70
     6
  9
$SURFTYPE
 70
     6
  9
$SURFU
 70
     6
  9
$SURFV
 70
     6
  9
$UCSNAME
  2

  9
$UCSORG
 10
0.0
 20
0.0
 30
0.0
  9
$UCSXDIR
 10
1.0
 20
0.0
 30
0.0
  9
$UCSYDIR
 10
0.0
 20
1.0
 30
0.0
  9
$PUCSNAME
  2

  9
$PUCSORG
 10
0.0
 20
0.0
 30
0.0
  9
$PUCSXDIR
 10
1.0
 20
0.0
 30
0.0
  9
$PUCSYDIR
 10
0.0
 20
1.0
 30
0.0
  9
$USERI1
 70
     0
  9
$USERI2
 70
     0
  9
$USERI3
 70
     0
  9
$USERI4
 70
     0
  9
$USERI5
 70
     0
  9
$USERR1
 40
0.0
  9
$USERR2
 40
0.0
  9
$USERR3
 40
0.0
  9
$USERR4
 40
0.0
  9
$USERR5
 40
0.0
  9
$WORLDVIEW
 70
     1
  9
$SHADEDGE
 70
     3
  9
$SHADEDIF
 70
    70
  9
$TILEMODE
 70
     1
  9
$MAXACTVP
 70
    64
  9
$PLIMCHECK
 70
     0
  9
$PEXTMIN
 10
1.0000000000000000E+020
 20
1.0000000000000000E+020
 30
1.0000000000000000E+020
  9
$PEXTMAX
 10
-1.0000000000000000E+020
 20
-1.0000000000000000E+020
 30
-1.0000000000000000E+020
  9
$PLIMMIN
 10
0.0
 20
0.0
  9
$PLIMMAX
 10
420.0
 20
297.0
  9
$UNITMODE
 70
     0
  9
$VISRETAIN
 70
     1
  9
$PLINEGEN
 70
     0
  9
$PSLTSCALE
 70
     1
  0
ENDSEC
  0
SECTION
  2
TABLES
  0
TABLE
  2
VPORT
 70
     2
  0
VPORT
  2
*ACTIVE
 70
     0
 10
0.0
 20
0.0
 11
1.0
 21
1.0
 12
117.2505629573203
 22
92.980948043334251
 13
0.0
 23
0.0
 14
10.0
 24
10.0
 15
10.0
 25
10.0
 16
0.0
 26
0.0
 36
1.0
 17
0.0
 27
0.0
 37
0.0
 40
150.26056970207031
 41
2.5392405063291141
 42
50.0
 43
0.0
 44
0.0
 50
0.0
 51
0.0
 71
     0
 72
   100
 73
     1
 74
     3
 75
     0
 76
     0
 77
     0
 78
     0
  0
ENDTAB
  0
TABLE
  2
LTYPE
 70
     3
  0
LTYPE
  2
CONTINUOUS
 70
     0
  3
Solid line
 72
    65
 73
     0
 40
0.0
  0
LTYPE
  2
CENTER
 70
     0
  3
Center ____ _ ____ _ ____ _ ____ _ ____ _ ____
 72
    65
 73
     4
 40
50.799999999999997
 49
31.75
 49
-6.3499999999999988
 49
6.3499999999999988
 49
-6.3499999999999988
  0
LTYPE
  2
DASHED2
 70
     0
  3
Dashed (.5x) _ _ _ _ _ _ _ _ _ _ _ _ _ _ _ _ _
 72
    65
 73
     2
 40
9.5249999999999986
 49
6.3499999999999988
 49
-3.1749999999999989
  0
ENDTAB
  0
TABLE
  2
LAYER
 70
     5
  0
LAYER
  2
0
 70
     0
 62
     7
  6
CONTINUOUS
  0
LAYER
  2
1
 70
     0
 62
     7
  6
CENTER
  0
LAYER
  2
2
 70
     0
 62
     7
  6
CONTINUOUS
  0
LAYER
  2
3
 70
     0
 62
     7
  6
DASHED2
  0
LAYER
  2
DEFPOINTS
 70
     0
 62
     7
  6
CONTINUOUS
  0
ENDTAB
  0
TABLE
  2
STYLE
 70
     4
  0
STYLE
  2
STANDARD
 70
     0
 40
0.0
 41
1.0
 50
0.0
 71
     0
 42
2.5
  3
txt
  4

  0
STYLE
  2
\U+00C9L\U+00C9R_\U+00C2S\U+00C2V\U+00C2B\U+00C2N
 70
     0
 40
1.0
 41
1.0
 50
0.0
 71
     0
 42
1.0
  3
\U+00E9l\U+00E9r \U+00E2S\U+00E2V\U+00E2b\U+00E2N
  4

  0
STYLE
  2
SWIS721_CN_BT
 70
     0
 40
1.0
 41
1.0
 50
0.0
 71
     0
 42
1.0
  3
Swis721 Cn BT
  4

  0
STYLE
  2

 70
     1
 40
0.0
 41
1.0
 50
0.0
 71
     0
 42
2.5
  3
ltypeshp.shx
  4

  0
ENDTAB
  0
TABLE
  2
VIEW
 70
     0
  0
ENDTAB
  0
TABLE
  2
UCS
 70
     0
  0
ENDTAB
  0
TABLE
  2
APPID
 70
     1
  0
APPID
  2
ACAD
 70
     0
  0
ENDTAB
  0
TABLE
  2
DIMSTYLE
 70
     2
  0
DIMSTYLE
  2
ISO-25
 70
     0
  3

  4

  5

  6

  7

 40
1.0
 41
2.5
 42
0.625
 43
3.75
 44
1.25
 45
0.0
 46
0.0
 47
0.0
 48
0.0
140
2.5
141
2.5
142
0.0
143
0.03937007874016
144
1.0
145
0.0
146
1.0
147
0.625
 71
     0
 72
     0
 73
     0
 74
     0
 75
     0
 76
     0
 77
     1
 78
     8
170
     0
171
     3
172
     1
173
     0
174
     0
175
     0
176
     0
177
     0
178
     0
  0
DIMSTYLE
  2
STANDARD
 70
     0
  3

  4

  5

  6

  7

 40
1.0
 41
0.18
 42
0.0625
 43
0.38
 44
0.18
 45
0.0
 46
0.0
 47
0.0
 48
0.0
140
0.18
141
0.09
142
0.0
143
25.399999999999999
144
1.0
145
0.0
146
1.0
147
0.09
 71
     0
 72
     0
 73
     1
 74
     1
 75
     0
 76
     0
 77
     0
 78
     0
170
     0
171
     2
172
     0
173
     0
174
     0
175
     0
176
     0
177
     0
178
     0
  0
ENDTAB
  0
ENDSEC
  0
SECTION
  2
BLOCKS
  0
BLOCK
  8
0
  2
$MODEL_SPACE
 70
     0
 10
0.0
 20
0.0
 30
0.0
  3
$MODEL_SPACE
  1

  0
ENDBLK
  5
21
  8
0
  0
BLOCK
 67
     1
  8
0
  2
$PAPER_SPACE
 70
     0
 10
0.0
 20
0.0
 30
0.0
  3
$PAPER_SPACE
  1

  0
ENDBLK
  5
1D
 67
     1
  8
0
  0
BLOCK
  8
0
  2
A$C3CE13CCA
 70
     0
 10
0.0
 20
0.0
 30
0.0
  3
A$C3CE13CCA
  1

  0
POLYLINE
  5
1140
  8
0
 66
     1
 10
0.0
 20
0.0
 30
0.0
 39
5.0
  0
VERTEX
  5
201E
  8
0
 10
0.6521600043770093
 20
0.3818293736327547
 30
0.0
  0
VERTEX
  5
201F
  8
0
 10
0.6521600043770093
 20
0.3818293736327547
 30
0.0
  0
VERTEX
  5
2020
  8
0
 10
0.703460004377007
 20
0.3793293736327428
 30
0.0
  0
VERTEX
  5
2021
  8
0
 10
0.7530600043770052
 20
0.3718293736327496
 30
0.0
  0
VERTEX
  5
2022
  8
0
 10
0.8010600043770068
 20
0.3595293736327534
 30
0.0
  0
VERTEX
  5
2023
  8
0
 10
0.8468600043770067
 20
0.3426293736327466
 30
0.0
  0
VERTEX
  5
2024
  8
0
 10
0.8906600043770112
 20
0.3217293736327491
 30
0.0
  0
VERTEX
  5
2025
  8
0
 10
0.9318600043770005
 20
0.2966293736327543
 30
0.0
  0
VERTEX
  5
2026
  8
0
 10
0.9703600043770138
 20
0.2678293736327504
 30
0.0
  0
VERTEX
  5
2027
  8
0
 10
1.005760004377009
 20
0.2354293736327548
 30
0.0
  0
VERTEX
  5
2028
  8
0
 10
1.0381600043770041
 20
0.2000293736327592
 30
0.0
  0
VERTEX
  5
2029
  8
0
 10
1.066960004377008
 20
0.1615293736327601
 30
0.0
  0
VERTEX
  5
202A
  8
0
 10
1.092060004377003
 20
0.1203293736327566
 30
0.0
  0
VERTEX
  5
202B
  8
0
 10
1.1129600043770149
 20
0.0765293736327522
 30
0.0
  0
VERTEX
  5
202C
  8
0
 10
1.1298600043770071
 20
0.0307293736327523
 30
0.0
  0
VERTEX
  5
202D
  8
0
 10
1.1421600043770179
 20
-0.0172706263672495
 30
0.0
  0
VERTEX
  5
202E
  8
0
 10
1.1496600043770111
 20
-0.0668706263672476
 30
0.0
  0
VERTEX
  5
202F
  8
0
 10
1.1521600043770091
 20
-0.1181706263672453
 30
0.0
  0
VERTEX
  5
2030
  8
0
 10
1.1521600043770091
 20
-0.1181706263672453
 30
0.0
  0
VERTEX
  5
2031
  8
0
 10
1.1496600043770111
 20
-0.1691706263672472
 30
0.0
  0
VERTEX
  5
2032
  8
0
 10
1.1421600043770179
 20
-0.2187706263672453
 30
0.0
  0
VERTEX
  5
2033
  8
0
 10
1.1298600043770071
 20
-0.2666706263672438
 30
0.0
  0
VERTEX
  5
2034
  8
0
 10
1.1129600043770149
 20
-0.3126706263672503
 30
0.0
  0
VERTEX
  5
2035
  8
0
 10
1.092060004377003
 20
-0.3562706263672481
 30
0.0
  0
VERTEX
  5
2036
  8
0
 10
1.066960004377008
 20
-0.3975706263672407
 30
0.0
  0
VERTEX
  5
2037
  8
0
 10
1.0381600043770041
 20
-0.4359706263672507
 30
0.0
  0
VERTEX
  5
2038
  8
0
 10
1.005760004377009
 20
-0.4716706263672564
 30
0.0
  0
VERTEX
  5
2039
  8
0
 10
0.9703600043770138
 20
-0.5037706263672419
 30
0.0
  0
VERTEX
  5
203A
  8
0
 10
0.9318600043770005
 20
-0.532570626367246
 30
0.0
  0
VERTEX
  5
203B
  8
0
 10
0.8906600043770112
 20
-0.5575706263672516
 30
0.0
  0
VERTEX
  5
203C
  8
0
 10
0.8468600043770067
 20
-0.578770626367259
 30
0.0
  0
VERTEX
  5
203D
  8
0
 10
0.8010600043770068
 20
-0.5955706263672483
 30
0.0
  0
VERTEX
  5
203E
  8
0
 10
0.7530600043770052
 20
-0.6079706263672478
 30
0.0
  0
VERTEX
  5
203F
  8
0
 10
0.703460004377007
 20
-0.6154706263672553
 30
0.0
  0
VERTEX
  5
2040
  8
0
 10
0.6521600043770093
 20
-0.6181706263672453
 30
0.0
  0
VERTEX
  5
2041
  8
0
 10
0.6521600043770093
 20
-0.6181706263672453
 30
0.0
  0
VERTEX
  5
2042
  8
0
 10
0.6011600043770075
 20
-0.6154706263672553
 30
0.0
  0
VERTEX
  5
2043
  8
0
 10
0.5515600043770093
 20
-0.6079706263672478
 30
0.0
  0
VERTEX
  5
2044
  8
0
 10
0.5036600043770108
 20
-0.5955706263672483
 30
0.0
  0
VERTEX
  5
2045
  8
0
 10
0.4576600043770043
 20
-0.578770626367259
 30
0.0
  0
VERTEX
  5
2046
  8
0
 10
0.4140600043770064
 20
-0.5575706263672516
 30
0.0
  0
VERTEX
  5
2047
  8
0
 10
0.3727600043769996
 20
-0.532570626367246
 30
0.0
  0
VERTEX
  5
2048
  8
0
 10
0.3343600043770039
 20
-0.5037706263672419
 30
0.0
  0
VERTEX
  5
2049
  8
0
 10
0.2986600043770124
 20
-0.4716706263672564
 30
0.0
  0
VERTEX
  5
204A
  8
0
 10
0.2665600043770127
 20
-0.4359706263672507
 30
0.0
  0
VERTEX
  5
204B
  8
0
 10
0.2377600043770087
 20
-0.3975706263672407
 30
0.0
  0
VERTEX
  5
204C
  8
0
 10
0.212760004377003
 20
-0.3562706263672481
 30
0.0
  0
VERTEX
  5
204D
  8
0
 10
0.1915600043770098
 20
-0.3126706263672503
 30
0.0
  0
VERTEX
  5
204E
  8
0
 10
0.1747600043770205
 20
-0.2666706263672438
 30
0.0
  0
VERTEX
  5
204F
  8
0
 10
0.1623600043770068
 20
-0.2187706263672453
 30
0.0
  0
VERTEX
  5
2050
  8
0
 10
0.1548600043770136
 20
-0.1691706263672472
 30
0.0
  0
VERTEX
  5
2051
  8
0
 10
0.1521600043770093
 20
-0.1181706263672453
 30
0.0
  0
VERTEX
  5
2052
  8
0
 10
0.1521600043770093
 20
-0.1181706263672453
 30
0.0
  0
VERTEX
  5
2053
  8
0
 10
0.1548600043770136
 20
-0.0668706263672476
 30
0.0
  0
VERTEX
  5
2054
  8
0
 10
0.1623600043770068
 20
-0.0172706263672495
 30
0.0
  0
VERTEX
  5
2055
  8
0
 10
0.1747600043770205
 20
0.0307293736327523
 30
0.0
  0
VERTEX
  5
2056
  8
0
 10
0.1915600043770098
 20
0.0765293736327522
 30
0.0
  0
VERTEX
  5
2057
  8
0
 10
0.212760004377003
 20
0.1203293736327566
 30
0.0
  0
VERTEX
  5
2058
  8
0
 10
0.2377600043770087
 20
0.1615293736327601
 30
0.0
  0
VERTEX
  5
2059
  8
0
 10
0.2665600043770127
 20
0.2000293736327592
 30
0.0
  0
VERTEX
  5
205A
  8
0
 10
0.2986600043770124
 20
0.2354293736327548
 30
0.0
  0
VERTEX
  5
205B
  8
0
 10
0.3343600043770039
 20
0.2678293736327504
 30
0.0
  0
VERTEX
  5
205C
  8
0
 10
0.3727600043769996
 20
0.2966293736327543
 30
0.0
  0
VERTEX
  5
205D
  8
0
 10
0.4140600043770064
 20
0.3217293736327491
 30
0.0
  0
VERTEX
  5
205E
  8
0
 10
0.4576600043770043
 20
0.3426293736327466
 30
0.0
  0
VERTEX
  5
205F
  8
0
 10
0.5036600043770108
 20
0.3595293736327534
 30
0.0
  0
VERTEX
  5
2060
  8
0
 10
0.5515600043770093
 20
0.3718293736327496
 30
0.0
  0
VERTEX
  5
2061
  8
0
 10
0.6011600043770075
 20
0.3793293736327428
 30
0.0
  0
VERTEX
  5
2062
  8
0
 10
0.6521600043770093
 20
0.3818293736327547
 30
0.0
  0
SEQEND
  5
2063
  8
0
  0
LINE
  5
1141
  8
1
 10
0.4576600043770043
 20
-0.578770626367259
 30
0.0
 11
1.2473600043770141
 21
-0.9706770751415518
 31
0.0
  0
LINE
  5
1142
  8
1
 10
0.8468600043770067
 20
0.3426293736327466
 30
0.0
 11
1.2473600043770141
 21
0.1416652096700517
 31
0.0
  0
POLYLINE
  5
1143
  8
0
 66
     1
 10
0.0
 20
0.0
 30
0.0
  0
VERTEX
  5
2064
  8
0
 10
0.6521600043770093
 20
0.3818293736327547
 30
0.0
  0
VERTEX
  5
2065
  8
0
 10
0.6521600043770093
 20
0.3818293736327547
 30
0.0
  0
VERTEX
  5
2066
  8
0
 10
0.703460004377007
 20
0.3793293736327428
 30
0.0
  0
VERTEX
  5
2067
  8
0
 10
0.7530600043770052
 20
0.3718293736327496
 30
0.0
  0
VERTEX
  5
2068
  8
0
 10
0.8010600043770068
 20
0.3595293736327534
 30
0.0
  0
VERTEX
  5
2069
  8
0
 10
0.8468600043770067
 20
0.3426293736327466
 30
0.0
  0
VERTEX
  5
206A
  8
0
 10
0.8906600043770112
 20
0.3217293736327491
 30
0.0
  0
VERTEX
  5
206B
  8
0
 10
0.9318600043770005
 20
0.2966293736327543
 30
0.0
  0
VERTEX
  5
206C
  8
0
 10
0.9703600043770138
 20
0.2678293736327504
 30
0.0
  0
VERTEX
  5
206D
  8
0
 10
1.005760004377009
 20
0.2354293736327548
 30
0.0
  0
VERTEX
  5
206E
  8
0
 10
1.0381600043770041
 20
0.2000293736327592
 30
0.0
  0
VERTEX
  5
206F
  8
0
 10
1.066960004377008
 20
0.1615293736327601
 30
0.0
  0
VERTEX
  5
2070
  8
0
 10
1.092060004377003
 20
0.1203293736327566
 30
0.0
  0
VERTEX
  5
2071
  8
0
 10
1.1129600043770149
 20
0.0765293736327522
 30
0.0
  0
VERTEX
  5
2072
  8
0
 10
1.1298600043770071
 20
0.0307293736327523
 30
0.0
  0
VERTEX
  5
2073
  8
0
 10
1.1421600043770179
 20
-0.0172706263672495
 30
0.0
  0
VERTEX
  5
2074
  8
0
 10
1.1496600043770111
 20
-0.0668706263672476
 30
0.0
  0
VERTEX
  5
2075
  8
0
 10
1.1521600043770091
 20
-0.1181706263672453
 30
0.0
  0
VERTEX
  5
2076
  8
0
 10
1.1521600043770091
 20
-0.1181706263672453
 30
0.0
  0
VERTEX
  5
2077
  8
0
 10
1.1496600043770111
 20
-0.1691706263672472
 30
0.0
  0
VERTEX
  5
2078
  8
0
 10
1.1421600043770179
 20
-0.2187706263672453
 30
0.0
  0
VERTEX
  5
2079
  8
0
 10
1.1298600043770071
 20
-0.2666706263672438
 30
0.0
  0
VERTEX
  5
207A
  8
0
 10
1.1129600043770149
 20
-0.3126706263672503
 30
0.0
  0
VERTEX
  5
207B
  8
0
 10
1.092060004377003
 20
-0.3562706263672481
 30
0.0
  0
VERTEX
  5
207C
  8
0
 10
1.066960004377008
 20
-0.3975706263672407
 30
0.0
  0
VERTEX
  5
207D
  8
0
 10
1.0381600043770041
 20
-0.4359706263672507
 30
0.0
  0
VERTEX
  5
207E
  8
0
 10
1.005760004377009
 20
-0.4716706263672564
 30
0.0
  0
VERTEX
  5
207F
  8
0
 10
0.9703600043770138
 20
-0.5037706263672419
 30
0.0
  0
VERTEX
  5
2080
  8
0
 10
0.9318600043770005
 20
-0.532570626367246
 30
0.0
  0
VERTEX
  5
2081
  8
0
 10
0.8906600043770112
 20
-0.5575706263672516
 30
0.0
  0
VERTEX
  5
2082
  8
0
 10
0.8468600043770067
 20
-0.578770626367259
 30
0.0
  0
VERTEX
  5
2083
  8
0
 10
0.8010600043770068
 20
-0.5955706263672483
 30
0.0
  0
VERTEX
  5
2084
  8
0
 10
0.7530600043770052
 20
-0.6079706263672478
 30
0.0
  0
VERTEX
  5
2085
  8
0
 10
0.703460004377007
 20
-0.6154706263672553
 30
0.0
  0
VERTEX
  5
2086
  8
0
 10
0.6521600043770093
 20
-0.6181706263672453
 30
0.0
  0
VERTEX
  5
2087
  8
0
 10
0.6521600043770093
 20
-0.6181706263672453
 30
0.0
  0
VERTEX
  5
2088
  8
0
 10
0.6011600043770075
 20
-0.6154706263672553
 30
0.0
  0
VERTEX
  5
2089
  8
0
 10
0.5515600043770093
 20
-0.6079706263672478
 30
0.0
  0
VERTEX
  5
208A
  8
0
 10
0.5036600043770108
 20
-0.5955706263672483
 30
0.0
  0
VERTEX
  5
208B
  8
0
 10
0.4576600043770043
 20
-0.578770626367259
 30
0.0
  0
VERTEX
  5
208C
  8
0
 10
0.4140600043770064
 20
-0.5575706263672516
 30
0.0
  0
VERTEX
  5
208D
  8
0
 10
0.3727600043769996
 20
-0.532570626367246
 30
0.0
  0
VERTEX
  5
208E
  8
0
 10
0.3343600043770039
 20
-0.5037706263672419
 30
0.0
  0
VERTEX
  5
208F
  8
0
 10
0.2986600043770124
 20
-0.4716706263672564
 30
0.0
  0
VERTEX
  5
2090
  8
0
 10
0.2665600043770127
 20
-0.4359706263672507
 30
0.0
  0
VERTEX
  5
2091
  8
0
 10
0.2377600043770087
 20
-0.3975706263672407
 30
0.0
  0
VERTEX
  5
2092
  8
0
 10
0.212760004377003
 20
-0.3562706263672481
 30
0.0
  0
VERTEX
  5
2093
  8
0
 10
0.1915600043770098
 20
-0.3126706263672503
 30
0.0
  0
VERTEX
  5
2094
  8
0
 10
0.1747600043770205
 20
-0.2666706263672438
 30
0.0
  0
VERTEX
  5
2095
  8
0
 10
0.1623600043770068
 20
-0.2187706263672453
 30
0.0
  0
VERTEX
  5
2096
  8
0
 10
0.1548600043770136
 20
-0.1691706263672472
 30
0.0
  0
VERTEX
  5
2097
  8
0
 10
0.1521600043770093
 20
-0.1181706263672453
 30
0.0
  0
VERTEX
  5
2098
  8
0
 10
0.1521600043770093
 20
-0.1181706263672453
 30
0.0
  0
VERTEX
  5
2099
  8
0
 10
0.1548600043770136
 20
-0.0668706263672476
 30
0.0
  0
VERTEX
  5
209A
  8
0
 10
0.1623600043770068
 20
-0.0172706263672495
 30
0.0
  0
VERTEX
  5
209B
  8
0
 10
0.1747600043770205
 20
0.0307293736327523
 30
0.0
  0
VERTEX
  5
209C
  8
0
 10
0.1915600043770098
 20
0.0765293736327522
 30
0.0
  0
VERTEX
  5
209D
  8
0
 10
0.212760004377003
 20
0.1203293736327566
 30
0.0
  0
VERTEX
  5
209E
  8
0
 10
0.2377600043770087
 20
0.1615293736327601
 30
0.0
  0
VERTEX
  5
209F
  8
0
 10
0.2665600043770127
 20
0.2000293736327592
 30
0.0
  0
VERTEX
  5
20A0
  8
0
 10
0.2986600043770124
 20
0.2354293736327548
 30
0.0
  0
VERTEX
  5
20A1
  8
0
 10
0.3343600043770039
 20
0.2678293736327504
 30
0.0
  0
VERTEX
  5
20A2
  8
0
 10
0.3727600043769996
 20
0.2966293736327543
 30
0.0
  0
VERTEX
  5
20A3
  8
0
 10
0.4140600043770064
 20
0.3217293736327491
 30
0.0
  0
VERTEX
  5
20A4
  8
0
 10
0.4576600043770043
 20
0.3426293736327466
 30
0.0
  0
VERTEX
  5
20A5
  8
0
 10
0.5036600043770108
 20
0.3595293736327534
 30
0.0
  0
VERTEX
  5
20A6
  8
0
 10
0.5515600043770093
 20
0.3718293736327496
 30
0.0
  0
VERTEX
  5
20A7
  8
0
 10
0.6011600043770075
 20
0.3793293736327428
 30
0.0
  0
VERTEX
  5
20A8
  8
0
 10
0.6521600043770093
 20
0.3818293736327547
 30
0.0
  0
SEQEND
  5
20A9
  8
0
  0
POLYLINE
  5
1144
  8
0
 66
     1
 10
0.0
 20
0.0
 30
0.0
  0
VERTEX
  5
20AA
  8
0
 10
0.6521600043770093
 20
0.3818293736327547
 30
0.0
  0
VERTEX
  5
20AB
  8
0
 10
0.6521600043770093
 20
0.3818293736327547
 30
0.0
  0
VERTEX
  5
20AC
  8
0
 10
0.703460004377007
 20
0.3793293736327428
 30
0.0
  0
VERTEX
  5
20AD
  8
0
 10
0.7530600043770052
 20
0.3718293736327496
 30
0.0
  0
VERTEX
  5
20AE
  8
0
 10
0.8010600043770068
 20
0.3595293736327534
 30
0.0
  0
VERTEX
  5
20AF
  8
0
 10
0.8468600043770067
 20
0.3426293736327466
 30
0.0
  0
VERTEX
  5
20B0
  8
0
 10
0.8906600043770112
 20
0.3217293736327491
 30
0.0
  0
VERTEX
  5
20B1
  8
0
 10
0.9318600043770005
 20
0.2966293736327543
 30
0.0
  0
VERTEX
  5
20B2
  8
0
 10
0.9703600043770138
 20
0.2678293736327504
 30
0.0
  0
VERTEX
  5
20B3
  8
0
 10
1.005760004377009
 20
0.2354293736327548
 30
0.0
  0
VERTEX
  5
20B4
  8
0
 10
1.0381600043770041
 20
0.2000293736327592
 30
0.0
  0
VERTEX
  5
20B5
  8
0
 10
1.066960004377008
 20
0.1615293736327601
 30
0.0
  0
VERTEX
  5
20B6
  8
0
 10
1.092060004377003
 20
0.1203293736327566
 30
0.0
  0
VERTEX
  5
20B7
  8
0
 10
1.1129600043770149
 20
0.0765293736327522
 30
0.0
  0
VERTEX
  5
20B8
  8
0
 10
1.1298600043770071
 20
0.0307293736327523
 30
0.0
  0
VERTEX
  5
20B9
  8
0
 10
1.1421600043770179
 20
-0.0172706263672495
 30
0.0
  0
VERTEX
  5
20BA
  8
0
 10
1.1496600043770111
 20
-0.0668706263672476
 30
0.0
  0
VERTEX
  5
20BB
  8
0
 10
1.1521600043770091
 20
-0.1181706263672453
 30
0.0
  0
VERTEX
  5
20BC
  8
0
 10
1.1521600043770091
 20
-0.1181706263672453
 30
0.0
  0
VERTEX
  5
20BD
  8
0
 10
1.1496600043770111
 20
-0.1691706263672472
 30
0.0
  0
VERTEX
  5
20BE
  8
0
 10
1.1421600043770179
 20
-0.2187706263672453
 30
0.0
  0
VERTEX
  5
20BF
  8
0
 10
1.1298600043770071
 20
-0.2666706263672438
 30
0.0
  0
VERTEX
  5
20C0
  8
0
 10
1.1129600043770149
 20
-0.3126706263672503
 30
0.0
  0
VERTEX
  5
20C1
  8
0
 10
1.092060004377003
 20
-0.3562706263672481
 30
0.0
  0
VERTEX
  5
20C2
  8
0
 10
1.066960004377008
 20
-0.3975706263672407
 30
0.0
  0
VERTEX
  5
20C3
  8
0
 10
1.0381600043770041
 20
-0.4359706263672507
 30
0.0
  0
VERTEX
  5
20C4
  8
0
 10
1.005760004377009
 20
-0.4716706263672564
 30
0.0
  0
VERTEX
  5
20C5
  8
0
 10
0.9703600043770138
 20
-0.5037706263672419
 30
0.0
  0
VERTEX
  5
20C6
  8
0
 10
0.9318600043770005
 20
-0.532570626367246
 30
0.0
  0
VERTEX
  5
20C7
  8
0
 10
0.8906600043770112
 20
-0.5575706263672516
 30
0.0
  0
VERTEX
  5
20C8
  8
0
 10
0.8468600043770067
 20
-0.578770626367259
 30
0.0
  0
VERTEX
  5
20C9
  8
0
 10
0.8010600043770068
 20
-0.5955706263672483
 30
0.0
  0
VERTEX
  5
20CA
  8
0
 10
0.7530600043770052
 20
-0.6079706263672478
 30
0.0
  0
VERTEX
  5
20CB
  8
0
 10
0.703460004377007
 20
-0.6154706263672553
 30
0.0
  0
VERTEX
  5
20CC
  8
0
 10
0.6521600043770093
 20
-0.6181706263672453
 30
0.0
  0
VERTEX
  5
20CD
  8
0
 10
0.6521600043770093
 20
-0.6181706263672453
 30
0.0
  0
VERTEX
  5
20CE
  8
0
 10
0.6011600043770075
 20
-0.6154706263672553
 30
0.0
  0
VERTEX
  5
20CF
  8
0
 10
0.5515600043770093
 20
-0.6079706263672478
 30
0.0
  0
VERTEX
  5
20D0
  8
0
 10
0.5036600043770108
 20
-0.5955706263672483
 30
0.0
  0
VERTEX
  5
20D1
  8
0
 10
0.4576600043770043
 20
-0.578770626367259
 30
0.0
  0
VERTEX
  5
20D2
  8
0
 10
0.4140600043770064
 20
-0.5575706263672516
 30
0.0
  0
VERTEX
  5
20D3
  8
0
 10
0.3727600043769996
 20
-0.532570626367246
 30
0.0
  0
VERTEX
  5
20D4
  8
0
 10
0.3343600043770039
 20
-0.5037706263672419
 30
0.0
  0
VERTEX
  5
20D5
  8
0
 10
0.2986600043770124
 20
-0.4716706263672564
 30
0.0
  0
VERTEX
  5
20D6
  8
0
 10
0.2665600043770127
 20
-0.4359706263672507
 30
0.0
  0
VERTEX
  5
20D7
  8
0
 10
0.2377600043770087
 20
-0.3975706263672407
 30
0.0
  0
VERTEX
  5
20D8
  8
0
 10
0.212760004377003
 20
-0.3562706263672481
 30
0.0
  0
VERTEX
  5
20D9
  8
0
 10
0.1915600043770098
 20
-0.3126706263672503
 30
0.0
  0
VERTEX
  5
20DA
  8
0
 10
0.1747600043770205
 20
-0.2666706263672438
 30
0.0
  0
VERTEX
  5
20DB
  8
0
 10
0.1623600043770068
 20
-0.2187706263672453
 30
0.0
  0
VERTEX
  5
20DC
  8
0
 10
0.1548600043770136
 20
-0.1691706263672472
 30
0.0
  0
VERTEX
  5
20DD
  8
0
 10
0.1521600043770093
 20
-0.1181706263672453
 30
0.0
  0
VERTEX
  5
20DE
  8
0
 10
0.1521600043770093
 20
-0.1181706263672453
 30
0.0
  0
VERTEX
  5
20DF
  8
0
 10
0.1548600043770136
 20
-0.0668706263672476
 30
0.0
  0
VERTEX
  5
20E0
  8
0
 10
0.1623600043770068
 20
-0.0172706263672495
 30
0.0
  0
VERTEX
  5
20E1
  8
0
 10
0.1747600043770205
 20
0.0307293736327523
 30
0.0
  0
VERTEX
  5
20E2
  8
0
 10
0.1915600043770098
 20
0.0765293736327522
 30
0.0
  0
VERTEX
  5
20E3
  8
0
 10
0.212760004377003
 20
0.1203293736327566
 30
0.0
  0
VERTEX
  5
20E4
  8
0
 10
0.2377600043770087
 20
0.1615293736327601
 30
0.0
  0
VERTEX
  5
20E5
  8
0
 10
0.2665600043770127
 20
0.2000293736327592
 30
0.0
  0
VERTEX
  5
20E6
  8
0
 10
0.2986600043770124
 20
0.2354293736327548
 30
0.0
  0
VERTEX
  5
20E7
  8
0
 10
0.3343600043770039
 20
0.2678293736327504
 30
0.0
  0
VERTEX
  5
20E8
  8
0
 10
0.3727600043769996
 20
0.2966293736327543
 30
0.0
  0
VERTEX
  5
20E9
  8
0
 10
0.4140600043770064
 20
0.3217293736327491
 30
0.0
  0
VERTEX
  5
20EA
  8
0
 10
0.4576600043770043
 20
0.3426293736327466
 30
0.0
  0
VERTEX
  5
20EB
  8
0
 10
0.5036600043770108
 20
0.3595293736327534
 30
0.0
  0
VERTEX
  5
20EC
  8
0
 10
0.5515600043770093
 20
0.3718293736327496
 30
0.0
  0
VERTEX
  5
20ED
  8
0
 10
0.6011600043770075
 20
0.3793293736327428
 30
0.0
  0
VERTEX
  5
20EE
  8
0
 10
0.6521600043770093
 20
0.3818293736327547
 30
0.0
  0
SEQEND
  5
20EF
  8
0
  0
ENDBLK
  5
1146
  8
0
  0
BLOCK
  8
0
  2
*D2
 70
     1
 10
0.0
 20
0.0
 30
0.0
  3
*D2
  1

  0
LINE
  5
1A76
  8
2
 62
     0
 10
98.592220796583888
 20
122.8899583759864
 30
0.0
 11
112.470207021929
 21
122.8899583759864
 31
0.0
  0
LINE
  5
1A77
  8
2
 62
     0
 10
100.08082079658379
 20
113.8899583759864
 30
0.0
 11
112.470207021929
 21
113.8899583759864
 31
0.0
  0
LINE
  5
1A78
  8
2
 62
     0
 10
111.220207021929
 20
120.3899583759864
 30
0.0
 11
111.220207021929
 21
116.3899583759864
 31
0.0
  0
SOLID
  5
1A79
  8
2
 62
     0
 10
110.8035403552623
 20
120.3899583759864
 30
0.0
 11
111.6368736885956
 21
120.3899583759864
 31
0.0
 12
111.220207021929
 22
122.8899583759864
 32
0.0
 13
111.220207021929
 23
122.8899583759864
 33
0.0
  0
SOLID
  5
1A7A
  8
2
 62
     0
 10
110.8035403552623
 20
116.3899583759864
 30
0.0
 11
111.6368736885956
 21
116.3899583759864
 31
0.0
 12
111.220207021929
 22
113.8899583759864
 32
0.0
 13
111.220207021929
 23
113.8899583759864
 33
0.0
  0
TEXT
  5
1A7B
  8
2
 62
     0
 10
110.5952070219289
 20
117.5566250426531
 30
0.0
 40
2.5
  1
9
 50
90.0
  0
POINT
  5
1A7C
  8
DEFPOINTS
 62
     0
 10
97.967220796583888
 20
122.8899583759864
 30
0.0
  0
POINT
  5
1A7D
  8
DEFPOINTS
 62
     0
 10
99.455820796583879
 20
113.8899583759864
 30
0.0
  0
POINT
  5
1A7E
  8
DEFPOINTS
 62
     0
 10
111.220207021929
 20
113.8899583759864
 30
0.0
  0
ENDBLK
  5
1A80
  8
0
  0
BLOCK
  8
0
  2
*D3
 70
     1
 10
0.0
 20
0.0
 30
0.0
  3
*D3
  1

  0
LINE
  5
1DA6
  8
2
 62
     0
 10
110.595207021929
 20
113.8899583759864
 30
0.0
 11
109.970207021929
 21
113.8899583759864
 31
0.0
  0
LINE
  5
1DA7
  8
2
 62
     0
 10
101.37362079658379
 20
88.389958375986467
 30
0.0
 11
112.470207021929
 21
88.389958375986467
 31
0.0
  0
LINE
  5
1DA8
  8
2
 62
     0
 10
111.220207021929
 20
111.3899583759864
 30
0.0
 11
111.220207021929
 21
90.889958375986467
 31
0.0
  0
SOLID
  5
1DA9
  8
2
 62
     0
 10
110.8035403552623
 20
111.3899583759864
 30
0.0
 11
111.6368736885956
 21
111.3899583759864
 31
0.0
 12
111.220207021929
 22
113.8899583759864
 32
0.0
 13
111.220207021929
 23
113.8899583759864
 33
0.0
  0
SOLID
  5
1DAA
  8
2
 62
     0
 10
110.8035403552623
 20
90.889958375986467
 30
0.0
 11
111.6368736885956
 21
90.889958375986467
 31
0.0
 12
111.220207021929
 22
88.389958375986467
 32
0.0
 13
111.220207021929
 23
88.389958375986467
 33
0.0
  0
TEXT
  5
1DAB
  8
2
 62
     0
 10
110.5952070219289
 20
97.389958375986495
 30
0.0
 40
2.5
  1
25.5
 50
90.0
  0
POINT
  5
1DAC
  8
DEFPOINTS
 62
     0
 10
111.220207021929
 20
113.8899583759864
 30
0.0
  0
POINT
  5
1DAD
  8
DEFPOINTS
 62
     0
 10
100.74862079658379
 20
88.389958375986467
 30
0.0
  0
POINT
  5
1DAE
  8
DEFPOINTS
 62
     0
 10
111.220207021929
 20
88.389958375986467
 30
0.0
  0
ENDBLK
  5
1A8D
  8
0
  0
BLOCK
  8
0
  2
*D4
 70
     1
 10
0.0
 20
0.0
 30
0.0
  3
*D4
  1

  0
LINE
  5
1DAF
  8
2
 62
     0
 10
110.5952070219289
 20
88.389958375986467
 30
0.0
 11
109.970207021929
 21
88.389958375986467
 31
0.0
  0
LINE
  5
1DB0
  8
2
 62
     0
 10
101.37362079658379
 20
83.389958375986467
 30
0.0
 11
112.470207021929
 21
83.389958375986467
 31
0.0
  0
LINE
  5
1DB1
  8
2
 62
     0
 10
111.220207021929
 20
90.889958375986467
 30
0.0
 11
111.220207021929
 21
93.389958375986467
 31
0.0
  0
LINE
  5
1DB2
  8
2
 62
     0
 10
111.220207021929
 20
80.889958375986467
 30
0.0
 11
111.220207021929
 21
78.389958375986467
 31
0.0
  0
LINE
  5
1DB3
  8
2
 62
     0
 10
111.220207021929
 20
88.389958375986467
 30
0.0
 11
111.220207021929
 21
83.389958375986467
 31
0.0
  0
SOLID
  5
1DB4
  8
2
 62
     0
 10
110.8035403552623
 20
90.889958375986467
 30
0.0
 11
111.6368736885956
 21
90.889958375986467
 31
0.0
 12
111.220207021929
 22
88.389958375986467
 32
0.0
 13
111.220207021929
 23
88.389958375986467
 33
0.0
  0
SOLID
  5
1DB5
  8
2
 62
     0
 10
110.8035403552623
 20
80.889958375986467
 30
0.0
 11
111.6368736885956
 21
80.889958375986467
 31
0.0
 12
111.220207021929
 22
83.389958375986467
 32
0.0
 13
111.220207021929
 23
83.389958375986467
 33
0.0
  0
TEXT
  5
1DB6
  8
2
 62
     0
 10
110.5952070219289
 20
85.056625042653167
 30
0.0
 40
2.5
  1
5
 50
90.0
  0
POINT
  5
1DB7
  8
DEFPOINTS
 62
     0
 10
111.220207021929
 20
88.389958375986467
 30
0.0
  0
POINT
  5
1DB8
  8
DEFPOINTS
 62
     0
 10
100.74862079658379
 20
83.389958375986467
 30
0.0
  0
POINT
  5
1DB9
  8
DEFPOINTS
 62
     0
 10
111.220207021929
 20
83.389958375986467
 30
0.0
  0
ENDBLK
  5
1A9C
  8
0
  0
BLOCK
  8
0
  2
*D5
 70
     1
 10
0.0
 20
0.0
 30
0.0
  3
*D5
  1

  0
LINE
  5
1E87
  8
2
 62
     0
 10
110.5952070219289
 20
55.389958375986467
 30
0.0
 11
109.970207021929
 21
55.389958375986467
 31
0.0
  0
LINE
  5
1E88
  8
2
 62
     0
 10
99.080820796583879
 20
53.289958375986473
 30
0.0
 11
112.470207021929
 21
53.289958375986473
 31
0.0
  0
LINE
  5
1E89
  8
2
 62
     0
 10
111.220207021929
 20
57.889958375986467
 30
0.0
 11
111.220207021929
 21
60.389958375986467
 31
0.0
  0
LINE
  5
1E8A
  8
2
 62
     0
 10
111.220207021929
 20
50.789958375986473
 30
0.0
 11
111.220207021929
 21
42.873291709319808
 31
0.0
  0
LINE
  5
1E8B
  8
2
 62
     0
 10
111.220207021929
 20
55.389958375986467
 30
0.0
 11
111.220207021929
 21
53.289958375986473
 31
0.0
  0
SOLID
  5
1E8C
  8
2
 62
     0
 10
110.8035403552623
 20
57.889958375986467
 30
0.0
 11
111.6368736885956
 21
57.889958375986467
 31
0.0
 12
111.220207021929
 22
55.389958375986467
 32
0.0
 13
111.220207021929
 23
55.389958375986467
 33
0.0
  0
SOLID
  5
1E8D
  8
2
 62
     0
 10
110.8035403552623
 20
50.789958375986473
 30
0.0
 11
111.6368736885956
 21
50.789958375986473
 31
0.0
 12
111.220207021929
 22
53.289958375986473
 32
0.0
 13
111.220207021929
 23
53.289958375986473
 33
0.0
  0
TEXT
  5
1E8E
  8
2
 62
     0
 10
110.5952070219289
 20
43.498291709319822
 30
0.0
 40
2.5
  1
2.1
 50
90.0
  0
POINT
  5
1E8F
  8
DEFPOINTS
 62
     0
 10
111.220207021929
 20
55.389958375986467
 30
0.0
  0
POINT
  5
1E90
  8
DEFPOINTS
 62
     0
 10
98.455820796583879
 20
53.289958375986473
 30
0.0
  0
POINT
  5
1E91
  8
DEFPOINTS
 62
     0
 10
111.220207021929
 20
53.289958375986473
 30
0.0
  0
ENDBLK
  5
1AC7
  8
0
  0
BLOCK
  8
0
  2
*D6
 70
     1
 10
0.0
 20
0.0
 30
0.0
  3
*D6
  1

  0
LINE
  5
1E2E
  8
2
 62
     0
 10
117.5918845271745
 20
122.8899583759864
 30
0.0
 11
123.3402125453931
 21
122.8899583759864
 31
0.0
  0
LINE
  5
1E2F
  8
2
 62
     0
 10
117.5918845271745
 20
51.289958375986473
 30
0.0
 11
123.3402125453931
 21
51.289958375986473
 31
0.0
  0
LINE
  5
1E30
  8
2
 62
     0
 10
122.0902125453931
 20
120.3899583759864
 30
0.0
 11
122.0902125453931
 21
53.789958375986473
 31
0.0
  0
SOLID
  5
1E31
  8
2
 62
     0
 10
121.6735458787264
 20
120.3899583759864
 30
0.0
 11
122.5068792120598
 21
120.3899583759864
 31
0.0
 12
122.0902125453931
 22
122.8899583759864
 32
0.0
 13
122.0902125453931
 23
122.8899583759864
 33
0.0
  0
SOLID
  5
1E32
  8
2
 62
     0
 10
121.6735458787264
 20
53.789958375986473
 30
0.0
 11
122.5068792120597
 21
53.789958375986473
 31
0.0
 12
122.0902125453931
 22
51.289958375986473
 32
0.0
 13
122.0902125453931
 23
51.289958375986473
 33
0.0
  0
TEXT
  5
1E33
  8
2
 62
     0
 10
121.4652125453931
 20
82.089958375986484
 30
0.0
 40
2.5
  1
(71.6)
 50
90.0
  0
POINT
  5
1E34
  8
DEFPOINTS
 62
     0
 10
116.9668845271745
 20
122.8899583759864
 30
0.0
  0
POINT
  5
1E35
  8
DEFPOINTS
 62
     0
 10
116.9668845271745
 20
51.289958375986473
 30
0.0
  0
POINT
  5
1E36
  8
DEFPOINTS
 62
     0
 10
122.0902125453931
 20
51.289958375986473
 30
0.0
  0
ENDBLK
  5
1AF0
  8
0
  0
BLOCK
  8
0
  2
*D7
 70
     1
 10
0.0
 20
0.0
 30
0.0
  3
*D7
  1

  0
LINE
  5
1E92
  8
2
 62
     0
 10
102.4304207965838
 20
68.389958375986467
 30
0.0
 11
112.470207021929
 21
68.389958375986467
 31
0.0
  0
LINE
  5
1E93
  8
2
 62
     0
 10
103.4877671380472
 20
55.389958375986467
 30
0.0
 11
112.470207021929
 21
55.38995837598646
 31
0.0
  0
LINE
  5
1E94
  8
2
 62
     0
 10
111.220207021929
 20
65.889958375986467
 30
0.0
 11
111.220207021929
 21
57.889958375986467
 31
0.0
  0
SOLID
  5
1E95
  8
2
 62
     0
 10
110.8035403552623
 20
65.889958375986467
 30
0.0
 11
111.6368736885956
 21
65.889958375986467
 31
0.0
 12
111.220207021929
 22
68.389958375986467
 32
0.0
 13
111.220207021929
 23
68.389958375986467
 33
0.0
  0
SOLID
  5
1E96
  8
2
 62
     0
 10
110.8035403552623
 20
57.889958375986467
 30
0.0
 11
111.6368736885956
 21
57.889958375986467
 31
0.0
 12
111.220207021929
 22
55.389958375986467
 32
0.0
 13
111.220207021929
 23
55.389958375986467
 33
0.0
  0
TEXT
  5
1E97
  8
2
 62
     0
 10
110.5952070219289
 20
60.223291709319817
 30
0.0
 40
2.5
  1
13
 50
90.0
  0
POINT
  5
1E98
  8
DEFPOINTS
 62
     0
 10
101.8054207965839
 20
68.389958375986467
 30
0.0
  0
POINT
  5
1E99
  8
DEFPOINTS
 62
     0
 10
102.8627671380472
 20
55.389958375986467
 30
0.0
  0
POINT
  5
1E9A
  8
DEFPOINTS
 62
     0
 10
111.220207021929
 20
55.389958375986467
 30
0.0
  0
ENDBLK
  5
1B00
  8
0
  0
BLOCK
  8
0
  2
A$C7E0A75AC
 70
     0
 10
0.0
 20
0.0
 30
0.0
  3
A$C7E0A75AC
  1

  0
LINE
  5
1B17
  8
0
 39
5.0
 10
0.0
 20
0.0
 30
0.0
 11
0.0
 21
-1.67309999999999
 31
0.0
  0
LINE
  5
1B18
  8
0
 39
5.0
 10
6.7265000000000006
 20
-2.6248999999999958
 30
0.0
 11
6.7265000000000006
 21
0.0
 31
0.0
  0
LINE
  5
1B19
  8
0
 39
5.0
 10
3.479600000000004
 20
-2.1858
 30
0.0
 11
4.222599999999999
 21
-2.1858999999999891
 31
0.0
  0
LINE
  5
1B1A
  8
0
 39
5.0
 10
0.0
 20
-1.67309999999999
 30
0.0
 11
1.5610999999999959
 21
-1.67309999999999
 31
0.0
  0
LINE
  5
1B1B
  8
0
 39
5.0
 10
3.4636431336825382
 20
-2.5
 30
0.0
 11
3.479600000000004
 21
-2.1858
 31
0.0
  0
LINE
  5
1B1C
  8
0
 39
5.0
 10
4.222599999999999
 20
-2.1858999999999891
 30
0.0
 11
5.0319457330912618
 21
-2.5
 31
0.0
  0
LINE
  5
1B1D
  8
0
 39
5.0
 10
4.222599999999999
 20
2.1858999999999891
 30
0.0
 11
5.0319457330912618
 21
2.5
 31
0.0
  0
LINE
  5
1B1E
  8
0
 39
5.0
 10
3.4636431336825382
 20
2.5
 30
0.0
 11
3.479600000000004
 21
2.1858
 31
0.0
  0
POLYLINE
  5
1B1F
  8
0
 66
     1
 10
0.0
 20
0.0
 30
0.0
 39
5.0
  0
VERTEX
  5
2377
  8
0
 10
12.67969999999999
 20
-2.527900000000002
 30
0.0
  0
VERTEX
  5
2378
  8
0
 10
15.3521
 20
-2.527900000000002
 30
0.0
  0
VERTEX
  5
2379
  8
0
 10
16.0
 20
-2.0450379310344848
 30
0.0
  0
SEQEND
  5
237A
  8
0
  0
POLYLINE
  5
1B20
  8
0
 66
     1
 10
0.0
 20
0.0
 30
0.0
 39
5.0
  0
VERTEX
  5
237B
  8
0
 10
12.67969999999999
 20
2.527900000000002
 30
0.0
  0
VERTEX
  5
237C
  8
0
 10
15.3521
 20
2.527900000000002
 30
0.0
  0
VERTEX
  5
237D
  8
0
 10
16.0
 20
2.0450379310344848
 30
0.0
  0
SEQEND
  5
237E
  8
0
  0
LINE
  5
1B21
  8
0
 39
5.0
 10
12.67969999999999
 20
-4.3983999999999952
 30
0.0
 11
12.0
 21
-4.3983999999999952
 31
0.0
  0
LINE
  5
1B22
  8
0
 39
5.0
 10
12.67969999999999
 20
4.3983999999999952
 30
0.0
 11
12.0
 21
4.3983999999999952
 31
0.0
  0
LINE
  5
1B23
  8
0
 39
5.0
 10
6.7265000000000006
 20
-4.3810000000000002
 30
0.0
 11
12.0
 21
-4.3810000000000002
 31
0.0
  0
LINE
  5
1B24
  8
0
 39
5.0
 10
12.0
 20
-2.0446999999999909
 30
0.0
 11
6.7265000000000006
 21
-2.0446999999999909
 31
0.0
  0
LINE
  5
1B25
  8
0
 39
5.0
 10
12.0
 20
2.0446999999999909
 30
0.0
 11
6.7265000000000006
 21
2.0446999999999909
 31
0.0
  0
LINE
  5
1B26
  8
0
 39
5.0
 10
6.7265000000000006
 20
4.3810000000000002
 30
0.0
 11
12.0
 21
4.3810000000000002
 31
0.0
  0
LINE
  5
1B27
  8
0
 39
5.0
 10
0.0
 20
1.67309999999999
 30
0.0
 11
1.5610999999999959
 21
1.67309999999999
 31
0.0
  0
LINE
  5
1B28
  8
0
 39
5.0
 10
3.479600000000004
 20
2.1858
 30
0.0
 11
4.222599999999999
 21
2.1858999999999891
 31
0.0
  0
LINE
  5
1B29
  8
0
 39
5.0
 10
6.7265000000000006
 20
2.6248999999999958
 30
0.0
 11
6.7265000000000006
 21
0.0
 31
0.0
  0
LINE
  5
1B2A
  8
0
 39
5.0
 10
0.0
 20
0.0
 30
0.0
 11
0.0
 21
1.67309999999999
 31
0.0
  0
LINE
  5
1B2B
  8
0
 39
5.0
 10
12.67969999999999
 20
2.527900000000002
 30
0.0
 11
12.67969999999999
 21
4.3983999999999952
 31
0.0
  0
LINE
  5
1B2C
  8
0
 39
5.0
 10
12.67969999999999
 20
-2.527900000000002
 30
0.0
 11
12.67969999999999
 21
-4.3983999999999952
 31
0.0
  0
LINE
  5
1B2D
  8
0
 39
5.0
 10
6.7265000000000006
 20
-2.6248999999999958
 30
0.0
 11
6.7265000000000006
 21
0.0
 31
0.0
  0
LINE
  5
1B2E
  8
0
 10
4.222599999999999
 20
-2.1858999999999891
 30
0.0
 11
4.222599999999999
 21
0.0
 31
0.0
  0
LINE
  5
1B2F
  8
0
 10
3.479600000000004
 20
-2.1858
 30
0.0
 11
3.479600000000004
 21
0.0
 31
0.0
  0
LINE
  5
1B30
  8
0
 10
1.5610999999999959
 20
-1.67309999999999
 30
0.0
 11
1.5610999999999959
 21
0.0
 31
0.0
  0
LINE
  5
1B31
  8
0
 10
2.4228999999999981
 20
-2.5
 30
0.0
 11
2.4228999999999981
 21
0.0
 31
0.0
  0
LINE
  5
1B32
  8
0
 10
5.3578999999999999
 20
-2.5
 30
0.0
 11
5.3578999999999999
 21
0.0
 31
0.0
  0
LINE
  5
1B33
  8
0
 10
16.0
 20
-2.0450379310344848
 30
0.0
 11
16.0
 21
2.0450379310344848
 31
0.0
  0
LINE
  5
1B34
  8
0
 10
12.0
 20
4.3983999999999952
 30
0.0
 11
12.0
 21
-4.3983999999999952
 31
0.0
  0
LINE
  5
1B35
  8
0
 10
15.3521
 20
-2.527900000000002
 30
0.0
 11
15.3521
 21
0.0
 31
0.0
  0
LINE
  5
1B36
  8
0
 10
12.67969999999999
 20
2.527900000000002
 30
0.0
 11
12.67969999999999
 21
-2.527900000000002
 31
0.0
  0
LINE
  5
1B37
  8
1
 10
2.4228999999999981
 20
-2.5
 30
0.0
 11
1.5610999999999959
 21
-1.67309999999999
 31
0.0
  0
LINE
  5
1B38
  8
0
 10
6.7265000000000006
 20
-4.3810000000000002
 30
0.0
 11
6.7265000000000006
 21
-2.6248999999999958
 31
0.0
  0
LINE
  5
1B39
  8
2
 10
15.754637313432831
 20
-2.2279000000000049
 30
0.0
 11
12.679699999999981
 21
-2.2279000000000049
 31
0.0
  0
LINE
  5
1B3A
  8
1
 10
2.4228999999999981
 20
2.5
 30
0.0
 11
1.5610999999999959
 21
1.67309999999999
 31
0.0
  0
LINE
  5
1B3B
  8
0
 10
5.3578999999999999
 20
2.5
 30
0.0
 11
5.3578999999999999
 21
0.0
 31
0.0
  0
LINE
  5
1B3C
  8
0
 10
2.4228999999999981
 20
2.5
 30
0.0
 11
2.4228999999999981
 21
0.0
 31
0.0
  0
LINE
  5
1B3D
  8
0
 10
1.5610999999999959
 20
1.67309999999999
 30
0.0
 11
1.5610999999999959
 21
0.0
 31
0.0
  0
LINE
  5
1B3E
  8
0
 10
3.479600000000004
 20
2.1858
 30
0.0
 11
3.479600000000004
 21
0.0
 31
0.0
  0
LINE
  5
1B3F
  8
0
 10
4.222599999999999
 20
2.1858999999999891
 30
0.0
 11
4.222599999999999
 21
0.0
 31
0.0
  0
LINE
  5
1B40
  8
0
 10
6.7265000000000006
 20
4.3810000000000002
 30
0.0
 11
6.7265000000000006
 21
2.6248999999999958
 31
0.0
  0
LINE
  5
1B41
  8
2
 10
15.754637313432831
 20
2.2279000000000049
 30
0.0
 11
12.679699999999981
 21
2.2279000000000049
 31
0.0
  0
LINE
  5
1B42
  8
0
 10
15.3521
 20
2.527900000000002
 30
0.0
 11
15.3521
 21
0.0
 31
0.0
  0
LINE
  5
1B43
  8
0
 10
5.0319457330912618
 20
-2.5
 30
2.5
 11
6.7265000000000006
 21
-2.5
 31
2.5
  0
LINE
  5
1B44
  8
0
 10
3.4636431336825382
 20
-2.5
 30
2.5
 11
2.4228999999999909
 21
-2.5
 31
2.5
  0
LINE
  5
1B45
  8
0
 10
5.0319457330912618
 20
2.5
 30
2.5
 11
6.7265000000000006
 21
2.5
 31
2.5
  0
LINE
  5
1B46
  8
0
 10
3.4636431336825382
 20
2.5
 30
2.5
 11
2.4228999999999909
 21
2.5
 31
2.5
  0
ENDBLK
  5
1B48
  8
0
  0
BLOCK
  8
0
  2
*D9
 70
     1
 10
0.0
 20
0.0
 30
0.0
  3
*D9
  1

  0
LINE
  5
1E7C
  8
2
 62
     0
 10
92.455820796583879
 20
50.664958375986473
 30
0.0
 11
92.455820796583879
 21
39.545053111379531
 31
0.0
  0
LINE
  5
1E7D
  8
2
 62
     0
 10
98.455820796583879
 20
50.664958375986473
 30
0.0
 11
98.455820796583879
 21
39.545053111379531
 31
0.0
  0
LINE
  5
1E7E
  8
2
 62
     0
 10
89.955820796583879
 20
40.795053111379517
 30
0.0
 11
87.455820796583879
 21
40.795053111379517
 31
0.0
  0
LINE
  5
1E7F
  8
2
 62
     0
 10
100.95582079658379
 20
40.795053111379517
 30
0.0
 11
103.45582079658379
 21
40.795053111379517
 31
0.0
  0
LINE
  5
1E80
  8
2
 62
     0
 10
92.455820796583879
 20
40.795053111379517
 30
0.0
 11
98.455820796583879
 21
40.795053111379517
 31
0.0
  0
SOLID
  5
1E81
  8
2
 62
     0
 10
89.955820796583879
 20
41.211719778046188
 30
0.0
 11
89.955820796583879
 21
40.378386444712859
 31
0.0
 12
92.455820796583879
 22
40.795053111379517
 32
0.0
 13
92.455820796583879
 23
40.795053111379517
 33
0.0
  0
SOLID
  5
1E82
  8
2
 62
     0
 10
100.95582079658379
 20
41.211719778046188
 30
0.0
 11
100.95582079658379
 21
40.378386444712859
 31
0.0
 12
98.455820796583879
 22
40.795053111379517
 32
0.0
 13
98.455820796583879
 23
40.795053111379517
 33
0.0
  0
INSERT
  5
1E83
  8
2
  2
*U19
 10
0.0
 20
0.0
 30
0.0
  0
POINT
  5
1E84
  8
DEFPOINTS
 62
     0
 10
92.455820796583879
 20
51.289958375986473
 30
0.0
  0
POINT
  5
1E85
  8
DEFPOINTS
 62
     0
 10
98.455820796583879
 20
51.289958375986473
 30
0.0
  0
POINT
  5
1E86
  8
DEFPOINTS
 62
     0
 10
98.455820796583879
 20
40.795053111379517
 30
0.0
  0
ENDBLK
  5
1BCE
  8
0
  0
BLOCK
  8
0
  2
*D10
 70
     1
 10
0.0
 20
0.0
 30
0.0
  3
*D10
  1

  0
LINE
  5
1E71
  8
2
 62
     0
 10
95.455820796583865
 20
49.664958375986473
 30
0.0
 11
95.455820796583865
 21
44.158672371303823
 31
0.0
  0
LINE
  5
1E72
  8
2
 62
     0
 10
90.455820796583865
 20
54.764958375986467
 30
0.0
 11
90.455820796583865
 21
44.158672371303823
 31
0.0
  0
LINE
  5
1E73
  8
2
 62
     0
 10
97.955820796583865
 20
45.408672371303823
 30
0.0
 11
100.45582079658379
 21
45.408672371303823
 31
0.0
  0
LINE
  5
1E74
  8
2
 62
     0
 10
87.955820796583865
 20
45.408672371303823
 30
0.0
 11
82.539154129917208
 21
45.408672371303823
 31
0.0
  0
LINE
  5
1E75
  8
2
 62
     0
 10
95.455820796583865
 20
45.408672371303823
 30
0.0
 11
90.455820796583865
 21
45.408672371303823
 31
0.0
  0
SOLID
  5
1E76
  8
2
 62
     0
 10
97.955820796583865
 20
45.82533903797048
 30
0.0
 11
97.955820796583865
 21
44.992005704637158
 31
0.0
 12
95.455820796583865
 22
45.408672371303823
 32
0.0
 13
95.455820796583865
 23
45.408672371303823
 33
0.0
  0
SOLID
  5
1E77
  8
2
 62
     0
 10
87.955820796583865
 20
45.82533903797048
 30
0.0
 11
87.955820796583865
 21
44.992005704637158
 31
0.0
 12
90.455820796583865
 22
45.408672371303823
 32
0.0
 13
90.455820796583865
 23
45.408672371303823
 33
0.0
  0
TEXT
  5
1E78
  8
2
 62
     0
 10
83.164154129917208
 20
46.033672371303823
 30
0.0
 40
2.5
  1
5
  0
POINT
  5
1E79
  8
DEFPOINTS
 62
     0
 10
95.455820796583865
 20
50.289958375986473
 30
0.0
  0
POINT
  5
1E7A
  8
DEFPOINTS
 62
     0
 10
90.455820796583865
 20
55.389958375986467
 30
0.0
  0
POINT
  5
1E7B
  8
DEFPOINTS
 62
     0
 10
90.455820796583865
 20
45.408672371303823
 30
0.0
  0
ENDBLK
  5
1BDD
  8
0
  0
BLOCK
  8
0
  2
*D11
 70
     1
 10
0.0
 20
0.0
 30
0.0
  3
*D11
  1

  0
LINE
  5
1E5D
  8
2
 62
     0
 10
43.796382874303049
 20
58.297158375986477
 30
0.0
 11
43.796382874303049
 21
47.618886757821052
 31
0.0
  0
LINE
  5
1E5E
  8
2
 62
     0
 10
55.796382874303049
 20
55.57185837598648
 30
0.0
 11
55.796382874303049
 21
47.618886757821052
 31
0.0
  0
LINE
  5
1E5F
  8
2
 62
     0
 10
46.296382874303049
 20
48.868886757821059
 30
0.0
 11
53.296382874303049
 21
48.868886757821059
 31
0.0
  0
SOLID
  5
1E60
  8
2
 62
     0
 10
46.296382874303049
 20
49.285553424487723
 30
0.0
 11
46.296382874303049
 21
48.452220091154388
 31
0.0
 12
43.796382874303049
 22
48.868886757821059
 32
0.0
 13
43.796382874303049
 23
48.868886757821059
 33
0.0
  0
SOLID
  5
1E61
  8
2
 62
     0
 10
53.296382874303049
 20
49.285553424487723
 30
0.0
 11
53.296382874303049
 21
48.452220091154388
 31
0.0
 12
55.796382874303049
 22
48.868886757821059
 32
0.0
 13
55.796382874303049
 23
48.868886757821059
 33
0.0
  0
TEXT
  5
1E62
  8
2
 62
     0
 10
48.129716207636378
 20
49.493886757821059
 30
0.0
 40
2.5
  1
12
  0
POINT
  5
1E63
  8
DEFPOINTS
 62
     0
 10
43.796382874303049
 20
58.922158375986477
 30
2.5
  0
POINT
  5
1E64
  8
DEFPOINTS
 62
     0
 10
55.796382874303049
 20
56.19685837598648
 30
2.5
  0
POINT
  5
1E65
  8
DEFPOINTS
 62
     0
 10
55.796382874303049
 20
48.868886757821059
 30
0.0
  0
ENDBLK
  5
1C01
  8
0
  0
BLOCK
  8
0
  2
*D12
 70
     1
 10
0.0
 20
0.0
 30
0.0
  3
*D12
  1

  0
LINE
  5
1E54
  8
2
 62
     0
 10
43.796382874303049
 20
48.243886757821059
 30
0.0
 11
43.796382874303049
 21
42.480992576684798
 31
0.0
  0
LINE
  5
1E55
  8
2
 62
     0
 10
59.796382874303042
 20
57.925220444951989
 30
0.0
 11
59.796382874303042
 21
42.480992576684798
 31
0.0
  0
LINE
  5
1E56
  8
2
 62
     0
 10
46.296382874303049
 20
43.730992576684798
 30
0.0
 11
57.296382874303042
 21
43.730992576684798
 31
0.0
  0
SOLID
  5
1E57
  8
2
 62
     0
 10
46.296382874303049
 20
44.147659243351463
 30
0.0
 11
46.296382874303049
 21
43.314325910018127
 31
0.0
 12
43.796382874303049
 22
43.730992576684798
 32
0.0
 13
43.796382874303049
 23
43.730992576684798
 33
0.0
  0
SOLID
  5
1E58
  8
2
 62
     0
 10
57.296382874303042
 20
44.147659243351463
 30
0.0
 11
57.296382874303042
 21
43.314325910018127
 31
0.0
 12
59.796382874303042
 22
43.730992576684798
 32
0.0
 13
59.796382874303042
 23
43.730992576684798
 33
0.0
  0
TEXT
  5
1E59
  8
2
 62
     0
 10
50.129716207636392
 20
44.355992576684798
 30
0.0
 40
2.5
  1
16
  0
POINT
  5
1E5A
  8
DEFPOINTS
 62
     0
 10
43.796382874303049
 20
48.868886757821059
 30
0.0
  0
POINT
  5
1E5B
  8
DEFPOINTS
 62
     0
 10
59.796382874303042
 20
58.550220444951989
 30
2.5
  0
POINT
  5
1E5C
  8
DEFPOINTS
 62
     0
 10
59.796382874303042
 20
43.730992576684798
 30
0.0
  0
ENDBLK
  5
1C0E
  8
0
  0
BLOCK
  8
0
  2
*D13
 70
     1
 10
0.0
 20
0.0
 30
0.0
  3
*D13
  1

  0
LINE
  5
1E49
  8
2
 62
     0
 10
45.59428287430304
 20
63.095258375986482
 30
0.0
 11
36.225643975861992
 21
63.095258375986482
 31
0.0
  0
LINE
  5
1E4A
  8
2
 62
     0
 10
45.59428287430304
 20
58.095258375986482
 30
0.0
 11
36.225643975861992
 21
58.095258375986482
 31
0.0
  0
LINE
  5
1E4B
  8
2
 62
     0
 10
37.475643975861992
 20
65.595258375986461
 30
0.0
 11
37.475643975861992
 21
68.095258375986461
 31
0.0
  0
LINE
  5
1E4C
  8
2
 62
     0
 10
37.475643975861992
 20
55.595258375986482
 30
0.0
 11
37.475643975861978
 21
47.678591709319811
 31
0.0
  0
LINE
  5
1E4D
  8
2
 62
     0
 10
37.475643975861992
 20
63.095258375986482
 30
0.0
 11
37.475643975861992
 21
58.095258375986482
 31
0.0
  0
SOLID
  5
1E4E
  8
2
 62
     0
 10
37.058977309195328
 20
65.595258375986461
 30
0.0
 11
37.892310642528649
 21
65.595258375986461
 31
0.0
 12
37.475643975861992
 22
63.095258375986482
 32
0.0
 13
37.475643975861992
 23
63.095258375986482
 33
0.0
  0
SOLID
  5
1E4F
  8
2
 62
     0
 10
37.058977309195328
 20
55.595258375986482
 30
0.0
 11
37.892310642528649
 21
55.595258375986482
 31
0.0
 12
37.475643975861992
 22
58.095258375986482
 32
0.0
 13
37.475643975861992
 23
58.095258375986482
 33
0.0
  0
INSERT
  5
1E50
  8
2
  2
*U18
 10
0.0
 20
0.0
 30
0.0
  0
POINT
  5
1E51
  8
DEFPOINTS
 62
     0
 10
46.21928287430304
 20
63.095258375986482
 30
2.5
  0
POINT
  5
1E52
  8
DEFPOINTS
 62
     0
 10
46.21928287430304
 20
58.095258375986482
 30
2.5
  0
POINT
  5
1E53
  8
DEFPOINTS
 62
     0
 10
37.475643975861992
 20
58.095258375986482
 30
0.0
  0
ENDBLK
  5
1C1F
  8
0
  0
BLOCK
  8
0
  2
*D14
 70
     1
 10
0.0
 20
0.0
 30
0.0
  3
*D14
  1

  0
LINE
  5
1E40
  8
2
 62
     0
 10
110.5952070219289
 20
83.389958375986467
 30
0.0
 11
109.970207021929
 21
83.389958375986467
 31
0.0
  0
LINE
  5
1E41
  8
2
 62
     0
 10
110.5952070219289
 20
68.389958375986467
 30
0.0
 11
109.970207021929
 21
68.389958375986467
 31
0.0
  0
LINE
  5
1E42
  8
2
 62
     0
 10
111.220207021929
 20
80.889958375986467
 30
0.0
 11
111.220207021929
 21
70.889958375986467
 31
0.0
  0
SOLID
  5
1E43
  8
2
 62
     0
 10
110.8035403552623
 20
80.889958375986467
 30
0.0
 11
111.6368736885956
 21
80.889958375986467
 31
0.0
 12
111.220207021929
 22
83.389958375986467
 32
0.0
 13
111.220207021929
 23
83.389958375986467
 33
0.0
  0
SOLID
  5
1E44
  8
2
 62
     0
 10
110.8035403552623
 20
70.889958375986467
 30
0.0
 11
111.6368736885956
 21
70.889958375986467
 31
0.0
 12
111.220207021929
 22
68.389958375986467
 32
0.0
 13
111.220207021929
 23
68.389958375986467
 33
0.0
  0
TEXT
  5
1E45
  8
2
 62
     0
 10
110.5952070219289
 20
74.223291709319824
 30
0.0
 40
2.5
  1
15
 50
90.0
  0
POINT
  5
1E46
  8
DEFPOINTS
 62
     0
 10
111.220207021929
 20
83.389958375986467
 30
0.0
  0
POINT
  5
1E47
  8
DEFPOINTS
 62
     0
 10
111.220207021929
 20
68.389958375986467
 30
0.0
  0
POINT
  5
1E48
  8
DEFPOINTS
 62
     0
 10
111.220207021929
 20
68.389958375986467
 30
0.0
  0
ENDBLK
  5
1CC9
  8
0
  0
BLOCK
  8
0
  2
*D15
 70
     1
 10
0.0
 20
0.0
 30
0.0
  3
*D15
  1

  0
LINE
  5
1E25
  8
2
 62
     0
 10
111.845207021929
 20
122.8899583759864
 30
0.0
 11
117.93180092277871
 21
122.8899583759864
 31
0.0
  0
LINE
  5
1E26
  8
2
 62
     0
 10
111.8452070219289
 20
55.389958375986467
 30
0.0
 11
117.93180092277871
 21
55.38995837598646
 31
0.0
  0
LINE
  5
1E27
  8
2
 62
     0
 10
116.68180092277871
 20
120.3899583759864
 30
0.0
 11
116.68180092277871
 21
57.88995837598646
 31
0.0
  0
SOLID
  5
1E28
  8
2
 62
     0
 10
116.26513425611201
 20
120.3899583759864
 30
0.0
 11
117.09846758944541
 21
120.3899583759864
 31
0.0
 12
116.68180092277871
 22
122.8899583759864
 32
0.0
 13
116.68180092277871
 23
122.8899583759864
 33
0.0
  0
SOLID
  5
1E29
  8
2
 62
     0
 10
116.26513425611201
 20
57.88995837598646
 30
0.0
 11
117.09846758944531
 21
57.88995837598646
 31
0.0
 12
116.68180092277871
 22
55.38995837598646
 32
0.0
 13
116.68180092277871
 23
55.38995837598646
 33
0.0
  0
TEXT
  5
1E2A
  8
2
 62
     0
 10
116.05680092277871
 20
83.723291709319824
 30
0.0
 40
2.5
  1
(67.5)
 50
90.0
  0
POINT
  5
1E2B
  8
DEFPOINTS
 62
     0
 10
111.220207021929
 20
122.8899583759864
 30
0.0
  0
POINT
  5
1E2C
  8
DEFPOINTS
 62
     0
 10
111.220207021929
 20
55.389958375986467
 30
0.0
  0
POINT
  5
1E2D
  8
DEFPOINTS
 62
     0
 10
116.68180092277871
 20
55.38995837598646
 30
0.0
  0
ENDBLK
  5
1D65
  8
0
  0
BLOCK
  8
0
  2
*D16
 70
     1
 10
0.0
 20
0.0
 30
0.0
  3
*D16
  1

  0
LINE
  5
1E66
  8
2
 62
     0
 10
116.05680092277871
 20
55.389958375986467
 30
0.0
 11
115.43180092277871
 21
55.389958375986467
 31
0.0
  0
LINE
  5
1E67
  8
2
 62
     0
 10
99.080820796583879
 20
51.289958375986473
 30
0.0
 11
117.93180092277871
 21
51.289958375986473
 31
0.0
  0
LINE
  5
1E68
  8
2
 62
     0
 10
116.68180092277871
 20
57.889958375986467
 30
0.0
 11
116.68180092277871
 21
60.389958375986467
 31
0.0
  0
LINE
  5
1E69
  8
2
 62
     0
 10
116.68180092277871
 20
48.789958375986473
 30
0.0
 11
116.68180092277871
 21
40.873291709319801
 31
0.0
  0
LINE
  5
1E6A
  8
2
 62
     0
 10
116.68180092277871
 20
55.389958375986467
 30
0.0
 11
116.68180092277871
 21
51.289958375986473
 31
0.0
  0
SOLID
  5
1E6B
  8
2
 62
     0
 10
116.26513425611201
 20
57.889958375986467
 30
0.0
 11
117.09846758944531
 21
57.889958375986467
 31
0.0
 12
116.68180092277871
 22
55.389958375986467
 32
0.0
 13
116.68180092277871
 23
55.389958375986467
 33
0.0
  0
SOLID
  5
1E6C
  8
2
 62
     0
 10
116.26513425611201
 20
48.789958375986473
 30
0.0
 11
117.09846758944531
 21
48.789958375986473
 31
0.0
 12
116.68180092277871
 22
51.289958375986473
 32
0.0
 13
116.68180092277871
 23
51.289958375986473
 33
0.0
  0
TEXT
  5
1E6D
  8
2
 62
     0
 10
116.05680092277871
 20
41.498291709319808
 30
0.0
 40
2.5
  1
4.1
 50
90.0
  0
POINT
  5
1E6E
  8
DEFPOINTS
 62
     0
 10
116.68180092277871
 20
55.389958375986467
 30
0.0
  0
POINT
  5
1E6F
  8
DEFPOINTS
 62
     0
 10
98.455820796583879
 20
51.289958375986473
 30
0.0
  0
POINT
  5
1E70
  8
DEFPOINTS
 62
     0
 10
116.68180092277871
 20
51.289958375986473
 30
0.0
  0
ENDBLK
  5
1D74
  8
0
  0
BLOCK
  8
0
  2
*D17
 70
     1
 10
0.0
 20
0.0
 30
0.0
  3
*D17
  1

  0
LINE
  5
1EA6
  8
2
 62
     0
 10
89.538020796583865
 20
83.389958375986467
 30
0.0
 11
80.736874096159696
 21
83.389958375986467
 31
0.0
  0
LINE
  5
1EA7
  8
2
 62
     0
 10
87.979167251589615
 20
68.389958375986467
 30
0.0
 11
80.736874096159696
 21
68.389958375986467
 31
0.0
  0
LINE
  5
1EA8
  8
2
 62
     0
 10
81.986874096159696
 20
80.889958375986467
 30
0.0
 11
81.986874096159696
 21
70.889958375986467
 31
0.0
  0
SOLID
  5
1EA9
  8
2
 62
     0
 10
81.57020742949301
 20
80.889958375986467
 30
0.0
 11
82.403540762826353
 21
80.889958375986467
 31
0.0
 12
81.986874096159696
 22
83.389958375986467
 32
0.0
 13
81.986874096159696
 23
83.389958375986467
 33
0.0
  0
SOLID
  5
1EAA
  8
2
 62
     0
 10
81.57020742949301
 20
70.889958375986467
 30
0.0
 11
82.403540762826353
 21
70.889958375986467
 31
0.0
 12
81.986874096159696
 22
68.389958375986467
 32
0.0
 13
81.986874096159696
 23
68.389958375986467
 33
0.0
  0
TEXT
  5
1EAB
  8
2
 62
     0
 10
81.361874096159667
 20
74.223291709319795
 30
0.0
 40
2.5
  1
15
 50
90.0
  0
POINT
  5
1EAC
  8
DEFPOINTS
 62
     0
 10
90.163020796583865
 20
83.389958375986467
 30
0.0
  0
POINT
  5
1EAD
  8
DEFPOINTS
 62
     0
 10
88.604167251589615
 20
68.389958375986467
 30
0.0
  0
POINT
  5
1EAE
  8
DEFPOINTS
 62
     0
 10
81.986874096159696
 20
68.389958375986467
 30
0.0
  0
ENDBLK
  5
1EB0
  8
0
  0
BLOCK
  8
0
  2
*U18
 70
     1
 10
0.0
 20
0.0
 30
0.0
  3
*U18
  1

  0
TEXT
  5
2388
  8
2
 62
     0
 10
36.850643975861971
 20
48.303591709319811
 30
0.0
 40
2.5
  1
\U+2205
 50
90.0
  0
TEXT
  5
2389
  8
2
 62
     0
 10
36.850643975861971
 20
50.803591709319811
 30
0.0
 40
2.5
  1
5
 50
90.0
  0
ENDBLK
  5
238B
  8
0
  0
BLOCK
  8
0
  2
*U19
 70
     1
 10
0.0
 20
0.0
 30
0.0
  3
*U19
  1

  0
TEXT
  5
238D
  8
2
 62
     0
 10
93.37248746325055
 20
41.420053111379517
 30
0.0
 40
2.5
  1
\U+2205
  0
TEXT
  5
238E
  8
2
 62
     0
 10
95.87248746325055
 20
41.420053111379517
 30
0.0
 40
2.5
  1
6
  0
ENDBLK
  5
2390
  8
0
  0
ENDSEC
  0
SECTION
  2
ENTITIES
  0
POLYLINE
  5
88B
  8
0
 62
     0
 66
     1
 10
0.0
 20
0.0
 30
0.0
 39
5.0
  0
VERTEX
  5
1F38
  8
0
 62
     0
 10
95.455820796583865
 20
133.2975583759864
 30
0.0
  0
VERTEX
  5
1F39
  8
0
 62
     0
 10
91.764220796583885
 20
133.2975583759864
 30
0.0
  0
VERTEX
  5
1F3A
  8
0
 62
     0
 10
91.764220796583885
 20
132.75455837598639
 30
0.0
  0
VERTEX
  5
1F3B
  8
0
 62
     0
 10
95.455820796583865
 20
132.75455837598639
 30
0.0
  0
SEQEND
  5
1F3C
  8
0
 62
     0
  0
POLYLINE
  5
8A5
  8
0
 66
     1
 10
0.0
 20
0.0
 30
0.0
 39
5.0
  0
VERTEX
  5
1F3D
  8
0
 10
89.094120796583866
 20
105.7234583759864
 30
0.0
  0
VERTEX
  5
1F3E
  8
0
 10
91.749920796583865
 20
105.7234583759864
 30
0.0
  0
SEQEND
  5
1F3F
  8
0
  0
POLYLINE
  5
8A6
  8
0
 66
     1
 10
0.0
 20
0.0
 30
0.0
 39
5.0
  0
VERTEX
  5
1F40
  8
0
 10
89.094120796583866
 20
102.6776583759864
 30
0.0
  0
VERTEX
  5
1F41
  8
0
 10
91.749920796583865
 20
102.6776583759864
 30
0.0
  0
SEQEND
  5
1F42
  8
0
  0
POLYLINE
  5
9EE
  8
2
 66
     1
 10
0.0
 20
0.0
 30
0.0
 39
5.0
  0
VERTEX
  5
1F43
  8
2
 10
90.455820796583865
 20
63.076458375986483
 30
0.0
  0
VERTEX
  5
1F44
  8
2
 10
93.487320796583873
 20
63.076458375986483
 30
0.0
  0
SEQEND
  5
1F45
  8
2
  0
POLYLINE
  5
9F0
  8
2
 66
     1
 10
0.0
 20
0.0
 30
0.0
 39
5.0
  0
VERTEX
  5
1F46
  8
2
 10
93.487320796583873
 20
67.582058375986477
 30
0.0
  0
VERTEX
  5
1F47
  8
2
 10
93.487320796583873
 20
63.56304389408885
 30
0.0
  0
SEQEND
  5
1F48
  8
2
  0
POLYLINE
  5
A48
  8
0
 66
     1
 10
0.0
 20
0.0
 30
0.0
 39
5.0
  0
VERTEX
  5
1F49
  8
0
 10
93.026020796583879
 20
111.1517583759864
 30
0.0
  0
VERTEX
  5
1F4A
  8
0
 10
93.026020796583879
 20
111.1517583759864
 30
0.0
  0
VERTEX
  5
1F4B
  8
0
 10
93.077320796583876
 20
111.14925837598641
 30
0.0
  0
VERTEX
  5
1F4C
  8
0
 10
93.126920796583875
 20
111.1417583759864
 30
0.0
  0
VERTEX
  5
1F4D
  8
0
 10
93.174920796583876
 20
111.1294583759864
 30
0.0
  0
VERTEX
  5
1F4E
  8
0
 10
93.220720796583876
 20
111.1125583759864
 30
0.0
  0
VERTEX
  5
1F4F
  8
0
 10
93.264520796583881
 20
111.0916583759864
 30
0.0
  0
VERTEX
  5
1F50
  8
0
 10
93.305720796583856
 20
111.0665583759864
 30
0.0
  0
VERTEX
  5
1F51
  8
0
 10
93.344220796583883
 20
111.0377583759864
 30
0.0
  0
VERTEX
  5
1F52
  8
0
 10
93.379620796583865
 20
111.0053583759864
 30
0.0
  0
VERTEX
  5
1F53
  8
0
 10
93.412020796583874
 20
110.96995837598639
 30
0.0
  0
VERTEX
  5
1F54
  8
0
 10
93.440820796583878
 20
110.9314583759864
 30
0.0
  0
VERTEX
  5
1F55
  8
0
 10
93.465920796583873
 20
110.89025837598641
 30
0.0
  0
VERTEX
  5
1F56
  8
0
 10
93.486820796583885
 20
110.8464583759864
 30
0.0
  0
VERTEX
  5
1F57
  8
0
 10
93.503720796583877
 20
110.8006583759864
 30
0.0
  0
VERTEX
  5
1F58
  8
0
 10
93.516020796583888
 20
110.7526583759864
 30
0.0
  0
VERTEX
  5
1F59
  8
0
 10
93.523520796583881
 20
110.7030583759864
 30
0.0
  0
VERTEX
  5
1F5A
  8
0
 10
93.526020796583865
 20
110.6517583759864
 30
0.0
  0
VERTEX
  5
1F5B
  8
0
 10
93.526020796583865
 20
110.6517583759864
 30
0.0
  0
VERTEX
  5
1F5C
  8
0
 10
93.523520796583881
 20
110.6007583759864
 30
0.0
  0
VERTEX
  5
1F5D
  8
0
 10
93.516020796583888
 20
110.5511583759864
 30
0.0
  0
VERTEX
  5
1F5E
  8
0
 10
93.503720796583877
 20
110.50325837598641
 30
0.0
  0
VERTEX
  5
1F5F
  8
0
 10
93.486820796583885
 20
110.4572583759864
 30
0.0
  0
VERTEX
  5
1F60
  8
0
 10
93.465920796583873
 20
110.4136583759864
 30
0.0
  0
VERTEX
  5
1F61
  8
0
 10
93.440820796583878
 20
110.37235837598639
 30
0.0
  0
VERTEX
  5
1F62
  8
0
 10
93.412020796583874
 20
110.3339583759864
 30
0.0
  0
VERTEX
  5
1F63
  8
0
 10
93.379620796583865
 20
110.29825837598641
 30
0.0
  0
VERTEX
  5
1F64
  8
0
 10
93.344220796583883
 20
110.26615837598639
 30
0.0
  0
VERTEX
  5
1F65
  8
0
 10
93.305720796583856
 20
110.2373583759864
 30
0.0
  0
VERTEX
  5
1F66
  8
0
 10
93.264520796583881
 20
110.2123583759864
 30
0.0
  0
VERTEX
  5
1F67
  8
0
 10
93.220720796583876
 20
110.1911583759864
 30
0.0
  0
VERTEX
  5
1F68
  8
0
 10
93.174920796583876
 20
110.1743583759864
 30
0.0
  0
VERTEX
  5
1F69
  8
0
 10
93.126920796583875
 20
110.1619583759864
 30
0.0
  0
VERTEX
  5
1F6A
  8
0
 10
93.077320796583876
 20
110.15445837598639
 30
0.0
  0
VERTEX
  5
1F6B
  8
0
 10
93.026020796583879
 20
110.1517583759864
 30
0.0
  0
VERTEX
  5
1F6C
  8
0
 10
93.026020796583879
 20
110.1517583759864
 30
0.0
  0
VERTEX
  5
1F6D
  8
0
 10
92.975020796583877
 20
110.15445837598639
 30
0.0
  0
VERTEX
  5
1F6E
  8
0
 10
92.925420796583865
 20
110.1619583759864
 30
0.0
  0
VERTEX
  5
1F6F
  8
0
 10
92.877520796583866
 20
110.1743583759864
 30
0.0
  0
VERTEX
  5
1F70
  8
0
 10
92.831520796583874
 20
110.1911583759864
 30
0.0
  0
VERTEX
  5
1F71
  8
0
 10
92.787920796583876
 20
110.2123583759864
 30
0.0
  0
VERTEX
  5
1F72
  8
0
 10
92.746620796583869
 20
110.2373583759864
 30
0.0
  0
VERTEX
  5
1F73
  8
0
 10
92.708220796583873
 20
110.26615837598639
 30
0.0
  0
VERTEX
  5
1F74
  8
0
 10
92.672520796583896
 20
110.29825837598641
 30
0.0
  0
VERTEX
  5
1F75
  8
0
 10
92.640420796583882
 20
110.3339583759864
 30
0.0
  0
VERTEX
  5
1F76
  8
0
 10
92.611620796583878
 20
110.37235837598639
 30
0.0
  0
VERTEX
  5
1F77
  8
0
 10
92.586620796583873
 20
110.4136583759864
 30
0.0
  0
VERTEX
  5
1F78
  8
0
 10
92.565420796583865
 20
110.4572583759864
 30
0.0
  0
VERTEX
  5
1F79
  8
0
 10
92.54862079658389
 20
110.50325837598641
 30
0.0
  0
VERTEX
  5
1F7A
  8
0
 10
92.536220796583876
 20
110.5511583759864
 30
0.0
  0
VERTEX
  5
1F7B
  8
0
 10
92.528720796583883
 20
110.6007583759864
 30
0.0
  0
VERTEX
  5
1F7C
  8
0
 10
92.526020796583865
 20
110.6517583759864
 30
0.0
  0
VERTEX
  5
1F7D
  8
0
 10
92.526020796583865
 20
110.6517583759864
 30
0.0
  0
VERTEX
  5
1F7E
  8
0
 10
92.528720796583883
 20
110.7030583759864
 30
0.0
  0
VERTEX
  5
1F7F
  8
0
 10
92.536220796583876
 20
110.7526583759864
 30
0.0
  0
VERTEX
  5
1F80
  8
0
 10
92.54862079658389
 20
110.8006583759864
 30
0.0
  0
VERTEX
  5
1F81
  8
0
 10
92.565420796583865
 20
110.8464583759864
 30
0.0
  0
VERTEX
  5
1F82
  8
0
 10
92.586620796583873
 20
110.89025837598641
 30
0.0
  0
VERTEX
  5
1F83
  8
0
 10
92.611620796583878
 20
110.9314583759864
 30
0.0
  0
VERTEX
  5
1F84
  8
0
 10
92.640420796583882
 20
110.96995837598639
 30
0.0
  0
VERTEX
  5
1F85
  8
0
 10
92.672520796583896
 20
111.0053583759864
 30
0.0
  0
VERTEX
  5
1F86
  8
0
 10
92.708220796583873
 20
111.0377583759864
 30
0.0
  0
VERTEX
  5
1F87
  8
0
 10
92.746620796583869
 20
111.0665583759864
 30
0.0
  0
VERTEX
  5
1F88
  8
0
 10
92.787920796583876
 20
111.0916583759864
 30
0.0
  0
VERTEX
  5
1F89
  8
0
 10
92.831520796583874
 20
111.1125583759864
 30
0.0
  0
VERTEX
  5
1F8A
  8
0
 10
92.877520796583866
 20
111.1294583759864
 30
0.0
  0
VERTEX
  5
1F8B
  8
0
 10
92.925420796583865
 20
111.1417583759864
 30
0.0
  0
VERTEX
  5
1F8C
  8
0
 10
92.975020796583877
 20
111.14925837598641
 30
0.0
  0
VERTEX
  5
1F8D
  8
0
 10
93.026020796583879
 20
111.1517583759864
 30
0.0
  0
SEQEND
  5
1F8E
  8
0
  0
POLYLINE
  5
A68
  8
0
 66
     1
 10
0.0
 20
0.0
 30
0.0
  0
VERTEX
  5
1F8F
  8
0
 10
93.026020796583879
 20
111.1517583759864
 30
0.0
  0
VERTEX
  5
1F90
  8
0
 10
93.026020796583879
 20
111.1517583759864
 30
0.0
  0
VERTEX
  5
1F91
  8
0
 10
93.077320796583876
 20
111.14925837598641
 30
0.0
  0
VERTEX
  5
1F92
  8
0
 10
93.126920796583875
 20
111.1417583759864
 30
0.0
  0
VERTEX
  5
1F93
  8
0
 10
93.174920796583876
 20
111.1294583759864
 30
0.0
  0
VERTEX
  5
1F94
  8
0
 10
93.220720796583876
 20
111.1125583759864
 30
0.0
  0
VERTEX
  5
1F95
  8
0
 10
93.264520796583881
 20
111.0916583759864
 30
0.0
  0
VERTEX
  5
1F96
  8
0
 10
93.305720796583856
 20
111.0665583759864
 30
0.0
  0
VERTEX
  5
1F97
  8
0
 10
93.344220796583883
 20
111.0377583759864
 30
0.0
  0
VERTEX
  5
1F98
  8
0
 10
93.379620796583865
 20
111.0053583759864
 30
0.0
  0
VERTEX
  5
1F99
  8
0
 10
93.412020796583874
 20
110.96995837598639
 30
0.0
  0
VERTEX
  5
1F9A
  8
0
 10
93.440820796583878
 20
110.9314583759864
 30
0.0
  0
VERTEX
  5
1F9B
  8
0
 10
93.465920796583873
 20
110.89025837598641
 30
0.0
  0
VERTEX
  5
1F9C
  8
0
 10
93.486820796583885
 20
110.8464583759864
 30
0.0
  0
VERTEX
  5
1F9D
  8
0
 10
93.503720796583877
 20
110.8006583759864
 30
0.0
  0
VERTEX
  5
1F9E
  8
0
 10
93.516020796583888
 20
110.7526583759864
 30
0.0
  0
VERTEX
  5
1F9F
  8
0
 10
93.523520796583881
 20
110.7030583759864
 30
0.0
  0
VERTEX
  5
1FA0
  8
0
 10
93.526020796583865
 20
110.6517583759864
 30
0.0
  0
VERTEX
  5
1FA1
  8
0
 10
93.526020796583865
 20
110.6517583759864
 30
0.0
  0
VERTEX
  5
1FA2
  8
0
 10
93.523520796583881
 20
110.6007583759864
 30
0.0
  0
VERTEX
  5
1FA3
  8
0
 10
93.516020796583888
 20
110.5511583759864
 30
0.0
  0
VERTEX
  5
1FA4
  8
0
 10
93.503720796583877
 20
110.50325837598641
 30
0.0
  0
VERTEX
  5
1FA5
  8
0
 10
93.486820796583885
 20
110.4572583759864
 30
0.0
  0
VERTEX
  5
1FA6
  8
0
 10
93.465920796583873
 20
110.4136583759864
 30
0.0
  0
VERTEX
  5
1FA7
  8
0
 10
93.440820796583878
 20
110.37235837598639
 30
0.0
  0
VERTEX
  5
1FA8
  8
0
 10
93.412020796583874
 20
110.3339583759864
 30
0.0
  0
VERTEX
  5
1FA9
  8
0
 10
93.379620796583865
 20
110.29825837598641
 30
0.0
  0
VERTEX
  5
1FAA
  8
0
 10
93.344220796583883
 20
110.26615837598639
 30
0.0
  0
VERTEX
  5
1FAB
  8
0
 10
93.305720796583856
 20
110.2373583759864
 30
0.0
  0
VERTEX
  5
1FAC
  8
0
 10
93.264520796583881
 20
110.2123583759864
 30
0.0
  0
VERTEX
  5
1FAD
  8
0
 10
93.220720796583876
 20
110.1911583759864
 30
0.0
  0
VERTEX
  5
1FAE
  8
0
 10
93.174920796583876
 20
110.1743583759864
 30
0.0
  0
VERTEX
  5
1FAF
  8
0
 10
93.126920796583875
 20
110.1619583759864
 30
0.0
  0
VERTEX
  5
1FB0
  8
0
 10
93.077320796583876
 20
110.15445837598639
 30
0.0
  0
VERTEX
  5
1FB1
  8
0
 10
93.026020796583879
 20
110.1517583759864
 30
0.0
  0
VERTEX
  5
1FB2
  8
0
 10
93.026020796583879
 20
110.1517583759864
 30
0.0
  0
VERTEX
  5
1FB3
  8
0
 10
92.975020796583877
 20
110.15445837598639
 30
0.0
  0
VERTEX
  5
1FB4
  8
0
 10
92.925420796583865
 20
110.1619583759864
 30
0.0
  0
VERTEX
  5
1FB5
  8
0
 10
92.877520796583866
 20
110.1743583759864
 30
0.0
  0
VERTEX
  5
1FB6
  8
0
 10
92.831520796583874
 20
110.1911583759864
 30
0.0
  0
VERTEX
  5
1FB7
  8
0
 10
92.787920796583876
 20
110.2123583759864
 30
0.0
  0
VERTEX
  5
1FB8
  8
0
 10
92.746620796583869
 20
110.2373583759864
 30
0.0
  0
VERTEX
  5
1FB9
  8
0
 10
92.708220796583873
 20
110.26615837598639
 30
0.0
  0
VERTEX
  5
1FBA
  8
0
 10
92.672520796583896
 20
110.29825837598641
 30
0.0
  0
VERTEX
  5
1FBB
  8
0
 10
92.640420796583882
 20
110.3339583759864
 30
0.0
  0
VERTEX
  5
1FBC
  8
0
 10
92.611620796583878
 20
110.37235837598639
 30
0.0
  0
VERTEX
  5
1FBD
  8
0
 10
92.586620796583873
 20
110.4136583759864
 30
0.0
  0
VERTEX
  5
1FBE
  8
0
 10
92.565420796583865
 20
110.4572583759864
 30
0.0
  0
VERTEX
  5
1FBF
  8
0
 10
92.54862079658389
 20
110.50325837598641
 30
0.0
  0
VERTEX
  5
1FC0
  8
0
 10
92.536220796583876
 20
110.5511583759864
 30
0.0
  0
VERTEX
  5
1FC1
  8
0
 10
92.528720796583883
 20
110.6007583759864
 30
0.0
  0
VERTEX
  5
1FC2
  8
0
 10
92.526020796583865
 20
110.6517583759864
 30
0.0
  0
VERTEX
  5
1FC3
  8
0
 10
92.526020796583865
 20
110.6517583759864
 30
0.0
  0
VERTEX
  5
1FC4
  8
0
 10
92.528720796583883
 20
110.7030583759864
 30
0.0
  0
VERTEX
  5
1FC5
  8
0
 10
92.536220796583876
 20
110.7526583759864
 30
0.0
  0
VERTEX
  5
1FC6
  8
0
 10
92.54862079658389
 20
110.8006583759864
 30
0.0
  0
VERTEX
  5
1FC7
  8
0
 10
92.565420796583865
 20
110.8464583759864
 30
0.0
  0
VERTEX
  5
1FC8
  8
0
 10
92.586620796583873
 20
110.89025837598641
 30
0.0
  0
VERTEX
  5
1FC9
  8
0
 10
92.611620796583878
 20
110.9314583759864
 30
0.0
  0
VERTEX
  5
1FCA
  8
0
 10
92.640420796583882
 20
110.96995837598639
 30
0.0
  0
VERTEX
  5
1FCB
  8
0
 10
92.672520796583896
 20
111.0053583759864
 30
0.0
  0
VERTEX
  5
1FCC
  8
0
 10
92.708220796583873
 20
111.0377583759864
 30
0.0
  0
VERTEX
  5
1FCD
  8
0
 10
92.746620796583869
 20
111.0665583759864
 30
0.0
  0
VERTEX
  5
1FCE
  8
0
 10
92.787920796583876
 20
111.0916583759864
 30
0.0
  0
VERTEX
  5
1FCF
  8
0
 10
92.831520796583874
 20
111.1125583759864
 30
0.0
  0
VERTEX
  5
1FD0
  8
0
 10
92.877520796583866
 20
111.1294583759864
 30
0.0
  0
VERTEX
  5
1FD1
  8
0
 10
92.925420796583865
 20
111.1417583759864
 30
0.0
  0
VERTEX
  5
1FD2
  8
0
 10
92.975020796583877
 20
111.14925837598641
 30
0.0
  0
VERTEX
  5
1FD3
  8
0
 10
93.026020796583879
 20
111.1517583759864
 30
0.0
  0
SEQEND
  5
1FD4
  8
0
  0
POLYLINE
  5
A6A
  8
0
 66
     1
 10
0.0
 20
0.0
 30
0.0
  0
VERTEX
  5
1FD5
  8
0
 10
93.026020796583879
 20
111.1517583759864
 30
0.0
  0
VERTEX
  5
1FD6
  8
0
 10
93.026020796583879
 20
111.1517583759864
 30
0.0
  0
VERTEX
  5
1FD7
  8
0
 10
93.077320796583876
 20
111.14925837598641
 30
0.0
  0
VERTEX
  5
1FD8
  8
0
 10
93.126920796583875
 20
111.1417583759864
 30
0.0
  0
VERTEX
  5
1FD9
  8
0
 10
93.174920796583876
 20
111.1294583759864
 30
0.0
  0
VERTEX
  5
1FDA
  8
0
 10
93.220720796583876
 20
111.1125583759864
 30
0.0
  0
VERTEX
  5
1FDB
  8
0
 10
93.264520796583881
 20
111.0916583759864
 30
0.0
  0
VERTEX
  5
1FDC
  8
0
 10
93.305720796583856
 20
111.0665583759864
 30
0.0
  0
VERTEX
  5
1FDD
  8
0
 10
93.344220796583883
 20
111.0377583759864
 30
0.0
  0
VERTEX
  5
1FDE
  8
0
 10
93.379620796583865
 20
111.0053583759864
 30
0.0
  0
VERTEX
  5
1FDF
  8
0
 10
93.412020796583874
 20
110.96995837598639
 30
0.0
  0
VERTEX
  5
1FE0
  8
0
 10
93.440820796583878
 20
110.9314583759864
 30
0.0
  0
VERTEX
  5
1FE1
  8
0
 10
93.465920796583873
 20
110.89025837598641
 30
0.0
  0
VERTEX
  5
1FE2
  8
0
 10
93.486820796583885
 20
110.8464583759864
 30
0.0
  0
VERTEX
  5
1FE3
  8
0
 10
93.503720796583877
 20
110.8006583759864
 30
0.0
  0
VERTEX
  5
1FE4
  8
0
 10
93.516020796583888
 20
110.7526583759864
 30
0.0
  0
VERTEX
  5
1FE5
  8
0
 10
93.523520796583881
 20
110.7030583759864
 30
0.0
  0
VERTEX
  5
1FE6
  8
0
 10
93.526020796583865
 20
110.6517583759864
 30
0.0
  0
VERTEX
  5
1FE7
  8
0
 10
93.526020796583865
 20
110.6517583759864
 30
0.0
  0
VERTEX
  5
1FE8
  8
0
 10
93.523520796583881
 20
110.6007583759864
 30
0.0
  0
VERTEX
  5
1FE9
  8
0
 10
93.516020796583888
 20
110.5511583759864
 30
0.0
  0
VERTEX
  5
1FEA
  8
0
 10
93.503720796583877
 20
110.50325837598641
 30
0.0
  0
VERTEX
  5
1FEB
  8
0
 10
93.486820796583885
 20
110.4572583759864
 30
0.0
  0
VERTEX
  5
1FEC
  8
0
 10
93.465920796583873
 20
110.4136583759864
 30
0.0
  0
VERTEX
  5
1FED
  8
0
 10
93.440820796583878
 20
110.37235837598639
 30
0.0
  0
VERTEX
  5
1FEE
  8
0
 10
93.412020796583874
 20
110.3339583759864
 30
0.0
  0
VERTEX
  5
1FEF
  8
0
 10
93.379620796583865
 20
110.29825837598641
 30
0.0
  0
VERTEX
  5
1FF0
  8
0
 10
93.344220796583883
 20
110.26615837598639
 30
0.0
  0
VERTEX
  5
1FF1
  8
0
 10
93.305720796583856
 20
110.2373583759864
 30
0.0
  0
VERTEX
  5
1FF2
  8
0
 10
93.264520796583881
 20
110.2123583759864
 30
0.0
  0
VERTEX
  5
1FF3
  8
0
 10
93.220720796583876
 20
110.1911583759864
 30
0.0
  0
VERTEX
  5
1FF4
  8
0
 10
93.174920796583876
 20
110.1743583759864
 30
0.0
  0
VERTEX
  5
1FF5
  8
0
 10
93.126920796583875
 20
110.1619583759864
 30
0.0
  0
VERTEX
  5
1FF6
  8
0
 10
93.077320796583876
 20
110.15445837598639
 30
0.0
  0
VERTEX
  5
1FF7
  8
0
 10
93.026020796583879
 20
110.1517583759864
 30
0.0
  0
VERTEX
  5
1FF8
  8
0
 10
93.026020796583879
 20
110.1517583759864
 30
0.0
  0
VERTEX
  5
1FF9
  8
0
 10
92.975020796583877
 20
110.15445837598639
 30
0.0
  0
VERTEX
  5
1FFA
  8
0
 10
92.925420796583865
 20
110.1619583759864
 30
0.0
  0
VERTEX
  5
1FFB
  8
0
 10
92.877520796583866
 20
110.1743583759864
 30
0.0
  0
VERTEX
  5
1FFC
  8
0
 10
92.831520796583874
 20
110.1911583759864
 30
0.0
  0
VERTEX
  5
1FFD
  8
0
 10
92.787920796583876
 20
110.2123583759864
 30
0.0
  0
VERTEX
  5
1FFE
  8
0
 10
92.746620796583869
 20
110.2373583759864
 30
0.0
  0
VERTEX
  5
1FFF
  8
0
 10
92.708220796583873
 20
110.26615837598639
 30
0.0
  0
VERTEX
  5
2000
  8
0
 10
92.672520796583896
 20
110.29825837598641
 30
0.0
  0
VERTEX
  5
2001
  8
0
 10
92.640420796583882
 20
110.3339583759864
 30
0.0
  0
VERTEX
  5
2002
  8
0
 10
92.611620796583878
 20
110.37235837598639
 30
0.0
  0
VERTEX
  5
2003
  8
0
 10
92.586620796583873
 20
110.4136583759864
 30
0.0
  0
VERTEX
  5
2004
  8
0
 10
92.565420796583865
 20
110.4572583759864
 30
0.0
  0
VERTEX
  5
2005
  8
0
 10
92.54862079658389
 20
110.50325837598641
 30
0.0
  0
VERTEX
  5
2006
  8
0
 10
92.536220796583876
 20
110.5511583759864
 30
0.0
  0
VERTEX
  5
2007
  8
0
 10
92.528720796583883
 20
110.6007583759864
 30
0.0
  0
VERTEX
  5
2008
  8
0
 10
92.526020796583865
 20
110.6517583759864
 30
0.0
  0
VERTEX
  5
2009
  8
0
 10
92.526020796583865
 20
110.6517583759864
 30
0.0
  0
VERTEX
  5
200A
  8
0
 10
92.528720796583883
 20
110.7030583759864
 30
0.0
  0
VERTEX
  5
200B
  8
0
 10
92.536220796583876
 20
110.7526583759864
 30
0.0
  0
VERTEX
  5
200C
  8
0
 10
92.54862079658389
 20
110.8006583759864
 30
0.0
  0
VERTEX
  5
200D
  8
0
 10
92.565420796583865
 20
110.8464583759864
 30
0.0
  0
VERTEX
  5
200E
  8
0
 10
92.586620796583873
 20
110.89025837598641
 30
0.0
  0
VERTEX
  5
200F
  8
0
 10
92.611620796583878
 20
110.9314583759864
 30
0.0
  0
VERTEX
  5
2010
  8
0
 10
92.640420796583882
 20
110.96995837598639
 30
0.0
  0
VERTEX
  5
2011
  8
0
 10
92.672520796583896
 20
111.0053583759864
 30
0.0
  0
VERTEX
  5
2012
  8
0
 10
92.708220796583873
 20
111.0377583759864
 30
0.0
  0
VERTEX
  5
2013
  8
0
 10
92.746620796583869
 20
111.0665583759864
 30
0.0
  0
VERTEX
  5
2014
  8
0
 10
92.787920796583876
 20
111.0916583759864
 30
0.0
  0
VERTEX
  5
2015
  8
0
 10
92.831520796583874
 20
111.1125583759864
 30
0.0
  0
VERTEX
  5
2016
  8
0
 10
92.877520796583866
 20
111.1294583759864
 30
0.0
  0
VERTEX
  5
2017
  8
0
 10
92.925420796583865
 20
111.1417583759864
 30
0.0
  0
VERTEX
  5
2018
  8
0
 10
92.975020796583877
 20
111.14925837598641
 30
0.0
  0
VERTEX
  5
2019
  8
0
 10
93.026020796583879
 20
111.1517583759864
 30
0.0
  0
SEQEND
  5
201A
  8
0
  0
POLYLINE
  5
B87
  8
2
 66
     1
 10
0.0
 20
0.0
 30
0.0
 39
5.0
  0
VERTEX
  5
201B
  8
2
 10
93.838120796583894
 20
119.16515837598639
 30
0.0
  0
VERTEX
  5
201C
  8
2
 10
93.838120796583894
 20
113.8899583759864
 30
0.0
  0
SEQEND
  5
201D
  8
2
  0
TEXT
  5
BB0
  8
2
 10
89.065576101074043
 20
20.427513288025089
 30
0.0
 40
2.5399440000000002
  1
50.331
 51
-0.0000015352344868
  7
\U+00C9L\U+00C9R_\U+00C2S\U+00C2V\U+00C2B\U+00C2N
  0
LINE
  5
10A1
  8
0
 39
5.0
 10
95.455820796583865
 20
135.25705837598639
 30
0.0
 11
93.992520796583875
 21
135.25705837598639
 31
0.0
  0
LINE
  5
10A3
  8
2
 39
5.0
 10
93.434520796583868
 20
135.45938518219839
 30
0.0
 11
93.434520796583897
 21
139.58155837598639
 31
0.0
  0
LINE
  5
10AA
  8
0
 39
5.0
 10
95.455820796583865
 20
139.58155837598639
 30
0.0
 11
90.855820796583885
 21
139.58155837598639
 31
0.0
  0
LINE
  5
10AC
  8
0
 10
95.455820796583865
 20
135.63295837598639
 30
0.0
 11
92.955820796583865
 21
135.63295837598639
 31
0.0
  0
LINE
  5
10BE
  8
0
 39
5.0
 10
92.944420796583856
 20
122.8899583759864
 30
0.0
 11
95.455820796583865
 21
122.8899583759864
 31
0.0
  0
LINE
  5
10C1
  8
0
 39
5.0
 10
92.005820796583876
 20
113.8899583759864
 30
0.0
 11
92.005820796583876
 21
121.9718583759864
 31
0.0
  0
LINE
  5
10C2
  8
0
 39
5.0
 10
92.005820796583876
 20
121.9718583759864
 30
0.0
 11
92.005820796583876
 21
121.9718583759864
 31
0.0
  0
LINE
  5
10C3
  8
0
 39
5.0
 10
92.005820796583876
 20
121.9718583759864
 30
0.0
 11
92.003220796583875
 21
122.06235837598641
 31
0.0
  0
LINE
  5
10C4
  8
0
 39
5.0
 10
92.003220796583875
 20
122.06235837598641
 30
0.0
 11
92.014420796583863
 21
122.1502583759864
 31
0.0
  0
LINE
  5
10C5
  8
0
 39
5.0
 10
92.014420796583863
 20
122.1502583759864
 30
0.0
 11
92.038220796583872
 21
122.2354583759864
 31
0.0
  0
LINE
  5
10C6
  8
0
 39
5.0
 10
92.038220796583872
 20
122.2354583759864
 30
0.0
 11
92.073120796583879
 21
122.3172583759864
 31
0.0
  0
LINE
  5
10C7
  8
0
 39
5.0
 10
92.073120796583879
 20
122.3172583759864
 30
0.0
 11
92.11852079658388
 21
122.3955583759864
 31
0.0
  0
LINE
  5
10C8
  8
0
 39
5.0
 10
92.11852079658388
 20
122.3955583759864
 30
0.0
 11
92.172620796583885
 21
122.4695583759864
 31
0.0
  0
LINE
  5
10C9
  8
0
 39
5.0
 10
92.172620796583885
 20
122.4695583759864
 30
0.0
 11
92.234720796583872
 21
122.5391583759864
 31
0.0
  0
LINE
  5
10CA
  8
0
 39
5.0
 10
92.234720796583872
 20
122.5391583759864
 30
0.0
 11
92.303220796583872
 21
122.6036583759864
 31
0.0
  0
LINE
  5
10CB
  8
0
 39
5.0
 10
92.303220796583872
 20
122.6036583759864
 30
0.0
 11
92.377320796583874
 21
122.66295837598641
 31
0.0
  0
LINE
  5
10CC
  8
0
 39
5.0
 10
92.377320796583874
 20
122.66295837598641
 30
0.0
 11
92.455420796583866
 21
122.7163583759864
 31
0.0
  0
LINE
  5
10CD
  8
0
 39
5.0
 10
92.455420796583866
 20
122.7163583759864
 30
0.0
 11
92.536520796583872
 21
122.7634583759864
 31
0.0
  0
LINE
  5
10CE
  8
0
 39
5.0
 10
92.536520796583872
 20
122.7634583759864
 30
0.0
 11
92.619420796583867
 21
122.80385837598639
 31
0.0
  0
LINE
  5
10CF
  8
0
 39
5.0
 10
92.619420796583867
 20
122.80385837598639
 30
0.0
 11
92.702920796583868
 21
122.83725837598639
 31
0.0
  0
LINE
  5
10D0
  8
0
 39
5.0
 10
92.702920796583868
 20
122.83725837598639
 30
0.0
 11
92.785620796583871
 21
122.86295837598639
 31
0.0
  0
LINE
  5
10D1
  8
0
 39
5.0
 10
92.785620796583871
 20
122.86295837598639
 30
0.0
 11
92.866620796583874
 21
122.8807583759864
 31
0.0
  0
LINE
  5
10D2
  8
0
 39
5.0
 10
92.866620796583874
 20
122.8807583759864
 30
0.0
 11
92.944420796583856
 21
122.8899583759864
 31
0.0
  0
LINE
  5
10D5
  8
0
 39
5.0
 10
95.455820796583865
 20
120.3767583759864
 30
0.0
 11
92.955820796583865
 21
120.3767583759864
 31
0.0
  0
LINE
  5
10DC
  8
0
 39
5.0
 10
92.955820796583865
 20
119.16515837598639
 30
0.0
 11
95.455820796583865
 21
119.16515837598639
 31
0.0
  0
LINE
  5
10DF
  8
0
 62
     7
 39
5.0
 10
93.092720796583905
 20
120.3767583759864
 30
0.0
 11
93.092720796583876
 21
119.16515837598639
 31
0.0
  0
LINE
  5
10EF
  8
0
 10
93.092720796583905
 20
122.8899583759864
 30
0.0
 11
93.092720796583905
 21
120.3767583759864
 31
0.0
  0
LINE
  5
10F5
  8
0
 39
5.0
 10
93.621220796583884
 20
87.412858375986474
 30
0.0
 11
93.621220796583884
 21
112.0654583759864
 31
0.0
  0
LINE
  5
10F9
  8
0
 39
5.0
 10
93.487320796583873
 20
63.56304389408885
 30
0.0
 11
93.114920796583874
 21
63.967058375986468
 31
0.0
  0
LINE
  5
10FA
  8
0
 39
5.0
 10
93.114920796583874
 20
63.967058375986468
 30
0.0
 11
93.114320796583883
 21
67.582058375986477
 31
0.0
  0
LINE
  5
10FE
  8
0
 39
5.0
 10
93.114920796583846
 20
68.389958375986467
 30
0.0
 11
93.114920796583874
 21
87.412858375986474
 31
0.0
  0
LINE
  5
110A
  8
0
 39
5.0
 10
93.621220796583884
 20
112.0654583759864
 30
0.0
 11
93.621220796583884
 21
113.8899583759864
 31
0.0
  0
LINE
  5
1115
  8
0
 39
5.0
 10
90.163020796583865
 20
83.389958375986467
 30
0.0
 11
90.163020796583865
 21
88.389958375986467
 31
0.0
  0
LINE
  5
1116
  8
0
 39
5.0
 10
90.163020796583865
 20
88.389958375986467
 30
0.0
 11
90.869820796583895
 21
88.389958375986467
 31
0.0
  0
LINE
  5
1126
  8
1
 10
93.220720796583876
 20
111.1125583759864
 30
0.0
 11
93.621220796583884
 21
110.9115942120237
 31
0.0
  0
LINE
  5
112A
  8
1
 10
92.831520796583874
 20
110.1911583759864
 30
0.0
 11
93.621220796583884
 21
109.7992519272121
 31
0.0
  0
POLYLINE
  5
1158
  8
0
 66
     1
 10
0.0
 20
0.0
 30
0.0
 39
5.0
  0
VERTEX
  5
20F0
  8
0
 10
93.026020796583879
 20
108.1517583759864
 30
0.0
  0
VERTEX
  5
20F1
  8
0
 10
93.026020796583879
 20
108.1517583759864
 30
0.0
  0
VERTEX
  5
20F2
  8
0
 10
93.077320796583876
 20
108.14925837598641
 30
0.0
  0
VERTEX
  5
20F3
  8
0
 10
93.126920796583875
 20
108.1417583759864
 30
0.0
  0
VERTEX
  5
20F4
  8
0
 10
93.174920796583876
 20
108.1294583759864
 30
0.0
  0
VERTEX
  5
20F5
  8
0
 10
93.220720796583876
 20
108.1125583759864
 30
0.0
  0
VERTEX
  5
20F6
  8
0
 10
93.264520796583881
 20
108.0916583759864
 30
0.0
  0
VERTEX
  5
20F7
  8
0
 10
93.305720796583856
 20
108.0665583759864
 30
0.0
  0
VERTEX
  5
20F8
  8
0
 10
93.344220796583883
 20
108.0377583759864
 30
0.0
  0
VERTEX
  5
20F9
  8
0
 10
93.379620796583865
 20
108.0053583759864
 30
0.0
  0
VERTEX
  5
20FA
  8
0
 10
93.412020796583874
 20
107.96995837598639
 30
0.0
  0
VERTEX
  5
20FB
  8
0
 10
93.440820796583878
 20
107.9314583759864
 30
0.0
  0
VERTEX
  5
20FC
  8
0
 10
93.465920796583873
 20
107.89025837598641
 30
0.0
  0
VERTEX
  5
20FD
  8
0
 10
93.486820796583885
 20
107.8464583759864
 30
0.0
  0
VERTEX
  5
20FE
  8
0
 10
93.503720796583877
 20
107.8006583759864
 30
0.0
  0
VERTEX
  5
20FF
  8
0
 10
93.516020796583888
 20
107.7526583759864
 30
0.0
  0
VERTEX
  5
2100
  8
0
 10
93.523520796583881
 20
107.7030583759864
 30
0.0
  0
VERTEX
  5
2101
  8
0
 10
93.526020796583865
 20
107.6517583759864
 30
0.0
  0
VERTEX
  5
2102
  8
0
 10
93.526020796583865
 20
107.6517583759864
 30
0.0
  0
VERTEX
  5
2103
  8
0
 10
93.523520796583881
 20
107.6007583759864
 30
0.0
  0
VERTEX
  5
2104
  8
0
 10
93.516020796583888
 20
107.5511583759864
 30
0.0
  0
VERTEX
  5
2105
  8
0
 10
93.503720796583877
 20
107.50325837598641
 30
0.0
  0
VERTEX
  5
2106
  8
0
 10
93.486820796583885
 20
107.4572583759864
 30
0.0
  0
VERTEX
  5
2107
  8
0
 10
93.465920796583873
 20
107.4136583759864
 30
0.0
  0
VERTEX
  5
2108
  8
0
 10
93.440820796583878
 20
107.37235837598639
 30
0.0
  0
VERTEX
  5
2109
  8
0
 10
93.412020796583874
 20
107.3339583759864
 30
0.0
  0
VERTEX
  5
210A
  8
0
 10
93.379620796583865
 20
107.29825837598641
 30
0.0
  0
VERTEX
  5
210B
  8
0
 10
93.344220796583883
 20
107.26615837598639
 30
0.0
  0
VERTEX
  5
210C
  8
0
 10
93.305720796583856
 20
107.2373583759864
 30
0.0
  0
VERTEX
  5
210D
  8
0
 10
93.264520796583881
 20
107.2123583759864
 30
0.0
  0
VERTEX
  5
210E
  8
0
 10
93.220720796583876
 20
107.1911583759864
 30
0.0
  0
VERTEX
  5
210F
  8
0
 10
93.174920796583876
 20
107.1743583759864
 30
0.0
  0
VERTEX
  5
2110
  8
0
 10
93.126920796583875
 20
107.1619583759864
 30
0.0
  0
VERTEX
  5
2111
  8
0
 10
93.077320796583876
 20
107.15445837598639
 30
0.0
  0
VERTEX
  5
2112
  8
0
 10
93.026020796583879
 20
107.1517583759864
 30
0.0
  0
VERTEX
  5
2113
  8
0
 10
93.026020796583879
 20
107.1517583759864
 30
0.0
  0
VERTEX
  5
2114
  8
0
 10
92.975020796583877
 20
107.15445837598639
 30
0.0
  0
VERTEX
  5
2115
  8
0
 10
92.925420796583865
 20
107.1619583759864
 30
0.0
  0
VERTEX
  5
2116
  8
0
 10
92.877520796583866
 20
107.1743583759864
 30
0.0
  0
VERTEX
  5
2117
  8
0
 10
92.831520796583874
 20
107.1911583759864
 30
0.0
  0
VERTEX
  5
2118
  8
0
 10
92.787920796583876
 20
107.2123583759864
 30
0.0
  0
VERTEX
  5
2119
  8
0
 10
92.746620796583869
 20
107.2373583759864
 30
0.0
  0
VERTEX
  5
211A
  8
0
 10
92.708220796583873
 20
107.26615837598639
 30
0.0
  0
VERTEX
  5
211B
  8
0
 10
92.672520796583896
 20
107.29825837598641
 30
0.0
  0
VERTEX
  5
211C
  8
0
 10
92.640420796583882
 20
107.3339583759864
 30
0.0
  0
VERTEX
  5
211D
  8
0
 10
92.611620796583878
 20
107.37235837598639
 30
0.0
  0
VERTEX
  5
211E
  8
0
 10
92.586620796583873
 20
107.4136583759864
 30
0.0
  0
VERTEX
  5
211F
  8
0
 10
92.565420796583865
 20
107.4572583759864
 30
0.0
  0
VERTEX
  5
2120
  8
0
 10
92.54862079658389
 20
107.50325837598641
 30
0.0
  0
VERTEX
  5
2121
  8
0
 10
92.536220796583876
 20
107.5511583759864
 30
0.0
  0
VERTEX
  5
2122
  8
0
 10
92.528720796583883
 20
107.6007583759864
 30
0.0
  0
VERTEX
  5
2123
  8
0
 10
92.526020796583865
 20
107.6517583759864
 30
0.0
  0
VERTEX
  5
2124
  8
0
 10
92.526020796583865
 20
107.6517583759864
 30
0.0
  0
VERTEX
  5
2125
  8
0
 10
92.528720796583883
 20
107.7030583759864
 30
0.0
  0
VERTEX
  5
2126
  8
0
 10
92.536220796583876
 20
107.7526583759864
 30
0.0
  0
VERTEX
  5
2127
  8
0
 10
92.54862079658389
 20
107.8006583759864
 30
0.0
  0
VERTEX
  5
2128
  8
0
 10
92.565420796583865
 20
107.8464583759864
 30
0.0
  0
VERTEX
  5
2129
  8
0
 10
92.586620796583873
 20
107.89025837598641
 30
0.0
  0
VERTEX
  5
212A
  8
0
 10
92.611620796583878
 20
107.9314583759864
 30
0.0
  0
VERTEX
  5
212B
  8
0
 10
92.640420796583882
 20
107.96995837598639
 30
0.0
  0
VERTEX
  5
212C
  8
0
 10
92.672520796583896
 20
108.0053583759864
 30
0.0
  0
VERTEX
  5
212D
  8
0
 10
92.708220796583873
 20
108.0377583759864
 30
0.0
  0
VERTEX
  5
212E
  8
0
 10
92.746620796583869
 20
108.0665583759864
 30
0.0
  0
VERTEX
  5
212F
  8
0
 10
92.787920796583876
 20
108.0916583759864
 30
0.0
  0
VERTEX
  5
2130
  8
0
 10
92.831520796583874
 20
108.1125583759864
 30
0.0
  0
VERTEX
  5
2131
  8
0
 10
92.877520796583866
 20
108.1294583759864
 30
0.0
  0
VERTEX
  5
2132
  8
0
 10
92.925420796583865
 20
108.1417583759864
 30
0.0
  0
VERTEX
  5
2133
  8
0
 10
92.975020796583877
 20
108.14925837598641
 30
0.0
  0
VERTEX
  5
2134
  8
0
 10
93.026020796583879
 20
108.1517583759864
 30
0.0
  0
SEQEND
  5
2135
  8
0
  0
LINE
  5
1159
  8
1
 10
92.831520796583874
 20
107.1911583759864
 30
0.0
 11
93.621220796583884
 21
106.7992519272121
 31
0.0
  0
LINE
  5
115A
  8
1
 10
93.220720796583876
 20
108.1125583759864
 30
0.0
 11
93.621220796583884
 21
107.9115942120237
 31
0.0
  0
POLYLINE
  5
115B
  8
0
 66
     1
 10
0.0
 20
0.0
 30
0.0
  0
VERTEX
  5
2136
  8
0
 10
93.026020796583879
 20
108.1517583759864
 30
0.0
  0
VERTEX
  5
2137
  8
0
 10
93.026020796583879
 20
108.1517583759864
 30
0.0
  0
VERTEX
  5
2138
  8
0
 10
93.077320796583876
 20
108.14925837598641
 30
0.0
  0
VERTEX
  5
2139
  8
0
 10
93.126920796583875
 20
108.1417583759864
 30
0.0
  0
VERTEX
  5
213A
  8
0
 10
93.174920796583876
 20
108.1294583759864
 30
0.0
  0
VERTEX
  5
213B
  8
0
 10
93.220720796583876
 20
108.1125583759864
 30
0.0
  0
VERTEX
  5
213C
  8
0
 10
93.264520796583881
 20
108.0916583759864
 30
0.0
  0
VERTEX
  5
213D
  8
0
 10
93.305720796583856
 20
108.0665583759864
 30
0.0
  0
VERTEX
  5
213E
  8
0
 10
93.344220796583883
 20
108.0377583759864
 30
0.0
  0
VERTEX
  5
213F
  8
0
 10
93.379620796583865
 20
108.0053583759864
 30
0.0
  0
VERTEX
  5
2140
  8
0
 10
93.412020796583874
 20
107.96995837598639
 30
0.0
  0
VERTEX
  5
2141
  8
0
 10
93.440820796583878
 20
107.9314583759864
 30
0.0
  0
VERTEX
  5
2142
  8
0
 10
93.465920796583873
 20
107.89025837598641
 30
0.0
  0
VERTEX
  5
2143
  8
0
 10
93.486820796583885
 20
107.8464583759864
 30
0.0
  0
VERTEX
  5
2144
  8
0
 10
93.503720796583877
 20
107.8006583759864
 30
0.0
  0
VERTEX
  5
2145
  8
0
 10
93.516020796583888
 20
107.7526583759864
 30
0.0
  0
VERTEX
  5
2146
  8
0
 10
93.523520796583881
 20
107.7030583759864
 30
0.0
  0
VERTEX
  5
2147
  8
0
 10
93.526020796583865
 20
107.6517583759864
 30
0.0
  0
VERTEX
  5
2148
  8
0
 10
93.526020796583865
 20
107.6517583759864
 30
0.0
  0
VERTEX
  5
2149
  8
0
 10
93.523520796583881
 20
107.6007583759864
 30
0.0
  0
VERTEX
  5
214A
  8
0
 10
93.516020796583888
 20
107.5511583759864
 30
0.0
  0
VERTEX
  5
214B
  8
0
 10
93.503720796583877
 20
107.50325837598641
 30
0.0
  0
VERTEX
  5
214C
  8
0
 10
93.486820796583885
 20
107.4572583759864
 30
0.0
  0
VERTEX
  5
214D
  8
0
 10
93.465920796583873
 20
107.4136583759864
 30
0.0
  0
VERTEX
  5
214E
  8
0
 10
93.440820796583878
 20
107.37235837598639
 30
0.0
  0
VERTEX
  5
214F
  8
0
 10
93.412020796583874
 20
107.3339583759864
 30
0.0
  0
VERTEX
  5
2150
  8
0
 10
93.379620796583865
 20
107.29825837598641
 30
0.0
  0
VERTEX
  5
2151
  8
0
 10
93.344220796583883
 20
107.26615837598639
 30
0.0
  0
VERTEX
  5
2152
  8
0
 10
93.305720796583856
 20
107.2373583759864
 30
0.0
  0
VERTEX
  5
2153
  8
0
 10
93.264520796583881
 20
107.2123583759864
 30
0.0
  0
VERTEX
  5
2154
  8
0
 10
93.220720796583876
 20
107.1911583759864
 30
0.0
  0
VERTEX
  5
2155
  8
0
 10
93.174920796583876
 20
107.1743583759864
 30
0.0
  0
VERTEX
  5
2156
  8
0
 10
93.126920796583875
 20
107.1619583759864
 30
0.0
  0
VERTEX
  5
2157
  8
0
 10
93.077320796583876
 20
107.15445837598639
 30
0.0
  0
VERTEX
  5
2158
  8
0
 10
93.026020796583879
 20
107.1517583759864
 30
0.0
  0
VERTEX
  5
2159
  8
0
 10
93.026020796583879
 20
107.1517583759864
 30
0.0
  0
VERTEX
  5
215A
  8
0
 10
92.975020796583877
 20
107.15445837598639
 30
0.0
  0
VERTEX
  5
215B
  8
0
 10
92.925420796583865
 20
107.1619583759864
 30
0.0
  0
VERTEX
  5
215C
  8
0
 10
92.877520796583866
 20
107.1743583759864
 30
0.0
  0
VERTEX
  5
215D
  8
0
 10
92.831520796583874
 20
107.1911583759864
 30
0.0
  0
VERTEX
  5
215E
  8
0
 10
92.787920796583876
 20
107.2123583759864
 30
0.0
  0
VERTEX
  5
215F
  8
0
 10
92.746620796583869
 20
107.2373583759864
 30
0.0
  0
VERTEX
  5
2160
  8
0
 10
92.708220796583873
 20
107.26615837598639
 30
0.0
  0
VERTEX
  5
2161
  8
0
 10
92.672520796583896
 20
107.29825837598641
 30
0.0
  0
VERTEX
  5
2162
  8
0
 10
92.640420796583882
 20
107.3339583759864
 30
0.0
  0
VERTEX
  5
2163
  8
0
 10
92.611620796583878
 20
107.37235837598639
 30
0.0
  0
VERTEX
  5
2164
  8
0
 10
92.586620796583873
 20
107.4136583759864
 30
0.0
  0
VERTEX
  5
2165
  8
0
 10
92.565420796583865
 20
107.4572583759864
 30
0.0
  0
VERTEX
  5
2166
  8
0
 10
92.54862079658389
 20
107.50325837598641
 30
0.0
  0
VERTEX
  5
2167
  8
0
 10
92.536220796583876
 20
107.5511583759864
 30
0.0
  0
VERTEX
  5
2168
  8
0
 10
92.528720796583883
 20
107.6007583759864
 30
0.0
  0
VERTEX
  5
2169
  8
0
 10
92.526020796583865
 20
107.6517583759864
 30
0.0
  0
VERTEX
  5
216A
  8
0
 10
92.526020796583865
 20
107.6517583759864
 30
0.0
  0
VERTEX
  5
216B
  8
0
 10
92.528720796583883
 20
107.7030583759864
 30
0.0
  0
VERTEX
  5
216C
  8
0
 10
92.536220796583876
 20
107.7526583759864
 30
0.0
  0
VERTEX
  5
216D
  8
0
 10
92.54862079658389
 20
107.8006583759864
 30
0.0
  0
VERTEX
  5
216E
  8
0
 10
92.565420796583865
 20
107.8464583759864
 30
0.0
  0
VERTEX
  5
216F
  8
0
 10
92.586620796583873
 20
107.89025837598641
 30
0.0
  0
VERTEX
  5
2170
  8
0
 10
92.611620796583878
 20
107.9314583759864
 30
0.0
  0
VERTEX
  5
2171
  8
0
 10
92.640420796583882
 20
107.96995837598639
 30
0.0
  0
VERTEX
  5
2172
  8
0
 10
92.672520796583896
 20
108.0053583759864
 30
0.0
  0
VERTEX
  5
2173
  8
0
 10
92.708220796583873
 20
108.0377583759864
 30
0.0
  0
VERTEX
  5
2174
  8
0
 10
92.746620796583869
 20
108.0665583759864
 30
0.0
  0
VERTEX
  5
2175
  8
0
 10
92.787920796583876
 20
108.0916583759864
 30
0.0
  0
VERTEX
  5
2176
  8
0
 10
92.831520796583874
 20
108.1125583759864
 30
0.0
  0
VERTEX
  5
2177
  8
0
 10
92.877520796583866
 20
108.1294583759864
 30
0.0
  0
VERTEX
  5
2178
  8
0
 10
92.925420796583865
 20
108.1417583759864
 30
0.0
  0
VERTEX
  5
2179
  8
0
 10
92.975020796583877
 20
108.14925837598641
 30
0.0
  0
VERTEX
  5
217A
  8
0
 10
93.026020796583879
 20
108.1517583759864
 30
0.0
  0
SEQEND
  5
217B
  8
0
  0
POLYLINE
  5
115C
  8
0
 66
     1
 10
0.0
 20
0.0
 30
0.0
  0
VERTEX
  5
217C
  8
0
 10
93.026020796583879
 20
108.1517583759864
 30
0.0
  0
VERTEX
  5
217D
  8
0
 10
93.026020796583879
 20
108.1517583759864
 30
0.0
  0
VERTEX
  5
217E
  8
0
 10
93.077320796583876
 20
108.14925837598641
 30
0.0
  0
VERTEX
  5
217F
  8
0
 10
93.126920796583875
 20
108.1417583759864
 30
0.0
  0
VERTEX
  5
2180
  8
0
 10
93.174920796583876
 20
108.1294583759864
 30
0.0
  0
VERTEX
  5
2181
  8
0
 10
93.220720796583876
 20
108.1125583759864
 30
0.0
  0
VERTEX
  5
2182
  8
0
 10
93.264520796583881
 20
108.0916583759864
 30
0.0
  0
VERTEX
  5
2183
  8
0
 10
93.305720796583856
 20
108.0665583759864
 30
0.0
  0
VERTEX
  5
2184
  8
0
 10
93.344220796583883
 20
108.0377583759864
 30
0.0
  0
VERTEX
  5
2185
  8
0
 10
93.379620796583865
 20
108.0053583759864
 30
0.0
  0
VERTEX
  5
2186
  8
0
 10
93.412020796583874
 20
107.96995837598639
 30
0.0
  0
VERTEX
  5
2187
  8
0
 10
93.440820796583878
 20
107.9314583759864
 30
0.0
  0
VERTEX
  5
2188
  8
0
 10
93.465920796583873
 20
107.89025837598641
 30
0.0
  0
VERTEX
  5
2189
  8
0
 10
93.486820796583885
 20
107.8464583759864
 30
0.0
  0
VERTEX
  5
218A
  8
0
 10
93.503720796583877
 20
107.8006583759864
 30
0.0
  0
VERTEX
  5
218B
  8
0
 10
93.516020796583888
 20
107.7526583759864
 30
0.0
  0
VERTEX
  5
218C
  8
0
 10
93.523520796583881
 20
107.7030583759864
 30
0.0
  0
VERTEX
  5
218D
  8
0
 10
93.526020796583865
 20
107.6517583759864
 30
0.0
  0
VERTEX
  5
218E
  8
0
 10
93.526020796583865
 20
107.6517583759864
 30
0.0
  0
VERTEX
  5
218F
  8
0
 10
93.523520796583881
 20
107.6007583759864
 30
0.0
  0
VERTEX
  5
2190
  8
0
 10
93.516020796583888
 20
107.5511583759864
 30
0.0
  0
VERTEX
  5
2191
  8
0
 10
93.503720796583877
 20
107.50325837598641
 30
0.0
  0
VERTEX
  5
2192
  8
0
 10
93.486820796583885
 20
107.4572583759864
 30
0.0
  0
VERTEX
  5
2193
  8
0
 10
93.465920796583873
 20
107.4136583759864
 30
0.0
  0
VERTEX
  5
2194
  8
0
 10
93.440820796583878
 20
107.37235837598639
 30
0.0
  0
VERTEX
  5
2195
  8
0
 10
93.412020796583874
 20
107.3339583759864
 30
0.0
  0
VERTEX
  5
2196
  8
0
 10
93.379620796583865
 20
107.29825837598641
 30
0.0
  0
VERTEX
  5
2197
  8
0
 10
93.344220796583883
 20
107.26615837598639
 30
0.0
  0
VERTEX
  5
2198
  8
0
 10
93.305720796583856
 20
107.2373583759864
 30
0.0
  0
VERTEX
  5
2199
  8
0
 10
93.264520796583881
 20
107.2123583759864
 30
0.0
  0
VERTEX
  5
219A
  8
0
 10
93.220720796583876
 20
107.1911583759864
 30
0.0
  0
VERTEX
  5
219B
  8
0
 10
93.174920796583876
 20
107.1743583759864
 30
0.0
  0
VERTEX
  5
219C
  8
0
 10
93.126920796583875
 20
107.1619583759864
 30
0.0
  0
VERTEX
  5
219D
  8
0
 10
93.077320796583876
 20
107.15445837598639
 30
0.0
  0
VERTEX
  5
219E
  8
0
 10
93.026020796583879
 20
107.1517583759864
 30
0.0
  0
VERTEX
  5
219F
  8
0
 10
93.026020796583879
 20
107.1517583759864
 30
0.0
  0
VERTEX
  5
21A0
  8
0
 10
92.975020796583877
 20
107.15445837598639
 30
0.0
  0
VERTEX
  5
21A1
  8
0
 10
92.925420796583865
 20
107.1619583759864
 30
0.0
  0
VERTEX
  5
21A2
  8
0
 10
92.877520796583866
 20
107.1743583759864
 30
0.0
  0
VERTEX
  5
21A3
  8
0
 10
92.831520796583874
 20
107.1911583759864
 30
0.0
  0
VERTEX
  5
21A4
  8
0
 10
92.787920796583876
 20
107.2123583759864
 30
0.0
  0
VERTEX
  5
21A5
  8
0
 10
92.746620796583869
 20
107.2373583759864
 30
0.0
  0
VERTEX
  5
21A6
  8
0
 10
92.708220796583873
 20
107.26615837598639
 30
0.0
  0
VERTEX
  5
21A7
  8
0
 10
92.672520796583896
 20
107.29825837598641
 30
0.0
  0
VERTEX
  5
21A8
  8
0
 10
92.640420796583882
 20
107.3339583759864
 30
0.0
  0
VERTEX
  5
21A9
  8
0
 10
92.611620796583878
 20
107.37235837598639
 30
0.0
  0
VERTEX
  5
21AA
  8
0
 10
92.586620796583873
 20
107.4136583759864
 30
0.0
  0
VERTEX
  5
21AB
  8
0
 10
92.565420796583865
 20
107.4572583759864
 30
0.0
  0
VERTEX
  5
21AC
  8
0
 10
92.54862079658389
 20
107.50325837598641
 30
0.0
  0
VERTEX
  5
21AD
  8
0
 10
92.536220796583876
 20
107.5511583759864
 30
0.0
  0
VERTEX
  5
21AE
  8
0
 10
92.528720796583883
 20
107.6007583759864
 30
0.0
  0
VERTEX
  5
21AF
  8
0
 10
92.526020796583865
 20
107.6517583759864
 30
0.0
  0
VERTEX
  5
21B0
  8
0
 10
92.526020796583865
 20
107.6517583759864
 30
0.0
  0
VERTEX
  5
21B1
  8
0
 10
92.528720796583883
 20
107.7030583759864
 30
0.0
  0
VERTEX
  5
21B2
  8
0
 10
92.536220796583876
 20
107.7526583759864
 30
0.0
  0
VERTEX
  5
21B3
  8
0
 10
92.54862079658389
 20
107.8006583759864
 30
0.0
  0
VERTEX
  5
21B4
  8
0
 10
92.565420796583865
 20
107.8464583759864
 30
0.0
  0
VERTEX
  5
21B5
  8
0
 10
92.586620796583873
 20
107.89025837598641
 30
0.0
  0
VERTEX
  5
21B6
  8
0
 10
92.611620796583878
 20
107.9314583759864
 30
0.0
  0
VERTEX
  5
21B7
  8
0
 10
92.640420796583882
 20
107.96995837598639
 30
0.0
  0
VERTEX
  5
21B8
  8
0
 10
92.672520796583896
 20
108.0053583759864
 30
0.0
  0
VERTEX
  5
21B9
  8
0
 10
92.708220796583873
 20
108.0377583759864
 30
0.0
  0
VERTEX
  5
21BA
  8
0
 10
92.746620796583869
 20
108.0665583759864
 30
0.0
  0
VERTEX
  5
21BB
  8
0
 10
92.787920796583876
 20
108.0916583759864
 30
0.0
  0
VERTEX
  5
21BC
  8
0
 10
92.831520796583874
 20
108.1125583759864
 30
0.0
  0
VERTEX
  5
21BD
  8
0
 10
92.877520796583866
 20
108.1294583759864
 30
0.0
  0
VERTEX
  5
21BE
  8
0
 10
92.925420796583865
 20
108.1417583759864
 30
0.0
  0
VERTEX
  5
21BF
  8
0
 10
92.975020796583877
 20
108.14925837598641
 30
0.0
  0
VERTEX
  5
21C0
  8
0
 10
93.026020796583879
 20
108.1517583759864
 30
0.0
  0
SEQEND
  5
21C1
  8
0
  0
POLYLINE
  5
1166
  8
0
 66
     1
 10
0.0
 20
0.0
 30
0.0
 39
5.0
  0
VERTEX
  5
21C2
  8
0
 10
93.026020796583879
 20
105.1517583759864
 30
0.0
  0
VERTEX
  5
21C3
  8
0
 10
93.026020796583879
 20
105.1517583759864
 30
0.0
  0
VERTEX
  5
21C4
  8
0
 10
93.077320796583876
 20
105.14925837598641
 30
0.0
  0
VERTEX
  5
21C5
  8
0
 10
93.126920796583875
 20
105.1417583759864
 30
0.0
  0
VERTEX
  5
21C6
  8
0
 10
93.174920796583876
 20
105.1294583759864
 30
0.0
  0
VERTEX
  5
21C7
  8
0
 10
93.220720796583876
 20
105.1125583759864
 30
0.0
  0
VERTEX
  5
21C8
  8
0
 10
93.264520796583881
 20
105.0916583759864
 30
0.0
  0
VERTEX
  5
21C9
  8
0
 10
93.305720796583856
 20
105.0665583759864
 30
0.0
  0
VERTEX
  5
21CA
  8
0
 10
93.344220796583883
 20
105.0377583759864
 30
0.0
  0
VERTEX
  5
21CB
  8
0
 10
93.379620796583865
 20
105.0053583759864
 30
0.0
  0
VERTEX
  5
21CC
  8
0
 10
93.412020796583874
 20
104.96995837598639
 30
0.0
  0
VERTEX
  5
21CD
  8
0
 10
93.440820796583878
 20
104.9314583759864
 30
0.0
  0
VERTEX
  5
21CE
  8
0
 10
93.465920796583873
 20
104.89025837598641
 30
0.0
  0
VERTEX
  5
21CF
  8
0
 10
93.486820796583885
 20
104.8464583759864
 30
0.0
  0
VERTEX
  5
21D0
  8
0
 10
93.503720796583877
 20
104.8006583759864
 30
0.0
  0
VERTEX
  5
21D1
  8
0
 10
93.516020796583888
 20
104.7526583759864
 30
0.0
  0
VERTEX
  5
21D2
  8
0
 10
93.523520796583881
 20
104.7030583759864
 30
0.0
  0
VERTEX
  5
21D3
  8
0
 10
93.526020796583865
 20
104.6517583759864
 30
0.0
  0
VERTEX
  5
21D4
  8
0
 10
93.526020796583865
 20
104.6517583759864
 30
0.0
  0
VERTEX
  5
21D5
  8
0
 10
93.523520796583881
 20
104.6007583759864
 30
0.0
  0
VERTEX
  5
21D6
  8
0
 10
93.516020796583888
 20
104.5511583759864
 30
0.0
  0
VERTEX
  5
21D7
  8
0
 10
93.503720796583877
 20
104.50325837598641
 30
0.0
  0
VERTEX
  5
21D8
  8
0
 10
93.486820796583885
 20
104.4572583759864
 30
0.0
  0
VERTEX
  5
21D9
  8
0
 10
93.465920796583873
 20
104.4136583759864
 30
0.0
  0
VERTEX
  5
21DA
  8
0
 10
93.440820796583878
 20
104.37235837598639
 30
0.0
  0
VERTEX
  5
21DB
  8
0
 10
93.412020796583874
 20
104.3339583759864
 30
0.0
  0
VERTEX
  5
21DC
  8
0
 10
93.379620796583865
 20
104.29825837598641
 30
0.0
  0
VERTEX
  5
21DD
  8
0
 10
93.344220796583883
 20
104.26615837598639
 30
0.0
  0
VERTEX
  5
21DE
  8
0
 10
93.305720796583856
 20
104.2373583759864
 30
0.0
  0
VERTEX
  5
21DF
  8
0
 10
93.264520796583881
 20
104.2123583759864
 30
0.0
  0
VERTEX
  5
21E0
  8
0
 10
93.220720796583876
 20
104.1911583759864
 30
0.0
  0
VERTEX
  5
21E1
  8
0
 10
93.174920796583876
 20
104.1743583759864
 30
0.0
  0
VERTEX
  5
21E2
  8
0
 10
93.126920796583875
 20
104.1619583759864
 30
0.0
  0
VERTEX
  5
21E3
  8
0
 10
93.077320796583876
 20
104.15445837598639
 30
0.0
  0
VERTEX
  5
21E4
  8
0
 10
93.026020796583879
 20
104.1517583759864
 30
0.0
  0
VERTEX
  5
21E5
  8
0
 10
93.026020796583879
 20
104.1517583759864
 30
0.0
  0
VERTEX
  5
21E6
  8
0
 10
92.975020796583877
 20
104.15445837598639
 30
0.0
  0
VERTEX
  5
21E7
  8
0
 10
92.925420796583865
 20
104.1619583759864
 30
0.0
  0
VERTEX
  5
21E8
  8
0
 10
92.877520796583866
 20
104.1743583759864
 30
0.0
  0
VERTEX
  5
21E9
  8
0
 10
92.831520796583874
 20
104.1911583759864
 30
0.0
  0
VERTEX
  5
21EA
  8
0
 10
92.787920796583876
 20
104.2123583759864
 30
0.0
  0
VERTEX
  5
21EB
  8
0
 10
92.746620796583869
 20
104.2373583759864
 30
0.0
  0
VERTEX
  5
21EC
  8
0
 10
92.708220796583873
 20
104.26615837598639
 30
0.0
  0
VERTEX
  5
21ED
  8
0
 10
92.672520796583896
 20
104.29825837598641
 30
0.0
  0
VERTEX
  5
21EE
  8
0
 10
92.640420796583882
 20
104.3339583759864
 30
0.0
  0
VERTEX
  5
21EF
  8
0
 10
92.611620796583878
 20
104.37235837598639
 30
0.0
  0
VERTEX
  5
21F0
  8
0
 10
92.586620796583873
 20
104.4136583759864
 30
0.0
  0
VERTEX
  5
21F1
  8
0
 10
92.565420796583865
 20
104.4572583759864
 30
0.0
  0
VERTEX
  5
21F2
  8
0
 10
92.54862079658389
 20
104.50325837598641
 30
0.0
  0
VERTEX
  5
21F3
  8
0
 10
92.536220796583876
 20
104.5511583759864
 30
0.0
  0
VERTEX
  5
21F4
  8
0
 10
92.528720796583883
 20
104.6007583759864
 30
0.0
  0
VERTEX
  5
21F5
  8
0
 10
92.526020796583865
 20
104.6517583759864
 30
0.0
  0
VERTEX
  5
21F6
  8
0
 10
92.526020796583865
 20
104.6517583759864
 30
0.0
  0
VERTEX
  5
21F7
  8
0
 10
92.528720796583883
 20
104.7030583759864
 30
0.0
  0
VERTEX
  5
21F8
  8
0
 10
92.536220796583876
 20
104.7526583759864
 30
0.0
  0
VERTEX
  5
21F9
  8
0
 10
92.54862079658389
 20
104.8006583759864
 30
0.0
  0
VERTEX
  5
21FA
  8
0
 10
92.565420796583865
 20
104.8464583759864
 30
0.0
  0
VERTEX
  5
21FB
  8
0
 10
92.586620796583873
 20
104.89025837598641
 30
0.0
  0
VERTEX
  5
21FC
  8
0
 10
92.611620796583878
 20
104.9314583759864
 30
0.0
  0
VERTEX
  5
21FD
  8
0
 10
92.640420796583882
 20
104.96995837598639
 30
0.0
  0
VERTEX
  5
21FE
  8
0
 10
92.672520796583896
 20
105.0053583759864
 30
0.0
  0
VERTEX
  5
21FF
  8
0
 10
92.708220796583873
 20
105.0377583759864
 30
0.0
  0
VERTEX
  5
2200
  8
0
 10
92.746620796583869
 20
105.0665583759864
 30
0.0
  0
VERTEX
  5
2201
  8
0
 10
92.787920796583876
 20
105.0916583759864
 30
0.0
  0
VERTEX
  5
2202
  8
0
 10
92.831520796583874
 20
105.1125583759864
 30
0.0
  0
VERTEX
  5
2203
  8
0
 10
92.877520796583866
 20
105.1294583759864
 30
0.0
  0
VERTEX
  5
2204
  8
0
 10
92.925420796583865
 20
105.1417583759864
 30
0.0
  0
VERTEX
  5
2205
  8
0
 10
92.975020796583877
 20
105.14925837598641
 30
0.0
  0
VERTEX
  5
2206
  8
0
 10
93.026020796583879
 20
105.1517583759864
 30
0.0
  0
SEQEND
  5
2207
  8
0
  0
LINE
  5
1167
  8
1
 10
92.831520796583874
 20
104.1911583759864
 30
0.0
 11
93.621220796583884
 21
103.7992519272121
 31
0.0
  0
LINE
  5
1168
  8
1
 10
93.220720796583876
 20
105.1125583759864
 30
0.0
 11
93.621220796583884
 21
104.9115942120237
 31
0.0
  0
POLYLINE
  5
1169
  8
0
 66
     1
 10
0.0
 20
0.0
 30
0.0
  0
VERTEX
  5
2208
  8
0
 10
93.026020796583879
 20
105.1517583759864
 30
0.0
  0
VERTEX
  5
2209
  8
0
 10
93.026020796583879
 20
105.1517583759864
 30
0.0
  0
VERTEX
  5
220A
  8
0
 10
93.077320796583876
 20
105.14925837598641
 30
0.0
  0
VERTEX
  5
220B
  8
0
 10
93.126920796583875
 20
105.1417583759864
 30
0.0
  0
VERTEX
  5
220C
  8
0
 10
93.174920796583876
 20
105.1294583759864
 30
0.0
  0
VERTEX
  5
220D
  8
0
 10
93.220720796583876
 20
105.1125583759864
 30
0.0
  0
VERTEX
  5
220E
  8
0
 10
93.264520796583881
 20
105.0916583759864
 30
0.0
  0
VERTEX
  5
220F
  8
0
 10
93.305720796583856
 20
105.0665583759864
 30
0.0
  0
VERTEX
  5
2210
  8
0
 10
93.344220796583883
 20
105.0377583759864
 30
0.0
  0
VERTEX
  5
2211
  8
0
 10
93.379620796583865
 20
105.0053583759864
 30
0.0
  0
VERTEX
  5
2212
  8
0
 10
93.412020796583874
 20
104.96995837598639
 30
0.0
  0
VERTEX
  5
2213
  8
0
 10
93.440820796583878
 20
104.9314583759864
 30
0.0
  0
VERTEX
  5
2214
  8
0
 10
93.465920796583873
 20
104.89025837598641
 30
0.0
  0
VERTEX
  5
2215
  8
0
 10
93.486820796583885
 20
104.8464583759864
 30
0.0
  0
VERTEX
  5
2216
  8
0
 10
93.503720796583877
 20
104.8006583759864
 30
0.0
  0
VERTEX
  5
2217
  8
0
 10
93.516020796583888
 20
104.7526583759864
 30
0.0
  0
VERTEX
  5
2218
  8
0
 10
93.523520796583881
 20
104.7030583759864
 30
0.0
  0
VERTEX
  5
2219
  8
0
 10
93.526020796583865
 20
104.6517583759864
 30
0.0
  0
VERTEX
  5
221A
  8
0
 10
93.526020796583865
 20
104.6517583759864
 30
0.0
  0
VERTEX
  5
221B
  8
0
 10
93.523520796583881
 20
104.6007583759864
 30
0.0
  0
VERTEX
  5
221C
  8
0
 10
93.516020796583888
 20
104.5511583759864
 30
0.0
  0
VERTEX
  5
221D
  8
0
 10
93.503720796583877
 20
104.50325837598641
 30
0.0
  0
VERTEX
  5
221E
  8
0
 10
93.486820796583885
 20
104.4572583759864
 30
0.0
  0
VERTEX
  5
221F
  8
0
 10
93.465920796583873
 20
104.4136583759864
 30
0.0
  0
VERTEX
  5
2220
  8
0
 10
93.440820796583878
 20
104.37235837598639
 30
0.0
  0
VERTEX
  5
2221
  8
0
 10
93.412020796583874
 20
104.3339583759864
 30
0.0
  0
VERTEX
  5
2222
  8
0
 10
93.379620796583865
 20
104.29825837598641
 30
0.0
  0
VERTEX
  5
2223
  8
0
 10
93.344220796583883
 20
104.26615837598639
 30
0.0
  0
VERTEX
  5
2224
  8
0
 10
93.305720796583856
 20
104.2373583759864
 30
0.0
  0
VERTEX
  5
2225
  8
0
 10
93.264520796583881
 20
104.2123583759864
 30
0.0
  0
VERTEX
  5
2226
  8
0
 10
93.220720796583876
 20
104.1911583759864
 30
0.0
  0
VERTEX
  5
2227
  8
0
 10
93.174920796583876
 20
104.1743583759864
 30
0.0
  0
VERTEX
  5
2228
  8
0
 10
93.126920796583875
 20
104.1619583759864
 30
0.0
  0
VERTEX
  5
2229
  8
0
 10
93.077320796583876
 20
104.15445837598639
 30
0.0
  0
VERTEX
  5
222A
  8
0
 10
93.026020796583879
 20
104.1517583759864
 30
0.0
  0
VERTEX
  5
222B
  8
0
 10
93.026020796583879
 20
104.1517583759864
 30
0.0
  0
VERTEX
  5
222C
  8
0
 10
92.975020796583877
 20
104.15445837598639
 30
0.0
  0
VERTEX
  5
222D
  8
0
 10
92.925420796583865
 20
104.1619583759864
 30
0.0
  0
VERTEX
  5
222E
  8
0
 10
92.877520796583866
 20
104.1743583759864
 30
0.0
  0
VERTEX
  5
222F
  8
0
 10
92.831520796583874
 20
104.1911583759864
 30
0.0
  0
VERTEX
  5
2230
  8
0
 10
92.787920796583876
 20
104.2123583759864
 30
0.0
  0
VERTEX
  5
2231
  8
0
 10
92.746620796583869
 20
104.2373583759864
 30
0.0
  0
VERTEX
  5
2232
  8
0
 10
92.708220796583873
 20
104.26615837598639
 30
0.0
  0
VERTEX
  5
2233
  8
0
 10
92.672520796583896
 20
104.29825837598641
 30
0.0
  0
VERTEX
  5
2234
  8
0
 10
92.640420796583882
 20
104.3339583759864
 30
0.0
  0
VERTEX
  5
2235
  8
0
 10
92.611620796583878
 20
104.37235837598639
 30
0.0
  0
VERTEX
  5
2236
  8
0
 10
92.586620796583873
 20
104.4136583759864
 30
0.0
  0
VERTEX
  5
2237
  8
0
 10
92.565420796583865
 20
104.4572583759864
 30
0.0
  0
VERTEX
  5
2238
  8
0
 10
92.54862079658389
 20
104.50325837598641
 30
0.0
  0
VERTEX
  5
2239
  8
0
 10
92.536220796583876
 20
104.5511583759864
 30
0.0
  0
VERTEX
  5
223A
  8
0
 10
92.528720796583883
 20
104.6007583759864
 30
0.0
  0
VERTEX
  5
223B
  8
0
 10
92.526020796583865
 20
104.6517583759864
 30
0.0
  0
VERTEX
  5
223C
  8
0
 10
92.526020796583865
 20
104.6517583759864
 30
0.0
  0
VERTEX
  5
223D
  8
0
 10
92.528720796583883
 20
104.7030583759864
 30
0.0
  0
VERTEX
  5
223E
  8
0
 10
92.536220796583876
 20
104.7526583759864
 30
0.0
  0
VERTEX
  5
223F
  8
0
 10
92.54862079658389
 20
104.8006583759864
 30
0.0
  0
VERTEX
  5
2240
  8
0
 10
92.565420796583865
 20
104.8464583759864
 30
0.0
  0
VERTEX
  5
2241
  8
0
 10
92.586620796583873
 20
104.89025837598641
 30
0.0
  0
VERTEX
  5
2242
  8
0
 10
92.611620796583878
 20
104.9314583759864
 30
0.0
  0
VERTEX
  5
2243
  8
0
 10
92.640420796583882
 20
104.96995837598639
 30
0.0
  0
VERTEX
  5
2244
  8
0
 10
92.672520796583896
 20
105.0053583759864
 30
0.0
  0
VERTEX
  5
2245
  8
0
 10
92.708220796583873
 20
105.0377583759864
 30
0.0
  0
VERTEX
  5
2246
  8
0
 10
92.746620796583869
 20
105.0665583759864
 30
0.0
  0
VERTEX
  5
2247
  8
0
 10
92.787920796583876
 20
105.0916583759864
 30
0.0
  0
VERTEX
  5
2248
  8
0
 10
92.831520796583874
 20
105.1125583759864
 30
0.0
  0
VERTEX
  5
2249
  8
0
 10
92.877520796583866
 20
105.1294583759864
 30
0.0
  0
VERTEX
  5
224A
  8
0
 10
92.925420796583865
 20
105.1417583759864
 30
0.0
  0
VERTEX
  5
224B
  8
0
 10
92.975020796583877
 20
105.14925837598641
 30
0.0
  0
VERTEX
  5
224C
  8
0
 10
93.026020796583879
 20
105.1517583759864
 30
0.0
  0
SEQEND
  5
224D
  8
0
  0
POLYLINE
  5
116A
  8
0
 66
     1
 10
0.0
 20
0.0
 30
0.0
  0
VERTEX
  5
224E
  8
0
 10
93.026020796583879
 20
105.1517583759864
 30
0.0
  0
VERTEX
  5
224F
  8
0
 10
93.026020796583879
 20
105.1517583759864
 30
0.0
  0
VERTEX
  5
2250
  8
0
 10
93.077320796583876
 20
105.14925837598641
 30
0.0
  0
VERTEX
  5
2251
  8
0
 10
93.126920796583875
 20
105.1417583759864
 30
0.0
  0
VERTEX
  5
2252
  8
0
 10
93.174920796583876
 20
105.1294583759864
 30
0.0
  0
VERTEX
  5
2253
  8
0
 10
93.220720796583876
 20
105.1125583759864
 30
0.0
  0
VERTEX
  5
2254
  8
0
 10
93.264520796583881
 20
105.0916583759864
 30
0.0
  0
VERTEX
  5
2255
  8
0
 10
93.305720796583856
 20
105.0665583759864
 30
0.0
  0
VERTEX
  5
2256
  8
0
 10
93.344220796583883
 20
105.0377583759864
 30
0.0
  0
VERTEX
  5
2257
  8
0
 10
93.379620796583865
 20
105.0053583759864
 30
0.0
  0
VERTEX
  5
2258
  8
0
 10
93.412020796583874
 20
104.96995837598639
 30
0.0
  0
VERTEX
  5
2259
  8
0
 10
93.440820796583878
 20
104.9314583759864
 30
0.0
  0
VERTEX
  5
225A
  8
0
 10
93.465920796583873
 20
104.89025837598641
 30
0.0
  0
VERTEX
  5
225B
  8
0
 10
93.486820796583885
 20
104.8464583759864
 30
0.0
  0
VERTEX
  5
225C
  8
0
 10
93.503720796583877
 20
104.8006583759864
 30
0.0
  0
VERTEX
  5
225D
  8
0
 10
93.516020796583888
 20
104.7526583759864
 30
0.0
  0
VERTEX
  5
225E
  8
0
 10
93.523520796583881
 20
104.7030583759864
 30
0.0
  0
VERTEX
  5
225F
  8
0
 10
93.526020796583865
 20
104.6517583759864
 30
0.0
  0
VERTEX
  5
2260
  8
0
 10
93.526020796583865
 20
104.6517583759864
 30
0.0
  0
VERTEX
  5
2261
  8
0
 10
93.523520796583881
 20
104.6007583759864
 30
0.0
  0
VERTEX
  5
2262
  8
0
 10
93.516020796583888
 20
104.5511583759864
 30
0.0
  0
VERTEX
  5
2263
  8
0
 10
93.503720796583877
 20
104.50325837598641
 30
0.0
  0
VERTEX
  5
2264
  8
0
 10
93.486820796583885
 20
104.4572583759864
 30
0.0
  0
VERTEX
  5
2265
  8
0
 10
93.465920796583873
 20
104.4136583759864
 30
0.0
  0
VERTEX
  5
2266
  8
0
 10
93.440820796583878
 20
104.37235837598639
 30
0.0
  0
VERTEX
  5
2267
  8
0
 10
93.412020796583874
 20
104.3339583759864
 30
0.0
  0
VERTEX
  5
2268
  8
0
 10
93.379620796583865
 20
104.29825837598641
 30
0.0
  0
VERTEX
  5
2269
  8
0
 10
93.344220796583883
 20
104.26615837598639
 30
0.0
  0
VERTEX
  5
226A
  8
0
 10
93.305720796583856
 20
104.2373583759864
 30
0.0
  0
VERTEX
  5
226B
  8
0
 10
93.264520796583881
 20
104.2123583759864
 30
0.0
  0
VERTEX
  5
226C
  8
0
 10
93.220720796583876
 20
104.1911583759864
 30
0.0
  0
VERTEX
  5
226D
  8
0
 10
93.174920796583876
 20
104.1743583759864
 30
0.0
  0
VERTEX
  5
226E
  8
0
 10
93.126920796583875
 20
104.1619583759864
 30
0.0
  0
VERTEX
  5
226F
  8
0
 10
93.077320796583876
 20
104.15445837598639
 30
0.0
  0
VERTEX
  5
2270
  8
0
 10
93.026020796583879
 20
104.1517583759864
 30
0.0
  0
VERTEX
  5
2271
  8
0
 10
93.026020796583879
 20
104.1517583759864
 30
0.0
  0
VERTEX
  5
2272
  8
0
 10
92.975020796583877
 20
104.15445837598639
 30
0.0
  0
VERTEX
  5
2273
  8
0
 10
92.925420796583865
 20
104.1619583759864
 30
0.0
  0
VERTEX
  5
2274
  8
0
 10
92.877520796583866
 20
104.1743583759864
 30
0.0
  0
VERTEX
  5
2275
  8
0
 10
92.831520796583874
 20
104.1911583759864
 30
0.0
  0
VERTEX
  5
2276
  8
0
 10
92.787920796583876
 20
104.2123583759864
 30
0.0
  0
VERTEX
  5
2277
  8
0
 10
92.746620796583869
 20
104.2373583759864
 30
0.0
  0
VERTEX
  5
2278
  8
0
 10
92.708220796583873
 20
104.26615837598639
 30
0.0
  0
VERTEX
  5
2279
  8
0
 10
92.672520796583896
 20
104.29825837598641
 30
0.0
  0
VERTEX
  5
227A
  8
0
 10
92.640420796583882
 20
104.3339583759864
 30
0.0
  0
VERTEX
  5
227B
  8
0
 10
92.611620796583878
 20
104.37235837598639
 30
0.0
  0
VERTEX
  5
227C
  8
0
 10
92.586620796583873
 20
104.4136583759864
 30
0.0
  0
VERTEX
  5
227D
  8
0
 10
92.565420796583865
 20
104.4572583759864
 30
0.0
  0
VERTEX
  5
227E
  8
0
 10
92.54862079658389
 20
104.50325837598641
 30
0.0
  0
VERTEX
  5
227F
  8
0
 10
92.536220796583876
 20
104.5511583759864
 30
0.0
  0
VERTEX
  5
2280
  8
0
 10
92.528720796583883
 20
104.6007583759864
 30
0.0
  0
VERTEX
  5
2281
  8
0
 10
92.526020796583865
 20
104.6517583759864
 30
0.0
  0
VERTEX
  5
2282
  8
0
 10
92.526020796583865
 20
104.6517583759864
 30
0.0
  0
VERTEX
  5
2283
  8
0
 10
92.528720796583883
 20
104.7030583759864
 30
0.0
  0
VERTEX
  5
2284
  8
0
 10
92.536220796583876
 20
104.7526583759864
 30
0.0
  0
VERTEX
  5
2285
  8
0
 10
92.54862079658389
 20
104.8006583759864
 30
0.0
  0
VERTEX
  5
2286
  8
0
 10
92.565420796583865
 20
104.8464583759864
 30
0.0
  0
VERTEX
  5
2287
  8
0
 10
92.586620796583873
 20
104.89025837598641
 30
0.0
  0
VERTEX
  5
2288
  8
0
 10
92.611620796583878
 20
104.9314583759864
 30
0.0
  0
VERTEX
  5
2289
  8
0
 10
92.640420796583882
 20
104.96995837598639
 30
0.0
  0
VERTEX
  5
228A
  8
0
 10
92.672520796583896
 20
105.0053583759864
 30
0.0
  0
VERTEX
  5
228B
  8
0
 10
92.708220796583873
 20
105.0377583759864
 30
0.0
  0
VERTEX
  5
228C
  8
0
 10
92.746620796583869
 20
105.0665583759864
 30
0.0
  0
VERTEX
  5
228D
  8
0
 10
92.787920796583876
 20
105.0916583759864
 30
0.0
  0
VERTEX
  5
228E
  8
0
 10
92.831520796583874
 20
105.1125583759864
 30
0.0
  0
VERTEX
  5
228F
  8
0
 10
92.877520796583866
 20
105.1294583759864
 30
0.0
  0
VERTEX
  5
2290
  8
0
 10
92.925420796583865
 20
105.1417583759864
 30
0.0
  0
VERTEX
  5
2291
  8
0
 10
92.975020796583877
 20
105.14925837598641
 30
0.0
  0
VERTEX
  5
2292
  8
0
 10
93.026020796583879
 20
105.1517583759864
 30
0.0
  0
SEQEND
  5
2293
  8
0
  0
POLYLINE
  5
1174
  8
0
 66
     1
 10
0.0
 20
0.0
 30
0.0
 39
5.0
  0
VERTEX
  5
2294
  8
0
 10
93.026020796583879
 20
102.1517583759864
 30
0.0
  0
VERTEX
  5
2295
  8
0
 10
93.026020796583879
 20
102.1517583759864
 30
0.0
  0
VERTEX
  5
2296
  8
0
 10
93.077320796583876
 20
102.14925837598641
 30
0.0
  0
VERTEX
  5
2297
  8
0
 10
93.126920796583875
 20
102.1417583759864
 30
0.0
  0
VERTEX
  5
2298
  8
0
 10
93.174920796583876
 20
102.1294583759864
 30
0.0
  0
VERTEX
  5
2299
  8
0
 10
93.220720796583876
 20
102.1125583759864
 30
0.0
  0
VERTEX
  5
229A
  8
0
 10
93.264520796583881
 20
102.0916583759864
 30
0.0
  0
VERTEX
  5
229B
  8
0
 10
93.305720796583856
 20
102.0665583759864
 30
0.0
  0
VERTEX
  5
229C
  8
0
 10
93.344220796583883
 20
102.0377583759864
 30
0.0
  0
VERTEX
  5
229D
  8
0
 10
93.379620796583865
 20
102.0053583759864
 30
0.0
  0
VERTEX
  5
229E
  8
0
 10
93.412020796583874
 20
101.96995837598639
 30
0.0
  0
VERTEX
  5
229F
  8
0
 10
93.440820796583878
 20
101.9314583759864
 30
0.0
  0
VERTEX
  5
22A0
  8
0
 10
93.465920796583873
 20
101.89025837598641
 30
0.0
  0
VERTEX
  5
22A1
  8
0
 10
93.486820796583885
 20
101.8464583759864
 30
0.0
  0
VERTEX
  5
22A2
  8
0
 10
93.503720796583877
 20
101.8006583759864
 30
0.0
  0
VERTEX
  5
22A3
  8
0
 10
93.516020796583888
 20
101.7526583759864
 30
0.0
  0
VERTEX
  5
22A4
  8
0
 10
93.523520796583881
 20
101.7030583759864
 30
0.0
  0
VERTEX
  5
22A5
  8
0
 10
93.526020796583865
 20
101.6517583759864
 30
0.0
  0
VERTEX
  5
22A6
  8
0
 10
93.526020796583865
 20
101.6517583759864
 30
0.0
  0
VERTEX
  5
22A7
  8
0
 10
93.523520796583881
 20
101.6007583759864
 30
0.0
  0
VERTEX
  5
22A8
  8
0
 10
93.516020796583888
 20
101.5511583759864
 30
0.0
  0
VERTEX
  5
22A9
  8
0
 10
93.503720796583877
 20
101.50325837598641
 30
0.0
  0
VERTEX
  5
22AA
  8
0
 10
93.486820796583885
 20
101.4572583759864
 30
0.0
  0
VERTEX
  5
22AB
  8
0
 10
93.465920796583873
 20
101.4136583759864
 30
0.0
  0
VERTEX
  5
22AC
  8
0
 10
93.440820796583878
 20
101.37235837598639
 30
0.0
  0
VERTEX
  5
22AD
  8
0
 10
93.412020796583874
 20
101.3339583759864
 30
0.0
  0
VERTEX
  5
22AE
  8
0
 10
93.379620796583865
 20
101.29825837598641
 30
0.0
  0
VERTEX
  5
22AF
  8
0
 10
93.344220796583883
 20
101.26615837598639
 30
0.0
  0
VERTEX
  5
22B0
  8
0
 10
93.305720796583856
 20
101.2373583759864
 30
0.0
  0
VERTEX
  5
22B1
  8
0
 10
93.264520796583881
 20
101.2123583759864
 30
0.0
  0
VERTEX
  5
22B2
  8
0
 10
93.220720796583876
 20
101.1911583759864
 30
0.0
  0
VERTEX
  5
22B3
  8
0
 10
93.174920796583876
 20
101.1743583759864
 30
0.0
  0
VERTEX
  5
22B4
  8
0
 10
93.126920796583875
 20
101.1619583759864
 30
0.0
  0
VERTEX
  5
22B5
  8
0
 10
93.077320796583876
 20
101.15445837598639
 30
0.0
  0
VERTEX
  5
22B6
  8
0
 10
93.026020796583879
 20
101.1517583759864
 30
0.0
  0
VERTEX
  5
22B7
  8
0
 10
93.026020796583879
 20
101.1517583759864
 30
0.0
  0
VERTEX
  5
22B8
  8
0
 10
92.975020796583877
 20
101.15445837598639
 30
0.0
  0
VERTEX
  5
22B9
  8
0
 10
92.925420796583865
 20
101.1619583759864
 30
0.0
  0
VERTEX
  5
22BA
  8
0
 10
92.877520796583866
 20
101.1743583759864
 30
0.0
  0
VERTEX
  5
22BB
  8
0
 10
92.831520796583874
 20
101.1911583759864
 30
0.0
  0
VERTEX
  5
22BC
  8
0
 10
92.787920796583876
 20
101.2123583759864
 30
0.0
  0
VERTEX
  5
22BD
  8
0
 10
92.746620796583869
 20
101.2373583759864
 30
0.0
  0
VERTEX
  5
22BE
  8
0
 10
92.708220796583873
 20
101.26615837598639
 30
0.0
  0
VERTEX
  5
22BF
  8
0
 10
92.672520796583896
 20
101.29825837598641
 30
0.0
  0
VERTEX
  5
22C0
  8
0
 10
92.640420796583882
 20
101.3339583759864
 30
0.0
  0
VERTEX
  5
22C1
  8
0
 10
92.611620796583878
 20
101.37235837598639
 30
0.0
  0
VERTEX
  5
22C2
  8
0
 10
92.586620796583873
 20
101.4136583759864
 30
0.0
  0
VERTEX
  5
22C3
  8
0
 10
92.565420796583865
 20
101.4572583759864
 30
0.0
  0
VERTEX
  5
22C4
  8
0
 10
92.54862079658389
 20
101.50325837598641
 30
0.0
  0
VERTEX
  5
22C5
  8
0
 10
92.536220796583876
 20
101.5511583759864
 30
0.0
  0
VERTEX
  5
22C6
  8
0
 10
92.528720796583883
 20
101.6007583759864
 30
0.0
  0
VERTEX
  5
22C7
  8
0
 10
92.526020796583865
 20
101.6517583759864
 30
0.0
  0
VERTEX
  5
22C8
  8
0
 10
92.526020796583865
 20
101.6517583759864
 30
0.0
  0
VERTEX
  5
22C9
  8
0
 10
92.528720796583883
 20
101.7030583759864
 30
0.0
  0
VERTEX
  5
22CA
  8
0
 10
92.536220796583876
 20
101.7526583759864
 30
0.0
  0
VERTEX
  5
22CB
  8
0
 10
92.54862079658389
 20
101.8006583759864
 30
0.0
  0
VERTEX
  5
22CC
  8
0
 10
92.565420796583865
 20
101.8464583759864
 30
0.0
  0
VERTEX
  5
22CD
  8
0
 10
92.586620796583873
 20
101.89025837598641
 30
0.0
  0
VERTEX
  5
22CE
  8
0
 10
92.611620796583878
 20
101.9314583759864
 30
0.0
  0
VERTEX
  5
22CF
  8
0
 10
92.640420796583882
 20
101.96995837598639
 30
0.0
  0
VERTEX
  5
22D0
  8
0
 10
92.672520796583896
 20
102.0053583759864
 30
0.0
  0
VERTEX
  5
22D1
  8
0
 10
92.708220796583873
 20
102.0377583759864
 30
0.0
  0
VERTEX
  5
22D2
  8
0
 10
92.746620796583869
 20
102.0665583759864
 30
0.0
  0
VERTEX
  5
22D3
  8
0
 10
92.787920796583876
 20
102.0916583759864
 30
0.0
  0
VERTEX
  5
22D4
  8
0
 10
92.831520796583874
 20
102.1125583759864
 30
0.0
  0
VERTEX
  5
22D5
  8
0
 10
92.877520796583866
 20
102.1294583759864
 30
0.0
  0
VERTEX
  5
22D6
  8
0
 10
92.925420796583865
 20
102.1417583759864
 30
0.0
  0
VERTEX
  5
22D7
  8
0
 10
92.975020796583877
 20
102.14925837598641
 30
0.0
  0
VERTEX
  5
22D8
  8
0
 10
93.026020796583879
 20
102.1517583759864
 30
0.0
  0
SEQEND
  5
22D9
  8
0
  0
LINE
  5
1175
  8
1
 10
92.831520796583874
 20
101.1911583759864
 30
0.0
 11
93.621220796583884
 21
100.7992519272121
 31
0.0
  0
LINE
  5
1176
  8
1
 10
93.220720796583876
 20
102.1125583759864
 30
0.0
 11
93.621220796583884
 21
101.9115942120237
 31
0.0
  0
POLYLINE
  5
1177
  8
0
 66
     1
 10
0.0
 20
0.0
 30
0.0
  0
VERTEX
  5
22DA
  8
0
 10
93.026020796583879
 20
102.1517583759864
 30
0.0
  0
VERTEX
  5
22DB
  8
0
 10
93.026020796583879
 20
102.1517583759864
 30
0.0
  0
VERTEX
  5
22DC
  8
0
 10
93.077320796583876
 20
102.14925837598641
 30
0.0
  0
VERTEX
  5
22DD
  8
0
 10
93.126920796583875
 20
102.1417583759864
 30
0.0
  0
VERTEX
  5
22DE
  8
0
 10
93.174920796583876
 20
102.1294583759864
 30
0.0
  0
VERTEX
  5
22DF
  8
0
 10
93.220720796583876
 20
102.1125583759864
 30
0.0
  0
VERTEX
  5
22E0
  8
0
 10
93.264520796583881
 20
102.0916583759864
 30
0.0
  0
VERTEX
  5
22E1
  8
0
 10
93.305720796583856
 20
102.0665583759864
 30
0.0
  0
VERTEX
  5
22E2
  8
0
 10
93.344220796583883
 20
102.0377583759864
 30
0.0
  0
VERTEX
  5
22E3
  8
0
 10
93.379620796583865
 20
102.0053583759864
 30
0.0
  0
VERTEX
  5
22E4
  8
0
 10
93.412020796583874
 20
101.96995837598639
 30
0.0
  0
VERTEX
  5
22E5
  8
0
 10
93.440820796583878
 20
101.9314583759864
 30
0.0
  0
VERTEX
  5
22E6
  8
0
 10
93.465920796583873
 20
101.89025837598641
 30
0.0
  0
VERTEX
  5
22E7
  8
0
 10
93.486820796583885
 20
101.8464583759864
 30
0.0
  0
VERTEX
  5
22E8
  8
0
 10
93.503720796583877
 20
101.8006583759864
 30
0.0
  0
VERTEX
  5
22E9
  8
0
 10
93.516020796583888
 20
101.7526583759864
 30
0.0
  0
VERTEX
  5
22EA
  8
0
 10
93.523520796583881
 20
101.7030583759864
 30
0.0
  0
VERTEX
  5
22EB
  8
0
 10
93.526020796583865
 20
101.6517583759864
 30
0.0
  0
VERTEX
  5
22EC
  8
0
 10
93.526020796583865
 20
101.6517583759864
 30
0.0
  0
VERTEX
  5
22ED
  8
0
 10
93.523520796583881
 20
101.6007583759864
 30
0.0
  0
VERTEX
  5
22EE
  8
0
 10
93.516020796583888
 20
101.5511583759864
 30
0.0
  0
VERTEX
  5
22EF
  8
0
 10
93.503720796583877
 20
101.50325837598641
 30
0.0
  0
VERTEX
  5
22F0
  8
0
 10
93.486820796583885
 20
101.4572583759864
 30
0.0
  0
VERTEX
  5
22F1
  8
0
 10
93.465920796583873
 20
101.4136583759864
 30
0.0
  0
VERTEX
  5
22F2
  8
0
 10
93.440820796583878
 20
101.37235837598639
 30
0.0
  0
VERTEX
  5
22F3
  8
0
 10
93.412020796583874
 20
101.3339583759864
 30
0.0
  0
VERTEX
  5
22F4
  8
0
 10
93.379620796583865
 20
101.29825837598641
 30
0.0
  0
VERTEX
  5
22F5
  8
0
 10
93.344220796583883
 20
101.26615837598639
 30
0.0
  0
VERTEX
  5
22F6
  8
0
 10
93.305720796583856
 20
101.2373583759864
 30
0.0
  0
VERTEX
  5
22F7
  8
0
 10
93.264520796583881
 20
101.2123583759864
 30
0.0
  0
VERTEX
  5
22F8
  8
0
 10
93.220720796583876
 20
101.1911583759864
 30
0.0
  0
VERTEX
  5
22F9
  8
0
 10
93.174920796583876
 20
101.1743583759864
 30
0.0
  0
VERTEX
  5
22FA
  8
0
 10
93.126920796583875
 20
101.1619583759864
 30
0.0
  0
VERTEX
  5
22FB
  8
0
 10
93.077320796583876
 20
101.15445837598639
 30
0.0
  0
VERTEX
  5
22FC
  8
0
 10
93.026020796583879
 20
101.1517583759864
 30
0.0
  0
VERTEX
  5
22FD
  8
0
 10
93.026020796583879
 20
101.1517583759864
 30
0.0
  0
VERTEX
  5
22FE
  8
0
 10
92.975020796583877
 20
101.15445837598639
 30
0.0
  0
VERTEX
  5
22FF
  8
0
 10
92.925420796583865
 20
101.1619583759864
 30
0.0
  0
VERTEX
  5
2300
  8
0
 10
92.877520796583866
 20
101.1743583759864
 30
0.0
  0
VERTEX
  5
2301
  8
0
 10
92.831520796583874
 20
101.1911583759864
 30
0.0
  0
VERTEX
  5
2302
  8
0
 10
92.787920796583876
 20
101.2123583759864
 30
0.0
  0
VERTEX
  5
2303
  8
0
 10
92.746620796583869
 20
101.2373583759864
 30
0.0
  0
VERTEX
  5
2304
  8
0
 10
92.708220796583873
 20
101.26615837598639
 30
0.0
  0
VERTEX
  5
2305
  8
0
 10
92.672520796583896
 20
101.29825837598641
 30
0.0
  0
VERTEX
  5
2306
  8
0
 10
92.640420796583882
 20
101.3339583759864
 30
0.0
  0
VERTEX
  5
2307
  8
0
 10
92.611620796583878
 20
101.37235837598639
 30
0.0
  0
VERTEX
  5
2308
  8
0
 10
92.586620796583873
 20
101.4136583759864
 30
0.0
  0
VERTEX
  5
2309
  8
0
 10
92.565420796583865
 20
101.4572583759864
 30
0.0
  0
VERTEX
  5
230A
  8
0
 10
92.54862079658389
 20
101.50325837598641
 30
0.0
  0
VERTEX
  5
230B
  8
0
 10
92.536220796583876
 20
101.5511583759864
 30
0.0
  0
VERTEX
  5
230C
  8
0
 10
92.528720796583883
 20
101.6007583759864
 30
0.0
  0
VERTEX
  5
230D
  8
0
 10
92.526020796583865
 20
101.6517583759864
 30
0.0
  0
VERTEX
  5
230E
  8
0
 10
92.526020796583865
 20
101.6517583759864
 30
0.0
  0
VERTEX
  5
230F
  8
0
 10
92.528720796583883
 20
101.7030583759864
 30
0.0
  0
VERTEX
  5
2310
  8
0
 10
92.536220796583876
 20
101.7526583759864
 30
0.0
  0
VERTEX
  5
2311
  8
0
 10
92.54862079658389
 20
101.8006583759864
 30
0.0
  0
VERTEX
  5
2312
  8
0
 10
92.565420796583865
 20
101.8464583759864
 30
0.0
  0
VERTEX
  5
2313
  8
0
 10
92.586620796583873
 20
101.89025837598641
 30
0.0
  0
VERTEX
  5
2314
  8
0
 10
92.611620796583878
 20
101.9314583759864
 30
0.0
  0
VERTEX
  5
2315
  8
0
 10
92.640420796583882
 20
101.96995837598639
 30
0.0
  0
VERTEX
  5
2316
  8
0
 10
92.672520796583896
 20
102.0053583759864
 30
0.0
  0
VERTEX
  5
2317
  8
0
 10
92.708220796583873
 20
102.0377583759864
 30
0.0
  0
VERTEX
  5
2318
  8
0
 10
92.746620796583869
 20
102.0665583759864
 30
0.0
  0
VERTEX
  5
2319
  8
0
 10
92.787920796583876
 20
102.0916583759864
 30
0.0
  0
VERTEX
  5
231A
  8
0
 10
92.831520796583874
 20
102.1125583759864
 30
0.0
  0
VERTEX
  5
231B
  8
0
 10
92.877520796583866
 20
102.1294583759864
 30
0.0
  0
VERTEX
  5
231C
  8
0
 10
92.925420796583865
 20
102.1417583759864
 30
0.0
  0
VERTEX
  5
231D
  8
0
 10
92.975020796583877
 20
102.14925837598641
 30
0.0
  0
VERTEX
  5
231E
  8
0
 10
93.026020796583879
 20
102.1517583759864
 30
0.0
  0
SEQEND
  5
231F
  8
0
  0
POLYLINE
  5
1178
  8
0
 66
     1
 10
0.0
 20
0.0
 30
0.0
  0
VERTEX
  5
2320
  8
0
 10
93.026020796583879
 20
102.1517583759864
 30
0.0
  0
VERTEX
  5
2321
  8
0
 10
93.026020796583879
 20
102.1517583759864
 30
0.0
  0
VERTEX
  5
2322
  8
0
 10
93.077320796583876
 20
102.14925837598641
 30
0.0
  0
VERTEX
  5
2323
  8
0
 10
93.126920796583875
 20
102.1417583759864
 30
0.0
  0
VERTEX
  5
2324
  8
0
 10
93.174920796583876
 20
102.1294583759864
 30
0.0
  0
VERTEX
  5
2325
  8
0
 10
93.220720796583876
 20
102.1125583759864
 30
0.0
  0
VERTEX
  5
2326
  8
0
 10
93.264520796583881
 20
102.0916583759864
 30
0.0
  0
VERTEX
  5
2327
  8
0
 10
93.305720796583856
 20
102.0665583759864
 30
0.0
  0
VERTEX
  5
2328
  8
0
 10
93.344220796583883
 20
102.0377583759864
 30
0.0
  0
VERTEX
  5
2329
  8
0
 10
93.379620796583865
 20
102.0053583759864
 30
0.0
  0
VERTEX
  5
232A
  8
0
 10
93.412020796583874
 20
101.96995837598639
 30
0.0
  0
VERTEX
  5
232B
  8
0
 10
93.440820796583878
 20
101.9314583759864
 30
0.0
  0
VERTEX
  5
232C
  8
0
 10
93.465920796583873
 20
101.89025837598641
 30
0.0
  0
VERTEX
  5
232D
  8
0
 10
93.486820796583885
 20
101.8464583759864
 30
0.0
  0
VERTEX
  5
232E
  8
0
 10
93.503720796583877
 20
101.8006583759864
 30
0.0
  0
VERTEX
  5
232F
  8
0
 10
93.516020796583888
 20
101.7526583759864
 30
0.0
  0
VERTEX
  5
2330
  8
0
 10
93.523520796583881
 20
101.7030583759864
 30
0.0
  0
VERTEX
  5
2331
  8
0
 10
93.526020796583865
 20
101.6517583759864
 30
0.0
  0
VERTEX
  5
2332
  8
0
 10
93.526020796583865
 20
101.6517583759864
 30
0.0
  0
VERTEX
  5
2333
  8
0
 10
93.523520796583881
 20
101.6007583759864
 30
0.0
  0
VERTEX
  5
2334
  8
0
 10
93.516020796583888
 20
101.5511583759864
 30
0.0
  0
VERTEX
  5
2335
  8
0
 10
93.503720796583877
 20
101.50325837598641
 30
0.0
  0
VERTEX
  5
2336
  8
0
 10
93.486820796583885
 20
101.4572583759864
 30
0.0
  0
VERTEX
  5
2337
  8
0
 10
93.465920796583873
 20
101.4136583759864
 30
0.0
  0
VERTEX
  5
2338
  8
0
 10
93.440820796583878
 20
101.37235837598639
 30
0.0
  0
VERTEX
  5
2339
  8
0
 10
93.412020796583874
 20
101.3339583759864
 30
0.0
  0
VERTEX
  5
233A
  8
0
 10
93.379620796583865
 20
101.29825837598641
 30
0.0
  0
VERTEX
  5
233B
  8
0
 10
93.344220796583883
 20
101.26615837598639
 30
0.0
  0
VERTEX
  5
233C
  8
0
 10
93.305720796583856
 20
101.2373583759864
 30
0.0
  0
VERTEX
  5
233D
  8
0
 10
93.264520796583881
 20
101.2123583759864
 30
0.0
  0
VERTEX
  5
233E
  8
0
 10
93.220720796583876
 20
101.1911583759864
 30
0.0
  0
VERTEX
  5
233F
  8
0
 10
93.174920796583876
 20
101.1743583759864
 30
0.0
  0
VERTEX
  5
2340
  8
0
 10
93.126920796583875
 20
101.1619583759864
 30
0.0
  0
VERTEX
  5
2341
  8
0
 10
93.077320796583876
 20
101.15445837598639
 30
0.0
  0
VERTEX
  5
2342
  8
0
 10
93.026020796583879
 20
101.1517583759864
 30
0.0
  0
VERTEX
  5
2343
  8
0
 10
93.026020796583879
 20
101.1517583759864
 30
0.0
  0
VERTEX
  5
2344
  8
0
 10
92.975020796583877
 20
101.15445837598639
 30
0.0
  0
VERTEX
  5
2345
  8
0
 10
92.925420796583865
 20
101.1619583759864
 30
0.0
  0
VERTEX
  5
2346
  8
0
 10
92.877520796583866
 20
101.1743583759864
 30
0.0
  0
VERTEX
  5
2347
  8
0
 10
92.831520796583874
 20
101.1911583759864
 30
0.0
  0
VERTEX
  5
2348
  8
0
 10
92.787920796583876
 20
101.2123583759864
 30
0.0
  0
VERTEX
  5
2349
  8
0
 10
92.746620796583869
 20
101.2373583759864
 30
0.0
  0
VERTEX
  5
234A
  8
0
 10
92.708220796583873
 20
101.26615837598639
 30
0.0
  0
VERTEX
  5
234B
  8
0
 10
92.672520796583896
 20
101.29825837598641
 30
0.0
  0
VERTEX
  5
234C
  8
0
 10
92.640420796583882
 20
101.3339583759864
 30
0.0
  0
VERTEX
  5
234D
  8
0
 10
92.611620796583878
 20
101.37235837598639
 30
0.0
  0
VERTEX
  5
234E
  8
0
 10
92.586620796583873
 20
101.4136583759864
 30
0.0
  0
VERTEX
  5
234F
  8
0
 10
92.565420796583865
 20
101.4572583759864
 30
0.0
  0
VERTEX
  5
2350
  8
0
 10
92.54862079658389
 20
101.50325837598641
 30
0.0
  0
VERTEX
  5
2351
  8
0
 10
92.536220796583876
 20
101.5511583759864
 30
0.0
  0
VERTEX
  5
2352
  8
0
 10
92.528720796583883
 20
101.6007583759864
 30
0.0
  0
VERTEX
  5
2353
  8
0
 10
92.526020796583865
 20
101.6517583759864
 30
0.0
  0
VERTEX
  5
2354
  8
0
 10
92.526020796583865
 20
101.6517583759864
 30
0.0
  0
VERTEX
  5
2355
  8
0
 10
92.528720796583883
 20
101.7030583759864
 30
0.0
  0
VERTEX
  5
2356
  8
0
 10
92.536220796583876
 20
101.7526583759864
 30
0.0
  0
VERTEX
  5
2357
  8
0
 10
92.54862079658389
 20
101.8006583759864
 30
0.0
  0
VERTEX
  5
2358
  8
0
 10
92.565420796583865
 20
101.8464583759864
 30
0.0
  0
VERTEX
  5
2359
  8
0
 10
92.586620796583873
 20
101.89025837598641
 30
0.0
  0
VERTEX
  5
235A
  8
0
 10
92.611620796583878
 20
101.9314583759864
 30
0.0
  0
VERTEX
  5
235B
  8
0
 10
92.640420796583882
 20
101.96995837598639
 30
0.0
  0
VERTEX
  5
235C
  8
0
 10
92.672520796583896
 20
102.0053583759864
 30
0.0
  0
VERTEX
  5
235D
  8
0
 10
92.708220796583873
 20
102.0377583759864
 30
0.0
  0
VERTEX
  5
235E
  8
0
 10
92.746620796583869
 20
102.0665583759864
 30
0.0
  0
VERTEX
  5
235F
  8
0
 10
92.787920796583876
 20
102.0916583759864
 30
0.0
  0
VERTEX
  5
2360
  8
0
 10
92.831520796583874
 20
102.1125583759864
 30
0.0
  0
VERTEX
  5
2361
  8
0
 10
92.877520796583866
 20
102.1294583759864
 30
0.0
  0
VERTEX
  5
2362
  8
0
 10
92.925420796583865
 20
102.1417583759864
 30
0.0
  0
VERTEX
  5
2363
  8
0
 10
92.975020796583877
 20
102.14925837598641
 30
0.0
  0
VERTEX
  5
2364
  8
0
 10
93.026020796583879
 20
102.1517583759864
 30
0.0
  0
SEQEND
  5
2365
  8
0
  0
LINE
  5
1198
  8
0
 39
5.0
 10
92.531020796583874
 20
112.0654583759864
 30
0.0
 11
93.621220796583884
 21
112.0654583759864
 31
0.0
  0
LINE
  5
119B
  8
0
 10
90.869820796583895
 20
89.300358375986477
 30
0.0
 11
91.749920796583865
 21
89.300358375986477
 31
0.0
  0
LINE
  5
119C
  8
0
 10
90.869820796583895
 20
89.300358375986477
 30
0.0
 11
90.869820796583895
 21
88.389958375986467
 31
0.0
  0
POLYLINE
  5
11A9
  8
2
 66
     1
 10
0.0
 20
0.0
 30
0.0
 39
5.0
  0
VERTEX
  5
2366
  8
2
 10
91.749920796583865
 20
102.7234583759864
 30
0.0
  0
VERTEX
  5
2367
  8
2
 10
91.749920796583865
 20
102.6776583759864
 30
0.0
  0
SEQEND
  5
2368
  8
2
  0
POLYLINE
  5
11AA
  8
2
 66
     1
 10
0.0
 20
0.0
 30
0.0
 39
5.0
  0
VERTEX
  5
2369
  8
2
 10
91.749920796583865
 20
99.677658375986482
 30
0.0
  0
VERTEX
  5
236A
  8
2
 10
91.749920796583865
 20
89.300358375986477
 30
0.0
  0
SEQEND
  5
236B
  8
2
  0
LINE
  5
11AC
  8
2
 10
91.749920796583865
 20
113.8899583759864
 30
0.0
 11
91.749920796583865
 21
99.677658375986482
 31
0.0
  0
LINE
  5
1301
  8
0
 10
90.455820796583865
 20
68.389958375986467
 30
0.0
 11
93.753100015317472
 21
68.389958375986467
 31
0.0
  0
LINE
  5
1305
  8
0
 39
5.0
 10
92.141620796583879
 20
87.412858375986474
 30
0.0
 11
92.141620796583879
 21
83.389958375986467
 31
0.0
  0
LINE
  5
130B
  8
0
 39
5.0
 10
93.114920796583874
 20
83.389958375986467
 30
0.0
 11
90.163020796583865
 21
83.389958375986467
 31
0.0
  0
LINE
  5
1313
  8
0
 10
93.114320796583883
 20
67.582058375986477
 30
0.0
 11
93.753100015317472
 21
67.582058375986477
 31
0.0
  0
LINE
  5
1315
  8
0
 10
93.753100015317472
 20
67.582058375986477
 30
0.0
 11
93.753100015317472
 21
68.389958375986467
 31
0.0
  0
LINE
  5
136D
  8
0
 10
93.487320796583873
 20
63.56304389408885
 30
0.0
 11
95.455820796583865
 21
63.56304389408885
 31
0.0
  0
LINE
  5
1372
  8
0
 39
5.0
 10
93.487320796583873
 20
62.678658375986473
 30
0.0
 11
90.455820796583865
 21
62.678658375986473
 31
0.0
  0
LINE
  5
1376
  8
0
 10
93.487320796583873
 20
62.678658375986473
 30
0.0
 11
93.487320796583873
 21
63.56304389408885
 31
0.0
  0
LINE
  5
137A
  8
2
 10
93.487320796583873
 20
62.678658375986473
 30
0.0
 11
93.918047672607941
 21
61.822534201533863
 31
0.0
  0
LINE
  5
137C
  8
0
 39
5.0
 10
93.487320796583873
 20
58.511858375986478
 30
0.0
 11
90.455820796583865
 21
58.511858375986478
 31
0.0
  0
POLYLINE
  5
137D
  8
2
 66
     1
 10
0.0
 20
0.0
 30
0.0
 39
5.0
  0
VERTEX
  5
236C
  8
2
 10
90.455820796583865
 20
58.114058375986467
 30
0.0
  0
VERTEX
  5
236D
  8
2
 10
93.487320796583873
 20
58.114058375986467
 30
0.0
  0
SEQEND
  5
236E
  8
2
  0
LINE
  5
137E
  8
2
 10
93.487320796583873
 20
58.511858375986478
 30
0.0
 11
93.918047672607941
 21
59.367982550439081
 31
0.0
  0
LINE
  5
1382
  8
0
 39
5.0
 10
93.703120796583875
 20
55.389958375986467
 30
0.0
 11
93.703120796583875
 21
53.289958375986473
 31
0.0
  0
LINE
  5
1389
  8
0
 10
93.487320796583873
 20
58.511858375986478
 30
0.0
 11
93.487320796583873
 21
57.649323686022711
 31
0.0
  0
LINE
  5
138D
  8
0
 62
     7
 39
5.0
 10
95.455820796583865
 20
56.841858375986469
 30
0.0
 11
94.455820796583893
 21
56.841858375986469
 31
0.0
  0
LINE
  5
1390
  8
0
 10
93.487320796583873
 20
57.649323686022711
 30
0.0
 11
95.455820796583865
 21
57.649323686022711
 31
0.0
  0
LINE
  5
13F3
  8
2
 10
93.114320796583883
 20
68.389958375986467
 30
0.0
 11
93.114320796583883
 21
67.582058375986477
 31
0.0
  0
LINE
  5
13F4
  8
0
 10
93.487320796583873
 20
68.389958375986467
 30
0.0
 11
93.487320796583873
 21
67.582058375986477
 31
0.0
  0
LINE
  5
1429
  8
0
 10
90.855820796583885
 20
141.75455837598639
 30
0.0
 11
95.455820796583865
 21
141.75455837598639
 31
0.0
  0
LINE
  5
170C
  8
0
 10
92.955820796583865
 20
139.58155837598639
 30
0.0
 11
92.955820796583865
 21
135.63295837598639
 31
0.0
  0
LINE
  5
170E
  8
0
 10
90.855820796583885
 20
141.75455837598639
 30
0.0
 11
90.855820796583885
 21
139.58155837598639
 31
0.0
  0
LINE
  5
1712
  8
1
 10
93.992520796583875
 20
135.25705837598639
 30
0.0
 11
92.955820796583865
 21
135.63295837598639
 31
0.0
  0
LINE
  5
1716
  8
0
 10
93.155820796583896
 20
141.75455837598639
 30
0.0
 11
93.155820796583896
 21
139.58155837598639
 31
0.0
  0
LINE
  5
171A
  8
2
 10
92.955820796583865
 20
119.16515837598639
 30
0.0
 11
92.955820796583865
 21
122.8899583759864
 31
0.0
  0
LINE
  5
1724
  8
0
 10
92.531020796583874
 20
87.412858375986474
 30
0.0
 11
92.531020796583874
 21
113.8899583759864
 31
0.0
  0
LINE
  5
1728
  8
0
 10
91.455820796583865
 20
113.8899583759864
 30
0.0
 11
91.455820796583865
 21
105.7234583759864
 31
0.0
  0
LINE
  5
1729
  8
0
 10
91.455820796583865
 20
102.7234583759864
 30
0.0
 11
91.455820796583865
 21
102.6776583759864
 31
0.0
  0
LINE
  5
172A
  8
0
 10
91.455820796583865
 20
99.677658375986482
 30
0.0
 11
91.455820796583865
 21
89.300358375986477
 31
0.0
  0
LINE
  5
1732
  8
0
 10
90.455820796583865
 20
68.389958375986481
 30
0.0
 11
90.455820796583865
 21
55.389958375986467
 31
0.0
  0
LINE
  5
1735
  8
0
 10
94.455820796583879
 20
56.841858375986469
 30
0.0
 11
94.455820796583879
 21
51.289958375986473
 31
0.0
  0
LINE
  5
1737
  8
0
 10
93.487320796583873
 20
57.649323686022711
 30
0.0
 11
94.455820796583893
 21
56.841858375986469
 31
0.0
  0
LINE
  5
1739
  8
0
 10
92.455820796583879
 20
53.289958375986473
 30
0.0
 11
92.455820796583879
 21
51.289958375986473
 31
0.0
  0
LINE
  5
174E
  8
0
 39
5.0
 10
98.905820796583882
 20
113.8899583759864
 30
0.0
 11
98.905820796583882
 21
121.9718583759864
 31
0.0
  0
LINE
  5
174F
  8
0
 39
5.0
 10
98.905820796583882
 20
121.9718583759864
 30
0.0
 11
98.905820796583882
 21
121.9718583759864
 31
0.0
  0
LINE
  5
1750
  8
0
 39
5.0
 10
98.905820796583882
 20
121.9718583759864
 30
0.0
 11
98.908420796583897
 21
122.06235837598641
 31
0.0
  0
LINE
  5
1751
  8
0
 39
5.0
 10
98.908420796583897
 20
122.06235837598641
 30
0.0
 11
98.897220796583895
 21
122.1502583759864
 31
0.0
  0
LINE
  5
1752
  8
0
 39
5.0
 10
98.897220796583895
 20
122.1502583759864
 30
0.0
 11
98.873420796583886
 21
122.2354583759864
 31
0.0
  0
LINE
  5
1753
  8
0
 39
5.0
 10
98.873420796583886
 20
122.2354583759864
 30
0.0
 11
98.838520796583893
 21
122.3172583759864
 31
0.0
  0
LINE
  5
1754
  8
0
 39
5.0
 10
98.838520796583893
 20
122.3172583759864
 30
0.0
 11
98.793120796583878
 21
122.3955583759864
 31
0.0
  0
LINE
  5
1755
  8
0
 39
5.0
 10
98.793120796583878
 20
122.3955583759864
 30
0.0
 11
98.739020796583887
 21
122.4695583759864
 31
0.0
  0
LINE
  5
1756
  8
0
 39
5.0
 10
98.739020796583887
 20
122.4695583759864
 30
0.0
 11
98.6769207965839
 21
122.5391583759864
 31
0.0
  0
LINE
  5
1757
  8
0
 39
5.0
 10
98.6769207965839
 20
122.5391583759864
 30
0.0
 11
98.608420796583886
 21
122.6036583759864
 31
0.0
  0
LINE
  5
1758
  8
0
 39
5.0
 10
98.608420796583886
 20
122.6036583759864
 30
0.0
 11
98.534320796583884
 21
122.66295837598641
 31
0.0
  0
LINE
  5
1759
  8
0
 39
5.0
 10
98.534320796583884
 20
122.66295837598641
 30
0.0
 11
98.456220796583906
 21
122.7163583759864
 31
0.0
  0
LINE
  5
175A
  8
0
 39
5.0
 10
98.456220796583906
 20
122.7163583759864
 30
0.0
 11
98.375120796583886
 21
122.7634583759864
 31
0.0
  0
LINE
  5
175B
  8
0
 39
5.0
 10
98.375120796583886
 20
122.7634583759864
 30
0.0
 11
98.292220796583877
 21
122.80385837598639
 31
0.0
  0
LINE
  5
175C
  8
0
 39
5.0
 10
98.292220796583877
 20
122.80385837598639
 30
0.0
 11
98.20872079658389
 21
122.83725837598639
 31
0.0
  0
LINE
  5
175D
  8
0
 39
5.0
 10
98.20872079658389
 20
122.83725837598639
 30
0.0
 11
98.126020796583902
 21
122.86295837598639
 31
0.0
  0
LINE
  5
175E
  8
0
 39
5.0
 10
98.126020796583902
 20
122.86295837598639
 30
0.0
 11
98.045020796583884
 21
122.8807583759864
 31
0.0
  0
LINE
  5
1760
  8
0
 39
5.0
 10
98.045020796583884
 20
122.8807583759864
 30
0.0
 11
97.967220796583888
 21
122.8899583759864
 31
0.0
  0
LINE
  5
1761
  8
0
 39
5.0
 10
97.967220796583888
 20
122.8899583759864
 30
0.0
 11
95.455820796583865
 21
122.8899583759864
 31
0.0
  0
LINE
  5
1765
  8
2
 39
5.0
 10
97.477120796583904
 20
135.45938518219839
 30
0.0
 11
97.477120796583876
 21
139.58155837598639
 31
0.0
  0
LINE
  5
1766
  8
0
 39
5.0
 10
95.455820796583865
 20
139.58155837598639
 30
0.0
 11
100.0558207965838
 21
139.58155837598639
 31
0.0
  0
LINE
  5
1767
  8
0
 39
5.0
 10
97.208520796583883
 20
55.389958375986453
 30
0.0
 11
97.208520796583883
 21
53.289958375986473
 31
0.0
  0
LINE
  5
1768
  8
0
 39
5.0
 10
95.455820796583865
 20
83.389958375986467
 30
0.0
 11
100.74862079658379
 21
83.389958375986467
 31
0.0
  0
POLYLINE
  5
176B
  8
2
 66
     1
 10
0.0
 20
0.0
 30
0.0
 39
5.0
  0
VERTEX
  5
236F
  8
2
 10
99.161720796583865
 20
99.677658375986482
 30
0.0
  0
VERTEX
  5
2370
  8
2
 10
99.161720796583865
 20
89.300358375986477
 30
0.0
  0
SEQEND
  5
2371
  8
2
  0
LINE
  5
1775
  8
0
 39
5.0
 10
100.74862079658379
 20
88.389958375986467
 30
0.0
 11
95.455820796583865
 21
88.389958375986467
 31
0.0
  0
LINE
  5
1776
  8
0
 39
5.0
 10
100.74862079658379
 20
83.389958375986467
 30
0.0
 11
100.74862079658379
 21
88.389958375986467
 31
0.0
  0
LINE
  5
177B
  8
0
 39
5.0
 10
97.796720796583884
 20
68.389958375986467
 30
0.0
 11
97.796720796583884
 21
83.389958375986467
 31
0.0
  0
LINE
  5
1780
  8
0
 39
5.0
 10
95.455820796583865
 20
135.25705837598639
 30
0.0
 11
96.919120796583883
 21
135.25705837598639
 31
0.0
  0
POLYLINE
  5
1786
  8
0
 62
     0
 66
     1
 10
0.0
 20
0.0
 30
0.0
 39
5.0
  0
VERTEX
  5
2372
  8
0
 62
     0
 10
95.455820796583865
 20
133.2975583759864
 30
0.0
  0
VERTEX
  5
2373
  8
0
 62
     0
 10
99.147420796583873
 20
133.2975583759864
 30
0.0
  0
VERTEX
  5
2374
  8
0
 62
     0
 10
99.147420796583873
 20
132.75455837598639
 30
0.0
  0
VERTEX
  5
2375
  8
0
 62
     0
 10
95.455820796583865
 20
132.75455837598639
 30
0.0
  0
SEQEND
  5
2376
  8
0
 62
     0
  0
LINE
  5
1788
  8
2
 10
99.161720796583865
 20
113.8899583759864
 30
0.0
 11
99.161720796583865
 21
105.7234583759864
 31
0.0
  0
LINE
  5
178E
  8
0
 10
98.455820796583879
 20
53.289958375986473
 30
0.0
 11
98.455820796583879
 21
51.289958375986473
 31
0.0
  0
LINE
  5
1794
  8
0
 10
101.8054207965839
 20
68.389958375986467
 30
0.0
 11
95.455820796583865
 21
68.389958375986467
 31
0.0
  0
LINE
  5
1799
  8
0
 10
99.455820796583879
 20
99.677658375986482
 30
0.0
 11
99.455820796583879
 21
89.300358375986463
 31
0.0
  0
LINE
  5
179A
  8
0
 10
100.04182079658381
 20
89.300358375986477
 30
0.0
 11
100.04182079658381
 21
88.389958375986467
 31
0.0
  0
LINE
  5
179B
  8
0
 10
100.04182079658381
 20
89.300358375986477
 30
0.0
 11
95.455820796583865
 21
89.300358375986477
 31
0.0
  0
LINE
  5
17A9
  8
0
 10
100.0558207965838
 20
141.75455837598639
 30
0.0
 11
95.455820796583865
 21
141.75455837598639
 31
0.0
  0
LINE
  5
17AA
  8
0
 10
95.455820796583865
 20
135.63295837598639
 30
0.0
 11
97.955820796583865
 21
135.63295837598639
 31
0.0
  0
LINE
  5
17AB
  8
0
 10
99.455820796583879
 20
113.8899583759864
 30
0.0
 11
99.455820796583879
 21
105.7234583759864
 31
0.0
  0
LINE
  5
17BA
  8
0
 10
97.955820796583865
 20
139.58155837598639
 30
0.0
 11
97.955820796583865
 21
135.63295837598639
 31
0.0
  0
LINE
  5
17BB
  8
1
 10
96.919120796583883
 20
135.25705837598639
 30
0.0
 11
97.955820796583865
 21
135.63295837598639
 31
0.0
  0
LINE
  5
17BC
  8
0
 10
97.755820796583876
 20
141.75455837598639
 30
0.0
 11
97.755820796583876
 21
139.58155837598639
 31
0.0
  0
LINE
  5
17BD
  8
0
 10
100.0558207965838
 20
141.75455837598639
 30
0.0
 11
100.0558207965838
 21
139.58155837598639
 31
0.0
  0
LINE
  5
17C1
  8
0
 10
98.908420796583897
 20
122.06235837598641
 30
0.0
 11
95.455820796583865
 21
122.06235837598641
 31
0.0
  0
LINE
  5
17C4
  8
0
 39
5.0
 10
91.749920796583893
 20
102.7234583759864
 30
0.0
 11
89.094120796583866
 21
102.7234583759864
 31
0.0
  0
LINE
  5
17C5
  8
0
 39
5.0
 10
89.094120796583866
 20
102.7234583759864
 30
0.0
 11
89.094120796583866
 21
102.7234583759864
 31
0.0
  0
LINE
  5
17C6
  8
0
 39
5.0
 10
89.094120796583866
 20
102.7234583759864
 30
0.0
 11
89.028720796583883
 21
102.7269583759864
 31
0.0
  0
LINE
  5
17C7
  8
0
 39
5.0
 10
89.028720796583883
 20
102.7269583759864
 30
0.0
 11
88.965020796583886
 21
102.7369583759864
 31
0.0
  0
LINE
  5
17C8
  8
0
 39
5.0
 10
88.965020796583886
 20
102.7369583759864
 30
0.0
 11
88.903520796583877
 21
102.75325837598641
 31
0.0
  0
LINE
  5
17C9
  8
0
 39
5.0
 10
88.903520796583877
 20
102.75325837598641
 30
0.0
 11
88.844420796583876
 21
102.7752583759864
 31
0.0
  0
LINE
  5
17CA
  8
0
 39
5.0
 10
88.844420796583876
 20
102.7752583759864
 30
0.0
 11
88.788320796583889
 21
102.80295837598641
 31
0.0
  0
LINE
  5
17CB
  8
0
 39
5.0
 10
88.788320796583889
 20
102.80295837598641
 30
0.0
 11
88.735220796583889
 21
102.8358583759864
 31
0.0
  0
LINE
  5
17CC
  8
0
 39
5.0
 10
88.735220796583889
 20
102.8358583759864
 30
0.0
 11
88.68572079658388
 21
102.87365837598639
 31
0.0
  0
LINE
  5
17CD
  8
0
 39
5.0
 10
88.68572079658388
 20
102.87365837598639
 30
0.0
 11
88.639820796583876
 21
102.91595837598641
 31
0.0
  0
LINE
  5
17CE
  8
0
 39
5.0
 10
88.639820796583876
 20
102.91595837598641
 30
0.0
 11
88.598320796583863
 21
102.96265837598639
 31
0.0
  0
LINE
  5
17CF
  8
0
 39
5.0
 10
88.598320796583863
 20
102.96265837598639
 30
0.0
 11
88.561120796583864
 21
103.0130583759864
 31
0.0
  0
LINE
  5
17D0
  8
0
 39
5.0
 10
88.561120796583864
 20
103.0130583759864
 30
0.0
 11
88.528820796583886
 21
103.06715837598639
 31
0.0
  0
LINE
  5
17D1
  8
0
 39
5.0
 10
88.528820796583886
 20
103.06715837598639
 30
0.0
 11
88.50152079658389
 21
103.1242583759864
 31
0.0
  0
LINE
  5
17D2
  8
0
 39
5.0
 10
88.50152079658389
 20
103.1242583759864
 30
0.0
 11
88.479920796583869
 21
103.1844583759864
 31
0.0
  0
LINE
  5
17D3
  8
0
 39
5.0
 10
88.479920796583869
 20
103.1844583759864
 30
0.0
 11
88.463920796583878
 21
103.2470583759864
 31
0.0
  0
LINE
  5
17D4
  8
0
 39
5.0
 10
88.463920796583878
 20
103.2470583759864
 30
0.0
 11
88.454120796583865
 21
103.3118583759864
 31
0.0
  0
LINE
  5
17D5
  8
0
 39
5.0
 10
88.454120796583865
 20
103.3118583759864
 30
0.0
 11
88.45072079658388
 21
103.3784583759864
 31
0.0
  0
LINE
  5
17D6
  8
0
 39
5.0
 10
88.45072079658388
 20
103.3784583759864
 30
0.0
 11
88.45072079658388
 21
105.0684583759864
 31
0.0
  0
LINE
  5
17D7
  8
0
 39
5.0
 10
88.45072079658388
 20
105.0684583759864
 30
0.0
 11
88.45072079658388
 21
105.0684583759864
 31
0.0
  0
LINE
  5
17D8
  8
0
 39
5.0
 10
88.45072079658388
 20
105.0684583759864
 30
0.0
 11
88.454120796583865
 21
105.1353583759864
 31
0.0
  0
LINE
  5
17D9
  8
0
 39
5.0
 10
88.454120796583865
 20
105.1353583759864
 30
0.0
 11
88.463920796583878
 21
105.2001583759864
 31
0.0
  0
LINE
  5
17DA
  8
0
 39
5.0
 10
88.463920796583878
 20
105.2001583759864
 30
0.0
 11
88.479920796583869
 21
105.2628583759864
 31
0.0
  0
LINE
  5
17DB
  8
0
 39
5.0
 10
88.479920796583869
 20
105.2628583759864
 30
0.0
 11
88.50152079658389
 21
105.3229583759864
 31
0.0
  0
LINE
  5
17DC
  8
0
 39
5.0
 10
88.50152079658389
 20
105.3229583759864
 30
0.0
 11
88.528820796583886
 21
105.3802583759864
 31
0.0
  0
LINE
  5
17DD
  8
0
 39
5.0
 10
88.528820796583886
 20
105.3802583759864
 30
0.0
 11
88.561120796583864
 21
105.4342583759864
 31
0.0
  0
LINE
  5
17DE
  8
0
 39
5.0
 10
88.561120796583864
 20
105.4342583759864
 30
0.0
 11
88.598320796583863
 21
105.4847583759864
 31
0.0
  0
LINE
  5
17DF
  8
0
 39
5.0
 10
88.598320796583863
 20
105.4847583759864
 30
0.0
 11
88.639820796583876
 21
105.53115837598639
 31
0.0
  0
LINE
  5
17E0
  8
0
 39
5.0
 10
88.639820796583876
 20
105.53115837598639
 30
0.0
 11
88.68572079658388
 21
105.5736583759864
 31
0.0
  0
LINE
  5
17E1
  8
0
 39
5.0
 10
88.68572079658388
 20
105.5736583759864
 30
0.0
 11
88.735220796583889
 21
105.6113583759864
 31
0.0
  0
LINE
  5
17E2
  8
0
 39
5.0
 10
88.735220796583889
 20
105.6113583759864
 30
0.0
 11
88.788320796583889
 21
105.6442583759864
 31
0.0
  0
LINE
  5
17E3
  8
0
 39
5.0
 10
88.788320796583889
 20
105.6442583759864
 30
0.0
 11
88.844420796583876
 21
105.6718583759864
 31
0.0
  0
LINE
  5
17E4
  8
0
 39
5.0
 10
88.844420796583876
 20
105.6718583759864
 30
0.0
 11
88.903520796583877
 21
105.6939583759864
 31
0.0
  0
LINE
  5
17E5
  8
0
 39
5.0
 10
88.903520796583877
 20
105.6939583759864
 30
0.0
 11
88.965020796583886
 21
105.7101583759864
 31
0.0
  0
LINE
  5
17E6
  8
0
 39
5.0
 10
88.965020796583886
 20
105.7101583759864
 30
0.0
 11
89.028720796583883
 21
105.7201583759864
 31
0.0
  0
LINE
  5
17E7
  8
0
 39
5.0
 10
89.028720796583883
 20
105.7201583759864
 30
0.0
 11
89.094120796583866
 21
105.7234583759864
 31
0.0
  0
LINE
  5
17E8
  8
0
 39
5.0
 10
91.749920796583893
 20
99.677658375986482
 30
0.0
 11
89.094120796583866
 21
99.677658375986482
 31
0.0
  0
LINE
  5
17E9
  8
0
 39
5.0
 10
89.094120796583866
 20
99.677658375986482
 30
0.0
 11
89.094120796583866
 21
99.677658375986482
 31
0.0
  0
LINE
  5
17EA
  8
0
 39
5.0
 10
89.094120796583866
 20
99.677658375986482
 30
0.0
 11
89.028720796583883
 21
99.68115837598647
 31
0.0
  0
LINE
  5
17EB
  8
0
 39
5.0
 10
89.028720796583883
 20
99.68115837598647
 30
0.0
 11
88.965020796583886
 21
99.691158375986461
 31
0.0
  0
LINE
  5
17EC
  8
0
 39
5.0
 10
88.965020796583886
 20
99.691158375986461
 30
0.0
 11
88.903520796583877
 21
99.707458375986477
 31
0.0
  0
LINE
  5
17ED
  8
0
 39
5.0
 10
88.903520796583877
 20
99.707458375986477
 30
0.0
 11
88.844420796583876
 21
99.729458375986468
 31
0.0
  0
LINE
  5
17EE
  8
0
 39
5.0
 10
88.844420796583876
 20
99.729458375986468
 30
0.0
 11
88.788320796583889
 21
99.757158375986464
 31
0.0
  0
LINE
  5
17EF
  8
0
 39
5.0
 10
88.788320796583889
 20
99.757158375986464
 30
0.0
 11
88.735220796583889
 21
99.79005837598649
 31
0.0
  0
LINE
  5
17F0
  8
0
 39
5.0
 10
88.735220796583889
 20
99.79005837598649
 30
0.0
 11
88.68572079658388
 21
99.82785837598648
 31
0.0
  0
LINE
  5
17F1
  8
0
 39
5.0
 10
88.68572079658388
 20
99.82785837598648
 30
0.0
 11
88.639820796583876
 21
99.870158375986463
 31
0.0
  0
LINE
  5
17F2
  8
0
 39
5.0
 10
88.639820796583876
 20
99.870158375986463
 30
0.0
 11
88.598320796583863
 21
99.916858375986479
 31
0.0
  0
LINE
  5
17F3
  8
0
 39
5.0
 10
88.598320796583863
 20
99.916858375986479
 30
0.0
 11
88.561120796583864
 21
99.967258375986475
 31
0.0
  0
LINE
  5
17F4
  8
0
 39
5.0
 10
88.561120796583864
 20
99.967258375986475
 30
0.0
 11
88.528820796583886
 21
100.0213583759864
 31
0.0
  0
LINE
  5
17F5
  8
0
 39
5.0
 10
88.528820796583886
 20
100.0213583759864
 30
0.0
 11
88.50152079658389
 21
100.0784583759864
 31
0.0
  0
LINE
  5
17F6
  8
0
 39
5.0
 10
88.50152079658389
 20
100.0784583759864
 30
0.0
 11
88.479920796583869
 21
100.1386583759864
 31
0.0
  0
LINE
  5
17F7
  8
0
 39
5.0
 10
88.479920796583869
 20
100.1386583759864
 30
0.0
 11
88.463920796583878
 21
100.2012583759864
 31
0.0
  0
LINE
  5
17F8
  8
0
 39
5.0
 10
88.463920796583878
 20
100.2012583759864
 30
0.0
 11
88.454120796583865
 21
100.2660583759864
 31
0.0
  0
LINE
  5
17F9
  8
0
 39
5.0
 10
88.454120796583865
 20
100.2660583759864
 30
0.0
 11
88.45072079658388
 21
100.3326583759864
 31
0.0
  0
LINE
  5
17FA
  8
0
 39
5.0
 10
88.45072079658388
 20
100.3326583759864
 30
0.0
 11
88.45072079658388
 21
102.0226583759864
 31
0.0
  0
LINE
  5
17FB
  8
0
 39
5.0
 10
88.45072079658388
 20
102.0226583759864
 30
0.0
 11
88.45072079658388
 21
102.0226583759864
 31
0.0
  0
LINE
  5
17FC
  8
0
 39
5.0
 10
88.45072079658388
 20
102.0226583759864
 30
0.0
 11
88.454120796583865
 21
102.0895583759864
 31
0.0
  0
LINE
  5
17FD
  8
0
 39
5.0
 10
88.454120796583865
 20
102.0895583759864
 30
0.0
 11
88.463920796583878
 21
102.1543583759864
 31
0.0
  0
LINE
  5
17FE
  8
0
 39
5.0
 10
88.463920796583878
 20
102.1543583759864
 30
0.0
 11
88.479920796583869
 21
102.2170583759864
 31
0.0
  0
LINE
  5
17FF
  8
0
 39
5.0
 10
88.479920796583869
 20
102.2170583759864
 30
0.0
 11
88.50152079658389
 21
102.2771583759864
 31
0.0
  0
LINE
  5
1800
  8
0
 39
5.0
 10
88.50152079658389
 20
102.2771583759864
 30
0.0
 11
88.528820796583886
 21
102.3344583759864
 31
0.0
  0
LINE
  5
1801
  8
0
 39
5.0
 10
88.528820796583886
 20
102.3344583759864
 30
0.0
 11
88.561120796583864
 21
102.3884583759864
 31
0.0
  0
LINE
  5
1802
  8
0
 39
5.0
 10
88.561120796583864
 20
102.3884583759864
 30
0.0
 11
88.598320796583863
 21
102.4389583759864
 31
0.0
  0
LINE
  5
1803
  8
0
 39
5.0
 10
88.598320796583863
 20
102.4389583759864
 30
0.0
 11
88.639820796583876
 21
102.48535837598639
 31
0.0
  0
LINE
  5
1804
  8
0
 39
5.0
 10
88.639820796583876
 20
102.48535837598639
 30
0.0
 11
88.68572079658388
 21
102.5278583759864
 31
0.0
  0
LINE
  5
1805
  8
0
 39
5.0
 10
88.68572079658388
 20
102.5278583759864
 30
0.0
 11
88.735220796583889
 21
102.5655583759864
 31
0.0
  0
LINE
  5
1806
  8
0
 39
5.0
 10
88.735220796583889
 20
102.5655583759864
 30
0.0
 11
88.788320796583889
 21
102.5984583759864
 31
0.0
  0
LINE
  5
1807
  8
0
 39
5.0
 10
88.788320796583889
 20
102.5984583759864
 30
0.0
 11
88.844420796583876
 21
102.6260583759864
 31
0.0
  0
LINE
  5
1808
  8
0
 39
5.0
 10
88.844420796583876
 20
102.6260583759864
 30
0.0
 11
88.903520796583877
 21
102.6481583759864
 31
0.0
  0
LINE
  5
1809
  8
0
 39
5.0
 10
88.903520796583877
 20
102.6481583759864
 30
0.0
 11
88.965020796583886
 21
102.6643583759864
 31
0.0
  0
LINE
  5
180A
  8
0
 39
5.0
 10
88.965020796583886
 20
102.6643583759864
 30
0.0
 11
89.028720796583883
 21
102.6743583759864
 31
0.0
  0
LINE
  5
180B
  8
0
 39
5.0
 10
89.028720796583883
 20
102.6743583759864
 30
0.0
 11
89.094120796583866
 21
102.6776583759864
 31
0.0
  0
LINE
  5
18B9
  8
0
 39
5.0
 10
101.64542079658381
 20
105.7249583759864
 30
0.0
 11
101.7427207965838
 21
105.70195837598639
 31
0.0
  0
LINE
  5
18BA
  8
0
 39
5.0
 10
101.7427207965838
 20
105.70195837598639
 30
0.0
 11
101.83592079658381
 21
105.67025837598641
 31
0.0
  0
LINE
  5
18BB
  8
0
 39
5.0
 10
101.83592079658381
 20
105.67025837598641
 30
0.0
 11
101.9248207965838
 21
105.63085837598641
 31
0.0
  0
LINE
  5
18BC
  8
0
 39
5.0
 10
101.9248207965838
 20
105.63085837598641
 30
0.0
 11
102.0086207965838
 21
105.5838583759864
 31
0.0
  0
LINE
  5
18BD
  8
0
 39
5.0
 10
102.0086207965838
 20
105.5838583759864
 30
0.0
 11
102.0869207965838
 21
105.52985837598639
 31
0.0
  0
LINE
  5
18BE
  8
0
 39
5.0
 10
102.0869207965838
 20
105.52985837598639
 30
0.0
 11
102.15912079658381
 21
105.4692583759864
 31
0.0
  0
LINE
  5
18BF
  8
0
 39
5.0
 10
102.15912079658381
 20
105.4692583759864
 30
0.0
 11
102.22502079658381
 21
105.40275837598639
 31
0.0
  0
LINE
  5
18C0
  8
0
 39
5.0
 10
102.22502079658381
 20
105.40275837598639
 30
0.0
 11
102.28372079658379
 21
105.33075837598641
 31
0.0
  0
LINE
  5
18C1
  8
0
 39
5.0
 10
102.28372079658379
 20
105.33075837598641
 30
0.0
 11
102.3348207965838
 21
105.2536583759864
 31
0.0
  0
LINE
  5
18C2
  8
0
 39
5.0
 10
102.3348207965838
 20
105.2536583759864
 30
0.0
 11
102.3776207965839
 21
105.1718583759864
 31
0.0
  0
LINE
  5
18C3
  8
0
 39
5.0
 10
102.3776207965839
 20
105.1718583759864
 30
0.0
 11
102.4120207965838
 21
105.0861583759864
 31
0.0
  0
LINE
  5
18C4
  8
0
 39
5.0
 10
102.4120207965838
 20
105.0861583759864
 30
0.0
 11
102.4371207965838
 21
104.9965583759864
 31
0.0
  0
LINE
  5
18C5
  8
0
 39
5.0
 10
102.4371207965838
 20
104.9965583759864
 30
0.0
 11
102.4526207965838
 21
104.90395837598641
 31
0.0
  0
LINE
  5
18C6
  8
0
 39
5.0
 10
102.4526207965838
 20
104.90395837598641
 30
0.0
 11
102.4577207965838
 21
104.8084583759864
 31
0.0
  0
LINE
  5
18C7
  8
0
 39
5.0
 10
102.4577207965838
 20
104.8084583759864
 30
0.0
 11
102.4577207965838
 21
103.61715837598641
 31
0.0
  0
LINE
  5
18C8
  8
0
 39
5.0
 10
102.4577207965838
 20
103.61715837598641
 30
0.0
 11
102.4577207965838
 21
103.61715837598641
 31
0.0
  0
LINE
  5
18C9
  8
0
 39
5.0
 10
102.4577207965838
 20
103.61715837598641
 30
0.0
 11
102.4526207965838
 21
103.5219583759864
 31
0.0
  0
LINE
  5
18CA
  8
0
 39
5.0
 10
102.4526207965838
 20
103.5219583759864
 30
0.0
 11
102.4371207965838
 21
103.4293583759864
 31
0.0
  0
LINE
  5
18CB
  8
0
 39
5.0
 10
102.4371207965838
 20
103.4293583759864
 30
0.0
 11
102.4120207965838
 21
103.3399583759864
 31
0.0
  0
LINE
  5
18CC
  8
0
 39
5.0
 10
102.4120207965838
 20
103.3399583759864
 30
0.0
 11
102.3776207965839
 21
103.2539583759864
 31
0.0
  0
LINE
  5
18CD
  8
0
 39
5.0
 10
102.3776207965839
 20
103.2539583759864
 30
0.0
 11
102.3348207965838
 21
103.17235837598641
 31
0.0
  0
LINE
  5
18CE
  8
0
 39
5.0
 10
102.3348207965838
 20
103.17235837598641
 30
0.0
 11
102.28372079658379
 21
103.0951583759864
 31
0.0
  0
LINE
  5
18CF
  8
0
 39
5.0
 10
102.28372079658379
 20
103.0951583759864
 30
0.0
 11
102.22502079658381
 21
103.0231583759864
 31
0.0
  0
LINE
  5
18D0
  8
0
 39
5.0
 10
102.22502079658381
 20
103.0231583759864
 30
0.0
 11
102.15912079658381
 21
102.9565583759864
 31
0.0
  0
LINE
  5
18D1
  8
0
 39
5.0
 10
102.15912079658381
 20
102.9565583759864
 30
0.0
 11
102.0869207965838
 21
102.8961583759864
 31
0.0
  0
LINE
  5
18D2
  8
0
 39
5.0
 10
102.0869207965838
 20
102.8961583759864
 30
0.0
 11
102.0086207965838
 21
102.8421583759864
 31
0.0
  0
LINE
  5
18D3
  8
0
 39
5.0
 10
102.0086207965838
 20
102.8421583759864
 30
0.0
 11
101.9248207965838
 21
102.79525837598641
 31
0.0
  0
LINE
  5
18D4
  8
0
 39
5.0
 10
101.9248207965838
 20
102.79525837598641
 30
0.0
 11
101.83592079658381
 21
102.7555583759864
 31
0.0
  0
LINE
  5
18D5
  8
0
 39
5.0
 10
101.83592079658381
 20
102.7555583759864
 30
0.0
 11
101.7427207965838
 21
102.72415837598641
 31
0.0
  0
LINE
  5
18D6
  8
0
 39
5.0
 10
101.7427207965838
 20
102.72415837598641
 30
0.0
 11
101.73979762061821
 21
102.7234583759864
 31
0.0
  0
LINE
  5
18D7
  8
0
 39
5.0
 10
99.544737963965844
 20
102.7234583759864
 30
0.0
 11
99.541820796583892
 21
102.72415837598641
 31
0.0
  0
LINE
  5
18D8
  8
0
 39
5.0
 10
99.541820796583892
 20
102.72415837598641
 30
0.0
 11
99.448420796583889
 21
102.7555583759864
 31
0.0
  0
LINE
  5
18D9
  8
0
 39
5.0
 10
99.448420796583889
 20
102.7555583759864
 30
0.0
 11
99.359620796583883
 21
102.79525837598641
 31
0.0
  0
LINE
  5
18DA
  8
0
 39
5.0
 10
99.359620796583883
 20
102.79525837598641
 30
0.0
 11
99.275720796583883
 21
102.8421583759864
 31
0.0
  0
LINE
  5
18DB
  8
0
 39
5.0
 10
99.275720796583883
 20
102.8421583759864
 30
0.0
 11
99.197520796583888
 21
102.8961583759864
 31
0.0
  0
LINE
  5
18DC
  8
0
 39
5.0
 10
99.197520796583888
 20
102.8961583759864
 30
0.0
 11
99.125020796583883
 21
102.9565583759864
 31
0.0
  0
LINE
  5
18DD
  8
0
 39
5.0
 10
99.125020796583883
 20
102.9565583759864
 30
0.0
 11
99.059420796583865
 21
103.0231583759864
 31
0.0
  0
LINE
  5
18DE
  8
0
 39
5.0
 10
99.059420796583865
 20
103.0231583759864
 30
0.0
 11
99.000720796583863
 21
103.0951583759864
 31
0.0
  0
LINE
  5
18DF
  8
0
 39
5.0
 10
99.000720796583863
 20
103.0951583759864
 30
0.0
 11
98.949620796583872
 21
103.17235837598641
 31
0.0
  0
LINE
  5
18E0
  8
0
 39
5.0
 10
98.949620796583872
 20
103.17235837598641
 30
0.0
 11
98.826320796583872
 21
103.4063416318004
 31
0.0
  0
LINE
  5
18E1
  8
0
 39
5.0
 10
98.815420796583865
 20
103.42324136169491
 30
0.0
 11
98.815420796583865
 21
103.42324136169491
 31
0.0
  0
LINE
  5
18E2
  8
0
 39
5.0
 10
98.826320796583872
 20
103.4484100624822
 30
0.0
 11
98.764620796583884
 21
103.30594136169491
 31
0.0
  0
LINE
  5
18E3
  8
0
 39
5.0
 10
98.764620796583884
 20
103.30594136169491
 30
0.0
 11
98.705020796583881
 21
103.20284136169489
 31
0.0
  0
LINE
  5
18E4
  8
0
 39
5.0
 10
98.705020796583881
 20
103.20284136169489
 30
0.0
 11
98.637920796583884
 21
103.1130413616949
 31
0.0
  0
LINE
  5
18E5
  8
0
 39
5.0
 10
98.637920796583884
 20
103.1130413616949
 30
0.0
 11
98.564520796583892
 21
103.0353413616949
 31
0.0
  0
LINE
  5
18E6
  8
0
 39
5.0
 10
98.564520796583892
 20
103.0353413616949
 30
0.0
 11
98.486420796583886
 21
102.96904136169491
 31
0.0
  0
LINE
  5
18E7
  8
0
 39
5.0
 10
98.486420796583886
 20
102.96904136169491
 30
0.0
 11
98.404420796583864
 21
102.9127413616949
 31
0.0
  0
LINE
  5
18E8
  8
0
 39
5.0
 10
98.404420796583864
 20
102.9127413616949
 30
0.0
 11
98.320120796583893
 21
102.8657413616949
 31
0.0
  0
LINE
  5
18E9
  8
0
 39
5.0
 10
98.320120796583893
 20
102.8657413616949
 30
0.0
 11
98.234520796583894
 21
102.8268413616949
 31
0.0
  0
LINE
  5
18EA
  8
0
 39
5.0
 10
98.234520796583894
 20
102.8268413616949
 30
0.0
 11
98.149420796583883
 21
102.79534136169489
 31
0.0
  0
LINE
  5
18EB
  8
0
 39
5.0
 10
98.149420796583883
 20
102.79534136169489
 30
0.0
 11
98.065420796583879
 21
102.7698413616949
 31
0.0
  0
LINE
  5
18EC
  8
0
 39
5.0
 10
98.065420796583879
 20
102.7698413616949
 30
0.0
 11
97.984220796583884
 21
102.7496413616949
 31
0.0
  0
LINE
  5
18ED
  8
0
 39
5.0
 10
97.984220796583884
 20
102.7496413616949
 30
0.0
 11
97.906920796583876
 21
102.7334413616949
 31
0.0
  0
LINE
  5
18EE
  8
0
 39
5.0
 10
97.906920796583876
 20
102.7334413616949
 30
0.0
 11
97.851201806583305
 21
102.7234583759864
 31
0.0
  0
LINE
  5
18EF
  8
0
 39
5.0
 10
98.949620796583872
 20
105.2745583759864
 30
0.0
 11
98.826320796583872
 21
105.04057512017241
 31
0.0
  0
LINE
  5
18F0
  8
0
 39
5.0
 10
98.486420796583886
 20
105.477875390278
 30
0.0
 11
98.404420796583864
 21
105.53417539027799
 31
0.0
  0
LINE
  5
18F1
  8
0
 39
5.0
 10
98.826320796583872
 20
104.9985066894906
 30
0.0
 11
98.764620796583884
 21
105.140975390278
 31
0.0
  0
LINE
  5
18F2
  8
0
 39
5.0
 10
97.906920796583876
 20
105.71347539027801
 30
0.0
 11
97.851201806583305
 21
105.7234583759864
 31
0.0
  0
LINE
  5
18F3
  8
0
 39
5.0
 10
97.984220796583884
 20
105.69727539027799
 30
0.0
 11
97.906920796583876
 21
105.71347539027801
 31
0.0
  0
LINE
  5
18F4
  8
0
 39
5.0
 10
98.065420796583879
 20
105.67707539027801
 30
0.0
 11
97.984220796583884
 21
105.69727539027799
 31
0.0
  0
LINE
  5
18F5
  8
0
 39
5.0
 10
98.149420796583883
 20
105.651575390278
 30
0.0
 11
98.065420796583879
 21
105.67707539027801
 31
0.0
  0
LINE
  5
18F6
  8
0
 39
5.0
 10
98.234520796583894
 20
105.620075390278
 30
0.0
 11
98.149420796583883
 21
105.651575390278
 31
0.0
  0
LINE
  5
18F7
  8
0
 39
5.0
 10
98.320120796583893
 20
105.58117539027801
 30
0.0
 11
98.234520796583894
 21
105.620075390278
 31
0.0
  0
LINE
  5
18F8
  8
0
 39
5.0
 10
98.404420796583864
 20
105.53417539027799
 30
0.0
 11
98.320120796583893
 21
105.58117539027801
 31
0.0
  0
LINE
  5
18F9
  8
0
 39
5.0
 10
98.564520796583892
 20
105.411575390278
 30
0.0
 11
98.486420796583886
 21
105.477875390278
 31
0.0
  0
LINE
  5
18FA
  8
0
 39
5.0
 10
98.637920796583884
 20
105.333875390278
 30
0.0
 11
98.564520796583892
 21
105.411575390278
 31
0.0
  0
LINE
  5
18FB
  8
0
 39
5.0
 10
98.705020796583881
 20
105.244075390278
 30
0.0
 11
98.637920796583884
 21
105.333875390278
 31
0.0
  0
LINE
  5
18FC
  8
0
 39
5.0
 10
98.764620796583884
 20
105.140975390278
 30
0.0
 11
98.705020796583881
 21
105.244075390278
 31
0.0
  0
LINE
  5
18FD
  8
0
 39
5.0
 10
98.815420796583865
 20
105.023675390278
 30
0.0
 11
98.815420796583865
 21
105.023675390278
 31
0.0
  0
LINE
  5
18FE
  8
0
 39
5.0
 10
99.544737963965844
 20
105.7234583759864
 30
0.0
 11
99.541820796583892
 21
105.7227583759864
 31
0.0
  0
LINE
  5
18FF
  8
0
 39
5.0
 10
99.000720796583863
 20
105.35175837598641
 30
0.0
 11
98.949620796583872
 21
105.2745583759864
 31
0.0
  0
LINE
  5
1900
  8
0
 39
5.0
 10
99.059420796583865
 20
105.4237583759864
 30
0.0
 11
99.000720796583863
 21
105.35175837598641
 31
0.0
  0
LINE
  5
1901
  8
0
 39
5.0
 10
99.125020796583883
 20
105.4903583759865
 30
0.0
 11
99.059420796583865
 21
105.4237583759864
 31
0.0
  0
LINE
  5
1902
  8
0
 39
5.0
 10
99.197520796583888
 20
105.5507583759864
 30
0.0
 11
99.125020796583883
 21
105.4903583759865
 31
0.0
  0
LINE
  5
1903
  8
0
 39
5.0
 10
99.275720796583883
 20
105.60475837598641
 30
0.0
 11
99.197520796583888
 21
105.5507583759864
 31
0.0
  0
LINE
  5
1904
  8
0
 39
5.0
 10
99.359620796583883
 20
105.6516583759864
 30
0.0
 11
99.275720796583883
 21
105.60475837598641
 31
0.0
  0
LINE
  5
1905
  8
0
 39
5.0
 10
99.448420796583889
 20
105.6913583759864
 30
0.0
 11
99.359620796583883
 21
105.6516583759864
 31
0.0
  0
LINE
  5
1906
  8
0
 39
5.0
 10
99.541820796583892
 20
105.7227583759864
 30
0.0
 11
99.448420796583889
 21
105.6913583759864
 31
0.0
  0
LINE
  5
1907
  8
0
 39
5.0
 10
99.541820796583892
 20
102.6769583759864
 30
0.0
 11
99.448420796583889
 21
102.6455583759864
 31
0.0
  0
LINE
  5
1908
  8
0
 39
5.0
 10
99.448420796583889
 20
102.6455583759864
 30
0.0
 11
99.359620796583883
 21
102.6058583759864
 31
0.0
  0
LINE
  5
1909
  8
0
 39
5.0
 10
99.359620796583883
 20
102.6058583759864
 30
0.0
 11
99.275720796583883
 21
102.55895837598641
 31
0.0
  0
LINE
  5
190A
  8
0
 39
5.0
 10
99.275720796583883
 20
102.55895837598641
 30
0.0
 11
99.197520796583888
 21
102.5049583759864
 31
0.0
  0
LINE
  5
190B
  8
0
 39
5.0
 10
99.197520796583888
 20
102.5049583759864
 30
0.0
 11
99.125020796583883
 21
102.4445583759864
 31
0.0
  0
LINE
  5
190C
  8
0
 39
5.0
 10
99.125020796583883
 20
102.4445583759864
 30
0.0
 11
99.059420796583865
 21
102.3779583759864
 31
0.0
  0
LINE
  5
190D
  8
0
 39
5.0
 10
99.059420796583865
 20
102.3779583759864
 30
0.0
 11
99.000720796583863
 21
102.30595837598641
 31
0.0
  0
LINE
  5
190E
  8
0
 39
5.0
 10
99.000720796583863
 20
102.30595837598641
 30
0.0
 11
98.949620796583872
 21
102.2287583759864
 31
0.0
  0
LINE
  5
190F
  8
0
 39
5.0
 10
99.544737963965844
 20
102.6776583759864
 30
0.0
 11
99.541820796583892
 21
102.6769583759864
 31
0.0
  0
LINE
  5
1910
  8
0
 39
5.0
 10
98.815420796583865
 20
101.977875390278
 30
0.0
 11
98.815420796583865
 21
101.977875390278
 31
0.0
  0
LINE
  5
1911
  8
0
 39
5.0
 10
98.764620796583884
 20
102.095175390278
 30
0.0
 11
98.705020796583881
 21
102.198275390278
 31
0.0
  0
LINE
  5
1912
  8
0
 39
5.0
 10
98.705020796583881
 20
102.198275390278
 30
0.0
 11
98.637920796583884
 21
102.288075390278
 31
0.0
  0
LINE
  5
1913
  8
0
 39
5.0
 10
98.637920796583884
 20
102.288075390278
 30
0.0
 11
98.564520796583892
 21
102.365775390278
 31
0.0
  0
LINE
  5
1914
  8
0
 39
5.0
 10
98.564520796583892
 20
102.365775390278
 30
0.0
 11
98.486420796583886
 21
102.432075390278
 31
0.0
  0
LINE
  5
1915
  8
0
 39
5.0
 10
98.404420796583864
 20
102.48837539027799
 30
0.0
 11
98.320120796583893
 21
102.53537539027801
 31
0.0
  0
LINE
  5
1916
  8
0
 39
5.0
 10
98.320120796583893
 20
102.53537539027801
 30
0.0
 11
98.234520796583894
 21
102.574275390278
 31
0.0
  0
LINE
  5
1917
  8
0
 39
5.0
 10
98.234520796583894
 20
102.574275390278
 30
0.0
 11
98.149420796583883
 21
102.605775390278
 31
0.0
  0
LINE
  5
1918
  8
0
 39
5.0
 10
98.149420796583883
 20
102.605775390278
 30
0.0
 11
98.065420796583879
 21
102.63127539027801
 31
0.0
  0
LINE
  5
1919
  8
0
 39
5.0
 10
98.065420796583879
 20
102.63127539027801
 30
0.0
 11
97.984220796583884
 21
102.65147539027799
 31
0.0
  0
LINE
  5
191A
  8
0
 39
5.0
 10
97.984220796583884
 20
102.65147539027799
 30
0.0
 11
97.906920796583876
 21
102.66767539027801
 31
0.0
  0
LINE
  5
191B
  8
0
 39
5.0
 10
97.906920796583876
 20
102.66767539027801
 30
0.0
 11
97.851201806583305
 21
102.6776583759864
 31
0.0
  0
LINE
  5
191C
  8
0
 39
5.0
 10
98.826320796583872
 20
101.9527066894906
 30
0.0
 11
98.764620796583884
 21
102.095175390278
 31
0.0
  0
LINE
  5
191D
  8
0
 39
5.0
 10
98.486420796583886
 20
102.432075390278
 30
0.0
 11
98.404420796583864
 21
102.48837539027799
 31
0.0
  0
LINE
  5
191E
  8
0
 39
5.0
 10
98.949620796583872
 20
102.2287583759864
 30
0.0
 11
98.826320796583872
 21
101.99477512017241
 31
0.0
  0
LINE
  5
191F
  8
0
 39
5.0
 10
98.949620796583872
 20
100.12655837598641
 30
0.0
 11
98.826320796583872
 21
100.3605416318004
 31
0.0
  0
LINE
  5
1920
  8
0
 39
5.0
 10
98.486420796583886
 20
99.923241361694906
 30
0.0
 11
98.404420796583864
 21
99.866941361694913
 31
0.0
  0
LINE
  5
1921
  8
0
 39
5.0
 10
98.826320796583872
 20
100.4026100624822
 30
0.0
 11
98.764620796583884
 21
100.26014136169481
 31
0.0
  0
LINE
  5
1922
  8
0
 39
5.0
 10
97.906920796583876
 20
99.687641361694901
 30
0.0
 11
97.851201806583305
 21
99.677658375986482
 31
0.0
  0
LINE
  5
1923
  8
0
 39
5.0
 10
97.984220796583884
 20
99.703841361694899
 30
0.0
 11
97.906920796583876
 21
99.687641361694901
 31
0.0
  0
LINE
  5
1924
  8
0
 39
5.0
 10
98.065420796583879
 20
99.724041361694901
 30
0.0
 11
97.984220796583884
 21
99.703841361694899
 31
0.0
  0
LINE
  5
1925
  8
0
 39
5.0
 10
98.149420796583883
 20
99.749541361694924
 30
0.0
 11
98.065420796583879
 21
99.724041361694901
 31
0.0
  0
LINE
  5
1926
  8
0
 39
5.0
 10
98.234520796583894
 20
99.781041361694903
 30
0.0
 11
98.149420796583883
 21
99.749541361694924
 31
0.0
  0
LINE
  5
1927
  8
0
 39
5.0
 10
98.320120796583893
 20
99.819941361694902
 30
0.0
 11
98.234520796583894
 21
99.781041361694903
 31
0.0
  0
LINE
  5
1928
  8
0
 39
5.0
 10
98.404420796583864
 20
99.866941361694913
 30
0.0
 11
98.320120796583893
 21
99.819941361694902
 31
0.0
  0
LINE
  5
1929
  8
0
 39
5.0
 10
98.564520796583892
 20
99.989541361694904
 30
0.0
 11
98.486420796583886
 21
99.923241361694906
 31
0.0
  0
LINE
  5
192A
  8
0
 39
5.0
 10
98.637920796583884
 20
100.0672413616949
 30
0.0
 11
98.564520796583892
 21
99.989541361694904
 31
0.0
  0
LINE
  5
192B
  8
0
 39
5.0
 10
98.705020796583881
 20
100.15704136169489
 30
0.0
 11
98.637920796583884
 21
100.0672413616949
 31
0.0
  0
LINE
  5
192C
  8
0
 39
5.0
 10
98.764620796583884
 20
100.26014136169481
 30
0.0
 11
98.705020796583881
 21
100.15704136169489
 31
0.0
  0
LINE
  5
192D
  8
0
 39
5.0
 10
98.815420796583865
 20
100.37744136169491
 30
0.0
 11
98.815420796583865
 21
100.37744136169491
 31
0.0
  0
LINE
  5
192E
  8
0
 39
5.0
 10
101.7427207965838
 20
99.678358375986477
 30
0.0
 11
101.73979762061821
 21
99.677658375986482
 31
0.0
  0
LINE
  5
192F
  8
0
 39
5.0
 10
99.544737963965844
 20
99.677658375986482
 30
0.0
 11
99.541820796583892
 21
99.678358375986477
 31
0.0
  0
LINE
  5
1930
  8
0
 39
5.0
 10
99.000720796583863
 20
100.0493583759864
 30
0.0
 11
98.949620796583872
 21
100.12655837598641
 31
0.0
  0
LINE
  5
1931
  8
0
 39
5.0
 10
99.059420796583865
 20
99.977358375986455
 30
0.0
 11
99.000720796583863
 21
100.0493583759864
 31
0.0
  0
LINE
  5
1932
  8
0
 39
5.0
 10
99.125020796583883
 20
99.910758375986447
 30
0.0
 11
99.059420796583865
 21
99.977358375986455
 31
0.0
  0
LINE
  5
1933
  8
0
 39
5.0
 10
99.197520796583888
 20
99.85035837598646
 30
0.0
 11
99.125020796583883
 21
99.910758375986447
 31
0.0
  0
LINE
  5
1934
  8
0
 39
5.0
 10
99.275720796583883
 20
99.796358375986458
 30
0.0
 11
99.197520796583888
 21
99.85035837598646
 31
0.0
  0
LINE
  5
1935
  8
0
 39
5.0
 10
99.359620796583883
 20
99.749458375986464
 30
0.0
 11
99.275720796583883
 21
99.796358375986458
 31
0.0
  0
LINE
  5
1936
  8
0
 39
5.0
 10
99.448420796583889
 20
99.709758375986453
 30
0.0
 11
99.359620796583883
 21
99.749458375986464
 31
0.0
  0
LINE
  5
1937
  8
0
 39
5.0
 10
99.541820796583892
 20
99.678358375986477
 30
0.0
 11
99.448420796583889
 21
99.709758375986453
 31
0.0
  0
LINE
  5
1938
  8
0
 39
5.0
 10
101.83592079658381
 20
99.709758375986453
 30
0.0
 11
101.7427207965838
 21
99.678358375986477
 31
0.0
  0
LINE
  5
1939
  8
0
 39
5.0
 10
101.9248207965838
 20
99.749458375986464
 30
0.0
 11
101.83592079658381
 21
99.709758375986453
 31
0.0
  0
LINE
  5
193A
  8
0
 39
5.0
 10
102.0086207965838
 20
99.796358375986458
 30
0.0
 11
101.9248207965838
 21
99.749458375986464
 31
0.0
  0
LINE
  5
193B
  8
0
 39
5.0
 10
102.0869207965838
 20
99.85035837598646
 30
0.0
 11
102.0086207965838
 21
99.796358375986458
 31
0.0
  0
LINE
  5
193C
  8
0
 39
5.0
 10
102.15912079658381
 20
99.910758375986447
 30
0.0
 11
102.0869207965838
 21
99.85035837598646
 31
0.0
  0
LINE
  5
193D
  8
0
 39
5.0
 10
102.22502079658381
 20
99.977358375986455
 30
0.0
 11
102.15912079658381
 21
99.910758375986447
 31
0.0
  0
LINE
  5
193E
  8
0
 39
5.0
 10
102.28372079658379
 20
100.0493583759864
 30
0.0
 11
102.22502079658381
 21
99.977358375986455
 31
0.0
  0
LINE
  5
193F
  8
0
 39
5.0
 10
102.3348207965838
 20
100.12655837598641
 30
0.0
 11
102.28372079658379
 21
100.0493583759864
 31
0.0
  0
LINE
  5
1940
  8
0
 39
5.0
 10
102.3776207965839
 20
100.2081583759864
 30
0.0
 11
102.3348207965838
 21
100.12655837598641
 31
0.0
  0
LINE
  5
1941
  8
0
 39
5.0
 10
102.4120207965838
 20
100.2941583759864
 30
0.0
 11
102.3776207965839
 21
100.2081583759864
 31
0.0
  0
LINE
  5
1942
  8
0
 39
5.0
 10
102.4371207965838
 20
100.3835583759864
 30
0.0
 11
102.4120207965838
 21
100.2941583759864
 31
0.0
  0
LINE
  5
1943
  8
0
 39
5.0
 10
102.4526207965838
 20
100.4761583759864
 30
0.0
 11
102.4371207965838
 21
100.3835583759864
 31
0.0
  0
LINE
  5
1944
  8
0
 39
5.0
 10
102.4577207965838
 20
100.57135837598641
 30
0.0
 11
102.4526207965838
 21
100.4761583759864
 31
0.0
  0
LINE
  5
1945
  8
0
 39
5.0
 10
102.4577207965838
 20
100.57135837598641
 30
0.0
 11
102.4577207965838
 21
100.57135837598641
 31
0.0
  0
LINE
  5
1946
  8
0
 39
5.0
 10
102.4577207965838
 20
101.7626583759864
 30
0.0
 11
102.4577207965838
 21
100.57135837598641
 31
0.0
  0
LINE
  5
1947
  8
0
 39
5.0
 10
102.4526207965838
 20
101.85815837598641
 30
0.0
 11
102.4577207965838
 21
101.7626583759864
 31
0.0
  0
LINE
  5
1948
  8
0
 39
5.0
 10
102.4371207965838
 20
101.9507583759864
 30
0.0
 11
102.4526207965838
 21
101.85815837598641
 31
0.0
  0
LINE
  5
1949
  8
0
 39
5.0
 10
102.4120207965838
 20
102.0403583759864
 30
0.0
 11
102.4371207965838
 21
101.9507583759864
 31
0.0
  0
LINE
  5
194A
  8
0
 39
5.0
 10
102.3776207965839
 20
102.1260583759864
 30
0.0
 11
102.4120207965838
 21
102.0403583759864
 31
0.0
  0
LINE
  5
194B
  8
0
 39
5.0
 10
102.3348207965838
 20
102.2078583759864
 30
0.0
 11
102.3776207965839
 21
102.1260583759864
 31
0.0
  0
LINE
  5
194C
  8
0
 39
5.0
 10
102.28372079658379
 20
102.28495837598641
 30
0.0
 11
102.3348207965838
 21
102.2078583759864
 31
0.0
  0
LINE
  5
194D
  8
0
 39
5.0
 10
102.22502079658381
 20
102.35695837598639
 30
0.0
 11
102.28372079658379
 21
102.28495837598641
 31
0.0
  0
LINE
  5
194E
  8
0
 39
5.0
 10
102.15912079658381
 20
102.4234583759864
 30
0.0
 11
102.22502079658381
 21
102.35695837598639
 31
0.0
  0
LINE
  5
194F
  8
0
 39
5.0
 10
102.0869207965838
 20
102.48405837598639
 30
0.0
 11
102.15912079658381
 21
102.4234583759864
 31
0.0
  0
LINE
  5
1950
  8
0
 39
5.0
 10
102.0086207965838
 20
102.5380583759864
 30
0.0
 11
102.0869207965838
 21
102.48405837598639
 31
0.0
  0
LINE
  5
1951
  8
0
 39
5.0
 10
101.9248207965838
 20
102.58505837598641
 30
0.0
 11
102.0086207965838
 21
102.5380583759864
 31
0.0
  0
LINE
  5
1952
  8
0
 39
5.0
 10
101.83592079658381
 20
102.62445837598641
 30
0.0
 11
101.9248207965838
 21
102.58505837598641
 31
0.0
  0
LINE
  5
1953
  8
0
 39
5.0
 10
101.7427207965838
 20
102.65615837598639
 30
0.0
 11
101.83592079658381
 21
102.62445837598641
 31
0.0
  0
LINE
  5
1954
  8
0
 39
5.0
 10
101.64542079658381
 20
102.6791583759864
 30
0.0
 11
101.7427207965838
 21
102.65615837598639
 31
0.0
  0
LINE
  5
1955
  8
3
 10
99.632588187888246
 20
102.6776583759864
 30
0.0
 11
101.6517664487577
 21
102.6776583759864
 31
0.0
  0
LINE
  5
1956
  8
0
 10
101.73979762061821
 20
102.7234583759864
 30
0.0
 11
95.455820796583865
 21
102.7234583759864
 31
0.0
  0
LINE
  5
1957
  8
0
 10
101.73979762061821
 20
99.677658375986482
 30
0.0
 11
95.455820796583865
 21
99.677658375986482
 31
0.0
  0
LINE
  5
1958
  8
0
 10
101.6517664487577
 20
102.6776583759864
 30
0.0
 11
95.455820796583865
 21
102.6776583759864
 31
0.0
  0
LINE
  5
1959
  8
3
 10
98.303035079883159
 20
102.6776583759864
 30
0.0
 11
95.455820796583865
 21
102.6776583759864
 31
0.0
  0
LINE
  5
195A
  8
0
 10
98.826320796583872
 20
100.3605416318004
 30
0.0
 11
98.826320796583872
 21
101.99477512017241
 31
0.0
  0
LINE
  5
195B
  8
3
 10
99.632588187888246
 20
105.7234583759864
 30
0.0
 11
101.6517664487577
 21
105.7234583759864
 31
0.0
  0
LINE
  5
195C
  8
0
 10
101.6517664487577
 20
105.7234583759864
 30
0.0
 11
95.455820796583865
 21
105.7234583759864
 31
0.0
  0
LINE
  5
195D
  8
3
 10
98.303035079883159
 20
105.7234583759864
 30
0.0
 11
95.455820796583865
 21
105.7234583759864
 31
0.0
  0
LINE
  5
195E
  8
0
 10
98.826320796583872
 20
103.4063416318004
 30
0.0
 11
98.826320796583872
 21
105.04057512017241
 31
0.0
  0
LINE
  5
19B2
  8
0
 39
5.0
 10
102.8635207965838
 20
68.389958375986467
 30
0.0
 11
102.8635207965838
 21
68.389958375986467
 31
0.0
  0
LINE
  5
19B3
  8
0
 39
5.0
 10
102.8635207965838
 20
68.389958375986467
 30
0.0
 11
102.9240207965839
 21
68.384958375986471
 31
0.0
  0
LINE
  5
19B4
  8
0
 39
5.0
 10
102.9240207965839
 20
68.384958375986471
 30
0.0
 11
102.9826207965838
 21
68.369858375986453
 31
0.0
  0
LINE
  5
19B5
  8
0
 39
5.0
 10
102.9826207965838
 20
68.369858375986453
 30
0.0
 11
103.03932079658379
 21
68.345458375986453
 31
0.0
  0
LINE
  5
19B6
  8
0
 39
5.0
 10
103.03932079658379
 20
68.345458375986453
 30
0.0
 11
103.09362079658391
 21
68.311958375986478
 31
0.0
  0
LINE
  5
19B7
  8
0
 39
5.0
 10
103.09362079658391
 20
68.311958375986478
 30
0.0
 11
103.14542079658381
 21
68.270258375986472
 31
0.0
  0
LINE
  5
19B8
  8
0
 39
5.0
 10
103.14542079658381
 20
68.270258375986472
 30
0.0
 11
103.19422079658381
 21
68.220558375986471
 31
0.0
  0
LINE
  5
19B9
  8
0
 39
5.0
 10
103.19422079658381
 20
68.220558375986471
 30
0.0
 11
103.2399207965839
 21
68.163458375986465
 31
0.0
  0
LINE
  5
19BA
  8
0
 39
5.0
 10
103.2399207965839
 20
68.163458375986465
 30
0.0
 11
103.2819207965838
 21
68.099358375986469
 31
0.0
  0
LINE
  5
19BB
  8
0
 39
5.0
 10
103.2819207965838
 20
68.099358375986469
 30
0.0
 11
103.3203207965839
 21
68.029158375986455
 31
0.0
  0
LINE
  5
19BC
  8
0
 39
5.0
 10
103.3203207965839
 20
68.029158375986455
 30
0.0
 11
103.3545207965838
 21
67.952858375986466
 31
0.0
  0
LINE
  5
19BD
  8
0
 39
5.0
 10
103.3545207965838
 20
67.952858375986466
 30
0.0
 11
103.38432079658379
 21
67.871258375986471
 31
0.0
  0
LINE
  5
19BE
  8
0
 39
5.0
 10
103.38432079658379
 20
67.871258375986471
 30
0.0
 11
103.4092207965839
 21
67.784658375986467
 31
0.0
  0
LINE
  5
19BF
  8
0
 39
5.0
 10
103.4092207965839
 20
67.784658375986467
 30
0.0
 11
103.42922079658381
 21
67.693958375986469
 31
0.0
  0
LINE
  5
19C0
  8
0
 39
5.0
 10
103.42922079658381
 20
67.693958375986469
 30
0.0
 11
103.44382079658379
 21
67.599158375986477
 31
0.0
  0
LINE
  5
19C1
  8
0
 39
5.0
 10
103.44382079658379
 20
67.599158375986477
 30
0.0
 11
103.45282079658379
 21
67.501158375986478
 31
0.0
  0
LINE
  5
19C2
  8
0
 39
5.0
 10
103.45282079658379
 20
67.501158375986478
 30
0.0
 11
103.45582079658379
 21
67.400158375986464
 31
0.0
  0
LINE
  5
19C3
  8
0
 39
5.0
 10
103.45582079658379
 20
67.400158375986464
 30
0.0
 11
103.45582079658379
 21
56.41145837598647
 31
0.0
  0
LINE
  5
19C4
  8
0
 39
5.0
 10
103.45582079658379
 20
56.41145837598647
 30
0.0
 11
103.45582079658379
 21
56.41145837598647
 31
0.0
  0
LINE
  5
19C5
  8
0
 39
5.0
 10
103.45582079658379
 20
56.41145837598647
 30
0.0
 11
103.45282079658379
 21
56.310758375986467
 31
0.0
  0
LINE
  5
19C6
  8
0
 39
5.0
 10
103.45282079658379
 20
56.310758375986467
 30
0.0
 11
103.44382079658379
 21
56.212758375986468
 31
0.0
  0
LINE
  5
19C7
  8
0
 39
5.0
 10
103.44382079658379
 20
56.212758375986468
 30
0.0
 11
103.42922079658381
 21
56.118158375986468
 31
0.0
  0
LINE
  5
19C8
  8
0
 39
5.0
 10
103.42922079658381
 20
56.118158375986468
 30
0.0
 11
103.4092207965839
 21
56.027158375986481
 31
0.0
  0
LINE
  5
19C9
  8
0
 39
5.0
 10
103.4092207965839
 20
56.027158375986481
 30
0.0
 11
103.38432079658379
 21
55.940858375986473
 31
0.0
  0
LINE
  5
19CA
  8
0
 39
5.0
 10
103.38432079658379
 20
55.940858375986473
 30
0.0
 11
103.3545207965838
 21
55.859158375986468
 31
0.0
  0
LINE
  5
19CB
  8
0
 39
5.0
 10
103.3545207965838
 20
55.859158375986468
 30
0.0
 11
103.3203207965839
 21
55.782958375986468
 31
0.0
  0
LINE
  5
19CC
  8
0
 39
5.0
 10
103.3203207965839
 20
55.782958375986468
 30
0.0
 11
103.2819207965838
 21
55.712458375986472
 31
0.0
  0
LINE
  5
19CD
  8
0
 39
5.0
 10
103.2819207965838
 20
55.712458375986472
 30
0.0
 11
103.2399207965839
 21
55.648558375986461
 31
0.0
  0
LINE
  5
19CE
  8
0
 39
5.0
 10
103.2399207965839
 20
55.648558375986461
 30
0.0
 11
103.19422079658381
 21
55.591458375986477
 31
0.0
  0
LINE
  5
19CF
  8
0
 39
5.0
 10
103.19422079658381
 20
55.591458375986477
 30
0.0
 11
103.14542079658381
 21
55.541758375986483
 31
0.0
  0
LINE
  5
19D0
  8
0
 39
5.0
 10
103.14542079658381
 20
55.541758375986483
 30
0.0
 11
103.09362079658391
 21
55.49985837598647
 31
0.0
  0
LINE
  5
19D1
  8
0
 39
5.0
 10
103.09362079658391
 20
55.49985837598647
 30
0.0
 11
103.03932079658379
 21
55.466558375986459
 31
0.0
  0
LINE
  5
19D2
  8
0
 39
5.0
 10
103.03932079658379
 20
55.466558375986459
 30
0.0
 11
102.8627671380472
 21
55.389958375986467
 31
0.0
  0
LINE
  5
19D5
  8
0
 39
5.0
 10
100.8729207965838
 20
55.421658375986468
 30
0.0
 11
100.8729207965838
 21
55.421658375986468
 31
0.0
  0
LINE
  5
19D7
  8
0
 39
5.0
 10
100.9559221210872
 20
55.389958375986467
 30
0.0
 11
100.7541207965839
 21
55.441958375986459
 31
0.0
  0
LINE
  5
19D8
  8
0
 39
5.0
 10
100.7541207965839
 20
55.441958375986466
 30
0.0
 11
100.6975207965838
 21
55.46655837598653
 31
0.0
  0
LINE
  5
19D9
  8
0
 39
5.0
 10
100.6975207965838
 20
55.466558375986459
 30
0.0
 11
100.6430207965838
 21
55.49985837598647
 31
0.0
  0
LINE
  5
19DA
  8
0
 39
5.0
 10
100.6430207965838
 20
55.49985837598647
 30
0.0
 11
100.5914207965838
 21
55.541758375986483
 31
0.0
  0
LINE
  5
19DB
  8
0
 39
5.0
 10
100.5914207965838
 20
55.541758375986483
 30
0.0
 11
100.5425207965838
 21
55.591458375986477
 31
0.0
  0
LINE
  5
19DC
  8
0
 39
5.0
 10
100.5425207965838
 20
55.591458375986477
 30
0.0
 11
100.4970207965838
 21
55.648558375986461
 31
0.0
  0
LINE
  5
19DD
  8
0
 39
5.0
 10
100.4970207965838
 20
55.648558375986461
 30
0.0
 11
100.4547207965839
 21
55.712458375986472
 31
0.0
  0
LINE
  5
19DE
  8
0
 39
5.0
 10
100.4547207965839
 20
55.712458375986472
 30
0.0
 11
100.4165207965838
 21
55.782958375986468
 31
0.0
  0
LINE
  5
19DF
  8
0
 39
5.0
 10
100.4165207965838
 20
55.782958375986468
 30
0.0
 11
100.3823207965838
 21
55.859158375986468
 31
0.0
  0
LINE
  5
19E0
  8
0
 39
5.0
 10
100.3823207965838
 20
55.859158375986468
 30
0.0
 11
100.35262079658381
 21
55.940858375986473
 31
0.0
  0
LINE
  5
19E1
  8
0
 39
5.0
 10
100.35262079658381
 20
55.940858375986473
 30
0.0
 11
100.32742079658379
 21
56.027158375986481
 31
0.0
  0
LINE
  5
19E2
  8
0
 39
5.0
 10
100.32742079658379
 20
56.027158375986481
 30
0.0
 11
100.3075207965838
 21
56.118158375986468
 31
0.0
  0
LINE
  5
19E3
  8
0
 39
5.0
 10
100.3075207965838
 20
56.118158375986468
 30
0.0
 11
100.2928207965839
 21
56.212758375986468
 31
0.0
  0
LINE
  5
19E4
  8
0
 39
5.0
 10
100.2928207965839
 20
56.212758375986468
 30
0.0
 11
100.2912404851825
 21
56.229966211245141
 31
0.0
  0
LINE
  5
19E6
  8
0
 10
95.455820796583865
 20
68.389958375986467
 30
0.0
 11
102.8635207965838
 21
68.389958375986467
 31
0.0
  0
LINE
  5
19E9
  8
0
 39
5.0
 10
99.280598428162847
 20
68.389958375986467
 30
0.0
 11
99.484420796584004
 21
68.345058375986468
 31
0.0
  0
LINE
  5
19EA
  8
0
 39
5.0
 10
99.484420796583905
 20
68.345058375986468
 30
0.0
 11
99.614920796583917
 21
68.306058375986467
 31
0.0
  0
LINE
  5
19EB
  8
0
 39
5.0
 10
99.614920796583917
 20
68.306058375986467
 30
0.0
 11
99.737120796583895
 21
68.259858375986468
 31
0.0
  0
LINE
  5
19EC
  8
0
 39
5.0
 10
99.737120796583895
 20
68.259858375986468
 30
0.0
 11
99.849720796583895
 21
68.207058375986477
 31
0.0
  0
LINE
  5
19ED
  8
0
 39
5.0
 10
99.849720796583895
 20
68.207058375986477
 30
0.0
 11
99.952320796583905
 21
68.149058375986471
 31
0.0
  0
LINE
  5
19EE
  8
0
 39
5.0
 10
99.952320796583905
 20
68.149058375986471
 30
0.0
 11
100.0434207965838
 21
68.086358375986464
 31
0.0
  0
LINE
  5
19EF
  8
0
 39
5.0
 10
100.0434207965838
 20
68.086358375986464
 30
0.0
 11
100.1222207965838
 21
68.020358375986476
 31
0.0
  0
LINE
  5
19F0
  8
0
 39
5.0
 10
100.1222207965838
 20
68.020358375986476
 30
0.0
 11
100.1877207965838
 21
67.951758375986472
 31
0.0
  0
LINE
  5
19F1
  8
0
 39
5.0
 10
100.1877207965838
 20
67.951758375986472
 30
0.0
 11
100.2390207965839
 21
67.881758375986465
 31
0.0
  0
LINE
  5
19F2
  8
0
 39
5.0
 10
100.2390207965839
 20
67.881758375986465
 30
0.0
 11
100.2749207965839
 21
67.811058375986477
 31
0.0
  0
LINE
  5
19F3
  8
0
 39
5.0
 10
100.2749207965839
 20
67.811058375986477
 30
0.0
 11
100.2945207965838
 21
67.740858375986477
 31
0.0
  0
LINE
  5
19F4
  8
0
 39
5.0
 10
100.2945207965838
 20
67.740858375986477
 30
0.0
 11
100.2968207965838
 21
67.671958375986478
 31
0.0
  0
LINE
  5
19F5
  8
0
 39
5.0
 10
100.2968207965838
 20
67.671958375986478
 30
0.0
 11
100.2968207965838
 21
56.246358375986468
 31
0.0
  0
LINE
  5
19F6
  8
0
 39
5.0
 10
100.2968207965838
 20
56.246358375986468
 30
0.0
 11
100.2968207965838
 21
56.246358375986468
 31
0.0
  0
LINE
  5
19F7
  8
0
 39
5.0
 10
100.2968207965838
 20
56.246358375986468
 30
0.0
 11
100.2552207965839
 21
56.124158375986461
 31
0.0
  0
LINE
  5
19F8
  8
0
 39
5.0
 10
100.2552207965839
 20
56.124158375986461
 30
0.0
 11
100.21182079658379
 21
56.013058375986482
 31
0.0
  0
LINE
  5
19F9
  8
0
 39
5.0
 10
100.21182079658379
 20
56.013058375986482
 30
0.0
 11
100.1645207965839
 21
55.912758375986471
 31
0.0
  0
LINE
  5
19FA
  8
0
 39
5.0
 10
100.1645207965839
 20
55.912758375986471
 30
0.0
 11
100.11072079658381
 21
55.822658375986457
 31
0.0
  0
LINE
  5
19FB
  8
0
 39
5.0
 10
100.11072079658381
 20
55.822658375986457
 30
0.0
 11
100.0485207965838
 21
55.742758375986469
 31
0.0
  0
LINE
  5
19FC
  8
0
 39
5.0
 10
100.0485207965838
 20
55.742758375986469
 30
0.0
 11
99.975220796583898
 21
55.672258375986473
 31
0.0
  0
LINE
  5
19FD
  8
0
 39
5.0
 10
99.975220796583898
 20
55.672258375986473
 30
0.0
 11
99.888720796583897
 21
55.610958375986471
 31
0.0
  0
LINE
  5
19FE
  8
0
 39
5.0
 10
99.888720796583897
 20
55.610958375986471
 30
0.0
 11
99.786320796583894
 21
55.558258375986462
 31
0.0
  0
LINE
  5
19FF
  8
0
 39
5.0
 10
99.786320796583894
 20
55.558258375986462
 30
0.0
 11
99.666220796583872
 21
55.514058375986473
 31
0.0
  0
LINE
  5
1A00
  8
0
 39
5.0
 10
99.666220796583872
 20
55.514058375986473
 30
0.0
 11
99.525720796583897
 21
55.477758375986468
 31
0.0
  0
LINE
  5
1A01
  8
0
 39
5.0
 10
99.525720796583926
 20
55.477758375986483
 30
0.0
 11
99.028492324361736
 21
55.389958375986467
 31
0.0
  0
LINE
  5
1A0B
  8
0
 10
91.455820796583865
 20
113.8899583759864
 30
0.0
 11
93.838120796583894
 21
113.8899583759864
 31
0.0
  0
LINE
  5
1A0C
  8
0
 39
5.0
 10
93.621220796583884
 20
113.8899583759864
 30
0.0
 11
93.621220796583884
 21
119.16515837598639
 31
0.0
  0
LINE
  5
1A0E
  8
1
 10
95.455820796583865
 20
50.289958375986473
 30
0.0
 11
95.455820796583865
 21
142.75455837598639
 31
0.0
  0
LINE
  5
1A0F
  8
0
 10
95.455820796583865
 20
113.8899583759864
 30
0.0
 11
99.455820796583879
 21
113.8899583759864
 31
0.0
  0
LINE
  5
1A3E
  8
1
 10
43.796382874303049
 20
60.595258375986482
 30
2.5
 11
96.455820796583893
 21
60.595258375986482
 31
2.5
  0
LINE
  5
1A40
  8
0
 10
102.8627671380472
 20
55.389958375986467
 30
0.0
 11
95.455820796583865
 21
55.389958375986467
 31
0.0
  0
LINE
  5
1A41
  8
0
 10
93.703120796583875
 20
55.389958375986467
 30
0.0
 11
90.455820796583865
 21
55.389958375986467
 31
0.0
  0
LINE
  5
1A44
  8
0
 10
98.455820796583879
 20
51.289958375986473
 30
0.0
 11
92.455820796583879
 21
51.289958375986473
 31
0.0
  0
LINE
  5
1A45
  8
1
 10
92.455820796583879
 20
53.289958375986473
 30
0.0
 11
93.70312079658386
 21
53.289958375986458
 31
0.0
  0
LINE
  5
1A46
  8
0
 10
95.455820796583865
 20
53.289958375986473
 30
0.0
 11
98.455820796583879
 21
53.289958375986473
 31
0.0
  0
DIMENSION
  5
1A74
  8
2
  2
*D2
 10
111.220207021929
 20
113.8899583759864
 30
0.0
 11
109.345207021929
 21
118.3899583759864
 31
0.0
 70
     0
 13
97.967220796583888
 23
122.8899583759864
 33
0.0
 14
99.455820796583879
 24
113.8899583759864
 34
0.0
 50
90.0
  0
DIMENSION
  5
1A81
  8
2
  2
*D3
 10
111.220207021929
 20
88.389958375986467
 30
0.0
 11
109.3452070219289
 21
101.1399583759865
 31
0.0
 70
     0
 13
111.220207021929
 23
113.8899583759864
 33
0.0
 14
100.74862079658379
 24
88.389958375986467
 34
0.0
 50
90.0
  0
DIMENSION
  5
1A8E
  8
2
  2
*D4
 10
111.220207021929
 20
83.389958375986467
 30
0.0
 11
109.3452070219289
 21
85.889958375986495
 31
0.0
 70
     0
 13
111.220207021929
 23
88.389958375986467
 33
0.0
 14
100.74862079658379
 24
83.389958375986467
 34
0.0
 50
90.0
  0
DIMENSION
  5
1AB9
  8
2
  2
*D5
 10
111.220207021929
 20
53.289958375986473
 30
0.0
 11
109.3452070219289
 21
45.581625042653151
 31
0.0
 70
     0
 13
111.220207021929
 23
55.389958375986467
 33
0.0
 14
98.455820796583879
 24
53.289958375986473
 34
0.0
 50
90.0
  0
DIMENSION
  5
1AE4
  8
2
  2
*D6
 10
122.0902125453931
 20
51.289958375986473
 30
0.0
 11
120.2152125453931
 21
87.089958375986484
 31
0.0
 70
     0
  1
(<>)
 13
116.9668845271745
 23
122.8899583759864
 33
0.0
 14
116.9668845271745
 24
51.289958375986473
 34
0.0
 50
90.0
  0
DIMENSION
  5
1AF4
  8
2
  2
*D7
 10
111.220207021929
 20
55.389958375986467
 30
0.0
 11
109.3452070219289
 21
61.889958375986488
 31
0.0
 70
     0
 13
101.8054207965839
 23
68.389958375986467
 33
0.0
 14
102.8627671380472
 24
55.389958375986467
 34
0.0
 50
90.0
  0
LINE
  5
1B7B
  8
0
 39
5.0
 10
43.796382874303049
 20
60.595258375986482
 30
2.5
 11
43.796382874303049
 21
58.922158375986477
 31
2.5
  0
LINE
  5
1B7C
  8
0
 39
5.0
 10
50.52288287430305
 20
57.970358375986478
 30
2.5
 11
50.52288287430305
 21
60.595258375986482
 31
2.5
  0
LINE
  5
1B7D
  8
0
 39
5.0
 10
47.275982874303047
 20
58.409458375986468
 30
2.5
 11
48.018982874303042
 21
58.409358375986493
 31
2.5
  0
LINE
  5
1B7E
  8
0
 39
5.0
 10
43.796382874303049
 20
58.922158375986477
 30
2.5
 11
45.357482874303038
 21
58.922158375986477
 31
2.5
  0
LINE
  5
1B7F
  8
0
 39
5.0
 10
47.26002600798558
 20
58.095258375986482
 30
2.5
 11
47.275982874303047
 21
58.409458375986468
 31
2.5
  0
LINE
  5
1B80
  8
0
 39
5.0
 10
48.018982874303042
 20
58.409358375986493
 30
2.5
 11
48.828328607394312
 21
58.095258375986482
 31
2.5
  0
LINE
  5
1B81
  8
0
 39
5.0
 10
48.018982874303042
 20
62.781158375986458
 30
2.5
 11
48.828328607394312
 21
63.095258375986482
 31
2.5
  0
LINE
  5
1B82
  8
0
 39
5.0
 10
47.26002600798558
 20
63.095258375986482
 30
2.5
 11
47.275982874303047
 21
62.781058375986483
 31
2.5
  0
POLYLINE
  5
1B83
  8
0
 66
     1
 10
0.0
 20
0.0
 30
2.5
 39
5.0
  0
VERTEX
  5
237F
  8
0
 10
56.476082874303053
 20
58.067358375986473
 30
2.5
  0
VERTEX
  5
2380
  8
0
 10
59.148482874303063
 20
58.067358375986473
 30
2.5
  0
VERTEX
  5
2381
  8
0
 10
59.796382874303042
 20
58.550220444951989
 30
2.5
  0
SEQEND
  5
2382
  8
0
  0
POLYLINE
  5
1B84
  8
0
 66
     1
 10
0.0
 20
0.0
 30
2.5
 39
5.0
  0
VERTEX
  5
2383
  8
0
 10
56.476082874303053
 20
63.123158375986478
 30
2.5
  0
VERTEX
  5
2384
  8
0
 10
59.148482874303063
 20
63.123158375986478
 30
2.5
  0
VERTEX
  5
2385
  8
0
 10
59.796382874303042
 20
62.640296307020961
 30
2.5
  0
SEQEND
  5
2386
  8
0
  0
LINE
  5
1B85
  8
0
 39
5.0
 10
56.476082874303053
 20
56.19685837598648
 30
2.5
 11
55.796382874303049
 21
56.19685837598648
 31
2.5
  0
LINE
  5
1B86
  8
0
 39
5.0
 10
56.476082874303053
 20
64.99365837598647
 30
2.5
 11
55.796382874303049
 21
64.99365837598647
 31
2.5
  0
LINE
  5
1B87
  8
0
 39
5.0
 10
50.52288287430305
 20
56.214258375986468
 30
2.5
 11
55.796382874303049
 21
56.214258375986468
 31
2.5
  0
LINE
  5
1B88
  8
0
 39
5.0
 10
55.796382874303049
 20
58.550558375986483
 30
2.5
 11
50.52288287430305
 21
58.550558375986483
 31
2.5
  0
LINE
  5
1B89
  8
0
 39
5.0
 10
55.796382874303049
 20
62.63995837598646
 30
2.5
 11
50.52288287430305
 21
62.63995837598646
 31
2.5
  0
LINE
  5
1B8A
  8
0
 39
5.0
 10
50.52288287430305
 20
64.976258375986475
 30
2.5
 11
55.796382874303049
 21
64.976258375986475
 31
2.5
  0
LINE
  5
1B8B
  8
0
 39
5.0
 10
43.796382874303049
 20
62.268358375986459
 30
2.5
 11
45.357482874303038
 21
62.268358375986459
 31
2.5
  0
LINE
  5
1B8C
  8
0
 39
5.0
 10
47.275982874303047
 20
62.781058375986483
 30
2.5
 11
48.018982874303042
 21
62.781158375986458
 31
2.5
  0
LINE
  5
1B8D
  8
0
 39
5.0
 10
50.52288287430305
 20
63.220158375986472
 30
2.5
 11
50.52288287430305
 21
60.595258375986482
 31
2.5
  0
LINE
  5
1B8E
  8
0
 39
5.0
 10
43.796382874303049
 20
60.595258375986482
 30
2.5
 11
43.796382874303049
 21
62.268358375986459
 31
2.5
  0
LINE
  5
1B8F
  8
0
 39
5.0
 10
56.476082874303053
 20
63.123158375986478
 30
2.5
 11
56.476082874303053
 21
64.99365837598647
 31
2.5
  0
LINE
  5
1B90
  8
0
 39
5.0
 10
56.476082874303053
 20
58.067358375986473
 30
2.5
 11
56.476082874303053
 21
56.19685837598648
 31
2.5
  0
LINE
  5
1B91
  8
0
 39
5.0
 10
50.52288287430305
 20
57.970358375986478
 30
2.5
 11
50.52288287430305
 21
60.595258375986482
 31
2.5
  0
LINE
  5
1B92
  8
0
 10
48.018982874303042
 20
58.409358375986493
 30
2.5
 11
48.018982874303042
 21
60.595258375986482
 31
2.5
  0
LINE
  5
1B93
  8
0
 10
47.275982874303047
 20
58.409458375986468
 30
2.5
 11
47.275982874303047
 21
60.595258375986482
 31
2.5
  0
LINE
  5
1B94
  8
0
 10
45.357482874303038
 20
58.922158375986477
 30
2.5
 11
45.357482874303038
 21
60.595258375986482
 31
2.5
  0
LINE
  5
1B95
  8
0
 10
46.21928287430304
 20
58.095258375986482
 30
2.5
 11
46.21928287430304
 21
60.595258375986482
 31
2.5
  0
LINE
  5
1B96
  8
0
 10
49.15428287430305
 20
58.095258375986482
 30
2.5
 11
49.15428287430305
 21
60.595258375986482
 31
2.5
  0
LINE
  5
1B97
  8
0
 10
59.796382874303042
 20
58.550220444951989
 30
2.5
 11
59.796382874303042
 21
62.640296307020961
 31
2.5
  0
LINE
  5
1B98
  8
0
 10
55.796382874303049
 20
64.99365837598647
 30
2.5
 11
55.796382874303049
 21
56.19685837598648
 31
2.5
  0
LINE
  5
1B99
  8
0
 10
59.148482874303063
 20
58.067358375986473
 30
2.5
 11
59.148482874303063
 21
60.595258375986482
 31
2.5
  0
LINE
  5
1B9A
  8
0
 10
56.476082874303053
 20
63.123158375986478
 30
2.5
 11
56.476082874303053
 21
58.067358375986473
 31
2.5
  0
LINE
  5
1B9B
  8
1
 10
46.21928287430304
 20
58.095258375986482
 30
2.5
 11
45.357482874303038
 21
58.922158375986477
 31
2.5
  0
LINE
  5
1B9C
  8
0
 10
50.52288287430305
 20
56.214258375986468
 30
2.5
 11
50.52288287430305
 21
57.970358375986478
 31
2.5
  0
LINE
  5
1B9D
  8
2
 10
59.551020187735887
 20
58.36735837598647
 30
2.5
 11
56.476082874303032
 21
58.36735837598647
 31
2.5
  0
LINE
  5
1B9E
  8
1
 10
46.21928287430304
 20
63.095258375986482
 30
2.5
 11
45.357482874303038
 21
62.268358375986459
 31
2.5
  0
LINE
  5
1B9F
  8
0
 10
49.15428287430305
 20
63.095258375986482
 30
2.5
 11
49.15428287430305
 21
60.595258375986482
 31
2.5
  0
LINE
  5
1BA0
  8
0
 10
46.21928287430304
 20
63.095258375986482
 30
2.5
 11
46.21928287430304
 21
60.595258375986482
 31
2.5
  0
LINE
  5
1BA1
  8
0
 10
45.357482874303038
 20
62.268358375986459
 30
2.5
 11
45.357482874303038
 21
60.595258375986482
 31
2.5
  0
LINE
  5
1BA2
  8
0
 10
47.275982874303047
 20
62.781058375986483
 30
2.5
 11
47.275982874303047
 21
60.595258375986482
 31
2.5
  0
LINE
  5
1BA3
  8
0
 10
48.018982874303042
 20
62.781158375986458
 30
2.5
 11
48.018982874303042
 21
60.595258375986482
 31
2.5
  0
LINE
  5
1BA4
  8
0
 10
50.52288287430305
 20
64.976258375986475
 30
2.5
 11
50.52288287430305
 21
63.220158375986472
 31
2.5
  0
LINE
  5
1BA5
  8
2
 10
59.551020187735887
 20
62.82315837598648
 30
2.5
 11
56.476082874303032
 21
62.82315837598648
 31
2.5
  0
LINE
  5
1BA6
  8
0
 10
59.148482874303063
 20
63.123158375986478
 30
2.5
 11
59.148482874303063
 21
60.595258375986482
 31
2.5
  0
LINE
  5
1BA7
  8
0
 10
48.828328607394312
 20
58.095258375986482
 30
5.0
 11
50.52288287430305
 21
58.095258375986482
 31
5.0
  0
LINE
  5
1BA8
  8
0
 10
47.26002600798558
 20
58.095258375986482
 30
5.0
 11
46.21928287430304
 21
58.095258375986482
 31
5.0
  0
LINE
  5
1BA9
  8
0
 10
48.828328607394312
 20
63.095258375986482
 30
5.0
 11
50.52288287430305
 21
63.095258375986482
 31
5.0
  0
LINE
  5
1BAA
  8
0
 10
47.26002600798558
 20
63.095258375986482
 30
5.0
 11
46.21928287430304
 21
63.095258375986482
 31
5.0
  0
DIMENSION
  5
1BC0
  8
2
  2
*D9
 10
98.455820796583879
 20
40.795053111379517
 30
0.0
 11
95.455820796583865
 21
42.670053111379517
 31
0.0
 70
     0
  1
%%c<>
 13
92.455820796583879
 23
51.289958375986473
 33
0.0
 14
98.455820796583879
 24
51.289958375986473
 34
0.0
  0
DIMENSION
  5
1BCF
  8
2
  2
*D10
 10
90.455820796583865
 20
45.408672371303823
 30
0.0
 11
83.99748746325055
 21
45.408672371303823
 31
0.0
 70
   128
 13
95.455820796583865
 23
50.289958375986473
 33
0.0
 14
90.455820796583865
 24
55.389958375986467
 34
0.0
  0
DIMENSION
  5
1BF5
  8
2
  2
*D11
 10
55.796382874303049
 20
48.868886757821059
 30
0.0
 11
49.796382874303042
 21
50.743886757821059
 31
0.0
 70
     0
 13
43.796382874303049
 23
58.922158375986477
 33
2.5
 14
55.796382874303049
 24
56.19685837598648
 34
2.5
  0
DIMENSION
  5
1C02
  8
2
  2
*D12
 10
59.796382874303042
 20
43.730992576684798
 30
0.0
 11
51.796382874303049
 21
45.605992576684798
 31
0.0
 70
     0
 13
43.796382874303049
 23
48.868886757821059
 33
0.0
 14
59.796382874303042
 24
58.550220444951989
 34
2.5
  0
DIMENSION
  5
1C11
  8
2
  2
*D13
 10
37.475643975861992
 20
58.095258375986482
 30
0.0
 11
35.600643975861971
 21
50.386925042653147
 31
0.0
 70
     0
  1
%%c<>
 13
46.21928287430304
 23
63.095258375986482
 33
2.5
 14
46.21928287430304
 24
58.095258375986482
 34
2.5
 50
90.0
  0
TEXT
  5
1C2F
  8
2
 10
71.262050707364423
 20
131.75025932169709
 30
0.0
 40
2.5
  1
M5
  0
TEXT
  5
1C30
  8
2
 10
71.111218768920367
 20
124.9720293727031
 30
0.0
 40
2.5
  1
H6
  0
TEXT
  5
1C31
  8
2
 10
71.262050707364423
 20
116.98878079207731
 30
0.0
 40
2.5
  1
M8x0.75
  0
TEXT
  5
1C33
  8
2
 10
71.262050707364423
 20
109.7586687685824
 30
0.0
 40
2.5
  1
H12
  0
TEXT
  5
1C36
  8
2
 10
71.078756980401636
 20
52.103518116963052
 30
0.0
 40
2.5
  1
M5x0.8
  0
TEXT
  5
1C37
  8
2
 10
109.7771644806929
 20
37.453941260804783
 30
0.0
 40
2.5
  1
H14
  0
POLYLINE
  8
2
  5
26D9
  66
     1
 10
0.000000
 20
0.000000
 30
0.000000
  70
     8
  0
VERTEX
  8
2
  5
26DA
 10
92.9558
 20
121.028
 30
0.000000
  70
    32
  0
VERTEX
  8
2
  5
26DB
 10
75.8433
 20
131.268
 30
0.000000
  70
    32
  0
VERTEX
  8
2
  5
26DC
 10
70.3604
 20
131.268
 30
0.000000
  70
    32
  0
SEQEND
  8
2
  5
26DD
  0
POLYLINE
  8
2
  5
26DE
  66
     1
 10
0.000000
 20
0.000000
 30
0.000000
  70
     8
  0
VERTEX
  8
2
  5
26DF
 10
92.0058
 20
117.931
 30
0.000000
  70
    32
  0
VERTEX
  8
2
  5
26E0
 10
75.5585
 20
124.654
 30
0.000000
  70
    32
  0
VERTEX
  8
2
  5
26E1
 10
70.3604
 20
124.654
 30
0.000000
  70
    32
  0
SEQEND
  8
2
  5
26E2
  0
POLYLINE
  8
2
  5
26E3
  66
     1
 10
0.000000
 20
0.000000
 30
0.000000
  70
     8
  0
VERTEX
  8
2
  5
26E4
 10
91.4558
 20
109.807
 30
0.000000
  70
    32
  0
VERTEX
  8
2
  5
26E5
 10
86.1683
 20
116.761
 30
0.000000
  70
    32
  0
VERTEX
  8
2
  5
26E6
 10
70.5740
 20
116.761
 30
0.000000
  70
    32
  0
SEQEND
  8
2
  5
26E7
  0
POLYLINE
  8
2
  5
26E8
  66
     1
 10
0.000000
 20
0.000000
 30
0.000000
  70
     8
  0
VERTEX
  8
2
  5
26E9
 10
88.4639
 20
105.200
 30
0.000000
  70
    32
  0
VERTEX
  8
2
  5
26EA
 10
77.6235
 20
109.312
 30
0.000000
  70
    32
  0
VERTEX
  8
2
  5
26EB
 10
70.5028
 20
109.312
 30
0.000000
  70
    32
  0
SEQEND
  8
2
  5
26EC
  0
POLYLINE
  8
2
  5
26ED
  66
     1
 10
0.000000
 20
0.000000
 30
0.000000
  70
     8
  0
VERTEX
  8
2
  5
26EE
 10
91.9716
 20
58.1141
 30
0.000000
  70
    32
  0
VERTEX
  8
2
  5
26EF
 10
83.6049
 20
51.6796
 30
0.000000
  70
    32
  0
VERTEX
  8
2
  5
26F0
 10
70.4316
 20
51.6796
 30
0.000000
  70
    32
  0
SEQEND
  8
2
  5
26F1
  0
POLYLINE
  8
2
  5
26F2
  66
     1
 10
0.000000
 20
0.000000
 30
0.000000
  70
     8
  0
VERTEX
  8
2
  5
26F3
 10
100.520
 20
55.6200
 30
0.000000
  70
    32
  0
VERTEX
  8
2
  5
26F4
 10
109.026
 20
37.0984
 30
0.000000
  70
    32
  0
VERTEX
  8
2
  5
26F5
 10
115.862
 20
37.0984
 30
0.000000
  70
    32
  0
SEQEND
  8
2
  5
26F6
  0
DIMENSION
  5
1CBD
  8
2
  2
*D14
 10
111.220207021929
 20
68.389958375986467
 30
0.0
 11
109.3452070219289
 21
75.889958375986495
 31
0.0
 70
     0
 13
111.220207021929
 23
83.389958375986467
 33
0.0
 14
111.220207021929
 24
68.389958375986467
 34
0.0
 50
90.0
  0
DIMENSION
  5
1D59
  8
2
  2
*D15
 10
116.68180092277871
 20
55.38995837598646
 30
0.0
 11
114.80680092277871
 21
89.139958375986495
 31
0.0
 70
     0
  1
(<>)
 13
111.220207021929
 23
122.8899583759864
 33
0.0
 14
111.220207021929
 24
55.389958375986467
 34
0.0
 50
90.0
  0
DIMENSION
  5
1D66
  8
2
  2
*D16
 10
116.68180092277871
 20
51.289958375986473
 30
0.0
 11
114.80680092277871
 21
43.581625042653137
 31
0.0
 70
     0
 13
116.68180092277871
 23
55.389958375986467
 33
0.0
 14
98.455820796583879
 24
51.289958375986473
 34
0.0
 50
90.0
  0
LINE
  5
1E24
  8
2
 10
88.604167251589615
 20
68.389958375986467
 30
0.0
 11
89.600703190871741
 21
68.389958375986467
 31
0.0
  0
LINE
  5
1E9C
  8
2
 10
88.604167251589615
 20
68.389958375986467
 30
0.0
 11
89.600703190871741
 21
68.389958375986467
 31
0.0
  0
DIMENSION
  5
1EA4
  8
2
  2
*D17
 10
81.986874096159696
 20
68.389958375986467
 30
0.0
 11
80.111874096159667
 21
75.889958375986481
 31
0.0
 70
     0
 13
90.163020796583865
 23
83.389958375986467
 33
0.0
 14
88.604167251589615
 24
68.389958375986467
 34
0.0
 50
90.0
  0
LINE
  5
1EC8
  8
2
 10
93.621220796583884
 20
87.412858375986474
 30
0.0
 11
92.141620796583879
 21
87.412858375986474
 31
0.0
  0
POLYLINE
  5
1ED5
  8
0
 66
     1
 10
0.0
 20
0.0
 30
0.0
 39
5.0
  0
VERTEX
  5
2391
  8
0
 10
93.026020796583879
 20
99.151758375986475
 30
0.0
  0
VERTEX
  5
2392
  8
0
 10
93.026020796583879
 20
99.151758375986475
 30
0.0
  0
VERTEX
  5
2393
  8
0
 10
93.077320796583876
 20
99.149258375986463
 30
0.0
  0
VERTEX
  5
2394
  8
0
 10
93.126920796583875
 20
99.141758375986484
 30
0.0
  0
VERTEX
  5
2395
  8
0
 10
93.174920796583876
 20
99.129458375986474
 30
0.0
  0
VERTEX
  5
2396
  8
0
 10
93.220720796583876
 20
99.112558375986467
 30
0.0
  0
VERTEX
  5
2397
  8
0
 10
93.264520796583881
 20
99.091658375986469
 30
0.0
  0
VERTEX
  5
2398
  8
0
 10
93.305720796583856
 20
99.066558375986475
 30
0.0
  0
VERTEX
  5
2399
  8
0
 10
93.344220796583883
 20
99.037758375986471
 30
0.0
  0
VERTEX
  5
239A
  8
0
 10
93.379620796583865
 20
99.005358375986475
 30
0.0
  0
VERTEX
  5
239B
  8
0
 10
93.412020796583874
 20
98.969958375986479
 30
0.0
  0
VERTEX
  5
239C
  8
0
 10
93.440820796583878
 20
98.93145837598648
 30
0.0
  0
VERTEX
  5
239D
  8
0
 10
93.465920796583873
 20
98.890258375986477
 30
0.0
  0
VERTEX
  5
239E
  8
0
 10
93.486820796583885
 20
98.846458375986472
 30
0.0
  0
VERTEX
  5
239F
  8
0
 10
93.503720796583877
 20
98.800658375986487
 30
0.0
  0
VERTEX
  5
23A0
  8
0
 10
93.516020796583888
 20
98.752658375986471
 30
0.0
  0
VERTEX
  5
23A1
  8
0
 10
93.523520796583881
 20
98.703058375986487
 30
0.0
  0
VERTEX
  5
23A2
  8
0
 10
93.526020796583865
 20
98.651758375986475
 30
0.0
  0
VERTEX
  5
23A3
  8
0
 10
93.526020796583865
 20
98.651758375986475
 30
0.0
  0
VERTEX
  5
23A4
  8
0
 10
93.523520796583881
 20
98.600758375986473
 30
0.0
  0
VERTEX
  5
23A5
  8
0
 10
93.516020796583888
 20
98.551158375986475
 30
0.0
  0
VERTEX
  5
23A6
  8
0
 10
93.503720796583877
 20
98.503258375986476
 30
0.0
  0
VERTEX
  5
23A7
  8
0
 10
93.486820796583885
 20
98.457258375986484
 30
0.0
  0
VERTEX
  5
23A8
  8
0
 10
93.465920796583873
 20
98.413658375986472
 30
0.0
  0
VERTEX
  5
23A9
  8
0
 10
93.440820796583878
 20
98.372358375986465
 30
0.0
  0
VERTEX
  5
23AA
  8
0
 10
93.412020796583874
 20
98.333958375986469
 30
0.0
  0
VERTEX
  5
23AB
  8
0
 10
93.379620796583865
 20
98.298258375986464
 30
0.0
  0
VERTEX
  5
23AC
  8
0
 10
93.344220796583883
 20
98.266158375986478
 30
0.0
  0
VERTEX
  5
23AD
  8
0
 10
93.305720796583856
 20
98.237358375986474
 30
0.0
  0
VERTEX
  5
23AE
  8
0
 10
93.264520796583881
 20
98.212358375986469
 30
0.0
  0
VERTEX
  5
23AF
  8
0
 10
93.220720796583876
 20
98.191158375986461
 30
0.0
  0
VERTEX
  5
23B0
  8
0
 10
93.174920796583876
 20
98.174358375986472
 30
0.0
  0
VERTEX
  5
23B1
  8
0
 10
93.126920796583875
 20
98.161958375986487
 30
0.0
  0
VERTEX
  5
23B2
  8
0
 10
93.077320796583876
 20
98.154458375986465
 30
0.0
  0
VERTEX
  5
23B3
  8
0
 10
93.026020796583879
 20
98.151758375986475
 30
0.0
  0
VERTEX
  5
23B4
  8
0
 10
93.026020796583879
 20
98.151758375986475
 30
0.0
  0
VERTEX
  5
23B5
  8
0
 10
92.975020796583877
 20
98.154458375986465
 30
0.0
  0
VERTEX
  5
23B6
  8
0
 10
92.925420796583865
 20
98.161958375986487
 30
0.0
  0
VERTEX
  5
23B7
  8
0
 10
92.877520796583866
 20
98.174358375986472
 30
0.0
  0
VERTEX
  5
23B8
  8
0
 10
92.831520796583874
 20
98.191158375986461
 30
0.0
  0
VERTEX
  5
23B9
  8
0
 10
92.787920796583876
 20
98.212358375986469
 30
0.0
  0
VERTEX
  5
23BA
  8
0
 10
92.746620796583869
 20
98.237358375986474
 30
0.0
  0
VERTEX
  5
23BB
  8
0
 10
92.708220796583873
 20
98.266158375986478
 30
0.0
  0
VERTEX
  5
23BC
  8
0
 10
92.672520796583896
 20
98.298258375986464
 30
0.0
  0
VERTEX
  5
23BD
  8
0
 10
92.640420796583882
 20
98.333958375986469
 30
0.0
  0
VERTEX
  5
23BE
  8
0
 10
92.611620796583878
 20
98.372358375986465
 30
0.0
  0
VERTEX
  5
23BF
  8
0
 10
92.586620796583873
 20
98.413658375986472
 30
0.0
  0
VERTEX
  5
23C0
  8
0
 10
92.565420796583865
 20
98.457258375986484
 30
0.0
  0
VERTEX
  5
23C1
  8
0
 10
92.54862079658389
 20
98.503258375986476
 30
0.0
  0
VERTEX
  5
23C2
  8
0
 10
92.536220796583876
 20
98.551158375986475
 30
0.0
  0
VERTEX
  5
23C3
  8
0
 10
92.528720796583883
 20
98.600758375986473
 30
0.0
  0
VERTEX
  5
23C4
  8
0
 10
92.526020796583865
 20
98.651758375986475
 30
0.0
  0
VERTEX
  5
23C5
  8
0
 10
92.526020796583865
 20
98.651758375986475
 30
0.0
  0
VERTEX
  5
23C6
  8
0
 10
92.528720796583883
 20
98.703058375986487
 30
0.0
  0
VERTEX
  5
23C7
  8
0
 10
92.536220796583876
 20
98.752658375986471
 30
0.0
  0
VERTEX
  5
23C8
  8
0
 10
92.54862079658389
 20
98.800658375986487
 30
0.0
  0
VERTEX
  5
23C9
  8
0
 10
92.565420796583865
 20
98.846458375986472
 30
0.0
  0
VERTEX
  5
23CA
  8
0
 10
92.586620796583873
 20
98.890258375986477
 30
0.0
  0
VERTEX
  5
23CB
  8
0
 10
92.611620796583878
 20
98.93145837598648
 30
0.0
  0
VERTEX
  5
23CC
  8
0
 10
92.640420796583882
 20
98.969958375986479
 30
0.0
  0
VERTEX
  5
23CD
  8
0
 10
92.672520796583896
 20
99.005358375986475
 30
0.0
  0
VERTEX
  5
23CE
  8
0
 10
92.708220796583873
 20
99.037758375986471
 30
0.0
  0
VERTEX
  5
23CF
  8
0
 10
92.746620796583869
 20
99.066558375986475
 30
0.0
  0
VERTEX
  5
23D0
  8
0
 10
92.787920796583876
 20
99.091658375986469
 30
0.0
  0
VERTEX
  5
23D1
  8
0
 10
92.831520796583874
 20
99.112558375986467
 30
0.0
  0
VERTEX
  5
23D2
  8
0
 10
92.877520796583866
 20
99.129458375986474
 30
0.0
  0
VERTEX
  5
23D3
  8
0
 10
92.925420796583865
 20
99.141758375986484
 30
0.0
  0
VERTEX
  5
23D4
  8
0
 10
92.975020796583877
 20
99.149258375986463
 30
0.0
  0
VERTEX
  5
23D5
  8
0
 10
93.026020796583879
 20
99.151758375986475
 30
0.0
  0
SEQEND
  5
23D6
  8
0
  0
POLYLINE
  5
1ED6
  8
0
 66
     1
 10
0.0
 20
0.0
 30
0.0
  0
VERTEX
  5
23D7
  8
0
 10
93.026020796583879
 20
99.151758375986475
 30
0.0
  0
VERTEX
  5
23D8
  8
0
 10
93.026020796583879
 20
99.151758375986475
 30
0.0
  0
VERTEX
  5
23D9
  8
0
 10
93.077320796583876
 20
99.149258375986463
 30
0.0
  0
VERTEX
  5
23DA
  8
0
 10
93.126920796583875
 20
99.141758375986484
 30
0.0
  0
VERTEX
  5
23DB
  8
0
 10
93.174920796583876
 20
99.129458375986474
 30
0.0
  0
VERTEX
  5
23DC
  8
0
 10
93.220720796583876
 20
99.112558375986467
 30
0.0
  0
VERTEX
  5
23DD
  8
0
 10
93.264520796583881
 20
99.091658375986469
 30
0.0
  0
VERTEX
  5
23DE
  8
0
 10
93.305720796583856
 20
99.066558375986475
 30
0.0
  0
VERTEX
  5
23DF
  8
0
 10
93.344220796583883
 20
99.037758375986471
 30
0.0
  0
VERTEX
  5
23E0
  8
0
 10
93.379620796583865
 20
99.005358375986475
 30
0.0
  0
VERTEX
  5
23E1
  8
0
 10
93.412020796583874
 20
98.969958375986479
 30
0.0
  0
VERTEX
  5
23E2
  8
0
 10
93.440820796583878
 20
98.93145837598648
 30
0.0
  0
VERTEX
  5
23E3
  8
0
 10
93.465920796583873
 20
98.890258375986477
 30
0.0
  0
VERTEX
  5
23E4
  8
0
 10
93.486820796583885
 20
98.846458375986472
 30
0.0
  0
VERTEX
  5
23E5
  8
0
 10
93.503720796583877
 20
98.800658375986487
 30
0.0
  0
VERTEX
  5
23E6
  8
0
 10
93.516020796583888
 20
98.752658375986471
 30
0.0
  0
VERTEX
  5
23E7
  8
0
 10
93.523520796583881
 20
98.703058375986487
 30
0.0
  0
VERTEX
  5
23E8
  8
0
 10
93.526020796583865
 20
98.651758375986475
 30
0.0
  0
VERTEX
  5
23E9
  8
0
 10
93.526020796583865
 20
98.651758375986475
 30
0.0
  0
VERTEX
  5
23EA
  8
0
 10
93.523520796583881
 20
98.600758375986473
 30
0.0
  0
VERTEX
  5
23EB
  8
0
 10
93.516020796583888
 20
98.551158375986475
 30
0.0
  0
VERTEX
  5
23EC
  8
0
 10
93.503720796583877
 20
98.503258375986476
 30
0.0
  0
VERTEX
  5
23ED
  8
0
 10
93.486820796583885
 20
98.457258375986484
 30
0.0
  0
VERTEX
  5
23EE
  8
0
 10
93.465920796583873
 20
98.413658375986472
 30
0.0
  0
VERTEX
  5
23EF
  8
0
 10
93.440820796583878
 20
98.372358375986465
 30
0.0
  0
VERTEX
  5
23F0
  8
0
 10
93.412020796583874
 20
98.333958375986469
 30
0.0
  0
VERTEX
  5
23F1
  8
0
 10
93.379620796583865
 20
98.298258375986464
 30
0.0
  0
VERTEX
  5
23F2
  8
0
 10
93.344220796583883
 20
98.266158375986478
 30
0.0
  0
VERTEX
  5
23F3
  8
0
 10
93.305720796583856
 20
98.237358375986474
 30
0.0
  0
VERTEX
  5
23F4
  8
0
 10
93.264520796583881
 20
98.212358375986469
 30
0.0
  0
VERTEX
  5
23F5
  8
0
 10
93.220720796583876
 20
98.191158375986461
 30
0.0
  0
VERTEX
  5
23F6
  8
0
 10
93.174920796583876
 20
98.174358375986472
 30
0.0
  0
VERTEX
  5
23F7
  8
0
 10
93.126920796583875
 20
98.161958375986487
 30
0.0
  0
VERTEX
  5
23F8
  8
0
 10
93.077320796583876
 20
98.154458375986465
 30
0.0
  0
VERTEX
  5
23F9
  8
0
 10
93.026020796583879
 20
98.151758375986475
 30
0.0
  0
VERTEX
  5
23FA
  8
0
 10
93.026020796583879
 20
98.151758375986475
 30
0.0
  0
VERTEX
  5
23FB
  8
0
 10
92.975020796583877
 20
98.154458375986465
 30
0.0
  0
VERTEX
  5
23FC
  8
0
 10
92.925420796583865
 20
98.161958375986487
 30
0.0
  0
VERTEX
  5
23FD
  8
0
 10
92.877520796583866
 20
98.174358375986472
 30
0.0
  0
VERTEX
  5
23FE
  8
0
 10
92.831520796583874
 20
98.191158375986461
 30
0.0
  0
VERTEX
  5
23FF
  8
0
 10
92.787920796583876
 20
98.212358375986469
 30
0.0
  0
VERTEX
  5
2400
  8
0
 10
92.746620796583869
 20
98.237358375986474
 30
0.0
  0
VERTEX
  5
2401
  8
0
 10
92.708220796583873
 20
98.266158375986478
 30
0.0
  0
VERTEX
  5
2402
  8
0
 10
92.672520796583896
 20
98.298258375986464
 30
0.0
  0
VERTEX
  5
2403
  8
0
 10
92.640420796583882
 20
98.333958375986469
 30
0.0
  0
VERTEX
  5
2404
  8
0
 10
92.611620796583878
 20
98.372358375986465
 30
0.0
  0
VERTEX
  5
2405
  8
0
 10
92.586620796583873
 20
98.413658375986472
 30
0.0
  0
VERTEX
  5
2406
  8
0
 10
92.565420796583865
 20
98.457258375986484
 30
0.0
  0
VERTEX
  5
2407
  8
0
 10
92.54862079658389
 20
98.503258375986476
 30
0.0
  0
VERTEX
  5
2408
  8
0
 10
92.536220796583876
 20
98.551158375986475
 30
0.0
  0
VERTEX
  5
2409
  8
0
 10
92.528720796583883
 20
98.600758375986473
 30
0.0
  0
VERTEX
  5
240A
  8
0
 10
92.526020796583865
 20
98.651758375986475
 30
0.0
  0
VERTEX
  5
240B
  8
0
 10
92.526020796583865
 20
98.651758375986475
 30
0.0
  0
VERTEX
  5
240C
  8
0
 10
92.528720796583883
 20
98.703058375986487
 30
0.0
  0
VERTEX
  5
240D
  8
0
 10
92.536220796583876
 20
98.752658375986471
 30
0.0
  0
VERTEX
  5
240E
  8
0
 10
92.54862079658389
 20
98.800658375986487
 30
0.0
  0
VERTEX
  5
240F
  8
0
 10
92.565420796583865
 20
98.846458375986472
 30
0.0
  0
VERTEX
  5
2410
  8
0
 10
92.586620796583873
 20
98.890258375986477
 30
0.0
  0
VERTEX
  5
2411
  8
0
 10
92.611620796583878
 20
98.93145837598648
 30
0.0
  0
VERTEX
  5
2412
  8
0
 10
92.640420796583882
 20
98.969958375986479
 30
0.0
  0
VERTEX
  5
2413
  8
0
 10
92.672520796583896
 20
99.005358375986475
 30
0.0
  0
VERTEX
  5
2414
  8
0
 10
92.708220796583873
 20
99.037758375986471
 30
0.0
  0
VERTEX
  5
2415
  8
0
 10
92.746620796583869
 20
99.066558375986475
 30
0.0
  0
VERTEX
  5
2416
  8
0
 10
92.787920796583876
 20
99.091658375986469
 30
0.0
  0
VERTEX
  5
2417
  8
0
 10
92.831520796583874
 20
99.112558375986467
 30
0.0
  0
VERTEX
  5
2418
  8
0
 10
92.877520796583866
 20
99.129458375986474
 30
0.0
  0
VERTEX
  5
2419
  8
0
 10
92.925420796583865
 20
99.141758375986484
 30
0.0
  0
VERTEX
  5
241A
  8
0
 10
92.975020796583877
 20
99.149258375986463
 30
0.0
  0
VERTEX
  5
241B
  8
0
 10
93.026020796583879
 20
99.151758375986475
 30
0.0
  0
SEQEND
  5
241C
  8
0
  0
POLYLINE
  5
1ED7
  8
0
 66
     1
 10
0.0
 20
0.0
 30
0.0
  0
VERTEX
  5
241D
  8
0
 10
93.026020796583879
 20
99.151758375986475
 30
0.0
  0
VERTEX
  5
241E
  8
0
 10
93.026020796583879
 20
99.151758375986475
 30
0.0
  0
VERTEX
  5
241F
  8
0
 10
93.077320796583876
 20
99.149258375986463
 30
0.0
  0
VERTEX
  5
2420
  8
0
 10
93.126920796583875
 20
99.141758375986484
 30
0.0
  0
VERTEX
  5
2421
  8
0
 10
93.174920796583876
 20
99.129458375986474
 30
0.0
  0
VERTEX
  5
2422
  8
0
 10
93.220720796583876
 20
99.112558375986467
 30
0.0
  0
VERTEX
  5
2423
  8
0
 10
93.264520796583881
 20
99.091658375986469
 30
0.0
  0
VERTEX
  5
2424
  8
0
 10
93.305720796583856
 20
99.066558375986475
 30
0.0
  0
VERTEX
  5
2425
  8
0
 10
93.344220796583883
 20
99.037758375986471
 30
0.0
  0
VERTEX
  5
2426
  8
0
 10
93.379620796583865
 20
99.005358375986475
 30
0.0
  0
VERTEX
  5
2427
  8
0
 10
93.412020796583874
 20
98.969958375986479
 30
0.0
  0
VERTEX
  5
2428
  8
0
 10
93.440820796583878
 20
98.93145837598648
 30
0.0
  0
VERTEX
  5
2429
  8
0
 10
93.465920796583873
 20
98.890258375986477
 30
0.0
  0
VERTEX
  5
242A
  8
0
 10
93.486820796583885
 20
98.846458375986472
 30
0.0
  0
VERTEX
  5
242B
  8
0
 10
93.503720796583877
 20
98.800658375986487
 30
0.0
  0
VERTEX
  5
242C
  8
0
 10
93.516020796583888
 20
98.752658375986471
 30
0.0
  0
VERTEX
  5
242D
  8
0
 10
93.523520796583881
 20
98.703058375986487
 30
0.0
  0
VERTEX
  5
242E
  8
0
 10
93.526020796583865
 20
98.651758375986475
 30
0.0
  0
VERTEX
  5
242F
  8
0
 10
93.526020796583865
 20
98.651758375986475
 30
0.0
  0
VERTEX
  5
2430
  8
0
 10
93.523520796583881
 20
98.600758375986473
 30
0.0
  0
VERTEX
  5
2431
  8
0
 10
93.516020796583888
 20
98.551158375986475
 30
0.0
  0
VERTEX
  5
2432
  8
0
 10
93.503720796583877
 20
98.503258375986476
 30
0.0
  0
VERTEX
  5
2433
  8
0
 10
93.486820796583885
 20
98.457258375986484
 30
0.0
  0
VERTEX
  5
2434
  8
0
 10
93.465920796583873
 20
98.413658375986472
 30
0.0
  0
VERTEX
  5
2435
  8
0
 10
93.440820796583878
 20
98.372358375986465
 30
0.0
  0
VERTEX
  5
2436
  8
0
 10
93.412020796583874
 20
98.333958375986469
 30
0.0
  0
VERTEX
  5
2437
  8
0
 10
93.379620796583865
 20
98.298258375986464
 30
0.0
  0
VERTEX
  5
2438
  8
0
 10
93.344220796583883
 20
98.266158375986478
 30
0.0
  0
VERTEX
  5
2439
  8
0
 10
93.305720796583856
 20
98.237358375986474
 30
0.0
  0
VERTEX
  5
243A
  8
0
 10
93.264520796583881
 20
98.212358375986469
 30
0.0
  0
VERTEX
  5
243B
  8
0
 10
93.220720796583876
 20
98.191158375986461
 30
0.0
  0
VERTEX
  5
243C
  8
0
 10
93.174920796583876
 20
98.174358375986472
 30
0.0
  0
VERTEX
  5
243D
  8
0
 10
93.126920796583875
 20
98.161958375986487
 30
0.0
  0
VERTEX
  5
243E
  8
0
 10
93.077320796583876
 20
98.154458375986465
 30
0.0
  0
VERTEX
  5
243F
  8
0
 10
93.026020796583879
 20
98.151758375986475
 30
0.0
  0
VERTEX
  5
2440
  8
0
 10
93.026020796583879
 20
98.151758375986475
 30
0.0
  0
VERTEX
  5
2441
  8
0
 10
92.975020796583877
 20
98.154458375986465
 30
0.0
  0
VERTEX
  5
2442
  8
0
 10
92.925420796583865
 20
98.161958375986487
 30
0.0
  0
VERTEX
  5
2443
  8
0
 10
92.877520796583866
 20
98.174358375986472
 30
0.0
  0
VERTEX
  5
2444
  8
0
 10
92.831520796583874
 20
98.191158375986461
 30
0.0
  0
VERTEX
  5
2445
  8
0
 10
92.787920796583876
 20
98.212358375986469
 30
0.0
  0
VERTEX
  5
2446
  8
0
 10
92.746620796583869
 20
98.237358375986474
 30
0.0
  0
VERTEX
  5
2447
  8
0
 10
92.708220796583873
 20
98.266158375986478
 30
0.0
  0
VERTEX
  5
2448
  8
0
 10
92.672520796583896
 20
98.298258375986464
 30
0.0
  0
VERTEX
  5
2449
  8
0
 10
92.640420796583882
 20
98.333958375986469
 30
0.0
  0
VERTEX
  5
244A
  8
0
 10
92.611620796583878
 20
98.372358375986465
 30
0.0
  0
VERTEX
  5
244B
  8
0
 10
92.586620796583873
 20
98.413658375986472
 30
0.0
  0
VERTEX
  5
244C
  8
0
 10
92.565420796583865
 20
98.457258375986484
 30
0.0
  0
VERTEX
  5
244D
  8
0
 10
92.54862079658389
 20
98.503258375986476
 30
0.0
  0
VERTEX
  5
244E
  8
0
 10
92.536220796583876
 20
98.551158375986475
 30
0.0
  0
VERTEX
  5
244F
  8
0
 10
92.528720796583883
 20
98.600758375986473
 30
0.0
  0
VERTEX
  5
2450
  8
0
 10
92.526020796583865
 20
98.651758375986475
 30
0.0
  0
VERTEX
  5
2451
  8
0
 10
92.526020796583865
 20
98.651758375986475
 30
0.0
  0
VERTEX
  5
2452
  8
0
 10
92.528720796583883
 20
98.703058375986487
 30
0.0
  0
VERTEX
  5
2453
  8
0
 10
92.536220796583876
 20
98.752658375986471
 30
0.0
  0
VERTEX
  5
2454
  8
0
 10
92.54862079658389
 20
98.800658375986487
 30
0.0
  0
VERTEX
  5
2455
  8
0
 10
92.565420796583865
 20
98.846458375986472
 30
0.0
  0
VERTEX
  5
2456
  8
0
 10
92.586620796583873
 20
98.890258375986477
 30
0.0
  0
VERTEX
  5
2457
  8
0
 10
92.611620796583878
 20
98.93145837598648
 30
0.0
  0
VERTEX
  5
2458
  8
0
 10
92.640420796583882
 20
98.969958375986479
 30
0.0
  0
VERTEX
  5
2459
  8
0
 10
92.672520796583896
 20
99.005358375986475
 30
0.0
  0
VERTEX
  5
245A
  8
0
 10
92.708220796583873
 20
99.037758375986471
 30
0.0
  0
VERTEX
  5
245B
  8
0
 10
92.746620796583869
 20
99.066558375986475
 30
0.0
  0
VERTEX
  5
245C
  8
0
 10
92.787920796583876
 20
99.091658375986469
 30
0.0
  0
VERTEX
  5
245D
  8
0
 10
92.831520796583874
 20
99.112558375986467
 30
0.0
  0
VERTEX
  5
245E
  8
0
 10
92.877520796583866
 20
99.129458375986474
 30
0.0
  0
VERTEX
  5
245F
  8
0
 10
92.925420796583865
 20
99.141758375986484
 30
0.0
  0
VERTEX
  5
2460
  8
0
 10
92.975020796583877
 20
99.149258375986463
 30
0.0
  0
VERTEX
  5
2461
  8
0
 10
93.026020796583879
 20
99.151758375986475
 30
0.0
  0
SEQEND
  5
2462
  8
0
  0
LINE
  5
1ED8
  8
1
 10
93.220720796583876
 20
99.112558375986467
 30
0.0
 11
93.621220796583884
 21
98.911594212023772
 31
0.0
  0
LINE
  5
1ED9
  8
1
 10
92.831520796583874
 20
98.191158375986461
 30
0.0
 11
93.621220796583884
 21
97.799251927212168
 31
0.0
  0
POLYLINE
  5
1EE3
  8
0
 66
     1
 10
0.0
 20
0.0
 30
0.0
 39
5.0
  0
VERTEX
  5
2463
  8
0
 10
93.026020796583879
 20
96.151758375986475
 30
0.0
  0
VERTEX
  5
2464
  8
0
 10
93.026020796583879
 20
96.151758375986475
 30
0.0
  0
VERTEX
  5
2465
  8
0
 10
93.077320796583876
 20
96.149258375986463
 30
0.0
  0
VERTEX
  5
2466
  8
0
 10
93.126920796583875
 20
96.14175837598647
 30
0.0
  0
VERTEX
  5
2467
  8
0
 10
93.174920796583876
 20
96.129458375986474
 30
0.0
  0
VERTEX
  5
2468
  8
0
 10
93.220720796583876
 20
96.112558375986481
 30
0.0
  0
VERTEX
  5
2469
  8
0
 10
93.264520796583881
 20
96.091658375986469
 30
0.0
  0
VERTEX
  5
246A
  8
0
 10
93.305720796583856
 20
96.066558375986475
 30
0.0
  0
VERTEX
  5
246B
  8
0
 10
93.344220796583883
 20
96.037758375986471
 30
0.0
  0
VERTEX
  5
246C
  8
0
 10
93.379620796583865
 20
96.005358375986475
 30
0.0
  0
VERTEX
  5
246D
  8
0
 10
93.412020796583874
 20
95.969958375986465
 30
0.0
  0
VERTEX
  5
246E
  8
0
 10
93.440820796583878
 20
95.93145837598648
 30
0.0
  0
VERTEX
  5
246F
  8
0
 10
93.465920796583873
 20
95.890258375986477
 30
0.0
  0
VERTEX
  5
2470
  8
0
 10
93.486820796583885
 20
95.846458375986487
 30
0.0
  0
VERTEX
  5
2471
  8
0
 10
93.503720796583877
 20
95.800658375986472
 30
0.0
  0
VERTEX
  5
2472
  8
0
 10
93.516020796583888
 20
95.752658375986485
 30
0.0
  0
VERTEX
  5
2473
  8
0
 10
93.523520796583881
 20
95.703058375986473
 30
0.0
  0
VERTEX
  5
2474
  8
0
 10
93.526020796583865
 20
95.651758375986475
 30
0.0
  0
VERTEX
  5
2475
  8
0
 10
93.526020796583865
 20
95.651758375986475
 30
0.0
  0
VERTEX
  5
2476
  8
0
 10
93.523520796583881
 20
95.600758375986473
 30
0.0
  0
VERTEX
  5
2477
  8
0
 10
93.516020796583888
 20
95.551158375986475
 30
0.0
  0
VERTEX
  5
2478
  8
0
 10
93.503720796583877
 20
95.503258375986476
 30
0.0
  0
VERTEX
  5
2479
  8
0
 10
93.486820796583885
 20
95.45725837598647
 30
0.0
  0
VERTEX
  5
247A
  8
0
 10
93.465920796583873
 20
95.413658375986472
 30
0.0
  0
VERTEX
  5
247B
  8
0
 10
93.440820796583878
 20
95.372358375986494
 30
0.0
  0
VERTEX
  5
247C
  8
0
 10
93.412020796583874
 20
95.333958375986455
 30
0.0
  0
VERTEX
  5
247D
  8
0
 10
93.379620796583865
 20
95.298258375986464
 30
0.0
  0
VERTEX
  5
247E
  8
0
 10
93.344220796583883
 20
95.266158375986464
 30
0.0
  0
VERTEX
  5
247F
  8
0
 10
93.305720796583856
 20
95.237358375986474
 30
0.0
  0
VERTEX
  5
2480
  8
0
 10
93.264520796583881
 20
95.212358375986469
 30
0.0
  0
VERTEX
  5
2481
  8
0
 10
93.220720796583876
 20
95.191158375986447
 30
0.0
  0
VERTEX
  5
2482
  8
0
 10
93.174920796583876
 20
95.174358375986472
 30
0.0
  0
VERTEX
  5
2483
  8
0
 10
93.126920796583875
 20
95.161958375986472
 30
0.0
  0
VERTEX
  5
2484
  8
0
 10
93.077320796583876
 20
95.154458375986465
 30
0.0
  0
VERTEX
  5
2485
  8
0
 10
93.026020796583879
 20
95.151758375986475
 30
0.0
  0
VERTEX
  5
2486
  8
0
 10
93.026020796583879
 20
95.151758375986475
 30
0.0
  0
VERTEX
  5
2487
  8
0
 10
92.975020796583877
 20
95.154458375986465
 30
0.0
  0
VERTEX
  5
2488
  8
0
 10
92.925420796583865
 20
95.161958375986472
 30
0.0
  0
VERTEX
  5
2489
  8
0
 10
92.877520796583866
 20
95.174358375986472
 30
0.0
  0
VERTEX
  5
248A
  8
0
 10
92.831520796583874
 20
95.191158375986447
 30
0.0
  0
VERTEX
  5
248B
  8
0
 10
92.787920796583876
 20
95.212358375986469
 30
0.0
  0
VERTEX
  5
248C
  8
0
 10
92.746620796583869
 20
95.237358375986474
 30
0.0
  0
VERTEX
  5
248D
  8
0
 10
92.708220796583873
 20
95.266158375986464
 30
0.0
  0
VERTEX
  5
248E
  8
0
 10
92.672520796583896
 20
95.298258375986464
 30
0.0
  0
VERTEX
  5
248F
  8
0
 10
92.640420796583882
 20
95.333958375986455
 30
0.0
  0
VERTEX
  5
2490
  8
0
 10
92.611620796583878
 20
95.372358375986494
 30
0.0
  0
VERTEX
  5
2491
  8
0
 10
92.586620796583873
 20
95.413658375986472
 30
0.0
  0
VERTEX
  5
2492
  8
0
 10
92.565420796583865
 20
95.45725837598647
 30
0.0
  0
VERTEX
  5
2493
  8
0
 10
92.54862079658389
 20
95.503258375986476
 30
0.0
  0
VERTEX
  5
2494
  8
0
 10
92.536220796583876
 20
95.551158375986475
 30
0.0
  0
VERTEX
  5
2495
  8
0
 10
92.528720796583883
 20
95.600758375986473
 30
0.0
  0
VERTEX
  5
2496
  8
0
 10
92.526020796583865
 20
95.651758375986475
 30
0.0
  0
VERTEX
  5
2497
  8
0
 10
92.526020796583865
 20
95.651758375986475
 30
0.0
  0
VERTEX
  5
2498
  8
0
 10
92.528720796583883
 20
95.703058375986473
 30
0.0
  0
VERTEX
  5
2499
  8
0
 10
92.536220796583876
 20
95.752658375986485
 30
0.0
  0
VERTEX
  5
249A
  8
0
 10
92.54862079658389
 20
95.800658375986472
 30
0.0
  0
VERTEX
  5
249B
  8
0
 10
92.565420796583865
 20
95.846458375986487
 30
0.0
  0
VERTEX
  5
249C
  8
0
 10
92.586620796583873
 20
95.890258375986477
 30
0.0
  0
VERTEX
  5
249D
  8
0
 10
92.611620796583878
 20
95.93145837598648
 30
0.0
  0
VERTEX
  5
249E
  8
0
 10
92.640420796583882
 20
95.969958375986465
 30
0.0
  0
VERTEX
  5
249F
  8
0
 10
92.672520796583896
 20
96.005358375986475
 30
0.0
  0
VERTEX
  5
24A0
  8
0
 10
92.708220796583873
 20
96.037758375986471
 30
0.0
  0
VERTEX
  5
24A1
  8
0
 10
92.746620796583869
 20
96.066558375986475
 30
0.0
  0
VERTEX
  5
24A2
  8
0
 10
92.787920796583876
 20
96.091658375986469
 30
0.0
  0
VERTEX
  5
24A3
  8
0
 10
92.831520796583874
 20
96.112558375986481
 30
0.0
  0
VERTEX
  5
24A4
  8
0
 10
92.877520796583866
 20
96.129458375986474
 30
0.0
  0
VERTEX
  5
24A5
  8
0
 10
92.925420796583865
 20
96.14175837598647
 30
0.0
  0
VERTEX
  5
24A6
  8
0
 10
92.975020796583877
 20
96.149258375986463
 30
0.0
  0
VERTEX
  5
24A7
  8
0
 10
93.026020796583879
 20
96.151758375986475
 30
0.0
  0
SEQEND
  5
24A8
  8
0
  0
POLYLINE
  5
1EE4
  8
0
 66
     1
 10
0.0
 20
0.0
 30
0.0
  0
VERTEX
  5
24A9
  8
0
 10
93.026020796583879
 20
96.151758375986475
 30
0.0
  0
VERTEX
  5
24AA
  8
0
 10
93.026020796583879
 20
96.151758375986475
 30
0.0
  0
VERTEX
  5
24AB
  8
0
 10
93.077320796583876
 20
96.149258375986463
 30
0.0
  0
VERTEX
  5
24AC
  8
0
 10
93.126920796583875
 20
96.14175837598647
 30
0.0
  0
VERTEX
  5
24AD
  8
0
 10
93.174920796583876
 20
96.129458375986474
 30
0.0
  0
VERTEX
  5
24AE
  8
0
 10
93.220720796583876
 20
96.112558375986481
 30
0.0
  0
VERTEX
  5
24AF
  8
0
 10
93.264520796583881
 20
96.091658375986469
 30
0.0
  0
VERTEX
  5
24B0
  8
0
 10
93.305720796583856
 20
96.066558375986475
 30
0.0
  0
VERTEX
  5
24B1
  8
0
 10
93.344220796583883
 20
96.037758375986471
 30
0.0
  0
VERTEX
  5
24B2
  8
0
 10
93.379620796583865
 20
96.005358375986475
 30
0.0
  0
VERTEX
  5
24B3
  8
0
 10
93.412020796583874
 20
95.969958375986465
 30
0.0
  0
VERTEX
  5
24B4
  8
0
 10
93.440820796583878
 20
95.93145837598648
 30
0.0
  0
VERTEX
  5
24B5
  8
0
 10
93.465920796583873
 20
95.890258375986477
 30
0.0
  0
VERTEX
  5
24B6
  8
0
 10
93.486820796583885
 20
95.846458375986487
 30
0.0
  0
VERTEX
  5
24B7
  8
0
 10
93.503720796583877
 20
95.800658375986472
 30
0.0
  0
VERTEX
  5
24B8
  8
0
 10
93.516020796583888
 20
95.752658375986485
 30
0.0
  0
VERTEX
  5
24B9
  8
0
 10
93.523520796583881
 20
95.703058375986473
 30
0.0
  0
VERTEX
  5
24BA
  8
0
 10
93.526020796583865
 20
95.651758375986475
 30
0.0
  0
VERTEX
  5
24BB
  8
0
 10
93.526020796583865
 20
95.651758375986475
 30
0.0
  0
VERTEX
  5
24BC
  8
0
 10
93.523520796583881
 20
95.600758375986473
 30
0.0
  0
VERTEX
  5
24BD
  8
0
 10
93.516020796583888
 20
95.551158375986475
 30
0.0
  0
VERTEX
  5
24BE
  8
0
 10
93.503720796583877
 20
95.503258375986476
 30
0.0
  0
VERTEX
  5
24BF
  8
0
 10
93.486820796583885
 20
95.45725837598647
 30
0.0
  0
VERTEX
  5
24C0
  8
0
 10
93.465920796583873
 20
95.413658375986472
 30
0.0
  0
VERTEX
  5
24C1
  8
0
 10
93.440820796583878
 20
95.372358375986494
 30
0.0
  0
VERTEX
  5
24C2
  8
0
 10
93.412020796583874
 20
95.333958375986455
 30
0.0
  0
VERTEX
  5
24C3
  8
0
 10
93.379620796583865
 20
95.298258375986464
 30
0.0
  0
VERTEX
  5
24C4
  8
0
 10
93.344220796583883
 20
95.266158375986464
 30
0.0
  0
VERTEX
  5
24C5
  8
0
 10
93.305720796583856
 20
95.237358375986474
 30
0.0
  0
VERTEX
  5
24C6
  8
0
 10
93.264520796583881
 20
95.212358375986469
 30
0.0
  0
VERTEX
  5
24C7
  8
0
 10
93.220720796583876
 20
95.191158375986447
 30
0.0
  0
VERTEX
  5
24C8
  8
0
 10
93.174920796583876
 20
95.174358375986472
 30
0.0
  0
VERTEX
  5
24C9
  8
0
 10
93.126920796583875
 20
95.161958375986472
 30
0.0
  0
VERTEX
  5
24CA
  8
0
 10
93.077320796583876
 20
95.154458375986465
 30
0.0
  0
VERTEX
  5
24CB
  8
0
 10
93.026020796583879
 20
95.151758375986475
 30
0.0
  0
VERTEX
  5
24CC
  8
0
 10
93.026020796583879
 20
95.151758375986475
 30
0.0
  0
VERTEX
  5
24CD
  8
0
 10
92.975020796583877
 20
95.154458375986465
 30
0.0
  0
VERTEX
  5
24CE
  8
0
 10
92.925420796583865
 20
95.161958375986472
 30
0.0
  0
VERTEX
  5
24CF
  8
0
 10
92.877520796583866
 20
95.174358375986472
 30
0.0
  0
VERTEX
  5
24D0
  8
0
 10
92.831520796583874
 20
95.191158375986447
 30
0.0
  0
VERTEX
  5
24D1
  8
0
 10
92.787920796583876
 20
95.212358375986469
 30
0.0
  0
VERTEX
  5
24D2
  8
0
 10
92.746620796583869
 20
95.237358375986474
 30
0.0
  0
VERTEX
  5
24D3
  8
0
 10
92.708220796583873
 20
95.266158375986464
 30
0.0
  0
VERTEX
  5
24D4
  8
0
 10
92.672520796583896
 20
95.298258375986464
 30
0.0
  0
VERTEX
  5
24D5
  8
0
 10
92.640420796583882
 20
95.333958375986455
 30
0.0
  0
VERTEX
  5
24D6
  8
0
 10
92.611620796583878
 20
95.372358375986494
 30
0.0
  0
VERTEX
  5
24D7
  8
0
 10
92.586620796583873
 20
95.413658375986472
 30
0.0
  0
VERTEX
  5
24D8
  8
0
 10
92.565420796583865
 20
95.45725837598647
 30
0.0
  0
VERTEX
  5
24D9
  8
0
 10
92.54862079658389
 20
95.503258375986476
 30
0.0
  0
VERTEX
  5
24DA
  8
0
 10
92.536220796583876
 20
95.551158375986475
 30
0.0
  0
VERTEX
  5
24DB
  8
0
 10
92.528720796583883
 20
95.600758375986473
 30
0.0
  0
VERTEX
  5
24DC
  8
0
 10
92.526020796583865
 20
95.651758375986475
 30
0.0
  0
VERTEX
  5
24DD
  8
0
 10
92.526020796583865
 20
95.651758375986475
 30
0.0
  0
VERTEX
  5
24DE
  8
0
 10
92.528720796583883
 20
95.703058375986473
 30
0.0
  0
VERTEX
  5
24DF
  8
0
 10
92.536220796583876
 20
95.752658375986485
 30
0.0
  0
VERTEX
  5
24E0
  8
0
 10
92.54862079658389
 20
95.800658375986472
 30
0.0
  0
VERTEX
  5
24E1
  8
0
 10
92.565420796583865
 20
95.846458375986487
 30
0.0
  0
VERTEX
  5
24E2
  8
0
 10
92.586620796583873
 20
95.890258375986477
 30
0.0
  0
VERTEX
  5
24E3
  8
0
 10
92.611620796583878
 20
95.93145837598648
 30
0.0
  0
VERTEX
  5
24E4
  8
0
 10
92.640420796583882
 20
95.969958375986465
 30
0.0
  0
VERTEX
  5
24E5
  8
0
 10
92.672520796583896
 20
96.005358375986475
 30
0.0
  0
VERTEX
  5
24E6
  8
0
 10
92.708220796583873
 20
96.037758375986471
 30
0.0
  0
VERTEX
  5
24E7
  8
0
 10
92.746620796583869
 20
96.066558375986475
 30
0.0
  0
VERTEX
  5
24E8
  8
0
 10
92.787920796583876
 20
96.091658375986469
 30
0.0
  0
VERTEX
  5
24E9
  8
0
 10
92.831520796583874
 20
96.112558375986481
 30
0.0
  0
VERTEX
  5
24EA
  8
0
 10
92.877520796583866
 20
96.129458375986474
 30
0.0
  0
VERTEX
  5
24EB
  8
0
 10
92.925420796583865
 20
96.14175837598647
 30
0.0
  0
VERTEX
  5
24EC
  8
0
 10
92.975020796583877
 20
96.149258375986463
 30
0.0
  0
VERTEX
  5
24ED
  8
0
 10
93.026020796583879
 20
96.151758375986475
 30
0.0
  0
SEQEND
  5
24EE
  8
0
  0
POLYLINE
  5
1EE5
  8
0
 66
     1
 10
0.0
 20
0.0
 30
0.0
  0
VERTEX
  5
24EF
  8
0
 10
93.026020796583879
 20
96.151758375986475
 30
0.0
  0
VERTEX
  5
24F0
  8
0
 10
93.026020796583879
 20
96.151758375986475
 30
0.0
  0
VERTEX
  5
24F1
  8
0
 10
93.077320796583876
 20
96.149258375986463
 30
0.0
  0
VERTEX
  5
24F2
  8
0
 10
93.126920796583875
 20
96.14175837598647
 30
0.0
  0
VERTEX
  5
24F3
  8
0
 10
93.174920796583876
 20
96.129458375986474
 30
0.0
  0
VERTEX
  5
24F4
  8
0
 10
93.220720796583876
 20
96.112558375986481
 30
0.0
  0
VERTEX
  5
24F5
  8
0
 10
93.264520796583881
 20
96.091658375986469
 30
0.0
  0
VERTEX
  5
24F6
  8
0
 10
93.305720796583856
 20
96.066558375986475
 30
0.0
  0
VERTEX
  5
24F7
  8
0
 10
93.344220796583883
 20
96.037758375986471
 30
0.0
  0
VERTEX
  5
24F8
  8
0
 10
93.379620796583865
 20
96.005358375986475
 30
0.0
  0
VERTEX
  5
24F9
  8
0
 10
93.412020796583874
 20
95.969958375986465
 30
0.0
  0
VERTEX
  5
24FA
  8
0
 10
93.440820796583878
 20
95.93145837598648
 30
0.0
  0
VERTEX
  5
24FB
  8
0
 10
93.465920796583873
 20
95.890258375986477
 30
0.0
  0
VERTEX
  5
24FC
  8
0
 10
93.486820796583885
 20
95.846458375986487
 30
0.0
  0
VERTEX
  5
24FD
  8
0
 10
93.503720796583877
 20
95.800658375986472
 30
0.0
  0
VERTEX
  5
24FE
  8
0
 10
93.516020796583888
 20
95.752658375986485
 30
0.0
  0
VERTEX
  5
24FF
  8
0
 10
93.523520796583881
 20
95.703058375986473
 30
0.0
  0
VERTEX
  5
2500
  8
0
 10
93.526020796583865
 20
95.651758375986475
 30
0.0
  0
VERTEX
  5
2501
  8
0
 10
93.526020796583865
 20
95.651758375986475
 30
0.0
  0
VERTEX
  5
2502
  8
0
 10
93.523520796583881
 20
95.600758375986473
 30
0.0
  0
VERTEX
  5
2503
  8
0
 10
93.516020796583888
 20
95.551158375986475
 30
0.0
  0
VERTEX
  5
2504
  8
0
 10
93.503720796583877
 20
95.503258375986476
 30
0.0
  0
VERTEX
  5
2505
  8
0
 10
93.486820796583885
 20
95.45725837598647
 30
0.0
  0
VERTEX
  5
2506
  8
0
 10
93.465920796583873
 20
95.413658375986472
 30
0.0
  0
VERTEX
  5
2507
  8
0
 10
93.440820796583878
 20
95.372358375986494
 30
0.0
  0
VERTEX
  5
2508
  8
0
 10
93.412020796583874
 20
95.333958375986455
 30
0.0
  0
VERTEX
  5
2509
  8
0
 10
93.379620796583865
 20
95.298258375986464
 30
0.0
  0
VERTEX
  5
250A
  8
0
 10
93.344220796583883
 20
95.266158375986464
 30
0.0
  0
VERTEX
  5
250B
  8
0
 10
93.305720796583856
 20
95.237358375986474
 30
0.0
  0
VERTEX
  5
250C
  8
0
 10
93.264520796583881
 20
95.212358375986469
 30
0.0
  0
VERTEX
  5
250D
  8
0
 10
93.220720796583876
 20
95.191158375986447
 30
0.0
  0
VERTEX
  5
250E
  8
0
 10
93.174920796583876
 20
95.174358375986472
 30
0.0
  0
VERTEX
  5
250F
  8
0
 10
93.126920796583875
 20
95.161958375986472
 30
0.0
  0
VERTEX
  5
2510
  8
0
 10
93.077320796583876
 20
95.154458375986465
 30
0.0
  0
VERTEX
  5
2511
  8
0
 10
93.026020796583879
 20
95.151758375986475
 30
0.0
  0
VERTEX
  5
2512
  8
0
 10
93.026020796583879
 20
95.151758375986475
 30
0.0
  0
VERTEX
  5
2513
  8
0
 10
92.975020796583877
 20
95.154458375986465
 30
0.0
  0
VERTEX
  5
2514
  8
0
 10
92.925420796583865
 20
95.161958375986472
 30
0.0
  0
VERTEX
  5
2515
  8
0
 10
92.877520796583866
 20
95.174358375986472
 30
0.0
  0
VERTEX
  5
2516
  8
0
 10
92.831520796583874
 20
95.191158375986447
 30
0.0
  0
VERTEX
  5
2517
  8
0
 10
92.787920796583876
 20
95.212358375986469
 30
0.0
  0
VERTEX
  5
2518
  8
0
 10
92.746620796583869
 20
95.237358375986474
 30
0.0
  0
VERTEX
  5
2519
  8
0
 10
92.708220796583873
 20
95.266158375986464
 30
0.0
  0
VERTEX
  5
251A
  8
0
 10
92.672520796583896
 20
95.298258375986464
 30
0.0
  0
VERTEX
  5
251B
  8
0
 10
92.640420796583882
 20
95.333958375986455
 30
0.0
  0
VERTEX
  5
251C
  8
0
 10
92.611620796583878
 20
95.372358375986494
 30
0.0
  0
VERTEX
  5
251D
  8
0
 10
92.586620796583873
 20
95.413658375986472
 30
0.0
  0
VERTEX
  5
251E
  8
0
 10
92.565420796583865
 20
95.45725837598647
 30
0.0
  0
VERTEX
  5
251F
  8
0
 10
92.54862079658389
 20
95.503258375986476
 30
0.0
  0
VERTEX
  5
2520
  8
0
 10
92.536220796583876
 20
95.551158375986475
 30
0.0
  0
VERTEX
  5
2521
  8
0
 10
92.528720796583883
 20
95.600758375986473
 30
0.0
  0
VERTEX
  5
2522
  8
0
 10
92.526020796583865
 20
95.651758375986475
 30
0.0
  0
VERTEX
  5
2523
  8
0
 10
92.526020796583865
 20
95.651758375986475
 30
0.0
  0
VERTEX
  5
2524
  8
0
 10
92.528720796583883
 20
95.703058375986473
 30
0.0
  0
VERTEX
  5
2525
  8
0
 10
92.536220796583876
 20
95.752658375986485
 30
0.0
  0
VERTEX
  5
2526
  8
0
 10
92.54862079658389
 20
95.800658375986472
 30
0.0
  0
VERTEX
  5
2527
  8
0
 10
92.565420796583865
 20
95.846458375986487
 30
0.0
  0
VERTEX
  5
2528
  8
0
 10
92.586620796583873
 20
95.890258375986477
 30
0.0
  0
VERTEX
  5
2529
  8
0
 10
92.611620796583878
 20
95.93145837598648
 30
0.0
  0
VERTEX
  5
252A
  8
0
 10
92.640420796583882
 20
95.969958375986465
 30
0.0
  0
VERTEX
  5
252B
  8
0
 10
92.672520796583896
 20
96.005358375986475
 30
0.0
  0
VERTEX
  5
252C
  8
0
 10
92.708220796583873
 20
96.037758375986471
 30
0.0
  0
VERTEX
  5
252D
  8
0
 10
92.746620796583869
 20
96.066558375986475
 30
0.0
  0
VERTEX
  5
252E
  8
0
 10
92.787920796583876
 20
96.091658375986469
 30
0.0
  0
VERTEX
  5
252F
  8
0
 10
92.831520796583874
 20
96.112558375986481
 30
0.0
  0
VERTEX
  5
2530
  8
0
 10
92.877520796583866
 20
96.129458375986474
 30
0.0
  0
VERTEX
  5
2531
  8
0
 10
92.925420796583865
 20
96.14175837598647
 30
0.0
  0
VERTEX
  5
2532
  8
0
 10
92.975020796583877
 20
96.149258375986463
 30
0.0
  0
VERTEX
  5
2533
  8
0
 10
93.026020796583879
 20
96.151758375986475
 30
0.0
  0
SEQEND
  5
2534
  8
0
  0
LINE
  5
1EE6
  8
1
 10
93.220720796583876
 20
96.112558375986481
 30
0.0
 11
93.621220796583884
 21
95.911594212023772
 31
0.0
  0
LINE
  5
1EE7
  8
1
 10
92.831520796583874
 20
95.191158375986447
 30
0.0
 11
93.621220796583884
 21
94.799251927212154
 31
0.0
  0
POLYLINE
  5
1EF1
  8
0
 66
     1
 10
0.0
 20
0.0
 30
0.0
 39
5.0
  0
VERTEX
  5
2535
  8
0
 10
93.026020796583879
 20
93.151758375986475
 30
0.0
  0
VERTEX
  5
2536
  8
0
 10
93.026020796583879
 20
93.151758375986475
 30
0.0
  0
VERTEX
  5
2537
  8
0
 10
93.077320796583876
 20
93.149258375986463
 30
0.0
  0
VERTEX
  5
2538
  8
0
 10
93.126920796583875
 20
93.141758375986456
 30
0.0
  0
VERTEX
  5
2539
  8
0
 10
93.174920796583876
 20
93.129458375986474
 30
0.0
  0
VERTEX
  5
253A
  8
0
 10
93.220720796583876
 20
93.112558375986467
 30
0.0
  0
VERTEX
  5
253B
  8
0
 10
93.264520796583881
 20
93.091658375986455
 30
0.0
  0
VERTEX
  5
253C
  8
0
 10
93.305720796583856
 20
93.066558375986475
 30
0.0
  0
VERTEX
  5
253D
  8
0
 10
93.344220796583883
 20
93.037758375986485
 30
0.0
  0
VERTEX
  5
253E
  8
0
 10
93.379620796583865
 20
93.005358375986475
 30
0.0
  0
VERTEX
  5
253F
  8
0
 10
93.412020796583874
 20
92.969958375986494
 30
0.0
  0
VERTEX
  5
2540
  8
0
 10
93.440820796583878
 20
92.931458375986495
 30
0.0
  0
VERTEX
  5
2541
  8
0
 10
93.465920796583873
 20
92.890258375986477
 30
0.0
  0
VERTEX
  5
2542
  8
0
 10
93.486820796583885
 20
92.846458375986472
 30
0.0
  0
VERTEX
  5
2543
  8
0
 10
93.503720796583877
 20
92.800658375986458
 30
0.0
  0
VERTEX
  5
2544
  8
0
 10
93.516020796583888
 20
92.752658375986471
 30
0.0
  0
VERTEX
  5
2545
  8
0
 10
93.523520796583881
 20
92.703058375986458
 30
0.0
  0
VERTEX
  5
2546
  8
0
 10
93.526020796583865
 20
92.651758375986475
 30
0.0
  0
VERTEX
  5
2547
  8
0
 10
93.526020796583865
 20
92.651758375986475
 30
0.0
  0
VERTEX
  5
2548
  8
0
 10
93.523520796583881
 20
92.600758375986459
 30
0.0
  0
VERTEX
  5
2549
  8
0
 10
93.516020796583888
 20
92.551158375986475
 30
0.0
  0
VERTEX
  5
254A
  8
0
 10
93.503720796583877
 20
92.503258375986476
 30
0.0
  0
VERTEX
  5
254B
  8
0
 10
93.486820796583885
 20
92.457258375986456
 30
0.0
  0
VERTEX
  5
254C
  8
0
 10
93.465920796583873
 20
92.413658375986486
 30
0.0
  0
VERTEX
  5
254D
  8
0
 10
93.440820796583878
 20
92.372358375986479
 30
0.0
  0
VERTEX
  5
254E
  8
0
 10
93.412020796583874
 20
92.333958375986484
 30
0.0
  0
VERTEX
  5
254F
  8
0
 10
93.379620796583865
 20
92.298258375986464
 30
0.0
  0
VERTEX
  5
2550
  8
0
 10
93.344220796583883
 20
92.266158375986478
 30
0.0
  0
VERTEX
  5
2551
  8
0
 10
93.305720796583856
 20
92.237358375986474
 30
0.0
  0
VERTEX
  5
2552
  8
0
 10
93.264520796583881
 20
92.212358375986454
 30
0.0
  0
VERTEX
  5
2553
  8
0
 10
93.220720796583876
 20
92.191158375986461
 30
0.0
  0
VERTEX
  5
2554
  8
0
 10
93.174920796583876
 20
92.174358375986486
 30
0.0
  0
VERTEX
  5
2555
  8
0
 10
93.126920796583875
 20
92.161958375986472
 30
0.0
  0
VERTEX
  5
2556
  8
0
 10
93.077320796583876
 20
92.154458375986465
 30
0.0
  0
VERTEX
  5
2557
  8
0
 10
93.026020796583879
 20
92.151758375986475
 30
0.0
  0
VERTEX
  5
2558
  8
0
 10
93.026020796583879
 20
92.151758375986475
 30
0.0
  0
VERTEX
  5
2559
  8
0
 10
92.975020796583877
 20
92.154458375986465
 30
0.0
  0
VERTEX
  5
255A
  8
0
 10
92.925420796583865
 20
92.161958375986472
 30
0.0
  0
VERTEX
  5
255B
  8
0
 10
92.877520796583866
 20
92.174358375986486
 30
0.0
  0
VERTEX
  5
255C
  8
0
 10
92.831520796583874
 20
92.191158375986461
 30
0.0
  0
VERTEX
  5
255D
  8
0
 10
92.787920796583876
 20
92.212358375986454
 30
0.0
  0
VERTEX
  5
255E
  8
0
 10
92.746620796583869
 20
92.237358375986474
 30
0.0
  0
VERTEX
  5
255F
  8
0
 10
92.708220796583873
 20
92.266158375986478
 30
0.0
  0
VERTEX
  5
2560
  8
0
 10
92.672520796583896
 20
92.298258375986464
 30
0.0
  0
VERTEX
  5
2561
  8
0
 10
92.640420796583882
 20
92.333958375986484
 30
0.0
  0
VERTEX
  5
2562
  8
0
 10
92.611620796583878
 20
92.372358375986479
 30
0.0
  0
VERTEX
  5
2563
  8
0
 10
92.586620796583873
 20
92.413658375986486
 30
0.0
  0
VERTEX
  5
2564
  8
0
 10
92.565420796583865
 20
92.457258375986456
 30
0.0
  0
VERTEX
  5
2565
  8
0
 10
92.54862079658389
 20
92.503258375986476
 30
0.0
  0
VERTEX
  5
2566
  8
0
 10
92.536220796583876
 20
92.551158375986475
 30
0.0
  0
VERTEX
  5
2567
  8
0
 10
92.528720796583883
 20
92.600758375986459
 30
0.0
  0
VERTEX
  5
2568
  8
0
 10
92.526020796583865
 20
92.651758375986475
 30
0.0
  0
VERTEX
  5
2569
  8
0
 10
92.526020796583865
 20
92.651758375986475
 30
0.0
  0
VERTEX
  5
256A
  8
0
 10
92.528720796583883
 20
92.703058375986458
 30
0.0
  0
VERTEX
  5
256B
  8
0
 10
92.536220796583876
 20
92.752658375986471
 30
0.0
  0
VERTEX
  5
256C
  8
0
 10
92.54862079658389
 20
92.800658375986458
 30
0.0
  0
VERTEX
  5
256D
  8
0
 10
92.565420796583865
 20
92.846458375986472
 30
0.0
  0
VERTEX
  5
256E
  8
0
 10
92.586620796583873
 20
92.890258375986477
 30
0.0
  0
VERTEX
  5
256F
  8
0
 10
92.611620796583878
 20
92.931458375986495
 30
0.0
  0
VERTEX
  5
2570
  8
0
 10
92.640420796583882
 20
92.969958375986494
 30
0.0
  0
VERTEX
  5
2571
  8
0
 10
92.672520796583896
 20
93.005358375986475
 30
0.0
  0
VERTEX
  5
2572
  8
0
 10
92.708220796583873
 20
93.037758375986485
 30
0.0
  0
VERTEX
  5
2573
  8
0
 10
92.746620796583869
 20
93.066558375986475
 30
0.0
  0
VERTEX
  5
2574
  8
0
 10
92.787920796583876
 20
93.091658375986455
 30
0.0
  0
VERTEX
  5
2575
  8
0
 10
92.831520796583874
 20
93.112558375986467
 30
0.0
  0
VERTEX
  5
2576
  8
0
 10
92.877520796583866
 20
93.129458375986474
 30
0.0
  0
VERTEX
  5
2577
  8
0
 10
92.925420796583865
 20
93.141758375986456
 30
0.0
  0
VERTEX
  5
2578
  8
0
 10
92.975020796583877
 20
93.149258375986463
 30
0.0
  0
VERTEX
  5
2579
  8
0
 10
93.026020796583879
 20
93.151758375986475
 30
0.0
  0
SEQEND
  5
257A
  8
0
  0
POLYLINE
  5
1EF2
  8
0
 66
     1
 10
0.0
 20
0.0
 30
0.0
  0
VERTEX
  5
257B
  8
0
 10
93.026020796583879
 20
93.151758375986475
 30
0.0
  0
VERTEX
  5
257C
  8
0
 10
93.026020796583879
 20
93.151758375986475
 30
0.0
  0
VERTEX
  5
257D
  8
0
 10
93.077320796583876
 20
93.149258375986463
 30
0.0
  0
VERTEX
  5
257E
  8
0
 10
93.126920796583875
 20
93.141758375986456
 30
0.0
  0
VERTEX
  5
257F
  8
0
 10
93.174920796583876
 20
93.129458375986474
 30
0.0
  0
VERTEX
  5
2580
  8
0
 10
93.220720796583876
 20
93.112558375986467
 30
0.0
  0
VERTEX
  5
2581
  8
0
 10
93.264520796583881
 20
93.091658375986455
 30
0.0
  0
VERTEX
  5
2582
  8
0
 10
93.305720796583856
 20
93.066558375986475
 30
0.0
  0
VERTEX
  5
2583
  8
0
 10
93.344220796583883
 20
93.037758375986485
 30
0.0
  0
VERTEX
  5
2584
  8
0
 10
93.379620796583865
 20
93.005358375986475
 30
0.0
  0
VERTEX
  5
2585
  8
0
 10
93.412020796583874
 20
92.969958375986494
 30
0.0
  0
VERTEX
  5
2586
  8
0
 10
93.440820796583878
 20
92.931458375986495
 30
0.0
  0
VERTEX
  5
2587
  8
0
 10
93.465920796583873
 20
92.890258375986477
 30
0.0
  0
VERTEX
  5
2588
  8
0
 10
93.486820796583885
 20
92.846458375986472
 30
0.0
  0
VERTEX
  5
2589
  8
0
 10
93.503720796583877
 20
92.800658375986458
 30
0.0
  0
VERTEX
  5
258A
  8
0
 10
93.516020796583888
 20
92.752658375986471
 30
0.0
  0
VERTEX
  5
258B
  8
0
 10
93.523520796583881
 20
92.703058375986458
 30
0.0
  0
VERTEX
  5
258C
  8
0
 10
93.526020796583865
 20
92.651758375986475
 30
0.0
  0
VERTEX
  5
258D
  8
0
 10
93.526020796583865
 20
92.651758375986475
 30
0.0
  0
VERTEX
  5
258E
  8
0
 10
93.523520796583881
 20
92.600758375986459
 30
0.0
  0
VERTEX
  5
258F
  8
0
 10
93.516020796583888
 20
92.551158375986475
 30
0.0
  0
VERTEX
  5
2590
  8
0
 10
93.503720796583877
 20
92.503258375986476
 30
0.0
  0
VERTEX
  5
2591
  8
0
 10
93.486820796583885
 20
92.457258375986456
 30
0.0
  0
VERTEX
  5
2592
  8
0
 10
93.465920796583873
 20
92.413658375986486
 30
0.0
  0
VERTEX
  5
2593
  8
0
 10
93.440820796583878
 20
92.372358375986479
 30
0.0
  0
VERTEX
  5
2594
  8
0
 10
93.412020796583874
 20
92.333958375986484
 30
0.0
  0
VERTEX
  5
2595
  8
0
 10
93.379620796583865
 20
92.298258375986464
 30
0.0
  0
VERTEX
  5
2596
  8
0
 10
93.344220796583883
 20
92.266158375986478
 30
0.0
  0
VERTEX
  5
2597
  8
0
 10
93.305720796583856
 20
92.237358375986474
 30
0.0
  0
VERTEX
  5
2598
  8
0
 10
93.264520796583881
 20
92.212358375986454
 30
0.0
  0
VERTEX
  5
2599
  8
0
 10
93.220720796583876
 20
92.191158375986461
 30
0.0
  0
VERTEX
  5
259A
  8
0
 10
93.174920796583876
 20
92.174358375986486
 30
0.0
  0
VERTEX
  5
259B
  8
0
 10
93.126920796583875
 20
92.161958375986472
 30
0.0
  0
VERTEX
  5
259C
  8
0
 10
93.077320796583876
 20
92.154458375986465
 30
0.0
  0
VERTEX
  5
259D
  8
0
 10
93.026020796583879
 20
92.151758375986475
 30
0.0
  0
VERTEX
  5
259E
  8
0
 10
93.026020796583879
 20
92.151758375986475
 30
0.0
  0
VERTEX
  5
259F
  8
0
 10
92.975020796583877
 20
92.154458375986465
 30
0.0
  0
VERTEX
  5
25A0
  8
0
 10
92.925420796583865
 20
92.161958375986472
 30
0.0
  0
VERTEX
  5
25A1
  8
0
 10
92.877520796583866
 20
92.174358375986486
 30
0.0
  0
VERTEX
  5
25A2
  8
0
 10
92.831520796583874
 20
92.191158375986461
 30
0.0
  0
VERTEX
  5
25A3
  8
0
 10
92.787920796583876
 20
92.212358375986454
 30
0.0
  0
VERTEX
  5
25A4
  8
0
 10
92.746620796583869
 20
92.237358375986474
 30
0.0
  0
VERTEX
  5
25A5
  8
0
 10
92.708220796583873
 20
92.266158375986478
 30
0.0
  0
VERTEX
  5
25A6
  8
0
 10
92.672520796583896
 20
92.298258375986464
 30
0.0
  0
VERTEX
  5
25A7
  8
0
 10
92.640420796583882
 20
92.333958375986484
 30
0.0
  0
VERTEX
  5
25A8
  8
0
 10
92.611620796583878
 20
92.372358375986479
 30
0.0
  0
VERTEX
  5
25A9
  8
0
 10
92.586620796583873
 20
92.413658375986486
 30
0.0
  0
VERTEX
  5
25AA
  8
0
 10
92.565420796583865
 20
92.457258375986456
 30
0.0
  0
VERTEX
  5
25AB
  8
0
 10
92.54862079658389
 20
92.503258375986476
 30
0.0
  0
VERTEX
  5
25AC
  8
0
 10
92.536220796583876
 20
92.551158375986475
 30
0.0
  0
VERTEX
  5
25AD
  8
0
 10
92.528720796583883
 20
92.600758375986459
 30
0.0
  0
VERTEX
  5
25AE
  8
0
 10
92.526020796583865
 20
92.651758375986475
 30
0.0
  0
VERTEX
  5
25AF
  8
0
 10
92.526020796583865
 20
92.651758375986475
 30
0.0
  0
VERTEX
  5
25B0
  8
0
 10
92.528720796583883
 20
92.703058375986458
 30
0.0
  0
VERTEX
  5
25B1
  8
0
 10
92.536220796583876
 20
92.752658375986471
 30
0.0
  0
VERTEX
  5
25B2
  8
0
 10
92.54862079658389
 20
92.800658375986458
 30
0.0
  0
VERTEX
  5
25B3
  8
0
 10
92.565420796583865
 20
92.846458375986472
 30
0.0
  0
VERTEX
  5
25B4
  8
0
 10
92.586620796583873
 20
92.890258375986477
 30
0.0
  0
VERTEX
  5
25B5
  8
0
 10
92.611620796583878
 20
92.931458375986495
 30
0.0
  0
VERTEX
  5
25B6
  8
0
 10
92.640420796583882
 20
92.969958375986494
 30
0.0
  0
VERTEX
  5
25B7
  8
0
 10
92.672520796583896
 20
93.005358375986475
 30
0.0
  0
VERTEX
  5
25B8
  8
0
 10
92.708220796583873
 20
93.037758375986485
 30
0.0
  0
VERTEX
  5
25B9
  8
0
 10
92.746620796583869
 20
93.066558375986475
 30
0.0
  0
VERTEX
  5
25BA
  8
0
 10
92.787920796583876
 20
93.091658375986455
 30
0.0
  0
VERTEX
  5
25BB
  8
0
 10
92.831520796583874
 20
93.112558375986467
 30
0.0
  0
VERTEX
  5
25BC
  8
0
 10
92.877520796583866
 20
93.129458375986474
 30
0.0
  0
VERTEX
  5
25BD
  8
0
 10
92.925420796583865
 20
93.141758375986456
 30
0.0
  0
VERTEX
  5
25BE
  8
0
 10
92.975020796583877
 20
93.149258375986463
 30
0.0
  0
VERTEX
  5
25BF
  8
0
 10
93.026020796583879
 20
93.151758375986475
 30
0.0
  0
SEQEND
  5
25C0
  8
0
  0
POLYLINE
  5
1EF3
  8
0
 66
     1
 10
0.0
 20
0.0
 30
0.0
  0
VERTEX
  5
25C1
  8
0
 10
93.026020796583879
 20
93.151758375986475
 30
0.0
  0
VERTEX
  5
25C2
  8
0
 10
93.026020796583879
 20
93.151758375986475
 30
0.0
  0
VERTEX
  5
25C3
  8
0
 10
93.077320796583876
 20
93.149258375986463
 30
0.0
  0
VERTEX
  5
25C4
  8
0
 10
93.126920796583875
 20
93.141758375986456
 30
0.0
  0
VERTEX
  5
25C5
  8
0
 10
93.174920796583876
 20
93.129458375986474
 30
0.0
  0
VERTEX
  5
25C6
  8
0
 10
93.220720796583876
 20
93.112558375986467
 30
0.0
  0
VERTEX
  5
25C7
  8
0
 10
93.264520796583881
 20
93.091658375986455
 30
0.0
  0
VERTEX
  5
25C8
  8
0
 10
93.305720796583856
 20
93.066558375986475
 30
0.0
  0
VERTEX
  5
25C9
  8
0
 10
93.344220796583883
 20
93.037758375986485
 30
0.0
  0
VERTEX
  5
25CA
  8
0
 10
93.379620796583865
 20
93.005358375986475
 30
0.0
  0
VERTEX
  5
25CB
  8
0
 10
93.412020796583874
 20
92.969958375986494
 30
0.0
  0
VERTEX
  5
25CC
  8
0
 10
93.440820796583878
 20
92.931458375986495
 30
0.0
  0
VERTEX
  5
25CD
  8
0
 10
93.465920796583873
 20
92.890258375986477
 30
0.0
  0
VERTEX
  5
25CE
  8
0
 10
93.486820796583885
 20
92.846458375986472
 30
0.0
  0
VERTEX
  5
25CF
  8
0
 10
93.503720796583877
 20
92.800658375986458
 30
0.0
  0
VERTEX
  5
25D0
  8
0
 10
93.516020796583888
 20
92.752658375986471
 30
0.0
  0
VERTEX
  5
25D1
  8
0
 10
93.523520796583881
 20
92.703058375986458
 30
0.0
  0
VERTEX
  5
25D2
  8
0
 10
93.526020796583865
 20
92.651758375986475
 30
0.0
  0
VERTEX
  5
25D3
  8
0
 10
93.526020796583865
 20
92.651758375986475
 30
0.0
  0
VERTEX
  5
25D4
  8
0
 10
93.523520796583881
 20
92.600758375986459
 30
0.0
  0
VERTEX
  5
25D5
  8
0
 10
93.516020796583888
 20
92.551158375986475
 30
0.0
  0
VERTEX
  5
25D6
  8
0
 10
93.503720796583877
 20
92.503258375986476
 30
0.0
  0
VERTEX
  5
25D7
  8
0
 10
93.486820796583885
 20
92.457258375986456
 30
0.0
  0
VERTEX
  5
25D8
  8
0
 10
93.465920796583873
 20
92.413658375986486
 30
0.0
  0
VERTEX
  5
25D9
  8
0
 10
93.440820796583878
 20
92.372358375986479
 30
0.0
  0
VERTEX
  5
25DA
  8
0
 10
93.412020796583874
 20
92.333958375986484
 30
0.0
  0
VERTEX
  5
25DB
  8
0
 10
93.379620796583865
 20
92.298258375986464
 30
0.0
  0
VERTEX
  5
25DC
  8
0
 10
93.344220796583883
 20
92.266158375986478
 30
0.0
  0
VERTEX
  5
25DD
  8
0
 10
93.305720796583856
 20
92.237358375986474
 30
0.0
  0
VERTEX
  5
25DE
  8
0
 10
93.264520796583881
 20
92.212358375986454
 30
0.0
  0
VERTEX
  5
25DF
  8
0
 10
93.220720796583876
 20
92.191158375986461
 30
0.0
  0
VERTEX
  5
25E0
  8
0
 10
93.174920796583876
 20
92.174358375986486
 30
0.0
  0
VERTEX
  5
25E1
  8
0
 10
93.126920796583875
 20
92.161958375986472
 30
0.0
  0
VERTEX
  5
25E2
  8
0
 10
93.077320796583876
 20
92.154458375986465
 30
0.0
  0
VERTEX
  5
25E3
  8
0
 10
93.026020796583879
 20
92.151758375986475
 30
0.0
  0
VERTEX
  5
25E4
  8
0
 10
93.026020796583879
 20
92.151758375986475
 30
0.0
  0
VERTEX
  5
25E5
  8
0
 10
92.975020796583877
 20
92.154458375986465
 30
0.0
  0
VERTEX
  5
25E6
  8
0
 10
92.925420796583865
 20
92.161958375986472
 30
0.0
  0
VERTEX
  5
25E7
  8
0
 10
92.877520796583866
 20
92.174358375986486
 30
0.0
  0
VERTEX
  5
25E8
  8
0
 10
92.831520796583874
 20
92.191158375986461
 30
0.0
  0
VERTEX
  5
25E9
  8
0
 10
92.787920796583876
 20
92.212358375986454
 30
0.0
  0
VERTEX
  5
25EA
  8
0
 10
92.746620796583869
 20
92.237358375986474
 30
0.0
  0
VERTEX
  5
25EB
  8
0
 10
92.708220796583873
 20
92.266158375986478
 30
0.0
  0
VERTEX
  5
25EC
  8
0
 10
92.672520796583896
 20
92.298258375986464
 30
0.0
  0
VERTEX
  5
25ED
  8
0
 10
92.640420796583882
 20
92.333958375986484
 30
0.0
  0
VERTEX
  5
25EE
  8
0
 10
92.611620796583878
 20
92.372358375986479
 30
0.0
  0
VERTEX
  5
25EF
  8
0
 10
92.586620796583873
 20
92.413658375986486
 30
0.0
  0
VERTEX
  5
25F0
  8
0
 10
92.565420796583865
 20
92.457258375986456
 30
0.0
  0
VERTEX
  5
25F1
  8
0
 10
92.54862079658389
 20
92.503258375986476
 30
0.0
  0
VERTEX
  5
25F2
  8
0
 10
92.536220796583876
 20
92.551158375986475
 30
0.0
  0
VERTEX
  5
25F3
  8
0
 10
92.528720796583883
 20
92.600758375986459
 30
0.0
  0
VERTEX
  5
25F4
  8
0
 10
92.526020796583865
 20
92.651758375986475
 30
0.0
  0
VERTEX
  5
25F5
  8
0
 10
92.526020796583865
 20
92.651758375986475
 30
0.0
  0
VERTEX
  5
25F6
  8
0
 10
92.528720796583883
 20
92.703058375986458
 30
0.0
  0
VERTEX
  5
25F7
  8
0
 10
92.536220796583876
 20
92.752658375986471
 30
0.0
  0
VERTEX
  5
25F8
  8
0
 10
92.54862079658389
 20
92.800658375986458
 30
0.0
  0
VERTEX
  5
25F9
  8
0
 10
92.565420796583865
 20
92.846458375986472
 30
0.0
  0
VERTEX
  5
25FA
  8
0
 10
92.586620796583873
 20
92.890258375986477
 30
0.0
  0
VERTEX
  5
25FB
  8
0
 10
92.611620796583878
 20
92.931458375986495
 30
0.0
  0
VERTEX
  5
25FC
  8
0
 10
92.640420796583882
 20
92.969958375986494
 30
0.0
  0
VERTEX
  5
25FD
  8
0
 10
92.672520796583896
 20
93.005358375986475
 30
0.0
  0
VERTEX
  5
25FE
  8
0
 10
92.708220796583873
 20
93.037758375986485
 30
0.0
  0
VERTEX
  5
25FF
  8
0
 10
92.746620796583869
 20
93.066558375986475
 30
0.0
  0
VERTEX
  5
2600
  8
0
 10
92.787920796583876
 20
93.091658375986455
 30
0.0
  0
VERTEX
  5
2601
  8
0
 10
92.831520796583874
 20
93.112558375986467
 30
0.0
  0
VERTEX
  5
2602
  8
0
 10
92.877520796583866
 20
93.129458375986474
 30
0.0
  0
VERTEX
  5
2603
  8
0
 10
92.925420796583865
 20
93.141758375986456
 30
0.0
  0
VERTEX
  5
2604
  8
0
 10
92.975020796583877
 20
93.149258375986463
 30
0.0
  0
VERTEX
  5
2605
  8
0
 10
93.026020796583879
 20
93.151758375986475
 30
0.0
  0
SEQEND
  5
2606
  8
0
  0
LINE
  5
1EF4
  8
1
 10
93.220720796583876
 20
93.112558375986467
 30
0.0
 11
93.621220796583884
 21
92.911594212023786
 31
0.0
  0
LINE
  5
1EF5
  8
1
 10
92.831520796583874
 20
92.191158375986461
 30
0.0
 11
93.621220796583884
 21
91.799251927212168
 31
0.0
  0
POLYLINE
  5
1EFF
  8
0
 66
     1
 10
0.0
 20
0.0
 30
0.0
 39
5.0
  0
VERTEX
  5
2607
  8
0
 10
93.026020796583879
 20
90.151758375986475
 30
0.0
  0
VERTEX
  5
2608
  8
0
 10
93.026020796583879
 20
90.151758375986475
 30
0.0
  0
VERTEX
  5
2609
  8
0
 10
93.077320796583876
 20
90.149258375986463
 30
0.0
  0
VERTEX
  5
260A
  8
0
 10
93.126920796583875
 20
90.141758375986484
 30
0.0
  0
VERTEX
  5
260B
  8
0
 10
93.174920796583876
 20
90.129458375986474
 30
0.0
  0
VERTEX
  5
260C
  8
0
 10
93.220720796583876
 20
90.112558375986467
 30
0.0
  0
VERTEX
  5
260D
  8
0
 10
93.264520796583881
 20
90.091658375986469
 30
0.0
  0
VERTEX
  5
260E
  8
0
 10
93.305720796583856
 20
90.066558375986475
 30
0.0
  0
VERTEX
  5
260F
  8
0
 10
93.344220796583883
 20
90.037758375986471
 30
0.0
  0
VERTEX
  5
2610
  8
0
 10
93.379620796583865
 20
90.005358375986475
 30
0.0
  0
VERTEX
  5
2611
  8
0
 10
93.412020796583874
 20
89.969958375986479
 30
0.0
  0
VERTEX
  5
2612
  8
0
 10
93.440820796583878
 20
89.93145837598648
 30
0.0
  0
VERTEX
  5
2613
  8
0
 10
93.465920796583873
 20
89.890258375986477
 30
0.0
  0
VERTEX
  5
2614
  8
0
 10
93.486820796583885
 20
89.846458375986458
 30
0.0
  0
VERTEX
  5
2615
  8
0
 10
93.503720796583877
 20
89.800658375986472
 30
0.0
  0
VERTEX
  5
2616
  8
0
 10
93.516020796583888
 20
89.752658375986456
 30
0.0
  0
VERTEX
  5
2617
  8
0
 10
93.523520796583881
 20
89.703058375986473
 30
0.0
  0
VERTEX
  5
2618
  8
0
 10
93.526020796583865
 20
89.651758375986475
 30
0.0
  0
VERTEX
  5
2619
  8
0
 10
93.526020796583865
 20
89.651758375986475
 30
0.0
  0
VERTEX
  5
261A
  8
0
 10
93.523520796583881
 20
89.600758375986473
 30
0.0
  0
VERTEX
  5
261B
  8
0
 10
93.516020796583888
 20
89.551158375986475
 30
0.0
  0
VERTEX
  5
261C
  8
0
 10
93.503720796583877
 20
89.503258375986476
 30
0.0
  0
VERTEX
  5
261D
  8
0
 10
93.486820796583885
 20
89.45725837598647
 30
0.0
  0
VERTEX
  5
261E
  8
0
 10
93.465920796583873
 20
89.413658375986472
 30
0.0
  0
VERTEX
  5
261F
  8
0
 10
93.440820796583878
 20
89.372358375986465
 30
0.0
  0
VERTEX
  5
2620
  8
0
 10
93.412020796583874
 20
89.333958375986469
 30
0.0
  0
VERTEX
  5
2621
  8
0
 10
93.379620796583865
 20
89.298258375986464
 30
0.0
  0
VERTEX
  5
2622
  8
0
 10
93.344220796583883
 20
89.266158375986478
 30
0.0
  0
VERTEX
  5
2623
  8
0
 10
93.305720796583856
 20
89.237358375986474
 30
0.0
  0
VERTEX
  5
2624
  8
0
 10
93.264520796583881
 20
89.212358375986469
 30
0.0
  0
VERTEX
  5
2625
  8
0
 10
93.220720796583876
 20
89.191158375986461
 30
0.0
  0
VERTEX
  5
2626
  8
0
 10
93.174920796583876
 20
89.174358375986472
 30
0.0
  0
VERTEX
  5
2627
  8
0
 10
93.126920796583875
 20
89.161958375986487
 30
0.0
  0
VERTEX
  5
2628
  8
0
 10
93.077320796583876
 20
89.154458375986465
 30
0.0
  0
VERTEX
  5
2629
  8
0
 10
93.026020796583879
 20
89.151758375986475
 30
0.0
  0
VERTEX
  5
262A
  8
0
 10
93.026020796583879
 20
89.151758375986475
 30
0.0
  0
VERTEX
  5
262B
  8
0
 10
92.975020796583877
 20
89.154458375986465
 30
0.0
  0
VERTEX
  5
262C
  8
0
 10
92.925420796583865
 20
89.161958375986487
 30
0.0
  0
VERTEX
  5
262D
  8
0
 10
92.877520796583866
 20
89.174358375986472
 30
0.0
  0
VERTEX
  5
262E
  8
0
 10
92.831520796583874
 20
89.191158375986461
 30
0.0
  0
VERTEX
  5
262F
  8
0
 10
92.787920796583876
 20
89.212358375986469
 30
0.0
  0
VERTEX
  5
2630
  8
0
 10
92.746620796583869
 20
89.237358375986474
 30
0.0
  0
VERTEX
  5
2631
  8
0
 10
92.708220796583873
 20
89.266158375986478
 30
0.0
  0
VERTEX
  5
2632
  8
0
 10
92.672520796583896
 20
89.298258375986464
 30
0.0
  0
VERTEX
  5
2633
  8
0
 10
92.640420796583882
 20
89.333958375986469
 30
0.0
  0
VERTEX
  5
2634
  8
0
 10
92.611620796583878
 20
89.372358375986465
 30
0.0
  0
VERTEX
  5
2635
  8
0
 10
92.586620796583873
 20
89.413658375986472
 30
0.0
  0
VERTEX
  5
2636
  8
0
 10
92.565420796583865
 20
89.45725837598647
 30
0.0
  0
VERTEX
  5
2637
  8
0
 10
92.54862079658389
 20
89.503258375986476
 30
0.0
  0
VERTEX
  5
2638
  8
0
 10
92.536220796583876
 20
89.551158375986475
 30
0.0
  0
VERTEX
  5
2639
  8
0
 10
92.528720796583883
 20
89.600758375986473
 30
0.0
  0
VERTEX
  5
263A
  8
0
 10
92.526020796583865
 20
89.651758375986475
 30
0.0
  0
VERTEX
  5
263B
  8
0
 10
92.526020796583865
 20
89.651758375986475
 30
0.0
  0
VERTEX
  5
263C
  8
0
 10
92.528720796583883
 20
89.703058375986473
 30
0.0
  0
VERTEX
  5
263D
  8
0
 10
92.536220796583876
 20
89.752658375986456
 30
0.0
  0
VERTEX
  5
263E
  8
0
 10
92.54862079658389
 20
89.800658375986472
 30
0.0
  0
VERTEX
  5
263F
  8
0
 10
92.565420796583865
 20
89.846458375986458
 30
0.0
  0
VERTEX
  5
2640
  8
0
 10
92.586620796583873
 20
89.890258375986477
 30
0.0
  0
VERTEX
  5
2641
  8
0
 10
92.611620796583878
 20
89.93145837598648
 30
0.0
  0
VERTEX
  5
2642
  8
0
 10
92.640420796583882
 20
89.969958375986479
 30
0.0
  0
VERTEX
  5
2643
  8
0
 10
92.672520796583896
 20
90.005358375986475
 30
0.0
  0
VERTEX
  5
2644
  8
0
 10
92.708220796583873
 20
90.037758375986471
 30
0.0
  0
VERTEX
  5
2645
  8
0
 10
92.746620796583869
 20
90.066558375986475
 30
0.0
  0
VERTEX
  5
2646
  8
0
 10
92.787920796583876
 20
90.091658375986469
 30
0.0
  0
VERTEX
  5
2647
  8
0
 10
92.831520796583874
 20
90.112558375986467
 30
0.0
  0
VERTEX
  5
2648
  8
0
 10
92.877520796583866
 20
90.129458375986474
 30
0.0
  0
VERTEX
  5
2649
  8
0
 10
92.925420796583865
 20
90.141758375986484
 30
0.0
  0
VERTEX
  5
264A
  8
0
 10
92.975020796583877
 20
90.149258375986463
 30
0.0
  0
VERTEX
  5
264B
  8
0
 10
93.026020796583879
 20
90.151758375986475
 30
0.0
  0
SEQEND
  5
264C
  8
0
  0
POLYLINE
  5
1F00
  8
0
 66
     1
 10
0.0
 20
0.0
 30
0.0
  0
VERTEX
  5
264D
  8
0
 10
93.026020796583879
 20
90.151758375986475
 30
0.0
  0
VERTEX
  5
264E
  8
0
 10
93.026020796583879
 20
90.151758375986475
 30
0.0
  0
VERTEX
  5
264F
  8
0
 10
93.077320796583876
 20
90.149258375986463
 30
0.0
  0
VERTEX
  5
2650
  8
0
 10
93.126920796583875
 20
90.141758375986484
 30
0.0
  0
VERTEX
  5
2651
  8
0
 10
93.174920796583876
 20
90.129458375986474
 30
0.0
  0
VERTEX
  5
2652
  8
0
 10
93.220720796583876
 20
90.112558375986467
 30
0.0
  0
VERTEX
  5
2653
  8
0
 10
93.264520796583881
 20
90.091658375986469
 30
0.0
  0
VERTEX
  5
2654
  8
0
 10
93.305720796583856
 20
90.066558375986475
 30
0.0
  0
VERTEX
  5
2655
  8
0
 10
93.344220796583883
 20
90.037758375986471
 30
0.0
  0
VERTEX
  5
2656
  8
0
 10
93.379620796583865
 20
90.005358375986475
 30
0.0
  0
VERTEX
  5
2657
  8
0
 10
93.412020796583874
 20
89.969958375986479
 30
0.0
  0
VERTEX
  5
2658
  8
0
 10
93.440820796583878
 20
89.93145837598648
 30
0.0
  0
VERTEX
  5
2659
  8
0
 10
93.465920796583873
 20
89.890258375986477
 30
0.0
  0
VERTEX
  5
265A
  8
0
 10
93.486820796583885
 20
89.846458375986458
 30
0.0
  0
VERTEX
  5
265B
  8
0
 10
93.503720796583877
 20
89.800658375986472
 30
0.0
  0
VERTEX
  5
265C
  8
0
 10
93.516020796583888
 20
89.752658375986456
 30
0.0
  0
VERTEX
  5
265D
  8
0
 10
93.523520796583881
 20
89.703058375986473
 30
0.0
  0
VERTEX
  5
265E
  8
0
 10
93.526020796583865
 20
89.651758375986475
 30
0.0
  0
VERTEX
  5
265F
  8
0
 10
93.526020796583865
 20
89.651758375986475
 30
0.0
  0
VERTEX
  5
2660
  8
0
 10
93.523520796583881
 20
89.600758375986473
 30
0.0
  0
VERTEX
  5
2661
  8
0
 10
93.516020796583888
 20
89.551158375986475
 30
0.0
  0
VERTEX
  5
2662
  8
0
 10
93.503720796583877
 20
89.503258375986476
 30
0.0
  0
VERTEX
  5
2663
  8
0
 10
93.486820796583885
 20
89.45725837598647
 30
0.0
  0
VERTEX
  5
2664
  8
0
 10
93.465920796583873
 20
89.413658375986472
 30
0.0
  0
VERTEX
  5
2665
  8
0
 10
93.440820796583878
 20
89.372358375986465
 30
0.0
  0
VERTEX
  5
2666
  8
0
 10
93.412020796583874
 20
89.333958375986469
 30
0.0
  0
VERTEX
  5
2667
  8
0
 10
93.379620796583865
 20
89.298258375986464
 30
0.0
  0
VERTEX
  5
2668
  8
0
 10
93.344220796583883
 20
89.266158375986478
 30
0.0
  0
VERTEX
  5
2669
  8
0
 10
93.305720796583856
 20
89.237358375986474
 30
0.0
  0
VERTEX
  5
266A
  8
0
 10
93.264520796583881
 20
89.212358375986469
 30
0.0
  0
VERTEX
  5
266B
  8
0
 10
93.220720796583876
 20
89.191158375986461
 30
0.0
  0
VERTEX
  5
266C
  8
0
 10
93.174920796583876
 20
89.174358375986472
 30
0.0
  0
VERTEX
  5
266D
  8
0
 10
93.126920796583875
 20
89.161958375986487
 30
0.0
  0
VERTEX
  5
266E
  8
0
 10
93.077320796583876
 20
89.154458375986465
 30
0.0
  0
VERTEX
  5
266F
  8
0
 10
93.026020796583879
 20
89.151758375986475
 30
0.0
  0
VERTEX
  5
2670
  8
0
 10
93.026020796583879
 20
89.151758375986475
 30
0.0
  0
VERTEX
  5
2671
  8
0
 10
92.975020796583877
 20
89.154458375986465
 30
0.0
  0
VERTEX
  5
2672
  8
0
 10
92.925420796583865
 20
89.161958375986487
 30
0.0
  0
VERTEX
  5
2673
  8
0
 10
92.877520796583866
 20
89.174358375986472
 30
0.0
  0
VERTEX
  5
2674
  8
0
 10
92.831520796583874
 20
89.191158375986461
 30
0.0
  0
VERTEX
  5
2675
  8
0
 10
92.787920796583876
 20
89.212358375986469
 30
0.0
  0
VERTEX
  5
2676
  8
0
 10
92.746620796583869
 20
89.237358375986474
 30
0.0
  0
VERTEX
  5
2677
  8
0
 10
92.708220796583873
 20
89.266158375986478
 30
0.0
  0
VERTEX
  5
2678
  8
0
 10
92.672520796583896
 20
89.298258375986464
 30
0.0
  0
VERTEX
  5
2679
  8
0
 10
92.640420796583882
 20
89.333958375986469
 30
0.0
  0
VERTEX
  5
267A
  8
0
 10
92.611620796583878
 20
89.372358375986465
 30
0.0
  0
VERTEX
  5
267B
  8
0
 10
92.586620796583873
 20
89.413658375986472
 30
0.0
  0
VERTEX
  5
267C
  8
0
 10
92.565420796583865
 20
89.45725837598647
 30
0.0
  0
VERTEX
  5
267D
  8
0
 10
92.54862079658389
 20
89.503258375986476
 30
0.0
  0
VERTEX
  5
267E
  8
0
 10
92.536220796583876
 20
89.551158375986475
 30
0.0
  0
VERTEX
  5
267F
  8
0
 10
92.528720796583883
 20
89.600758375986473
 30
0.0
  0
VERTEX
  5
2680
  8
0
 10
92.526020796583865
 20
89.651758375986475
 30
0.0
  0
VERTEX
  5
2681
  8
0
 10
92.526020796583865
 20
89.651758375986475
 30
0.0
  0
VERTEX
  5
2682
  8
0
 10
92.528720796583883
 20
89.703058375986473
 30
0.0
  0
VERTEX
  5
2683
  8
0
 10
92.536220796583876
 20
89.752658375986456
 30
0.0
  0
VERTEX
  5
2684
  8
0
 10
92.54862079658389
 20
89.800658375986472
 30
0.0
  0
VERTEX
  5
2685
  8
0
 10
92.565420796583865
 20
89.846458375986458
 30
0.0
  0
VERTEX
  5
2686
  8
0
 10
92.586620796583873
 20
89.890258375986477
 30
0.0
  0
VERTEX
  5
2687
  8
0
 10
92.611620796583878
 20
89.93145837598648
 30
0.0
  0
VERTEX
  5
2688
  8
0
 10
92.640420796583882
 20
89.969958375986479
 30
0.0
  0
VERTEX
  5
2689
  8
0
 10
92.672520796583896
 20
90.005358375986475
 30
0.0
  0
VERTEX
  5
268A
  8
0
 10
92.708220796583873
 20
90.037758375986471
 30
0.0
  0
VERTEX
  5
268B
  8
0
 10
92.746620796583869
 20
90.066558375986475
 30
0.0
  0
VERTEX
  5
268C
  8
0
 10
92.787920796583876
 20
90.091658375986469
 30
0.0
  0
VERTEX
  5
268D
  8
0
 10
92.831520796583874
 20
90.112558375986467
 30
0.0
  0
VERTEX
  5
268E
  8
0
 10
92.877520796583866
 20
90.129458375986474
 30
0.0
  0
VERTEX
  5
268F
  8
0
 10
92.925420796583865
 20
90.141758375986484
 30
0.0
  0
VERTEX
  5
2690
  8
0
 10
92.975020796583877
 20
90.149258375986463
 30
0.0
  0
VERTEX
  5
2691
  8
0
 10
93.026020796583879
 20
90.151758375986475
 30
0.0
  0
SEQEND
  5
2692
  8
0
  0
POLYLINE
  5
1F01
  8
0
 66
     1
 10
0.0
 20
0.0
 30
0.0
  0
VERTEX
  5
2693
  8
0
 10
93.026020796583879
 20
90.151758375986475
 30
0.0
  0
VERTEX
  5
2694
  8
0
 10
93.026020796583879
 20
90.151758375986475
 30
0.0
  0
VERTEX
  5
2695
  8
0
 10
93.077320796583876
 20
90.149258375986463
 30
0.0
  0
VERTEX
  5
2696
  8
0
 10
93.126920796583875
 20
90.141758375986484
 30
0.0
  0
VERTEX
  5
2697
  8
0
 10
93.174920796583876
 20
90.129458375986474
 30
0.0
  0
VERTEX
  5
2698
  8
0
 10
93.220720796583876
 20
90.112558375986467
 30
0.0
  0
VERTEX
  5
2699
  8
0
 10
93.264520796583881
 20
90.091658375986469
 30
0.0
  0
VERTEX
  5
269A
  8
0
 10
93.305720796583856
 20
90.066558375986475
 30
0.0
  0
VERTEX
  5
269B
  8
0
 10
93.344220796583883
 20
90.037758375986471
 30
0.0
  0
VERTEX
  5
269C
  8
0
 10
93.379620796583865
 20
90.005358375986475
 30
0.0
  0
VERTEX
  5
269D
  8
0
 10
93.412020796583874
 20
89.969958375986479
 30
0.0
  0
VERTEX
  5
269E
  8
0
 10
93.440820796583878
 20
89.93145837598648
 30
0.0
  0
VERTEX
  5
269F
  8
0
 10
93.465920796583873
 20
89.890258375986477
 30
0.0
  0
VERTEX
  5
26A0
  8
0
 10
93.486820796583885
 20
89.846458375986458
 30
0.0
  0
VERTEX
  5
26A1
  8
0
 10
93.503720796583877
 20
89.800658375986472
 30
0.0
  0
VERTEX
  5
26A2
  8
0
 10
93.516020796583888
 20
89.752658375986456
 30
0.0
  0
VERTEX
  5
26A3
  8
0
 10
93.523520796583881
 20
89.703058375986473
 30
0.0
  0
VERTEX
  5
26A4
  8
0
 10
93.526020796583865
 20
89.651758375986475
 30
0.0
  0
VERTEX
  5
26A5
  8
0
 10
93.526020796583865
 20
89.651758375986475
 30
0.0
  0
VERTEX
  5
26A6
  8
0
 10
93.523520796583881
 20
89.600758375986473
 30
0.0
  0
VERTEX
  5
26A7
  8
0
 10
93.516020796583888
 20
89.551158375986475
 30
0.0
  0
VERTEX
  5
26A8
  8
0
 10
93.503720796583877
 20
89.503258375986476
 30
0.0
  0
VERTEX
  5
26A9
  8
0
 10
93.486820796583885
 20
89.45725837598647
 30
0.0
  0
VERTEX
  5
26AA
  8
0
 10
93.465920796583873
 20
89.413658375986472
 30
0.0
  0
VERTEX
  5
26AB
  8
0
 10
93.440820796583878
 20
89.372358375986465
 30
0.0
  0
VERTEX
  5
26AC
  8
0
 10
93.412020796583874
 20
89.333958375986469
 30
0.0
  0
VERTEX
  5
26AD
  8
0
 10
93.379620796583865
 20
89.298258375986464
 30
0.0
  0
VERTEX
  5
26AE
  8
0
 10
93.344220796583883
 20
89.266158375986478
 30
0.0
  0
VERTEX
  5
26AF
  8
0
 10
93.305720796583856
 20
89.237358375986474
 30
0.0
  0
VERTEX
  5
26B0
  8
0
 10
93.264520796583881
 20
89.212358375986469
 30
0.0
  0
VERTEX
  5
26B1
  8
0
 10
93.220720796583876
 20
89.191158375986461
 30
0.0
  0
VERTEX
  5
26B2
  8
0
 10
93.174920796583876
 20
89.174358375986472
 30
0.0
  0
VERTEX
  5
26B3
  8
0
 10
93.126920796583875
 20
89.161958375986487
 30
0.0
  0
VERTEX
  5
26B4
  8
0
 10
93.077320796583876
 20
89.154458375986465
 30
0.0
  0
VERTEX
  5
26B5
  8
0
 10
93.026020796583879
 20
89.151758375986475
 30
0.0
  0
VERTEX
  5
26B6
  8
0
 10
93.026020796583879
 20
89.151758375986475
 30
0.0
  0
VERTEX
  5
26B7
  8
0
 10
92.975020796583877
 20
89.154458375986465
 30
0.0
  0
VERTEX
  5
26B8
  8
0
 10
92.925420796583865
 20
89.161958375986487
 30
0.0
  0
VERTEX
  5
26B9
  8
0
 10
92.877520796583866
 20
89.174358375986472
 30
0.0
  0
VERTEX
  5
26BA
  8
0
 10
92.831520796583874
 20
89.191158375986461
 30
0.0
  0
VERTEX
  5
26BB
  8
0
 10
92.787920796583876
 20
89.212358375986469
 30
0.0
  0
VERTEX
  5
26BC
  8
0
 10
92.746620796583869
 20
89.237358375986474
 30
0.0
  0
VERTEX
  5
26BD
  8
0
 10
92.708220796583873
 20
89.266158375986478
 30
0.0
  0
VERTEX
  5
26BE
  8
0
 10
92.672520796583896
 20
89.298258375986464
 30
0.0
  0
VERTEX
  5
26BF
  8
0
 10
92.640420796583882
 20
89.333958375986469
 30
0.0
  0
VERTEX
  5
26C0
  8
0
 10
92.611620796583878
 20
89.372358375986465
 30
0.0
  0
VERTEX
  5
26C1
  8
0
 10
92.586620796583873
 20
89.413658375986472
 30
0.0
  0
VERTEX
  5
26C2
  8
0
 10
92.565420796583865
 20
89.45725837598647
 30
0.0
  0
VERTEX
  5
26C3
  8
0
 10
92.54862079658389
 20
89.503258375986476
 30
0.0
  0
VERTEX
  5
26C4
  8
0
 10
92.536220796583876
 20
89.551158375986475
 30
0.0
  0
VERTEX
  5
26C5
  8
0
 10
92.528720796583883
 20
89.600758375986473
 30
0.0
  0
VERTEX
  5
26C6
  8
0
 10
92.526020796583865
 20
89.651758375986475
 30
0.0
  0
VERTEX
  5
26C7
  8
0
 10
92.526020796583865
 20
89.651758375986475
 30
0.0
  0
VERTEX
  5
26C8
  8
0
 10
92.528720796583883
 20
89.703058375986473
 30
0.0
  0
VERTEX
  5
26C9
  8
0
 10
92.536220796583876
 20
89.752658375986456
 30
0.0
  0
VERTEX
  5
26CA
  8
0
 10
92.54862079658389
 20
89.800658375986472
 30
0.0
  0
VERTEX
  5
26CB
  8
0
 10
92.565420796583865
 20
89.846458375986458
 30
0.0
  0
VERTEX
  5
26CC
  8
0
 10
92.586620796583873
 20
89.890258375986477
 30
0.0
  0
VERTEX
  5
26CD
  8
0
 10
92.611620796583878
 20
89.93145837598648
 30
0.0
  0
VERTEX
  5
26CE
  8
0
 10
92.640420796583882
 20
89.969958375986479
 30
0.0
  0
VERTEX
  5
26CF
  8
0
 10
92.672520796583896
 20
90.005358375986475
 30
0.0
  0
VERTEX
  5
26D0
  8
0
 10
92.708220796583873
 20
90.037758375986471
 30
0.0
  0
VERTEX
  5
26D1
  8
0
 10
92.746620796583869
 20
90.066558375986475
 30
0.0
  0
VERTEX
  5
26D2
  8
0
 10
92.787920796583876
 20
90.091658375986469
 30
0.0
  0
VERTEX
  5
26D3
  8
0
 10
92.831520796583874
 20
90.112558375986467
 30
0.0
  0
VERTEX
  5
26D4
  8
0
 10
92.877520796583866
 20
90.129458375986474
 30
0.0
  0
VERTEX
  5
26D5
  8
0
 10
92.925420796583865
 20
90.141758375986484
 30
0.0
  0
VERTEX
  5
26D6
  8
0
 10
92.975020796583877
 20
90.149258375986463
 30
0.0
  0
VERTEX
  5
26D7
  8
0
 10
93.026020796583879
 20
90.151758375986475
 30
0.0
  0
SEQEND
  5
26D8
  8
0
  0
LINE
  5
1F02
  8
1
 10
93.220720796583876
 20
90.112558375986467
 30
0.0
 11
93.621220796583884
 21
89.911594212023772
 31
0.0
  0
LINE
  5
1F03
  8
1
 10
92.831520796583874
 20
89.191158375986461
 30
0.0
 11
93.621220796583884
 21
88.799251927212154
 31
0.0
  0
LINE
  5
1F10
  8
0
 39
5.0
 10
100.2968207965838
 20
67.624954294353785
 30
0.0
 11
100.3075207965838
 21
67.693958375986469
 31
0.0
  0
LINE
  5
1F11
  8
0
 39
5.0
 10
100.3075207965838
 20
67.693958375986469
 30
0.0
 11
100.32742079658379
 21
67.784658375986467
 31
0.0
  0
LINE
  5
1F12
  8
0
 39
5.0
 10
100.32742079658379
 20
67.784658375986467
 30
0.0
 11
100.35262079658381
 21
67.871258375986471
 31
0.0
  0
LINE
  5
1F13
  8
0
 39
5.0
 10
100.35262079658381
 20
67.871258375986471
 30
0.0
 11
100.3823207965838
 21
67.952858375986466
 31
0.0
  0
LINE
  5
1F14
  8
0
 39
5.0
 10
100.3823207965838
 20
67.952858375986466
 30
0.0
 11
100.4165207965838
 21
68.029158375986455
 31
0.0
  0
LINE
  5
1F15
  8
0
 39
5.0
 10
100.4165207965838
 20
68.029158375986455
 30
0.0
 11
100.4547207965839
 21
68.099358375986469
 31
0.0
  0
LINE
  5
1F16
  8
0
 39
5.0
 10
100.4547207965839
 20
68.099358375986469
 30
0.0
 11
100.4970207965838
 21
68.163458375986465
 31
0.0
  0
LINE
  5
1F17
  8
0
 39
5.0
 10
100.4970207965838
 20
68.163458375986465
 30
0.0
 11
100.5425207965838
 21
68.220558375986471
 31
0.0
  0
LINE
  5
1F18
  8
0
 39
5.0
 10
100.5425207965838
 20
68.220558375986471
 30
0.0
 11
100.5914207965838
 21
68.270258375986472
 31
0.0
  0
LINE
  5
1F19
  8
0
 39
5.0
 10
100.5914207965838
 20
68.270258375986472
 30
0.0
 11
100.6430207965838
 21
68.311958375986478
 31
0.0
  0
LINE
  5
1F1A
  8
0
 39
5.0
 10
100.6430207965838
 20
68.311958375986478
 30
0.0
 11
100.6975207965838
 21
68.345458375986453
 31
0.0
  0
LINE
  5
1F1B
  8
0
 39
5.0
 10
100.6975207965838
 20
68.345458375986453
 30
0.0
 11
100.7541207965839
 21
68.369858375986453
 31
0.0
  0
LINE
  5
1F1C
  8
0
 39
5.0
 10
100.7541207965839
 20
68.369858375986453
 30
0.0
 11
100.8127207965838
 21
68.384958375986471
 31
0.0
  0
LINE
  5
1F1D
  8
0
 39
5.0
 10
100.8127207965838
 20
68.384958375986471
 30
0.0
 11
100.8729207965838
 21
68.389958375986467
 31
0.0
  0
ENDSEC
  0
EOF
