  0
SECTION
  2
HEADER
  9
$ACADVER
  1
AC1009
  9
$INSBASE
 10
0.0
 20
0.0
 30
0.0
  9
$EXTMIN
 10
34.993631979195349
 20
-12.90385090217319
 30
0.0
  9
$EXTMAX
 10
126.28905191509661
 20
153.22897643826971
 30
5.0
  9
$LIMMIN
 10
0.0
 20
0.0
  9
$LIMMAX
 10
420.0
 20
297.0
  9
$ORTHOMODE
 70
     0
  9
$REGENMODE
 70
     1
  9
$FILLMODE
 70
     1
  9
$QTEXTMODE
 70
     0
  9
$MIRRTEXT
 70
     1
  9
$DRAGMODE
 70
     2
  9
$LTSCALE
 40
0.3
  9
$OSMODE
 70
    37
  9
$ATTMODE
 70
     1
  9
$TEXTSIZE
 40
2.5
  9
$TRACEWID
 40
1.0
  9
$TEXTSTYLE
  7
STANDARD
  9
$CLAYER
  8
2
  9
$CELTYPE
  6
BYLAYER
  9
$CECOLOR
 62
   256
  9
$DIMSCALE
 40
1.0
  9
$DIMASZ
 40
2.5
  9
$DIMEXO
 40
0.625
  9
$DIMDLI
 40
3.75
  9
$DIMRND
 40
0.0
  9
$DIMDLE
 40
0.0
  9
$DIMEXE
 40
1.25
  9
$DIMTP
 40
0.0
  9
$DIMTM
 40
0.0
  9
$DIMTXT
 40
2.5
  9
$DIMCEN
 40
2.5
  9
$DIMTSZ
 40
0.0
  9
$DIMTOL
 70
     0
  9
$DIMLIM
 70
     0
  9
$DIMTIH
 70
     0
  9
$DIMTOH
 70
     0
  9
$DIMSE1
 70
     0
  9
$DIMSE2
 70
     0
  9
$DIMTAD
 70
     1
  9
$DIMZIN
 70
     8
  9
$DIMBLK
  1

  9
$DIMASO
 70
     1
  9
$DIMSHO
 70
     1
  9
$DIMPOST
  1

  9
$DIMAPOST
  1

  9
$DIMALT
 70
     0
  9
$DIMALTD
 70
     3
  9
$DIMALTF
 40
0.03937007874016
  9
$DIMLFAC
 40
1.0
  9
$DIMTOFL
 70
     1
  9
$DIMTVP
 40
0.0
  9
$DIMTIX
 70
     0
  9
$DIMSOXD
 70
     0
  9
$DIMSAH
 70
     0
  9
$DIMBLK1
  1

  9
$DIMBLK2
  1

  9
$DIMSTYLE
  2
ISO-25
  9
$DIMCLRD
 70
     0
  9
$DIMCLRE
 70
     0
  9
$DIMCLRT
 70
     0
  9
$DIMTFAC
 40
1.0
  9
$DIMGAP
 40
0.625
  9
$LUNITS
 70
     2
  9
$LUPREC
 70
     4
  9
$SKETCHINC
 40
1.0
  9
$FILLETRAD
 40
10.0
  9
$AUNITS
 70
     0
  9
$AUPREC
 70
     0
  9
$MENU
  1
.
  9
$ELEVATION
 40
0.0
  9
$PELEVATION
 40
0.0
  9
$THICKNESS
 40
0.0
  9
$LIMCHECK
 70
     0
  9
$BLIPMODE
 70
     0
  9
$CHAMFERA
 40
10.0
  9
$CHAMFERB
 40
10.0
  9
$SKPOLY
 70
     0
  9
$TDCREATE
 40
2453446.4489481589
  9
$TDUPDATE
 40
2453551.9365875809
  9
$TDINDWG
 40
0.1663695486
  9
$TDUSRTIMER
 40
0.1663694329
  9
$USRTIMER
 70
     1
  9
$ANGBASE
 50
0.0
  9
$ANGDIR
 70
     0
  9
$PDMODE
 70
     0
  9
$PDSIZE
 40
0.0
  9
$PLINEWID
 40
0.0
  9
$COORDS
 70
     1
  9
$SPLFRAME
 70
     0
  9
$SPLINETYPE
 70
     6
  9
$SPLINESEGS
 70
     8
  9
$ATTDIA
 70
     0
  9
$ATTREQ
 70
     1
  9
$HANDLING
 70
-16383
  9
$HANDSEED
  5
1D7F
  9
$SURFTAB1
 70
     6
  9
$SURFTAB2
 70
     6
  9
$SURFTYPE
 70
     6
  9
$SURFU
 70
     6
  9
$SURFV
 70
     6
  9
$UCSNAME
  2

  9
$UCSORG
 10
0.0
 20
0.0
 30
0.0
  9
$UCSXDIR
 10
1.0
 20
0.0
 30
0.0
  9
$UCSYDIR
 10
0.0
 20
1.0
 30
0.0
  9
$PUCSNAME
  2

  9
$PUCSORG
 10
0.0
 20
0.0
 30
0.0
  9
$PUCSXDIR
 10
1.0
 20
0.0
 30
0.0
  9
$PUCSYDIR
 10
0.0
 20
1.0
 30
0.0
  9
$USERI1
 70
     0
  9
$USERI2
 70
     0
  9
$USERI3
 70
     0
  9
$USERI4
 70
     0
  9
$USERI5
 70
     0
  9
$USERR1
 40
0.0
  9
$USERR2
 40
0.0
  9
$USERR3
 40
0.0
  9
$USERR4
 40
0.0
  9
$USERR5
 40
0.0
  9
$WORLDVIEW
 70
     1
  9
$SHADEDGE
 70
     3
  9
$SHADEDIF
 70
    70
  9
$TILEMODE
 70
     1
  9
$MAXACTVP
 70
    64
  9
$PLIMCHECK
 70
     0
  9
$PEXTMIN
 10
1.0000000000000000E+020
 20
1.0000000000000000E+020
 30
1.0000000000000000E+020
  9
$PEXTMAX
 10
-1.0000000000000000E+020
 20
-1.0000000000000000E+020
 30
-1.0000000000000000E+020
  9
$PLIMMIN
 10
0.0
 20
0.0
  9
$PLIMMAX
 10
420.0
 20
297.0
  9
$UNITMODE
 70
     0
  9
$VISRETAIN
 70
     1
  9
$PLINEGEN
 70
     0
  9
$PSLTSCALE
 70
     1
  0
ENDSEC
  0
SECTION
  2
TABLES
  0
TABLE
  2
VPORT
 70
     2
  0
VPORT
  2
*ACTIVE
 70
     0
 10
0.0
 20
0.0
 11
1.0
 21
1.0
 12
122.6559405092613
 22
46.017779720821352
 13
0.0
 23
0.0
 14
10.0
 24
10.0
 15
10.0
 25
10.0
 16
0.0
 26
0.0
 36
1.0
 17
0.0
 27
0.0
 37
0.0
 40
215.8050339815874
 41
2.5392405063291141
 42
50.0
 43
0.0
 44
0.0
 50
0.0
 51
0.0
 71
     0
 72
   100
 73
     1
 74
     3
 75
     0
 76
     0
 77
     0
 78
     0
  0
ENDTAB
  0
TABLE
  2
LTYPE
 70
     3
  0
LTYPE
  2
CONTINUOUS
 70
     0
  3
Solid line
 72
    65
 73
     0
 40
0.0
  0
LTYPE
  2
DASHED
 70
     0
  3
Dashed __ __ __ __ __ __ __ __ __ __ __ __ __ _
 72
    65
 73
     2
 40
19.04999999999999
 49
12.699999999999999
 49
-6.3499999999999988
  0
LTYPE
  2
CENTER
 70
     0
  3
Center ____ _ ____ _ ____ _ ____ _ ____ _ ____
 72
    65
 73
     4
 40
50.799999999999997
 49
31.75
 49
-6.3499999999999988
 49
6.3499999999999988
 49
-6.3499999999999988
  0
ENDTAB
  0
TABLE
  2
LAYER
 70
     5
  0
LAYER
  2
0
 70
     0
 62
     7
  6
CONTINUOUS
  0
LAYER
  2
1
 70
     0
 62
     7
  6
CENTER
  0
LAYER
  2
2
 70
     0
 62
     7
  6
CONTINUOUS
  0
LAYER
  2
3
 70
     0
 62
     7
  6
DASHED
  0
LAYER
  2
DEFPOINTS
 70
     0
 62
     7
  6
CONTINUOUS
  0
ENDTAB
  0
TABLE
  2
STYLE
 70
     4
  0
STYLE
  2
STANDARD
 70
     0
 40
0.0
 41
1.0
 50
0.0
 71
     0
 42
2.5
  3
txt
  4

  0
STYLE
  2
\U+00C9L\U+00C9R_\U+00C2S\U+00C2V\U+00C2B\U+00C2N
 70
     0
 40
1.0
 41
1.0
 50
0.0
 71
     0
 42
1.0
  3
\U+00E9l\U+00E9r \U+00E2S\U+00E2V\U+00E2b\U+00E2N
  4

  0
STYLE
  2
SWIS721_CN_BT
 70
     0
 40
1.0
 41
1.0
 50
0.0
 71
     0
 42
1.0
  3
Swis721 Cn BT
  4

  0
STYLE
  2

 70
     1
 40
0.0
 41
1.0
 50
0.0
 71
     0
 42
2.5
  3
ltypeshp.shx
  4

  0
ENDTAB
  0
TABLE
  2
VIEW
 70
     0
  0
ENDTAB
  0
TABLE
  2
UCS
 70
     0
  0
ENDTAB
  0
TABLE
  2
APPID
 70
     1
  0
APPID
  2
ACAD
 70
     0
  0
ENDTAB
  0
TABLE
  2
DIMSTYLE
 70
     2
  0
DIMSTYLE
  2
ISO-25
 70
     0
  3

  4

  5

  6

  7

 40
1.0
 41
2.5
 42
0.625
 43
3.75
 44
1.25
 45
0.0
 46
0.0
 47
0.0
 48
0.0
140
2.5
141
2.5
142
0.0
143
0.03937007874016
144
1.0
145
0.0
146
1.0
147
0.625
 71
     0
 72
     0
 73
     0
 74
     0
 75
     0
 76
     0
 77
     1
 78
     8
170
     0
171
     3
172
     1
173
     0
174
     0
175
     0
176
     0
177
     0
178
     0
  0
DIMSTYLE
  2
STANDARD
 70
     0
  3

  4

  5

  6

  7

 40
1.0
 41
0.18
 42
0.0625
 43
0.38
 44
0.18
 45
0.0
 46
0.0
 47
0.0
 48
0.0
140
0.18
141
0.09
142
0.0
143
25.399999999999999
144
1.0
145
0.0
146
1.0
147
0.09
 71
     0
 72
     0
 73
     1
 74
     1
 75
     0
 76
     0
 77
     0
 78
     0
170
     0
171
     2
172
     0
173
     0
174
     0
175
     0
176
     0
177
     0
178
     0
  0
ENDTAB
  0
ENDSEC
  0
SECTION
  2
BLOCKS
  0
BLOCK
  8
0
  2
$MODEL_SPACE
 70
     0
 10
0.0
 20
0.0
 30
0.0
  3
$MODEL_SPACE
  1

  0
ENDBLK
  5
21
  8
0
  0
BLOCK
 67
     1
  8
0
  2
$PAPER_SPACE
 70
     0
 10
0.0
 20
0.0
 30
0.0
  3
$PAPER_SPACE
  1

  0
ENDBLK
  5
1D
 67
     1
  8
0
  0
BLOCK
  8
0
  2
*D1
 70
     1
 10
0.0
 20
0.0
 30
0.0
  3
*D1
  1

  0
LINE
  5
198A
  8
2
 62
     0
 10
92.446143363572105
 20
129.9322764382697
 30
0.0
 11
112.0242797068353
 21
129.9322764382697
 31
0.0
  0
LINE
  5
198B
  8
2
 62
     0
 10
93.224743363572188
 20
124.9322764382697
 30
0.0
 11
112.0242797068353
 21
124.9322764382697
 31
0.0
  0
LINE
  5
198C
  8
2
 62
     0
 10
110.7742797068353
 20
132.4322764382697
 30
0.0
 11
110.7742797068353
 21
134.9322764382697
 31
0.0
  0
LINE
  5
198D
  8
2
 62
     0
 10
110.7742797068353
 20
122.4322764382697
 30
0.0
 11
110.7742797068353
 21
119.9322764382697
 31
0.0
  0
LINE
  5
198E
  8
2
 62
     0
 10
110.7742797068353
 20
129.9322764382697
 30
0.0
 11
110.7742797068353
 21
124.9322764382697
 31
0.0
  0
SOLID
  5
198F
  8
2
 62
     0
 10
110.3576130401687
 20
132.4322764382697
 30
0.0
 11
111.190946373502
 21
132.4322764382697
 31
0.0
 12
110.7742797068353
 22
129.9322764382697
 32
0.0
 13
110.7742797068353
 23
129.9322764382697
 33
0.0
  0
SOLID
  5
1990
  8
2
 62
     0
 10
110.3576130401687
 20
122.4322764382697
 30
0.0
 11
111.190946373502
 21
122.4322764382697
 31
0.0
 12
110.7742797068353
 22
124.9322764382697
 32
0.0
 13
110.7742797068353
 23
124.9322764382697
 33
0.0
  0
TEXT
  5
1991
  8
2
 62
     0
 10
110.1492797068353
 20
126.5989431049364
 30
0.0
 40
2.5
  1
5
 50
90.0
  0
POINT
  5
1992
  8
DEFPOINTS
 62
     0
 10
91.821143363572105
 20
129.9322764382697
 30
0.0
  0
POINT
  5
1993
  8
DEFPOINTS
 62
     0
 10
92.599743363572188
 20
124.9322764382697
 30
0.0
  0
POINT
  5
1994
  8
DEFPOINTS
 62
     0
 10
110.7742797068353
 20
124.9322764382697
 30
0.0
  0
ENDBLK
  5
1996
  8
0
  0
BLOCK
  8
0
  2
*D2
 70
     1
 10
0.0
 20
0.0
 30
0.0
  3
*D2
  1

  0
LINE
  5
1BE7
  8
2
 62
     0
 10
110.1492797068353
 20
124.9322764382697
 30
0.0
 11
109.5242797068353
 21
124.9322764382697
 31
0.0
  0
LINE
  5
1BE8
  8
2
 62
     0
 10
93.224743363572188
 20
66.932276438269753
 30
0.0
 11
112.0242797068353
 21
66.932276438269739
 31
0.0
  0
LINE
  5
1BE9
  8
2
 62
     0
 10
110.7742797068353
 20
122.4322764382697
 30
0.0
 11
110.7742797068353
 21
69.432276438269739
 31
0.0
  0
SOLID
  5
1BEA
  8
2
 62
     0
 10
110.3576130401687
 20
122.4322764382697
 30
0.0
 11
111.190946373502
 21
122.4322764382697
 31
0.0
 12
110.7742797068353
 22
124.9322764382697
 32
0.0
 13
110.7742797068353
 23
124.9322764382697
 33
0.0
  0
SOLID
  5
1BEB
  8
2
 62
     0
 10
110.3576130401687
 20
69.432276438269739
 30
0.0
 11
111.190946373502
 21
69.432276438269739
 31
0.0
 12
110.7742797068353
 22
66.932276438269739
 32
0.0
 13
110.7742797068353
 23
66.932276438269739
 33
0.0
  0
TEXT
  5
1BEC
  8
2
 62
     0
 10
110.1492797068353
 20
93.848943104936438
 30
0.0
 40
2.5
  1
58
 50
90.0
  0
POINT
  5
1BED
  8
DEFPOINTS
 62
     0
 10
110.7742797068353
 20
124.9322764382697
 30
0.0
  0
POINT
  5
1BEE
  8
DEFPOINTS
 62
     0
 10
92.599743363572188
 20
66.932276438269753
 30
0.0
  0
POINT
  5
1BEF
  8
DEFPOINTS
 62
     0
 10
110.7742797068353
 20
66.932276438269739
 30
0.0
  0
ENDBLK
  5
19A3
  8
0
  0
BLOCK
  8
0
  2
*D3
 70
     1
 10
0.0
 20
0.0
 30
0.0
  3
*D3
  1

  0
LINE
  5
1C62
  8
2
 62
     0
 10
110.1492797068353
 20
66.932276438269739
 30
0.0
 11
109.5242797068353
 21
66.932276438269739
 31
0.0
  0
LINE
  5
1C63
  8
2
 62
     0
 10
95.056843363572213
 20
36.932276438269753
 30
0.0
 11
112.0242797068353
 21
36.932276438269739
 31
0.0
  0
LINE
  5
1C64
  8
2
 62
     0
 10
110.7742797068353
 20
64.432276438269739
 30
0.0
 11
110.7742797068353
 21
39.432276438269753
 31
0.0
  0
SOLID
  5
1C65
  8
2
 62
     0
 10
110.3576130401687
 20
64.432276438269739
 30
0.0
 11
111.190946373502
 21
64.432276438269739
 31
0.0
 12
110.7742797068353
 22
66.932276438269739
 32
0.0
 13
110.7742797068353
 23
66.932276438269739
 33
0.0
  0
SOLID
  5
1C66
  8
2
 62
     0
 10
110.3576130401687
 20
39.432276438269753
 30
0.0
 11
111.190946373502
 21
39.432276438269753
 31
0.0
 12
110.7742797068353
 22
36.932276438269753
 32
0.0
 13
110.7742797068353
 23
36.932276438269753
 33
0.0
  0
TEXT
  5
1C67
  8
2
 62
     0
 10
110.1492797068353
 20
50.057276438269753
 30
0.0
 40
2.5
  1
30
 50
90.0
  0
POINT
  5
1C68
  8
DEFPOINTS
 62
     0
 10
110.7742797068353
 20
66.932276438269739
 30
0.0
  0
POINT
  5
1C69
  8
DEFPOINTS
 62
     0
 10
94.431843363572213
 20
36.932276438269753
 30
0.0
  0
POINT
  5
1C6A
  8
DEFPOINTS
 62
     0
 10
110.7742797068353
 20
36.932276438269753
 30
0.0
  0
ENDBLK
  5
19B2
  8
0
  0
BLOCK
  8
0
  2
*D4
 70
     1
 10
0.0
 20
0.0
 30
0.0
  3
*D4
  1

  0
LINE
  5
1CA5
  8
2
 62
     0
 10
111.3992797068353
 20
36.932276438269739
 30
0.0
 11
112.0242797068353
 21
36.932276438269731
 31
0.0
  0
LINE
  5
1CA6
  8
2
 62
     0
 10
95.056843363572213
 20
19.931376438269751
 30
0.0
 11
112.0242797068353
 21
19.931376438269741
 31
0.0
  0
LINE
  5
1CA7
  8
2
 62
     0
 10
110.7742797068353
 20
34.432276438269739
 30
0.0
 11
110.7742797068353
 21
22.431376438269741
 31
0.0
  0
SOLID
  5
1CA8
  8
2
 62
     0
 10
110.3576130401687
 20
34.432276438269739
 30
0.0
 11
111.190946373502
 21
34.432276438269739
 31
0.0
 12
110.7742797068353
 22
36.932276438269739
 32
0.0
 13
110.7742797068353
 23
36.932276438269739
 33
0.0
  0
SOLID
  5
1CA9
  8
2
 62
     0
 10
110.3576130401687
 20
22.431376438269741
 30
0.0
 11
111.190946373502
 21
22.431376438269741
 31
0.0
 12
110.7742797068353
 22
19.931376438269741
 32
0.0
 13
110.7742797068353
 23
19.931376438269741
 33
0.0
  0
TEXT
  5
1CAA
  8
2
 62
     0
 10
110.1492797068353
 20
26.765159771603091
 30
0.0
 40
2.5
  1
17
 50
90.0
  0
POINT
  5
1CAB
  8
DEFPOINTS
 62
     0
 10
110.7742797068353
 20
36.932276438269739
 30
0.0
  0
POINT
  5
1CAC
  8
DEFPOINTS
 62
     0
 10
94.431843363572213
 20
19.931376438269751
 30
0.0
  0
POINT
  5
1CAD
  8
DEFPOINTS
 62
     0
 10
110.7742797068353
 20
19.931376438269741
 30
0.0
  0
ENDBLK
  5
19C0
  8
0
  0
BLOCK
  8
0
  2
*D5
 70
     1
 10
0.0
 20
0.0
 30
0.0
  3
*D5
  1

  0
LINE
  5
1C59
  8
2
 62
     0
 10
111.3992797068353
 20
129.9322764382697
 30
0.0
 11
119.50037435568331
 21
129.9322764382697
 31
0.0
  0
LINE
  5
1C5A
  8
2
 62
     0
 10
110.7742797068353
 20
19.93137643826973
 30
0.0
 11
119.50037435568331
 21
19.93137643826973
 31
0.0
  0
LINE
  5
1C5B
  8
2
 62
     0
 10
118.25037435568331
 20
127.4322764382697
 30
0.0
 11
118.25037435568331
 21
22.43137643826973
 31
0.0
  0
SOLID
  5
1C5C
  8
2
 62
     0
 10
117.83370768901661
 20
127.4322764382697
 30
0.0
 11
118.66704102235001
 21
127.4322764382697
 31
0.0
 12
118.25037435568331
 22
129.9322764382697
 32
0.0
 13
118.25037435568331
 23
129.9322764382697
 33
0.0
  0
SOLID
  5
1C5D
  8
2
 62
     0
 10
117.83370768901661
 20
22.43137643826973
 30
0.0
 11
118.66704102235001
 21
22.43137643826973
 31
0.0
 12
118.25037435568331
 22
19.93137643826973
 32
0.0
 13
118.25037435568331
 23
19.93137643826973
 33
0.0
  0
TEXT
  5
1C5E
  8
2
 62
     0
 10
117.62537435568331
 20
70.973493104936438
 30
0.0
 40
2.5
  1
(110)
 50
90.0
  0
POINT
  5
1C5F
  8
DEFPOINTS
 62
     0
 10
110.7742797068353
 20
129.9322764382697
 30
0.0
  0
POINT
  5
1C60
  8
DEFPOINTS
 62
     0
 10
110.1492797068353
 20
19.93137643826973
 30
0.0
  0
POINT
  5
1C61
  8
DEFPOINTS
 62
     0
 10
118.25037435568331
 20
19.93137643826973
 30
0.0
  0
ENDBLK
  5
19DB
  8
0
  0
BLOCK
  8
0
  2
*D6
 70
     1
 10
0.0
 20
0.0
 30
0.0
  3
*D6
  1

  0
LINE
  5
1C47
  8
2
 62
     0
 10
118.87537435568331
 20
129.9322764382697
 30
0.0
 11
126.28905191509661
 21
129.9322764382697
 31
0.0
  0
LINE
  5
1C48
  8
2
 62
     0
 10
90.414810806325178
 20
11.532276438269751
 30
0.0
 11
126.28905191509661
 21
11.53227643826974
 31
0.0
  0
LINE
  5
1C49
  8
2
 62
     0
 10
125.03905191509661
 20
127.4322764382697
 30
0.0
 11
125.03905191509649
 21
14.03227643826974
 31
0.0
  0
SOLID
  5
1C4A
  8
2
 62
     0
 10
124.62238524842989
 20
127.4322764382697
 30
0.0
 11
125.45571858176319
 21
127.4322764382697
 31
0.0
 12
125.03905191509661
 22
129.9322764382697
 32
0.0
 13
125.03905191509661
 23
129.9322764382697
 33
0.0
  0
SOLID
  5
1C4B
  8
2
 62
     0
 10
124.62238524842989
 20
14.03227643826974
 30
0.0
 11
125.45571858176319
 21
14.03227643826974
 31
0.0
 12
125.03905191509649
 22
11.53227643826974
 32
0.0
 13
125.03905191509649
 23
11.53227643826974
 33
0.0
  0
TEXT
  5
1C4C
  8
2
 62
     0
 10
124.41405191509661
 20
64.89894310493645
 30
0.0
 40
2.5
  1
(118.4)
 50
90.0
  0
POINT
  5
1C4D
  8
DEFPOINTS
 62
     0
 10
118.25037435568331
 20
129.9322764382697
 30
0.0
  0
POINT
  5
1C4E
  8
DEFPOINTS
 62
     0
 10
89.789810806325178
 20
11.532276438269751
 30
0.0
  0
POINT
  5
1C4F
  8
DEFPOINTS
 62
     0
 10
125.03905191509649
 20
11.53227643826974
 30
0.0
  0
ENDBLK
  5
19E8
  8
0
  0
BLOCK
  8
0
  2
*D7
 70
     1
 10
0.0
 20
0.0
 30
0.0
  3
*D7
  1

  0
LINE
  5
1C88
  8
2
 62
     0
 10
117.62537435568331
 20
19.93137643826973
 30
0.0
 11
117.00037435568331
 21
19.93137643826973
 31
0.0
  0
LINE
  5
1C89
  8
2
 62
     0
 10
90.414810806325178
 20
11.532276438269751
 30
0.0
 11
119.50037435568331
 21
11.53227643826974
 31
0.0
  0
LINE
  5
1C8A
  8
2
 62
     0
 10
118.25037435568331
 20
17.43137643826973
 30
0.0
 11
118.25037435568331
 21
14.03227643826974
 31
0.0
  0
SOLID
  5
1C8B
  8
2
 62
     0
 10
117.83370768901661
 20
17.43137643826973
 30
0.0
 11
118.66704102235001
 21
17.43137643826973
 31
0.0
 12
118.25037435568331
 22
19.93137643826973
 32
0.0
 13
118.25037435568331
 23
19.93137643826973
 33
0.0
  0
SOLID
  5
1C8C
  8
2
 62
     0
 10
117.83370768901661
 20
14.03227643826974
 30
0.0
 11
118.66704102235001
 21
14.03227643826974
 31
0.0
 12
118.25037435568331
 22
11.53227643826974
 32
0.0
 13
118.25037435568331
 23
11.53227643826974
 33
0.0
  0
TEXT
  5
1C8D
  8
2
 62
     0
 10
117.62537435568331
 20
13.23182643826976
 30
0.0
 40
2.5
  1
8.4
 50
90.0
  0
POINT
  5
1C8E
  8
DEFPOINTS
 62
     0
 10
118.25037435568331
 20
19.93137643826973
 30
0.0
  0
POINT
  5
1C8F
  8
DEFPOINTS
 62
     0
 10
89.789810806325178
 20
11.532276438269751
 30
0.0
  0
POINT
  5
1C90
  8
DEFPOINTS
 62
     0
 10
118.25037435568331
 20
11.53227643826974
 30
0.0
  0
ENDBLK
  5
1A27
  8
0
  0
BLOCK
  8
0
  2
*D8
 70
     1
 10
0.0
 20
0.0
 30
0.0
  3
*D8
  1

  0
LINE
  5
1C91
  8
2
 62
     0
 10
90.414810806325178
 20
11.532276438269751
 30
0.0
 11
112.055080361725
 21
11.53227643826974
 31
0.0
  0
LINE
  5
1C92
  8
2
 62
     0
 10
91.474743363572173
 20
13.13227643826975
 30
0.0
 11
112.055080361725
 21
13.13227643826974
 31
0.0
  0
LINE
  5
1C93
  8
2
 62
     0
 10
110.805080361725
 20
15.63227643826975
 30
0.0
 11
110.805080361725
 21
18.132276438269749
 31
0.0
  0
LINE
  5
1C94
  8
2
 62
     0
 10
110.805080361725
 20
9.0322764382697471
 30
0.0
 11
110.805080361725
 21
0.1937557579448337
 31
0.0
  0
LINE
  5
1C95
  8
2
 62
     0
 10
110.805080361725
 20
13.13227643826974
 30
0.0
 11
110.805080361725
 21
11.53227643826974
 31
0.0
  0
SOLID
  5
1C96
  8
2
 62
     0
 10
110.3884136950583
 20
15.63227643826975
 30
0.0
 11
111.2217470283916
 21
15.63227643826975
 31
0.0
 12
110.805080361725
 22
13.13227643826974
 32
0.0
 13
110.805080361725
 23
13.13227643826974
 33
0.0
  0
SOLID
  5
1C97
  8
2
 62
     0
 10
110.3884136950583
 20
9.0322764382697471
 30
0.0
 11
111.2217470283916
 21
9.0322764382697471
 31
0.0
 12
110.805080361725
 22
11.53227643826974
 32
0.0
 13
110.805080361725
 23
11.53227643826974
 33
0.0
  0
TEXT
  5
1C98
  8
2
 62
     0
 10
110.1800803617249
 20
0.8187557579448521
 30
0.0
 40
2.5
  1
1.6
 50
90.0
  0
POINT
  5
1C99
  8
DEFPOINTS
 62
     0
 10
89.789810806325178
 20
11.532276438269751
 30
0.0
  0
POINT
  5
1C9A
  8
DEFPOINTS
 62
     0
 10
90.849743363572173
 20
13.13227643826975
 30
0.0
  0
POINT
  5
1C9B
  8
DEFPOINTS
 62
     0
 10
110.805080361725
 20
13.13227643826974
 30
0.0
  0
ENDBLK
  5
1A36
  8
0
  0
BLOCK
  8
0
  2
*D9
 70
     1
 10
0.0
 20
0.0
 30
0.0
  3
*D9
  1

  0
LINE
  5
1C9C
  8
2
 62
     0
 10
80.349743363572188
 20
11.68118759089443
 30
0.0
 11
80.349743363572188
 21
1.635600624554342
 31
0.0
  0
LINE
  5
1C9D
  8
2
 62
     0
 10
90.849743363572173
 20
11.68118759089443
 30
0.0
 11
90.849743363572173
 21
1.635600624554342
 31
0.0
  0
LINE
  5
1C9E
  8
2
 62
     0
 10
82.849743363572188
 20
2.8856006245543422
 30
0.0
 11
88.349743363572173
 21
2.8856006245543422
 31
0.0
  0
SOLID
  5
1C9F
  8
2
 62
     0
 10
82.849743363572188
 20
3.3022672912210091
 30
0.0
 11
82.849743363572188
 21
2.4689339578876761
 31
0.0
 12
80.349743363572188
 22
2.8856006245543422
 32
0.0
 13
80.349743363572188
 23
2.8856006245543422
 33
0.0
  0
SOLID
  5
1CA0
  8
2
 62
     0
 10
88.349743363572173
 20
3.3022672912210091
 30
0.0
 11
88.349743363572173
 21
2.4689339578876761
 31
0.0
 12
90.849743363572173
 22
2.8856006245543422
 32
0.0
 13
90.849743363572173
 23
2.8856006245543422
 33
0.0
  0
INSERT
  5
1CA1
  8
2
  2
*U16
 10
0.0
 20
0.0
 30
0.0
  0
POINT
  5
1CA2
  8
DEFPOINTS
 62
     0
 10
80.349743363572188
 20
12.30618759089443
 30
0.0
  0
POINT
  5
1CA3
  8
DEFPOINTS
 62
     0
 10
90.849743363572173
 20
12.30618759089443
 30
0.0
  0
POINT
  5
1CA4
  8
DEFPOINTS
 62
     0
 10
90.849743363572173
 20
2.8856006245543422
 30
0.0
  0
ENDBLK
  5
1A70
  8
0
  0
BLOCK
  8
0
  2
*D10
 70
     1
 10
0.0
 20
0.0
 30
0.0
  3
*D10
  1

  0
LINE
  5
1C74
  8
2
 62
     0
 10
46.398043363572178
 20
24.634176438269751
 30
0.0
 11
46.398043363572178
 21
12.551077374245599
 31
0.0
  0
LINE
  5
1C75
  8
2
 62
     0
 10
58.398043363572178
 20
21.926276438269749
 30
0.0
 11
58.398043363572178
 21
12.551077374245599
 31
0.0
  0
LINE
  5
1C76
  8
2
 62
     0
 10
48.898043363572192
 20
13.801077374245599
 30
0.0
 11
55.898043363572178
 21
13.801077374245599
 31
0.0
  0
SOLID
  5
1C77
  8
2
 62
     0
 10
48.898043363572192
 20
14.217744040912271
 30
0.0
 11
48.898043363572192
 21
13.38441070757894
 31
0.0
 12
46.398043363572178
 22
13.801077374245599
 32
0.0
 13
46.398043363572178
 23
13.801077374245599
 33
0.0
  0
SOLID
  5
1C78
  8
2
 62
     0
 10
55.898043363572178
 20
14.217744040912271
 30
0.0
 11
55.898043363572178
 21
13.38441070757894
 31
0.0
 12
58.398043363572178
 22
13.801077374245599
 32
0.0
 13
58.398043363572178
 23
13.801077374245599
 33
0.0
  0
TEXT
  5
1C79
  8
2
 62
     0
 10
50.731376696905521
 20
14.426077374245599
 30
0.0
 40
2.5
  1
12
  0
POINT
  5
1C7A
  8
DEFPOINTS
 62
     0
 10
46.398043363572178
 20
25.259176438269751
 30
0.0
  0
POINT
  5
1C7B
  8
DEFPOINTS
 62
     0
 10
58.398043363572178
 20
22.551276438269749
 30
0.0
  0
POINT
  5
1C7C
  8
DEFPOINTS
 62
     0
 10
58.398043363572178
 20
13.801077374245599
 30
0.0
  0
ENDBLK
  5
1A8A
  8
0
  0
BLOCK
  8
0
  2
*D11
 70
     1
 10
0.0
 20
0.0
 30
0.0
  3
*D11
  1

  0
LINE
  5
1C6B
  8
2
 62
     0
 10
46.398043363572178
 20
24.634176438269751
 30
0.0
 11
46.398043363572178
 21
7.5260941027848949
 31
0.0
  0
LINE
  5
1C6C
  8
2
 62
     0
 10
62.398043363572178
 20
24.39067643826975
 30
0.0
 11
62.398043363572178
 21
7.5260941027848949
 31
0.0
  0
LINE
  5
1C6D
  8
2
 62
     0
 10
48.898043363572192
 20
8.7760941027848958
 30
0.0
 11
59.898043363572178
 21
8.7760941027848958
 31
0.0
  0
SOLID
  5
1C6E
  8
2
 62
     0
 10
48.898043363572192
 20
9.1927607694515618
 30
0.0
 11
48.898043363572192
 21
8.3594274361182297
 31
0.0
 12
46.398043363572178
 22
8.7760941027848958
 32
0.0
 13
46.398043363572178
 23
8.7760941027848958
 33
0.0
  0
SOLID
  5
1C6F
  8
2
 62
     0
 10
59.898043363572178
 20
9.1927607694515618
 30
0.0
 11
59.898043363572178
 21
8.3594274361182297
 31
0.0
 12
62.398043363572178
 22
8.7760941027848958
 32
0.0
 13
62.398043363572178
 23
8.7760941027848958
 33
0.0
  0
TEXT
  5
1C70
  8
2
 62
     0
 10
52.731376696905521
 20
9.4010941027848958
 30
0.0
 40
2.5
  1
16
  0
POINT
  5
1C71
  8
DEFPOINTS
 62
     0
 10
46.398043363572178
 20
25.259176438269751
 30
0.0
  0
POINT
  5
1C72
  8
DEFPOINTS
 62
     0
 10
62.398043363572178
 20
25.01567643826975
 30
0.0
  0
POINT
  5
1C73
  8
DEFPOINTS
 62
     0
 10
62.398043363572178
 20
8.7760941027848958
 30
0.0
  0
ENDBLK
  5
1A97
  8
0
  0
BLOCK
  8
0
  2
*D12
 70
     1
 10
0.0
 20
0.0
 30
0.0
  3
*D12
  1

  0
LINE
  5
1C7D
  8
2
 62
     0
 10
48.195943363572191
 20
24.432276438269749
 30
0.0
 11
36.868631979195349
 21
24.432276438269749
 31
0.0
  0
LINE
  5
1C7E
  8
2
 62
     0
 10
48.195943363572191
 20
29.432276438269749
 30
0.0
 11
36.868631979195349
 21
29.432276438269749
 31
0.0
  0
LINE
  5
1C7F
  8
2
 62
     0
 10
38.118631979195349
 20
21.932276438269749
 30
0.0
 11
38.118631979195349
 21
19.432276438269749
 31
0.0
  0
LINE
  5
1C80
  8
2
 62
     0
 10
38.118631979195349
 20
31.932276438269749
 30
0.0
 11
38.118631979195349
 21
39.848943104936417
 31
0.0
  0
LINE
  5
1C81
  8
2
 62
     0
 10
38.118631979195349
 20
24.432276438269749
 30
0.0
 11
38.118631979195349
 21
29.432276438269749
 31
0.0
  0
SOLID
  5
1C82
  8
2
 62
     0
 10
37.701965312528692
 20
21.932276438269749
 30
0.0
 11
38.535298645862021
 21
21.932276438269749
 31
0.0
 12
38.118631979195349
 22
24.432276438269749
 32
0.0
 13
38.118631979195349
 23
24.432276438269749
 33
0.0
  0
SOLID
  5
1C83
  8
2
 62
     0
 10
37.701965312528692
 20
31.932276438269749
 30
0.0
 11
38.535298645862021
 21
31.932276438269749
 31
0.0
 12
38.118631979195349
 22
29.432276438269749
 32
0.0
 13
38.118631979195349
 23
29.432276438269749
 33
0.0
  0
INSERT
  5
1C84
  8
2
  2
*U15
 10
0.0
 20
0.0
 30
0.0
  0
POINT
  5
1C85
  8
DEFPOINTS
 62
     0
 10
48.820943363572191
 20
24.432276438269749
 30
0.0
  0
POINT
  5
1C86
  8
DEFPOINTS
 62
     0
 10
48.820943363572191
 20
29.432276438269749
 30
0.0
  0
POINT
  5
1C87
  8
DEFPOINTS
 62
     0
 10
38.118631979195349
 20
29.432276438269749
 30
0.0
  0
ENDBLK
  5
1AA6
  8
0
  0
BLOCK
  8
0
  2
*D13
 70
     1
 10
0.0
 20
0.0
 30
0.0
  3
*D13
  1

  0
LINE
  5
1C50
  8
2
 62
     0
 10
77.974743363572173
 20
66.932276438269753
 30
0.0
 11
59.359206259052151
 21
66.932276438269753
 31
0.0
  0
LINE
  5
1C51
  8
2
 62
     0
 10
79.913743363572195
 20
36.932276438269753
 30
0.0
 11
59.359206259052151
 21
36.932276438269753
 31
0.0
  0
LINE
  5
1C52
  8
2
 62
     0
 10
60.609206259052151
 20
64.432276438269753
 30
0.0
 11
60.609206259052151
 21
39.432276438269753
 31
0.0
  0
SOLID
  5
1C53
  8
2
 62
     0
 10
60.192539592385486
 20
64.432276438269753
 30
0.0
 11
61.025872925718822
 21
64.432276438269753
 31
0.0
 12
60.609206259052151
 22
66.932276438269753
 32
0.0
 13
60.609206259052151
 23
66.932276438269753
 33
0.0
  0
SOLID
  5
1C54
  8
2
 62
     0
 10
60.192539592385479
 20
39.432276438269753
 30
0.0
 11
61.025872925718808
 21
39.432276438269753
 31
0.0
 12
60.609206259052151
 22
36.932276438269753
 32
0.0
 13
60.609206259052151
 23
36.932276438269753
 33
0.0
  0
TEXT
  5
1C55
  8
2
 62
     0
 10
59.984206259052137
 20
50.057276438269753
 30
0.0
 40
2.5
  1
30
 50
90.0
  0
POINT
  5
1C56
  8
DEFPOINTS
 62
     0
 10
78.599743363572173
 20
66.932276438269753
 30
0.0
  0
POINT
  5
1C57
  8
DEFPOINTS
 62
     0
 10
80.538743363572195
 20
36.932276438269753
 30
0.0
  0
POINT
  5
1C58
  8
DEFPOINTS
 62
     0
 10
60.609206259052151
 20
36.932276438269753
 30
0.0
  0
ENDBLK
  5
1AD5
  8
0
  0
BLOCK
  8
0
  2
A$C32DE6D7A
 70
     0
 10
0.0
 20
0.0
 30
0.0
  3
A$C32DE6D7A
  1

  0
CIRCLE
  5
1CC4
  8
0
 10
0.4999993088223392
 20
0.7500003671195259
 30
0.0
 40
0.5
  0
LINE
  5
1CC5
  8
1
 10
0.4999993088223392
 20
1.250000367119525
 30
0.0
 11
0.4999993088223392
 21
1.250000367119525
 31
0.0
  0
LINE
  5
1CC6
  8
1
 10
0.7559591792397243
 20
1.179517007933256
 30
0.0
 11
1.057199308822333
 21
1.000000367119525
 31
0.0
  0
LINE
  5
1CC7
  8
1
 10
0.3205180103277883
 20
0.2833243944246533
 30
0.0
 11
1.057199308822333
 21
0.0000003671195259
 31
0.0
  0
ENDBLK
  5
1CC9
  8
0
  0
BLOCK
  8
0
  2
*U15
 70
     1
 10
0.0
 20
0.0
 30
0.0
  3
*U15
  1

  0
TEXT
  5
1D58
  8
2
 62
     0
 10
37.493631979195349
 20
35.057276438269753
 30
0.0
 40
2.5
  1
\U+2205
 50
90.0
  0
TEXT
  5
1D59
  8
2
 62
     0
 10
37.493631979195349
 20
37.557276438269753
 30
0.0
 40
2.5
  1
5
 50
90.0
  0
ENDBLK
  5
1D5B
  8
0
  0
BLOCK
  8
0
  2
*U16
 70
     1
 10
0.0
 20
0.0
 30
0.0
  3
*U16
  1

  0
TEXT
  5
1D5D
  8
2
 62
     0
 10
81.224743363572188
 20
3.5106006245543422
 30
0.0
 40
2.5
  1
\U+2205
  0
TEXT
  5
1D5E
  8
2
 62
     0
 10
83.724743363572188
 20
3.5106006245543422
 30
0.0
 40
2.5
  1
10.5
  0
ENDBLK
  5
1D60
  8
0
  0
ENDSEC
  0
SECTION
  2
ENTITIES
  0
TEXT
  5
ABE
  8
2
 10
76.641114278618488
 20
-12.90385090217319
 30
0.0
 40
2.5399440000000002
  1
50.334
 51
-0.0000015352344868
  7
\U+00C9L\U+00C9R_\U+00C2S\U+00C2V\U+00C2B\U+00C2N
  0
LINE
  5
AE5
  8
0
 39
5.0
 10
85.599743363572188
 20
152.22897643826971
 30
0.0
 11
88.032943363572187
 21
152.22897643826971
 31
0.0
  0
LINE
  5
B17
  8
1
 10
85.599743363572188
 20
10.53227643826974
 30
0.0
 11
85.599743363572188
 21
153.22897643826971
 31
0.0
  0
LINE
  5
B25
  8
2
 10
83.34254336357219
 20
148.90697643826971
 30
0.0
 11
83.34254336357219
 21
145.07661076752569
 31
0.0
  0
LINE
  5
B27
  8
0
 39
5.0
 10
84.139943363572186
 20
144.6078764382697
 30
0.0
 11
85.599743363572188
 21
144.6078764382697
 31
0.0
  0
LINE
  5
B28
  8
0
 39
5.0
 10
83.099743363572188
 20
145.21933549180889
 30
0.0
 11
84.139943363572115
 21
144.6078764382697
 31
0.0
  0
LINE
  5
B2B
  8
0
 39
5.0
 10
83.166543363572188
 20
148.90697643826971
 30
0.0
 11
85.599743363572188
 21
148.90697643826971
 31
0.0
  0
LINE
  5
B2C
  8
0
 39
5.0
 10
83.096943363572194
 20
148.91037643826971
 30
0.0
 11
83.166543363572188
 21
148.90697643826971
 31
0.0
  0
LINE
  5
B2D
  8
0
 39
5.0
 10
83.029543363572188
 20
148.92077643826971
 30
0.0
 11
83.096943363572194
 21
148.91037643826971
 31
0.0
  0
LINE
  5
B2E
  8
0
 39
5.0
 10
82.964243363572194
 20
148.9375764382697
 30
0.0
 11
83.029543363572188
 21
148.92077643826971
 31
0.0
  0
LINE
  5
B2F
  8
0
 39
5.0
 10
82.901843363572183
 20
148.9606764382697
 30
0.0
 11
82.964243363572194
 21
148.9375764382697
 31
0.0
  0
LINE
  5
B30
  8
0
 39
5.0
 10
82.842243363572166
 20
148.98937643826969
 30
0.0
 11
82.901843363572183
 21
148.9606764382697
 31
0.0
  0
LINE
  5
B31
  8
0
 39
5.0
 10
82.78604336357219
 20
149.02357643826971
 30
0.0
 11
82.842243363572166
 21
148.98937643826969
 31
0.0
  0
LINE
  5
B32
  8
0
 39
5.0
 10
82.733543363572181
 20
149.06287643826971
 30
0.0
 11
82.78604336357219
 21
149.02357643826971
 31
0.0
  0
LINE
  5
B33
  8
0
 39
5.0
 10
82.685243363572184
 20
149.1069764382697
 30
0.0
 11
82.733543363572181
 21
149.06287643826971
 31
0.0
  0
LINE
  5
B34
  8
0
 39
5.0
 10
82.641143363572183
 20
149.15527643826971
 30
0.0
 11
82.685243363572184
 21
149.1069764382697
 31
0.0
  0
LINE
  5
B35
  8
0
 39
5.0
 10
82.601843363572186
 20
149.20777643826969
 30
0.0
 11
82.641143363572183
 21
149.15527643826971
 31
0.0
  0
LINE
  5
B36
  8
0
 39
5.0
 10
82.567643363572188
 20
149.26397643826971
 30
0.0
 11
82.601843363572186
 21
149.20777643826969
 31
0.0
  0
LINE
  5
B37
  8
0
 39
5.0
 10
82.538943363572173
 20
149.3235764382697
 30
0.0
 11
82.567643363572188
 21
149.26397643826971
 31
0.0
  0
LINE
  5
B38
  8
0
 39
5.0
 10
82.515843363572174
 20
149.38597643826969
 30
0.0
 11
82.538943363572173
 21
149.3235764382697
 31
0.0
  0
LINE
  5
B39
  8
0
 39
5.0
 10
82.499043363572184
 20
149.4512764382697
 30
0.0
 11
82.515843363572174
 21
149.38597643826969
 31
0.0
  0
LINE
  5
B3A
  8
0
 39
5.0
 10
82.48864336357218
 20
149.51867643826969
 30
0.0
 11
82.499043363572184
 21
149.4512764382697
 31
0.0
  0
LINE
  5
B3B
  8
0
 39
5.0
 10
82.485243363572195
 20
149.5882764382697
 30
0.0
 11
82.48864336357218
 21
149.51867643826969
 31
0.0
  0
LINE
  5
B3C
  8
0
 39
5.0
 10
82.485243363572195
 20
149.5882764382697
 30
0.0
 11
82.485243363572195
 21
149.5882764382697
 31
0.0
  0
LINE
  5
B3D
  8
0
 39
5.0
 10
82.485243363572195
 20
151.54767643826969
 30
0.0
 11
82.485243363572195
 21
149.5882764382697
 31
0.0
  0
LINE
  5
B3E
  8
0
 39
5.0
 10
82.48864336357218
 20
151.61697643826969
 30
0.0
 11
82.485243363572195
 21
151.54767643826969
 31
0.0
  0
LINE
  5
B3F
  8
0
 39
5.0
 10
82.499043363572184
 20
151.68447643826971
 30
0.0
 11
82.48864336357218
 21
151.61697643826969
 31
0.0
  0
LINE
  5
B40
  8
0
 39
5.0
 10
82.515843363572174
 20
151.74957643826971
 30
0.0
 11
82.499043363572184
 21
151.68447643826971
 31
0.0
  0
LINE
  5
B41
  8
0
 39
5.0
 10
82.538943363572173
 20
151.81217643826969
 30
0.0
 11
82.515843363572174
 21
151.74957643826971
 31
0.0
  0
LINE
  5
B42
  8
0
 39
5.0
 10
82.567643363572188
 20
151.8715764382697
 30
0.0
 11
82.538943363572173
 21
151.81217643826969
 31
0.0
  0
LINE
  5
B43
  8
0
 39
5.0
 10
82.601843363572186
 20
151.92777643826969
 30
0.0
 11
82.567643363572188
 21
151.8715764382697
 31
0.0
  0
LINE
  5
B44
  8
0
 39
5.0
 10
82.641143363572183
 20
151.98017643826969
 30
0.0
 11
82.601843363572186
 21
151.92777643826969
 31
0.0
  0
LINE
  5
B45
  8
0
 39
5.0
 10
82.685243363572184
 20
152.02877643826969
 30
0.0
 11
82.641143363572183
 21
151.98017643826969
 31
0.0
  0
LINE
  5
B46
  8
0
 39
5.0
 10
82.733543363572181
 20
152.0726764382697
 30
0.0
 11
82.685243363572184
 21
152.02877643826969
 31
0.0
  0
LINE
  5
B47
  8
0
 39
5.0
 10
82.78604336357219
 20
152.11197643826969
 30
0.0
 11
82.733543363572181
 21
152.0726764382697
 31
0.0
  0
LINE
  5
B48
  8
0
 39
5.0
 10
82.842243363572166
 20
152.14617643826969
 30
0.0
 11
82.78604336357219
 21
152.11197643826969
 31
0.0
  0
LINE
  5
B49
  8
0
 39
5.0
 10
82.901843363572183
 20
152.17507643826971
 30
0.0
 11
82.842243363572166
 21
152.14617643826969
 31
0.0
  0
LINE
  5
B4A
  8
0
 39
5.0
 10
82.964243363572194
 20
152.19797643826971
 30
0.0
 11
82.901843363572183
 21
152.17507643826971
 31
0.0
  0
LINE
  5
B4B
  8
0
 39
5.0
 10
83.029543363572188
 20
152.2149764382697
 30
0.0
 11
82.964243363572194
 21
152.19797643826971
 31
0.0
  0
LINE
  5
B4C
  8
0
 39
5.0
 10
83.096943363572194
 20
152.22537643826971
 30
0.0
 11
83.029543363572188
 21
152.2149764382697
 31
0.0
  0
LINE
  5
B4D
  8
0
 39
5.0
 10
83.166543363572188
 20
152.22897643826971
 30
0.0
 11
83.096943363572194
 21
152.22537643826971
 31
0.0
  0
LINE
  5
B4E
  8
0
 39
5.0
 10
83.166543363572188
 20
152.22897643826971
 30
0.0
 11
83.166543363572188
 21
152.22897643826971
 31
0.0
  0
LINE
  5
B4F
  8
0
 39
5.0
 10
85.599743363572188
 20
152.22897643826971
 30
0.0
 11
83.166543363572188
 21
152.22897643826971
 31
0.0
  0
LINE
  5
B50
  8
0
 39
5.0
 10
85.599743363572188
 20
148.90687643826971
 30
0.0
 11
83.142543363572187
 21
148.90687643826971
 31
0.0
  0
LINE
  5
B52
  8
0
 10
83.166543363572188
 20
148.90697643826971
 30
0.0
 11
81.901343363572181
 21
148.90697643826971
 31
0.0
  0
LINE
  5
B53
  8
0
 10
81.901343363572181
 20
152.22897643826971
 30
0.0
 11
83.166543363572188
 21
152.22897643826971
 31
0.0
  0
LINE
  5
BE8
  8
0
 39
5.0
 10
83.458543363572176
 20
129.9322764382697
 30
0.0
 11
83.458543363572176
 21
122.3112764382697
 31
0.0
  0
LINE
  5
BE9
  8
0
 39
5.0
 10
83.458543363572176
 20
122.3112764382697
 30
0.0
 11
85.599743363572188
 21
122.3112764382697
 31
0.0
  0
LINE
  5
C32
  8
0
 39
5.0
 10
81.317343363572164
 20
129.9322764382697
 30
0.0
 11
81.317343363572164
 21
126.61027643826969
 31
0.0
  0
LINE
  5
C33
  8
0
 39
5.0
 10
81.317343363572164
 20
126.61027643826969
 30
0.0
 11
81.317343363572164
 21
126.61027643826969
 31
0.0
  0
LINE
  5
C34
  8
0
 39
5.0
 10
81.317343363572164
 20
126.61027643826969
 30
0.0
 11
81.499943363572186
 21
126.5124764382697
 31
0.0
  0
LINE
  5
C35
  8
0
 39
5.0
 10
81.499943363572186
 20
126.5124764382697
 30
0.0
 11
81.658143363572179
 21
126.41467643826969
 31
0.0
  0
LINE
  5
C36
  8
0
 39
5.0
 10
81.658143363572179
 20
126.41467643826969
 30
0.0
 11
81.792043363572191
 21
126.3168764382697
 31
0.0
  0
LINE
  5
C37
  8
0
 39
5.0
 10
81.792043363572191
 20
126.3168764382697
 30
0.0
 11
81.901443363572184
 21
126.21937643826971
 31
0.0
  0
LINE
  5
C38
  8
0
 39
5.0
 10
81.901443363572184
 20
126.21937643826971
 30
0.0
 11
81.986743363572188
 21
126.1215764382697
 31
0.0
  0
LINE
  5
C39
  8
0
 39
5.0
 10
81.986743363572188
 20
126.1215764382697
 30
0.0
 11
82.047543363572174
 21
126.0238764382697
 31
0.0
  0
LINE
  5
C3A
  8
0
 39
5.0
 10
82.047543363572174
 20
126.0238764382697
 30
0.0
 11
82.084043363572192
 21
125.9260764382697
 31
0.0
  0
LINE
  5
C3B
  8
0
 39
5.0
 10
82.084043363572192
 20
125.9260764382697
 30
0.0
 11
82.096143363572196
 21
125.71387643826969
 31
0.0
  0
LINE
  5
C3C
  8
0
 39
5.0
 10
82.096143363572196
 20
125.71387643826969
 30
0.0
 11
82.096043363572193
 21
125.7130681738069
 31
0.0
  0
LINE
  5
C44
  8
0
 39
5.0
 10
81.317343363572164
 20
124.9322764382697
 30
0.0
 11
81.317343363572164
 21
74.030476438269744
 31
0.0
  0
LINE
  5
C46
  8
0
 39
5.0
 10
80.538743363572195
 20
74.030476438269744
 30
0.0
 11
80.538743363572195
 21
36.932276438269753
 31
0.0
  0
LINE
  5
C47
  8
0
 39
5.0
 10
76.767643363571935
 20
36.932276438269753
 30
0.0
 11
81.804043363572177
 21
36.932276438269753
 31
0.0
  0
LINE
  5
C5D
  8
0
 39
5.0
 10
79.37834336357227
 20
129.9322764382697
 30
0.0
 11
85.599743363572188
 21
129.9322764382697
 31
0.0
  0
LINE
  5
C84
  8
0
 39
5.0
 10
79.299143363572185
 20
124.9361764382697
 30
0.0
 11
79.222043363572183
 21
124.94807643826969
 31
0.0
  0
LINE
  5
C85
  8
0
 39
5.0
 10
79.222043363572183
 20
124.94807643826969
 30
0.0
 11
79.147643363572186
 21
124.96727643826971
 31
0.0
  0
LINE
  5
C86
  8
0
 39
5.0
 10
79.147643363572186
 20
124.96727643826971
 30
0.0
 11
79.076143363572186
 21
124.9935764382697
 31
0.0
  0
LINE
  5
C87
  8
0
 39
5.0
 10
79.076143363572186
 20
124.9935764382697
 30
0.0
 11
79.008243363572191
 21
125.02637643826969
 31
0.0
  0
LINE
  5
C88
  8
0
 39
5.0
 10
79.008243363572191
 20
125.02637643826969
 30
0.0
 11
78.944043363572192
 21
125.0654764382697
 31
0.0
  0
LINE
  5
C89
  8
0
 39
5.0
 10
78.944043363572192
 20
125.0654764382697
 30
0.0
 11
78.884043363572175
 21
125.1103764382697
 31
0.0
  0
LINE
  5
C8A
  8
0
 39
5.0
 10
78.884043363572175
 20
125.1103764382697
 30
0.0
 11
78.828543363572194
 21
125.1608764382697
 31
0.0
  0
LINE
  5
C8B
  8
0
 39
5.0
 10
78.828543363572194
 20
125.1608764382697
 30
0.0
 11
78.778243363572201
 21
125.2160764382697
 31
0.0
  0
LINE
  5
C8C
  8
0
 39
5.0
 10
78.778243363572201
 20
125.2160764382697
 30
0.0
 11
78.733343363572189
 21
125.2760764382697
 31
0.0
  0
LINE
  5
C8D
  8
0
 39
5.0
 10
78.733343363572189
 20
125.2760764382697
 30
0.0
 11
78.694243363572184
 21
125.34017643826969
 31
0.0
  0
LINE
  5
C8E
  8
0
 39
5.0
 10
78.694243363572184
 20
125.34017643826969
 30
0.0
 11
78.661243363572183
 21
125.4083764382697
 31
0.0
  0
LINE
  5
C8F
  8
0
 39
5.0
 10
78.661243363572183
 20
125.4083764382697
 30
0.0
 11
78.635043363572194
 21
125.47967643826971
 31
0.0
  0
LINE
  5
C90
  8
0
 39
5.0
 10
78.635043363572194
 20
125.47967643826971
 30
0.0
 11
78.615743363572193
 21
125.5542764382697
 31
0.0
  0
LINE
  5
C91
  8
0
 39
5.0
 10
78.615743363572193
 20
125.5542764382697
 30
0.0
 11
78.603843363572182
 21
125.6313764382697
 31
0.0
  0
LINE
  5
C92
  8
0
 39
5.0
 10
78.603843363572182
 20
125.6313764382697
 30
0.0
 11
78.599743363572173
 21
125.71087643826969
 31
0.0
  0
LINE
  5
C93
  8
0
 39
5.0
 10
78.599743363572173
 20
125.71087643826969
 30
0.0
 11
78.599743363572173
 21
129.15367643826971
 31
0.0
  0
LINE
  5
C94
  8
0
 39
5.0
 10
78.599743363572173
 20
129.15367643826971
 30
0.0
 11
78.599743363572173
 21
129.15367643826971
 31
0.0
  0
LINE
  5
C95
  8
0
 39
5.0
 10
78.599743363572173
 20
129.15367643826971
 30
0.0
 11
78.603843363572182
 21
129.2328764382697
 31
0.0
  0
LINE
  5
C96
  8
0
 39
5.0
 10
78.603843363572182
 20
129.2328764382697
 30
0.0
 11
78.615743363572193
 21
129.3099764382697
 31
0.0
  0
LINE
  5
C97
  8
0
 39
5.0
 10
78.615743363572193
 20
129.3099764382697
 30
0.0
 11
78.635043363572194
 21
129.3843764382697
 31
0.0
  0
LINE
  5
C98
  8
0
 39
5.0
 10
78.635043363572194
 20
129.3843764382697
 30
0.0
 11
78.661243363572183
 21
129.45587643826971
 31
0.0
  0
LINE
  5
C99
  8
0
 39
5.0
 10
78.661243363572183
 20
129.45587643826971
 30
0.0
 11
78.694243363572184
 21
129.52377643826969
 31
0.0
  0
LINE
  5
C9A
  8
0
 39
5.0
 10
78.694243363572184
 20
129.52377643826969
 30
0.0
 11
78.733343363572189
 21
129.58797643826969
 31
0.0
  0
LINE
  5
C9B
  8
0
 39
5.0
 10
78.733343363572189
 20
129.58797643826969
 30
0.0
 11
78.778243363572201
 21
129.64797643826969
 31
0.0
  0
LINE
  5
C9C
  8
0
 39
5.0
 10
78.778243363572201
 20
129.64797643826969
 30
0.0
 11
78.828543363572194
 21
129.70347643826969
 31
0.0
  0
LINE
  5
C9D
  8
0
 39
5.0
 10
78.828543363572194
 20
129.70347643826969
 30
0.0
 11
78.884043363572175
 21
129.75377643826971
 31
0.0
  0
LINE
  5
C9E
  8
0
 39
5.0
 10
78.884043363572175
 20
129.75377643826971
 30
0.0
 11
78.944043363572192
 21
129.79867643826969
 31
0.0
  0
LINE
  5
C9F
  8
0
 39
5.0
 10
78.944043363572192
 20
129.79867643826969
 30
0.0
 11
79.008243363572191
 21
129.83777643826971
 31
0.0
  0
LINE
  5
CA0
  8
0
 39
5.0
 10
79.008243363572191
 20
129.83777643826971
 30
0.0
 11
79.076143363572186
 21
129.8707764382697
 31
0.0
  0
LINE
  5
CA1
  8
0
 39
5.0
 10
79.076143363572186
 20
129.8707764382697
 30
0.0
 11
79.147643363572186
 21
129.89697643826969
 31
0.0
  0
LINE
  5
CA2
  8
0
 39
5.0
 10
79.147643363572186
 20
129.89697643826969
 30
0.0
 11
79.222043363572183
 21
129.9162764382697
 31
0.0
  0
LINE
  5
CA3
  8
0
 39
5.0
 10
79.222043363572183
 20
129.9162764382697
 30
0.0
 11
79.299143363572185
 21
129.9281764382697
 31
0.0
  0
LINE
  5
CA4
  8
0
 39
5.0
 10
79.299143363572185
 20
129.9281764382697
 30
0.0
 11
79.378343363572185
 21
129.9322764382697
 31
0.0
  0
LINE
  5
CA6
  8
2
 10
81.317343363572164
 20
126.61027643826969
 30
0.0
 11
81.317343363572164
 21
124.9322764382697
 31
0.0
  0
LINE
  5
CA8
  8
0
 10
82.096043363572193
 20
125.71468222339369
 30
0.0
 11
82.096043363572193
 21
124.9322764382697
 31
0.0
  0
LINE
  5
CB0
  8
0
 39
5.0
 10
82.096043363572207
 20
124.9322764382697
 30
0.0
 11
78.599743363572173
 21
124.9322764382697
 31
0.0
  0
LINE
  5
CB7
  8
0
 39
5.0
 10
84.237143363572187
 20
122.3112764382697
 30
0.0
 11
84.237143363572187
 21
30.692076438269751
 31
0.0
  0
LINE
  5
CBA
  8
0
 39
5.0
 10
83.099743363572188
 20
124.2483764382697
 30
0.0
 11
85.599743363572188
 21
124.2483764382697
 31
0.0
  0
CIRCLE
  5
CC6
  8
0
 10
80.760143363572183
 20
118.6845764382697
 30
0.0
 40
0.5
  0
LINE
  5
CE0
  8
1
 10
80.760143363572183
 20
119.1845764382697
 30
0.0
 11
80.760143363572183
 21
119.1845764382697
 31
0.0
  0
LINE
  5
CE8
  8
1
 10
81.016103233989554
 20
119.1140930790834
 30
0.0
 11
81.317343363572164
 21
118.9345764382697
 31
0.0
  0
LINE
  5
CEC
  8
1
 10
80.580662065077632
 20
118.2179004655748
 30
0.0
 11
81.317343363572164
 21
117.9345764382697
 31
0.0
  0
LINE
  5
CEE
  8
0
 39
5.0
 10
79.760143363572183
 20
119.1845764382697
 30
0.0
 11
81.317343363572164
 21
119.1845764382697
 31
0.0
  0
LINE
  5
CF1
  8
0
 39
5.0
 10
80.07084336357218
 20
124.9322764382697
 30
0.0
 11
80.07084336357218
 21
119.1845764382697
 31
0.0
  0
LINE
  5
CFC
  8
1
 10
80.580662065077632
 20
115.2179004655748
 30
0.0
 11
81.317343363572164
 21
114.9345764382697
 31
0.0
  0
LINE
  5
CFD
  8
1
 10
81.016103233989554
 20
116.1140930790834
 30
0.0
 11
81.317343363572164
 21
115.9345764382697
 31
0.0
  0
LINE
  5
CFE
  8
1
 10
80.760143363572183
 20
116.1845764382697
 30
0.0
 11
80.760143363572183
 21
116.1845764382697
 31
0.0
  0
CIRCLE
  5
CFF
  8
0
 10
80.760143363572183
 20
115.6845764382697
 30
0.0
 40
0.5
  0
LINE
  5
D08
  8
1
 10
80.580662065077632
 20
112.2179004655748
 30
0.0
 11
81.317343363572164
 21
111.9345764382697
 31
0.0
  0
LINE
  5
D09
  8
1
 10
81.016103233989554
 20
113.1140930790834
 30
0.0
 11
81.317343363572164
 21
112.9345764382697
 31
0.0
  0
LINE
  5
D0A
  8
1
 10
80.760143363572183
 20
113.1845764382697
 30
0.0
 11
80.760143363572183
 21
113.1845764382697
 31
0.0
  0
CIRCLE
  5
D0B
  8
0
 10
80.760143363572183
 20
112.6845764382697
 30
0.0
 40
0.5
  0
LINE
  5
D14
  8
1
 10
80.580662065077632
 20
109.2179004655748
 30
0.0
 11
81.317343363572164
 21
108.9345764382697
 31
0.0
  0
LINE
  5
D15
  8
1
 10
81.016103233989554
 20
110.1140930790834
 30
0.0
 11
81.317343363572164
 21
109.9345764382697
 31
0.0
  0
LINE
  5
D16
  8
1
 10
80.760143363572183
 20
110.1845764382697
 30
0.0
 11
80.760143363572183
 21
110.1845764382697
 31
0.0
  0
CIRCLE
  5
D17
  8
0
 10
80.760143363572183
 20
109.6845764382697
 30
0.0
 40
0.5
  0
LINE
  5
D20
  8
1
 10
80.580662065077632
 20
106.2179004655748
 30
0.0
 11
81.317343363572164
 21
105.9345764382697
 31
0.0
  0
LINE
  5
D21
  8
1
 10
81.016103233989554
 20
107.1140930790834
 30
0.0
 11
81.317343363572164
 21
106.9345764382697
 31
0.0
  0
LINE
  5
D22
  8
1
 10
80.760143363572183
 20
107.1845764382697
 30
0.0
 11
80.760143363572183
 21
107.1845764382697
 31
0.0
  0
CIRCLE
  5
D23
  8
0
 10
80.760143363572183
 20
106.6845764382697
 30
0.0
 40
0.5
  0
LINE
  5
D2C
  8
1
 10
80.580662065077632
 20
103.2179004655748
 30
0.0
 11
81.317343363572164
 21
102.9345764382697
 31
0.0
  0
LINE
  5
D2D
  8
1
 10
81.016103233989554
 20
104.1140930790834
 30
0.0
 11
81.317343363572164
 21
103.9345764382697
 31
0.0
  0
LINE
  5
D2E
  8
1
 10
80.760143363572183
 20
104.1845764382697
 30
0.0
 11
80.760143363572183
 21
104.1845764382697
 31
0.0
  0
CIRCLE
  5
D2F
  8
0
 10
80.760143363572183
 20
103.6845764382697
 30
0.0
 40
0.5
  0
LINE
  5
D38
  8
1
 10
80.580662065077632
 20
100.2179004655748
 30
0.0
 11
81.317343363572164
 21
99.934576438269744
 31
0.0
  0
LINE
  5
D39
  8
1
 10
81.016103233989554
 20
101.1140930790834
 30
0.0
 11
81.317343363572164
 21
100.9345764382697
 31
0.0
  0
LINE
  5
D3A
  8
1
 10
80.760143363572183
 20
101.1845764382697
 30
0.0
 11
80.760143363572183
 21
101.1845764382697
 31
0.0
  0
CIRCLE
  5
D3B
  8
0
 10
80.760143363572183
 20
100.6845764382697
 30
0.0
 40
0.5
  0
LINE
  5
D58
  8
0
 39
5.0
 10
78.59224336357218
 20
105.70567643826971
 30
0.0
 11
78.59224336357218
 21
105.70107643826969
 31
0.0
  0
LINE
  5
D5D
  8
0
 10
79.035243363572192
 20
110.5863764382697
 30
0.0
 11
79.035243363572178
 21
100.8203764382697
 31
0.0
  0
LINE
  5
DB6
  8
2
 39
5.0
 10
79.035243363572192
 20
105.70567643826971
 30
0.0
 11
79.035243363572192
 21
105.70107643826969
 31
0.0
  0
LINE
  5
DB7
  8
0
 39
5.0
 10
79.035243363572192
 20
105.70567643826971
 30
0.0
 11
76.413443363572185
 21
105.70567643826971
 31
0.0
  0
LINE
  5
DB8
  8
0
 39
5.0
 10
75.535443363572185
 20
105.70567643826971
 30
0.0
 11
75.535443363572185
 21
105.70567643826971
 31
0.0
  0
LINE
  5
DB9
  8
0
 39
5.0
 10
75.535443363572185
 20
105.70567643826971
 30
0.0
 11
75.439943363572183
 21
105.7008764382697
 31
0.0
  0
LINE
  5
DBA
  8
0
 39
5.0
 10
75.439943363572183
 20
105.7008764382697
 30
0.0
 11
75.347343363572193
 21
105.6870764382697
 31
0.0
  0
LINE
  5
DBB
  8
0
 39
5.0
 10
75.347343363572193
 20
105.6870764382697
 30
0.0
 11
75.257743363572189
 21
105.66467643826969
 31
0.0
  0
LINE
  5
DBC
  8
0
 39
5.0
 10
75.257743363572189
 20
105.66467643826969
 30
0.0
 11
75.171943363572197
 21
105.63417643826971
 31
0.0
  0
LINE
  5
DBD
  8
0
 39
5.0
 10
75.171943363572197
 20
105.63417643826971
 30
0.0
 11
75.090143363572182
 21
105.5958764382697
 31
0.0
  0
LINE
  5
DBE
  8
0
 39
5.0
 10
75.090143363572182
 20
105.5958764382697
 30
0.0
 11
75.01304336357218
 21
105.5504764382697
 31
0.0
  0
LINE
  5
DBF
  8
0
 39
5.0
 10
75.01304336357218
 20
105.5504764382697
 30
0.0
 11
74.941043363572163
 21
105.4982764382697
 31
0.0
  0
LINE
  5
DC0
  8
0
 39
5.0
 10
74.941043363572163
 20
105.4982764382697
 30
0.0
 11
74.874543363572187
 21
105.43987643826971
 31
0.0
  0
LINE
  5
DC1
  8
0
 39
5.0
 10
74.874543363572187
 20
105.43987643826971
 30
0.0
 11
74.813943363572193
 21
105.3754764382697
 31
0.0
  0
LINE
  5
DC2
  8
0
 39
5.0
 10
74.813943363572193
 20
105.3754764382697
 30
0.0
 11
74.759943363572191
 21
105.3057764382697
 31
0.0
  0
LINE
  5
DC3
  8
0
 39
5.0
 10
74.759943363572191
 20
105.3057764382697
 30
0.0
 11
74.712943363572194
 21
105.2311764382697
 31
0.0
  0
LINE
  5
DC4
  8
0
 39
5.0
 10
74.712943363572194
 20
105.2311764382697
 30
0.0
 11
74.673543363572193
 21
105.15227643826969
 31
0.0
  0
LINE
  5
DC5
  8
0
 39
5.0
 10
74.673543363572193
 20
105.15227643826969
 30
0.0
 11
74.641843363572193
 21
105.06917643826969
 31
0.0
  0
LINE
  5
DC6
  8
0
 39
5.0
 10
74.641843363572193
 20
105.06917643826969
 30
0.0
 11
74.618743363572193
 21
104.98267643826971
 31
0.0
  0
LINE
  5
DC7
  8
0
 39
5.0
 10
74.618743363572193
 20
104.98267643826971
 30
0.0
 11
74.604443363572187
 21
104.8930764382697
 31
0.0
  0
LINE
  5
DC8
  8
0
 39
5.0
 10
74.604443363572187
 20
104.8930764382697
 30
0.0
 11
74.599743363572188
 21
104.80117643826971
 31
0.0
  0
LINE
  5
DC9
  8
0
 39
5.0
 10
74.599743363572188
 20
104.80117643826971
 30
0.0
 11
74.599743363572188
 21
101.7248764382697
 31
0.0
  0
LINE
  5
DCA
  8
0
 39
5.0
 10
74.599743363572188
 20
101.7248764382697
 30
0.0
 11
74.599743363572188
 21
101.7248764382697
 31
0.0
  0
LINE
  5
DCB
  8
0
 39
5.0
 10
74.599743363572188
 20
101.7248764382697
 30
0.0
 11
74.604443363572187
 21
101.6326764382697
 31
0.0
  0
LINE
  5
DCC
  8
0
 39
5.0
 10
74.604443363572187
 20
101.6326764382697
 30
0.0
 11
74.618743363572193
 21
101.54307643826969
 31
0.0
  0
LINE
  5
DCD
  8
0
 39
5.0
 10
74.618743363572193
 20
101.54307643826969
 30
0.0
 11
74.641843363572193
 21
101.4564764382697
 31
0.0
  0
LINE
  5
DCE
  8
0
 39
5.0
 10
74.641843363572193
 20
101.4564764382697
 30
0.0
 11
74.673543363572193
 21
101.37357643826969
 31
0.0
  0
LINE
  5
DCF
  8
0
 39
5.0
 10
74.673543363572193
 20
101.37357643826969
 30
0.0
 11
74.712943363572194
 21
101.2944764382697
 31
0.0
  0
LINE
  5
DD0
  8
0
 39
5.0
 10
74.712943363572194
 20
101.2944764382697
 30
0.0
 11
74.759943363572191
 21
101.21987643826969
 31
0.0
  0
LINE
  5
DD1
  8
0
 39
5.0
 10
74.759943363572191
 20
101.21987643826969
 30
0.0
 11
74.813943363572193
 21
101.1501764382697
 31
0.0
  0
LINE
  5
DD2
  8
0
 39
5.0
 10
74.813943363572193
 20
101.1501764382697
 30
0.0
 11
74.874543363572187
 21
101.0859764382697
 31
0.0
  0
LINE
  5
DD3
  8
0
 39
5.0
 10
74.874543363572187
 20
101.0859764382697
 30
0.0
 11
74.941043363572163
 21
101.0273764382697
 31
0.0
  0
LINE
  5
DD4
  8
0
 39
5.0
 10
74.941043363572163
 20
101.0273764382697
 30
0.0
 11
75.01304336357218
 21
100.9752764382697
 31
0.0
  0
LINE
  5
DD5
  8
0
 39
5.0
 10
75.01304336357218
 20
100.9752764382697
 30
0.0
 11
75.090143363572182
 21
100.9297764382697
 31
0.0
  0
LINE
  5
DD6
  8
0
 39
5.0
 10
75.090143363572182
 20
100.9297764382697
 30
0.0
 11
75.171943363572197
 21
100.8916764382697
 31
0.0
  0
LINE
  5
DD7
  8
0
 39
5.0
 10
75.171943363572197
 20
100.8916764382697
 30
0.0
 11
75.257743363572189
 21
100.86107643826971
 31
0.0
  0
LINE
  5
DD8
  8
0
 39
5.0
 10
75.257743363572189
 20
100.86107643826971
 30
0.0
 11
75.347343363572193
 21
100.8387764382697
 31
0.0
  0
LINE
  5
DD9
  8
0
 39
5.0
 10
75.347343363572193
 20
100.8387764382697
 30
0.0
 11
75.439943363572183
 21
100.8249764382697
 31
0.0
  0
LINE
  5
DDA
  8
0
 39
5.0
 10
75.439943363572183
 20
100.8249764382697
 30
0.0
 11
75.535443363572185
 21
100.8203764382697
 31
0.0
  0
LINE
  5
DDB
  8
0
 39
5.0
 10
75.535443363571801
 20
100.8203764382697
 30
0.0
 11
79.035243363572178
 21
100.8203764382697
 31
0.0
  0
LINE
  5
DDC
  8
0
 39
5.0
 10
79.035243363572192
 20
110.5863764382697
 30
0.0
 11
75.535443363572384
 21
110.5863764382697
 31
0.0
  0
LINE
  5
DDD
  8
0
 39
5.0
 10
75.535443363572185
 20
110.5863764382697
 30
0.0
 11
75.535443363572185
 21
110.5863764382697
 31
0.0
  0
LINE
  5
DDE
  8
0
 39
5.0
 10
75.535443363572185
 20
110.5863764382697
 30
0.0
 11
75.439943363572183
 21
110.58157643826971
 31
0.0
  0
LINE
  5
DDF
  8
0
 39
5.0
 10
75.439943363572183
 20
110.58157643826971
 30
0.0
 11
75.347343363572193
 21
110.5677764382697
 31
0.0
  0
LINE
  5
DE0
  8
0
 39
5.0
 10
75.347343363572193
 20
110.5677764382697
 30
0.0
 11
75.257743363572189
 21
110.5453764382697
 31
0.0
  0
LINE
  5
DE1
  8
0
 39
5.0
 10
75.257743363572189
 20
110.5453764382697
 30
0.0
 11
75.171943363572197
 21
110.5148764382697
 31
0.0
  0
LINE
  5
DE2
  8
0
 39
5.0
 10
75.171943363572197
 20
110.5148764382697
 30
0.0
 11
75.090143363572182
 21
110.4765764382697
 31
0.0
  0
LINE
  5
DE3
  8
0
 39
5.0
 10
75.090143363572182
 20
110.4765764382697
 30
0.0
 11
75.01304336357218
 21
110.4311764382697
 31
0.0
  0
LINE
  5
DE4
  8
0
 39
5.0
 10
75.01304336357218
 20
110.4311764382697
 30
0.0
 11
74.941043363572163
 21
110.3789764382697
 31
0.0
  0
LINE
  5
DE5
  8
0
 39
5.0
 10
74.941043363572163
 20
110.3789764382697
 30
0.0
 11
74.874543363572187
 21
110.3205764382697
 31
0.0
  0
LINE
  5
DE6
  8
0
 39
5.0
 10
74.874543363572187
 20
110.3205764382697
 30
0.0
 11
74.813943363572193
 21
110.2561764382697
 31
0.0
  0
LINE
  5
DE7
  8
0
 39
5.0
 10
74.813943363572193
 20
110.2561764382697
 30
0.0
 11
74.759943363572191
 21
110.18647643826969
 31
0.0
  0
LINE
  5
DE8
  8
0
 39
5.0
 10
74.759943363572191
 20
110.18647643826969
 30
0.0
 11
74.712943363572194
 21
110.1118764382697
 31
0.0
  0
LINE
  5
DE9
  8
0
 39
5.0
 10
74.712943363572194
 20
110.1118764382697
 30
0.0
 11
74.673543363572193
 21
110.0329764382697
 31
0.0
  0
LINE
  5
DEA
  8
0
 39
5.0
 10
74.673543363572193
 20
110.0329764382697
 30
0.0
 11
74.641843363572193
 21
109.9498764382697
 31
0.0
  0
LINE
  5
DEB
  8
0
 39
5.0
 10
74.641843363572193
 20
109.9498764382697
 30
0.0
 11
74.618743363572193
 21
109.8633764382697
 31
0.0
  0
LINE
  5
DEC
  8
0
 39
5.0
 10
74.618743363572193
 20
109.8633764382697
 30
0.0
 11
74.604443363572187
 21
109.77377643826971
 31
0.0
  0
LINE
  5
DED
  8
0
 39
5.0
 10
74.604443363572187
 20
109.77377643826971
 30
0.0
 11
74.599743363572188
 21
109.6818764382697
 31
0.0
  0
LINE
  5
DEE
  8
0
 39
5.0
 10
74.599743363572188
 20
109.6818764382697
 30
0.0
 11
74.599743363572188
 21
106.60557643826969
 31
0.0
  0
LINE
  5
DEF
  8
0
 39
5.0
 10
74.599743363572188
 20
106.60557643826969
 30
0.0
 11
74.599743363572188
 21
106.60557643826969
 31
0.0
  0
LINE
  5
DF0
  8
0
 39
5.0
 10
74.599743363572188
 20
106.60557643826969
 30
0.0
 11
74.604443363572187
 21
106.5133764382697
 31
0.0
  0
LINE
  5
DF1
  8
0
 39
5.0
 10
74.604443363572187
 20
106.5133764382697
 30
0.0
 11
74.618743363572193
 21
106.4237764382697
 31
0.0
  0
LINE
  5
DF2
  8
0
 39
5.0
 10
74.618743363572193
 20
106.4237764382697
 30
0.0
 11
74.641843363572193
 21
106.33717643826969
 31
0.0
  0
LINE
  5
DF3
  8
0
 39
5.0
 10
74.641843363572193
 20
106.33717643826969
 30
0.0
 11
74.673543363572193
 21
106.2542764382697
 31
0.0
  0
LINE
  5
DF4
  8
0
 39
5.0
 10
74.673543363572193
 20
106.2542764382697
 30
0.0
 11
74.712943363572194
 21
106.1751764382697
 31
0.0
  0
LINE
  5
DF5
  8
0
 39
5.0
 10
74.712943363572194
 20
106.1751764382697
 30
0.0
 11
74.759943363572191
 21
106.1005764382697
 31
0.0
  0
LINE
  5
DF6
  8
0
 39
5.0
 10
74.759943363572191
 20
106.1005764382697
 30
0.0
 11
74.813943363572193
 21
106.0308764382697
 31
0.0
  0
LINE
  5
DF7
  8
0
 39
5.0
 10
74.813943363572193
 20
106.0308764382697
 30
0.0
 11
74.874543363572187
 21
105.9666764382697
 31
0.0
  0
LINE
  5
DF8
  8
0
 39
5.0
 10
74.874543363572187
 20
105.9666764382697
 30
0.0
 11
74.941043363572163
 21
105.9080764382697
 31
0.0
  0
LINE
  5
DF9
  8
0
 39
5.0
 10
74.941043363572163
 20
105.9080764382697
 30
0.0
 11
75.01304336357218
 21
105.85597643826971
 31
0.0
  0
LINE
  5
DFA
  8
0
 39
5.0
 10
75.01304336357218
 20
105.85597643826971
 30
0.0
 11
75.090143363572182
 21
105.8104764382697
 31
0.0
  0
LINE
  5
DFB
  8
0
 39
5.0
 10
75.090143363572182
 20
105.8104764382697
 30
0.0
 11
75.171943363572197
 21
105.7723764382697
 31
0.0
  0
LINE
  5
DFC
  8
0
 39
5.0
 10
75.171943363572197
 20
105.7723764382697
 30
0.0
 11
75.257743363572189
 21
105.7417764382697
 31
0.0
  0
LINE
  5
DFD
  8
0
 39
5.0
 10
75.257743363572189
 20
105.7417764382697
 30
0.0
 11
75.347343363572193
 21
105.71947643826969
 31
0.0
  0
LINE
  5
DFE
  8
0
 39
5.0
 10
75.347343363572193
 20
105.71947643826969
 30
0.0
 11
75.439943363572183
 21
105.70567643826971
 31
0.0
  0
LINE
  5
DFF
  8
0
 39
5.0
 10
75.439943363572183
 20
105.70567643826971
 30
0.0
 11
75.535443363572185
 21
105.70107643826969
 31
0.0
  0
LINE
  5
E00
  8
0
 39
5.0
 10
75.53544336357244
 20
105.70107643826969
 30
0.0
 11
79.035243363572178
 21
105.70107643826969
 31
0.0
  0
LINE
  5
E09
  8
0
 10
78.599743363572173
 20
75.102876438269732
 30
0.0
 11
79.035243363572192
 21
75.102876438269732
 31
0.0
  0
LINE
  5
E0E
  8
0
 39
5.0
 10
80.538643363572206
 20
72.757976438269736
 30
0.0
 11
79.370843363572192
 21
72.757976438269736
 31
0.0
  0
LINE
  5
E0F
  8
0
 39
5.0
 10
79.370843363572192
 20
72.757976438269736
 30
0.0
 11
79.370843363572192
 21
66.932276438269753
 31
0.0
  0
LINE
  5
E14
  8
1
 10
80.538743363572195
 20
74.030476438269744
 30
0.0
 11
81.317343363572164
 21
74.030476438269744
 31
0.0
  0
LINE
  5
E89
  8
0
 39
5.0
 10
76.648543363572188
 20
19.937376438269752
 30
0.0
 11
76.749778363572162
 21
19.932276438269749
 31
0.0
  0
LINE
  5
E8A
  8
0
 39
5.0
 10
76.532943363572187
 20
19.955176438269739
 30
0.0
 11
76.648543363572188
 21
19.937376438269752
 31
0.0
  0
LINE
  5
E8B
  8
0
 39
5.0
 10
76.421143363572185
 20
19.983976438269739
 30
0.0
 11
76.532943363572187
 21
19.955176438269739
 31
0.0
  0
LINE
  5
E8C
  8
0
 39
5.0
 10
76.314043363572182
 20
20.02337643826975
 30
0.0
 11
76.421143363572185
 21
19.983976438269739
 31
0.0
  0
LINE
  5
E8D
  8
0
 39
5.0
 10
76.211943363572189
 20
20.072576438269738
 30
0.0
 11
76.314043363572182
 21
20.02337643826975
 31
0.0
  0
LINE
  5
E8E
  8
0
 39
5.0
 10
76.115643363572175
 20
20.131376438269729
 30
0.0
 11
76.211943363572189
 21
20.072576438269738
 31
0.0
  0
LINE
  5
E8F
  8
0
 39
5.0
 10
76.025643363572186
 20
20.198676438269739
 30
0.0
 11
76.115643363572175
 21
20.131376438269729
 31
0.0
  0
LINE
  5
E90
  8
0
 39
5.0
 10
75.942743363572177
 20
20.274376438269741
 30
0.0
 11
76.025643363572186
 21
20.198676438269739
 31
0.0
  0
LINE
  5
E91
  8
0
 39
5.0
 10
75.867043363572193
 20
20.357276438269739
 30
0.0
 11
75.942743363572177
 21
20.274376438269741
 31
0.0
  0
LINE
  5
E92
  8
0
 39
5.0
 10
75.799743363572176
 20
20.447276438269729
 30
0.0
 11
75.867043363572193
 21
20.357276438269739
 31
0.0
  0
LINE
  5
E93
  8
0
 39
5.0
 10
75.740943363572185
 20
20.543576438269749
 30
0.0
 11
75.799743363572176
 21
20.447276438269729
 31
0.0
  0
LINE
  5
E94
  8
0
 39
5.0
 10
75.691743363572186
 20
20.645676438269739
 30
0.0
 11
75.740943363572185
 21
20.543576438269749
 31
0.0
  0
LINE
  5
E95
  8
0
 39
5.0
 10
75.652343363572186
 20
20.752776438269748
 30
0.0
 11
75.691743363572186
 21
20.645676438269739
 31
0.0
  0
LINE
  5
E96
  8
0
 39
5.0
 10
75.623543363572182
 20
20.864576438269751
 30
0.0
 11
75.652343363572186
 21
20.752776438269748
 31
0.0
  0
LINE
  5
E97
  8
0
 39
5.0
 10
75.605743363572188
 20
20.980176438269751
 30
0.0
 11
75.623543363572182
 21
20.864576438269751
 31
0.0
  0
LINE
  5
E98
  8
0
 39
5.0
 10
75.599743363572173
 20
21.099276438269751
 30
0.0
 11
75.605743363572188
 21
20.980176438269751
 31
0.0
  0
LINE
  5
E99
  8
0
 39
5.0
 10
75.599743363572173
 20
21.099276438269751
 30
0.0
 11
75.599743363572173
 21
21.099276438269751
 31
0.0
  0
LINE
  5
E9A
  8
0
 39
5.0
 10
75.599743363572173
 20
35.76437643826975
 30
0.0
 11
75.599743363572173
 21
21.099276438269751
 31
0.0
  0
LINE
  5
E9B
  8
0
 39
5.0
 10
75.605743363572188
 20
35.883276438269739
 30
0.0
 11
75.599743363572173
 21
35.76437643826975
 31
0.0
  0
LINE
  5
E9C
  8
0
 39
5.0
 10
75.623543363572182
 20
35.99887643826974
 30
0.0
 11
75.605743363572188
 21
35.883276438269739
 31
0.0
  0
LINE
  5
E9D
  8
0
 39
5.0
 10
75.652343363572186
 20
36.110576438269739
 30
0.0
 11
75.623543363572182
 21
35.99887643826974
 31
0.0
  0
LINE
  5
E9E
  8
0
 39
5.0
 10
75.691743363572186
 20
36.217776438269752
 30
0.0
 11
75.652343363572186
 21
36.110576438269739
 31
0.0
  0
LINE
  5
E9F
  8
0
 39
5.0
 10
75.740943363572185
 20
36.319676438269752
 30
0.0
 11
75.691743363572186
 21
36.217776438269752
 31
0.0
  0
LINE
  5
EA0
  8
0
 39
5.0
 10
75.799743363572176
 20
36.415976438269752
 30
0.0
 11
75.740943363572185
 21
36.319676438269752
 31
0.0
  0
LINE
  5
EA1
  8
0
 39
5.0
 10
75.867043363572193
 20
36.505976438269748
 30
0.0
 11
75.799743363572176
 21
36.415976438269752
 31
0.0
  0
LINE
  5
EA2
  8
0
 39
5.0
 10
75.942743363572177
 20
36.589176438269739
 30
0.0
 11
75.867043363572193
 21
36.505976438269748
 31
0.0
  0
LINE
  5
EA3
  8
0
 39
5.0
 10
76.025643363572186
 20
36.664576438269748
 30
0.0
 11
75.942743363572177
 21
36.589176438269739
 31
0.0
  0
LINE
  5
EA4
  8
0
 39
5.0
 10
76.115643363572175
 20
36.731976438269747
 30
0.0
 11
76.025643363572186
 21
36.664576438269748
 31
0.0
  0
LINE
  5
EA5
  8
0
 39
5.0
 10
76.211943363572189
 20
36.790576438269738
 30
0.0
 11
76.115643363572175
 21
36.731976438269747
 31
0.0
  0
LINE
  5
EA6
  8
0
 39
5.0
 10
76.314043363572182
 20
36.840076438269747
 30
0.0
 11
76.211943363572189
 21
36.790576438269738
 31
0.0
  0
LINE
  5
EA7
  8
0
 39
5.0
 10
76.421143363572185
 20
36.879376438269738
 30
0.0
 11
76.314043363572182
 21
36.840076438269747
 31
0.0
  0
LINE
  5
EA8
  8
0
 39
5.0
 10
76.532943363572187
 20
36.908276438269752
 30
0.0
 11
76.421143363572185
 21
36.879376438269738
 31
0.0
  0
LINE
  5
EA9
  8
0
 39
5.0
 10
76.648543363572188
 20
36.926076438269739
 30
0.0
 11
76.532943363572187
 21
36.908276438269752
 31
0.0
  0
LINE
  5
EAA
  8
0
 39
5.0
 10
76.767643363572006
 20
36.932276438269753
 30
0.0
 11
76.648543363572188
 21
36.926076438269739
 31
0.0
  0
LINE
  5
EAB
  8
0
 39
5.0
 10
76.767643363572191
 20
36.932276438269753
 30
0.0
 11
76.767643363572191
 21
36.932276438269753
 31
0.0
  0
LINE
  5
EAF
  8
0
 39
5.0
 10
81.409675920819197
 20
11.532276438269751
 30
0.0
 11
80.349743363572188
 21
12.30618759089443
 31
0.0
  0
LINE
  5
EB2
  8
0
 39
5.0
 10
82.485343363572184
 20
13.13227643826975
 30
0.0
 11
82.485343363572184
 21
19.93227643826976
 31
0.0
  0
LINE
  5
EBB
  8
0
 10
81.288143363572189
 20
36.932276438269753
 30
0.0
 11
81.288143363572189
 21
30.692076438269751
 31
0.0
  0
LINE
  5
EBC
  8
2
 10
81.804043363572177
 20
36.932276438269753
 30
0.0
 11
81.804043363572177
 21
30.692076438269751
 31
0.0
  0
LINE
  5
EC2
  8
0
 62
     7
 39
5.0
 10
85.599643363572198
 20
30.692076438269751
 30
0.0
 11
81.288143363572189
 21
30.692076438269751
 31
0.0
  0
LINE
  5
EF4
  8
0
 10
81.804043363572177
 20
30.692076438269751
 30
0.0
 11
81.804043363572177
 21
23.839676438269748
 31
0.0
  0
LINE
  5
EF9
  8
0
 39
5.0
 10
81.804043363572177
 20
29.105976438269739
 30
0.0
 11
75.599743363572173
 21
29.105976438269739
 31
0.0
  0
LINE
  5
EFE
  8
1
 10
81.804043363572177
 20
29.105976438269739
 30
0.0
 11
82.749410911404766
 21
28.055501477944109
 31
0.0
  0
LINE
  5
F03
  8
0
 39
5.0
 10
81.804043363572177
 20
24.758576438269749
 30
0.0
 11
75.599743363572173
 21
24.758576438269749
 31
0.0
  0
LINE
  5
F05
  8
1
 10
81.804043363572177
 20
24.758576438269749
 30
0.0
 11
82.749410911404766
 21
25.809051398595379
 31
0.0
  0
LINE
  5
F0C
  8
0
 39
5.0
 10
85.599743363572188
 20
22.198176438269741
 30
0.0
 11
84.099743363572188
 21
22.198176438269741
 31
0.0
  0
LINE
  5
F0D
  8
0
 39
5.0
 10
84.099743363572188
 20
22.198176438269741
 30
0.0
 11
84.099743363572188
 21
11.53227643826974
 31
0.0
  0
LINE
  5
F19
  8
0
 10
81.804043363572177
 20
23.839676438269748
 30
0.0
 11
84.099743363572188
 21
22.198176438269741
 31
0.0
  0
LINE
  5
F30
  8
0
 10
47.959143363572181
 20
28.605376438269762
 30
0.0
 11
47.959143363572181
 21
26.932276438269749
 31
0.0
  0
LINE
  5
F31
  8
0
 10
48.820943363572191
 20
29.432276438269749
 30
0.0
 11
48.820943363572177
 21
26.932276438269749
 31
0.0
  0
LINE
  5
F32
  8
0
 10
49.852101862106572
 20
29.432276438269749
 30
0.0
 11
49.852101862106572
 21
26.932276438269749
 31
0.0
  0
LINE
  5
F34
  8
0
 10
50.620643363572178
 20
29.118176438269749
 30
0.0
 11
50.620643363572178
 21
26.932276438269749
 31
0.0
  0
LINE
  5
F35
  8
0
 10
51.755943363572179
 20
29.432276438269749
 30
0.0
 11
51.755943363572179
 21
26.932276438269749
 31
0.0
  0
LINE
  5
F38
  8
0
 39
5.0
 10
46.398043363572178
 20
28.605376438269762
 30
0.0
 11
47.959143363572181
 21
28.605376438269762
 31
0.0
  0
LINE
  5
F3C
  8
0
 39
5.0
 10
49.852101862106558
 20
29.118073000651801
 30
0.0
 11
50.620643363572178
 21
29.118176438269749
 31
0.0
  0
LINE
  5
F42
  8
0
 39
5.0
 10
53.130743363572172
 20
31.313276438269749
 30
0.0
 11
58.398043363572178
 21
31.313276438269749
 31
0.0
  0
LINE
  5
F44
  8
0
 39
5.0
 10
58.398043363572178
 20
28.976976438269759
 30
0.0
 11
53.130743363572172
 21
28.976976438269759
 31
0.0
  0
LINE
  5
F46
  8
0
 10
53.130743363572172
 20
31.313276438269749
 30
0.0
 11
53.130743363572172
 21
26.932276438269749
 31
0.0
  0
LINE
  5
F4D
  8
0
 39
5.0
 10
62.108410030238851
 20
29.432276438269749
 30
0.0
 11
62.398043363572178
 21
28.910936438269751
 31
0.0
  0
LINE
  5
F4F
  8
2
 10
58.398043363572178
 20
28.848876438269748
 30
0.0
 11
62.398043363572178
 21
28.848876438269748
 31
0.0
  0
LINE
  5
F52
  8
0
 39
5.0
 10
62.108410030238844
 20
24.432276438269749
 30
0.0
 11
62.398043363572178
 21
24.953616438269759
 31
0.0
  0
LINE
  5
F54
  8
0
 39
5.0
 10
58.398043363572178
 20
24.88757643826974
 30
0.0
 11
53.130743363572172
 21
24.88757643826974
 31
0.0
  0
LINE
  5
F55
  8
0
 39
5.0
 10
53.130743363572172
 20
22.551276438269749
 30
0.0
 11
58.398043363572178
 21
22.551276438269749
 31
0.0
  0
LINE
  5
F62
  8
0
 10
53.130743363572172
 20
22.551276438269749
 30
0.0
 11
53.130743363572172
 21
26.932276438269749
 31
0.0
  0
LINE
  5
F63
  8
2
 10
58.398043363572178
 20
25.01567643826975
 30
0.0
 11
62.398043363572178
 21
25.01567643826975
 31
0.0
  0
LINE
  5
1486
  8
0
 39
5.0
 10
85.599743363572188
 20
143.55267643826971
 30
0.0
 11
80.752943363572186
 21
143.55267643826971
 31
0.0
  0
LINE
  5
1487
  8
0
 39
5.0
 10
80.752943363572186
 20
143.55267643826971
 30
0.0
 11
80.752943363572186
 21
142.4974764382697
 31
0.0
  0
LINE
  5
1488
  8
0
 39
5.0
 10
80.752943363572186
 20
142.4974764382697
 30
0.0
 11
85.599743363572188
 21
142.4974764382697
 31
0.0
  0
LINE
  5
1492
  8
2
 10
83.099743363572188
 20
129.9322764382697
 30
0.0
 11
83.099743363572188
 21
124.2483764382697
 31
0.0
  0
LINE
  5
1493
  8
0
 10
83.099743363572188
 20
145.21933549180889
 30
0.0
 11
83.099743363572188
 21
148.91023965666051
 31
0.0
  0
LINE
  5
1494
  8
0
 10
85.599743363572188
 20
145.21933549180889
 30
0.0
 11
83.099743363572188
 21
145.21933549180889
 31
0.0
  0
LINE
  5
149D
  8
0
 10
78.599743363572173
 20
124.9322764382697
 30
0.0
 11
78.599743363572173
 21
110.5863764382697
 31
0.0
  0
LINE
  5
149F
  8
0
 10
78.599743363572173
 20
105.70567643826971
 30
0.0
 11
78.599743363572173
 21
105.70107643826969
 31
0.0
  0
LINE
  5
14A0
  8
0
 10
78.599743363572173
 20
100.8203764382697
 30
0.0
 11
78.599743363572173
 21
66.932276438269753
 31
0.0
  0
LINE
  5
14B0
  8
0
 10
80.349743363572188
 20
13.13227643826975
 30
0.0
 11
80.349743363572188
 21
12.30618759089443
 31
0.0
  0
LINE
  5
1521
  8
2
 10
87.856943363572185
 20
148.90697643826971
 30
0.0
 11
87.856943363572185
 21
145.07661076752569
 31
0.0
  0
LINE
  5
1522
  8
0
 10
88.099743363572188
 20
145.21933549180889
 30
0.0
 11
88.099743363572188
 21
148.91023965666051
 31
0.0
  0
LINE
  5
1527
  8
0
 39
5.0
 10
89.789810806325178
 20
11.532276438269751
 30
0.0
 11
90.849743363572173
 21
12.30618759089443
 31
0.0
  0
LINE
  5
1599
  8
0
 39
5.0
 10
91.821143363572105
 20
129.9322764382697
 30
0.0
 11
85.599743363572188
 21
129.9322764382697
 31
0.0
  0
LINE
  5
159A
  8
0
 39
5.0
 10
91.900343363572205
 20
124.9361764382697
 30
0.0
 11
91.977443363572192
 21
124.94807643826969
 31
0.0
  0
LINE
  5
159B
  8
0
 39
5.0
 10
91.977443363572192
 20
124.94807643826969
 30
0.0
 11
92.051843363572175
 21
124.96727643826971
 31
0.0
  0
LINE
  5
159C
  8
0
 39
5.0
 10
92.051843363572175
 20
124.96727643826971
 30
0.0
 11
92.123343363572175
 21
124.9935764382697
 31
0.0
  0
LINE
  5
159D
  8
0
 39
5.0
 10
92.123343363572175
 20
124.9935764382697
 30
0.0
 11
92.191243363572184
 21
125.02637643826969
 31
0.0
  0
LINE
  5
159E
  8
0
 39
5.0
 10
92.191243363572184
 20
125.02637643826969
 30
0.0
 11
92.255443363572184
 21
125.0654764382697
 31
0.0
  0
LINE
  5
159F
  8
0
 39
5.0
 10
92.255443363572184
 20
125.0654764382697
 30
0.0
 11
92.315443363572186
 21
125.1103764382697
 31
0.0
  0
LINE
  5
15A0
  8
0
 39
5.0
 10
92.315443363572186
 20
125.1103764382697
 30
0.0
 11
92.370943363572181
 21
125.1608764382697
 31
0.0
  0
LINE
  5
15A1
  8
0
 39
5.0
 10
92.370943363572181
 20
125.1608764382697
 30
0.0
 11
92.421243363572174
 21
125.2160764382697
 31
0.0
  0
LINE
  5
15A2
  8
0
 39
5.0
 10
92.421243363572174
 20
125.2160764382697
 30
0.0
 11
92.466143363572186
 21
125.2760764382697
 31
0.0
  0
LINE
  5
15A3
  8
0
 39
5.0
 10
92.466143363572186
 20
125.2760764382697
 30
0.0
 11
92.505243363572177
 21
125.34017643826969
 31
0.0
  0
LINE
  5
15A4
  8
0
 39
5.0
 10
92.505243363572177
 20
125.34017643826969
 30
0.0
 11
92.538243363572192
 21
125.4083764382697
 31
0.0
  0
LINE
  5
15A5
  8
0
 39
5.0
 10
92.538243363572192
 20
125.4083764382697
 30
0.0
 11
92.564443363572167
 21
125.47967643826971
 31
0.0
  0
LINE
  5
15A6
  8
0
 39
5.0
 10
92.564443363572167
 20
125.47967643826971
 30
0.0
 11
92.583743363572196
 21
125.5542764382697
 31
0.0
  0
LINE
  5
15A7
  8
0
 39
5.0
 10
92.583743363572196
 20
125.5542764382697
 30
0.0
 11
92.595643363572194
 21
125.6313764382697
 31
0.0
  0
LINE
  5
15A8
  8
0
 39
5.0
 10
92.595643363572194
 20
125.6313764382697
 30
0.0
 11
92.599743363572188
 21
125.71087643826969
 31
0.0
  0
LINE
  5
15A9
  8
0
 39
5.0
 10
92.599743363572188
 20
125.71087643826969
 30
0.0
 11
92.599743363572188
 21
129.15367643826971
 31
0.0
  0
LINE
  5
15AA
  8
0
 39
5.0
 10
92.599743363572188
 20
129.15367643826971
 30
0.0
 11
92.599743363572188
 21
129.15367643826971
 31
0.0
  0
LINE
  5
15AB
  8
0
 39
5.0
 10
92.599743363572188
 20
129.15367643826971
 30
0.0
 11
92.595643363572194
 21
129.2328764382697
 31
0.0
  0
LINE
  5
15AC
  8
0
 39
5.0
 10
92.595643363572194
 20
129.2328764382697
 30
0.0
 11
92.583743363572196
 21
129.3099764382697
 31
0.0
  0
LINE
  5
15AD
  8
0
 39
5.0
 10
92.583743363572196
 20
129.3099764382697
 30
0.0
 11
92.564443363572167
 21
129.3843764382697
 31
0.0
  0
LINE
  5
15AE
  8
0
 39
5.0
 10
92.564443363572167
 20
129.3843764382697
 30
0.0
 11
92.538243363572192
 21
129.45587643826971
 31
0.0
  0
LINE
  5
15AF
  8
0
 39
5.0
 10
92.538243363572192
 20
129.45587643826971
 30
0.0
 11
92.505243363572177
 21
129.52377643826969
 31
0.0
  0
LINE
  5
15B0
  8
0
 39
5.0
 10
92.505243363572177
 20
129.52377643826969
 30
0.0
 11
92.466143363572186
 21
129.58797643826969
 31
0.0
  0
LINE
  5
15B1
  8
0
 39
5.0
 10
92.466143363572186
 20
129.58797643826969
 30
0.0
 11
92.421243363572174
 21
129.64797643826969
 31
0.0
  0
LINE
  5
15B2
  8
0
 39
5.0
 10
92.421243363572174
 20
129.64797643826969
 30
0.0
 11
92.370943363572181
 21
129.70347643826969
 31
0.0
  0
LINE
  5
15B3
  8
0
 39
5.0
 10
92.370943363572181
 20
129.70347643826969
 30
0.0
 11
92.315443363572186
 21
129.75377643826971
 31
0.0
  0
LINE
  5
15B4
  8
0
 39
5.0
 10
92.315443363572186
 20
129.75377643826971
 30
0.0
 11
92.255443363572184
 21
129.79867643826969
 31
0.0
  0
LINE
  5
15B5
  8
0
 39
5.0
 10
92.255443363572184
 20
129.79867643826969
 30
0.0
 11
92.191243363572184
 21
129.83777643826971
 31
0.0
  0
LINE
  5
15B6
  8
0
 39
5.0
 10
92.191243363572184
 20
129.83777643826971
 30
0.0
 11
92.123343363572175
 21
129.8707764382697
 31
0.0
  0
LINE
  5
15B7
  8
0
 39
5.0
 10
92.123343363572175
 20
129.8707764382697
 30
0.0
 11
92.051843363572175
 21
129.89697643826969
 31
0.0
  0
LINE
  5
15B8
  8
0
 39
5.0
 10
92.051843363572175
 20
129.89697643826969
 30
0.0
 11
91.977443363572192
 21
129.9162764382697
 31
0.0
  0
LINE
  5
15B9
  8
0
 39
5.0
 10
91.977443363572192
 20
129.9162764382697
 30
0.0
 11
91.900343363572205
 21
129.9281764382697
 31
0.0
  0
LINE
  5
15BA
  8
0
 39
5.0
 10
91.900343363572205
 20
129.9281764382697
 30
0.0
 11
91.821143363572176
 21
129.9322764382697
 31
0.0
  0
LINE
  5
15BC
  8
0
 39
5.0
 10
88.099743363572188
 20
145.21933549180889
 30
0.0
 11
87.059543363572246
 21
144.6078764382697
 31
0.0
  0
LINE
  5
15BD
  8
0
 39
5.0
 10
90.446543363572175
 20
142.4974764382697
 30
0.0
 11
85.599743363572188
 21
142.4974764382697
 31
0.0
  0
LINE
  5
15BE
  8
0
 39
5.0
 10
90.446543363572175
 20
143.55267643826971
 30
0.0
 11
90.446543363572175
 21
142.4974764382697
 31
0.0
  0
LINE
  5
15BF
  8
0
 39
5.0
 10
85.599743363572188
 20
143.55267643826971
 30
0.0
 11
90.446543363572175
 21
143.55267643826971
 31
0.0
  0
LINE
  5
15C4
  8
0
 39
5.0
 10
88.714143363572191
 20
13.13227643826975
 30
0.0
 11
88.714143363572191
 21
19.932276438269749
 31
0.0
  0
LINE
  5
15D5
  8
0
 39
5.0
 10
90.66074336357218
 20
66.932276438269739
 30
0.0
 11
90.66074336357218
 21
36.932276438269753
 31
0.0
  0
LINE
  5
15E4
  8
0
 39
5.0
 10
87.059543363572189
 20
144.6078764382697
 30
0.0
 11
85.599743363572188
 21
144.6078764382697
 31
0.0
  0
LINE
  5
15E7
  8
0
 10
90.849743363572173
 20
13.13227643826975
 30
0.0
 11
90.849743363572173
 21
12.30618759089443
 31
0.0
  0
LINE
  5
15EF
  8
0
 10
92.599743363572202
 20
100.8203764382697
 30
0.0
 11
92.599743363572188
 21
66.932276438269753
 31
0.0
  0
LINE
  5
15F1
  8
0
 10
92.599743363572188
 20
75.102876438269732
 30
0.0
 11
85.599743363572188
 21
75.102876438269732
 31
0.0
  0
LINE
  5
15FD
  8
0
 10
92.599743363572188
 20
124.9322764382697
 30
0.0
 11
92.599743363572188
 21
110.5863764382697
 31
0.0
  0
LINE
  5
1617
  8
0
 10
85.599743363572188
 20
145.21933549180889
 30
0.0
 11
88.099743363572188
 21
145.21933549180889
 31
0.0
  0
LINE
  5
1619
  8
0
 39
5.0
 10
85.599743363572188
 20
148.90687643826971
 30
0.0
 11
88.056943363572174
 21
148.90687643826971
 31
0.0
  0
LINE
  5
161A
  8
0
 39
5.0
 10
85.599743363572188
 20
152.22897643826971
 30
0.0
 11
88.032943363572187
 21
152.22897643826971
 31
0.0
  0
LINE
  5
161B
  8
0
 39
5.0
 10
88.032943363572187
 20
152.22897643826971
 30
0.0
 11
88.032943363572187
 21
152.22897643826971
 31
0.0
  0
LINE
  5
161C
  8
0
 39
5.0
 10
88.032943363572187
 20
152.22897643826971
 30
0.0
 11
88.102543363572181
 21
152.22537643826971
 31
0.0
  0
LINE
  5
161D
  8
0
 39
5.0
 10
88.102543363572181
 20
152.22537643826971
 30
0.0
 11
88.169943363572173
 21
152.2149764382697
 31
0.0
  0
LINE
  5
161E
  8
0
 39
5.0
 10
88.169943363572173
 20
152.2149764382697
 30
0.0
 11
88.235243363572181
 21
152.19797643826971
 31
0.0
  0
LINE
  5
161F
  8
0
 39
5.0
 10
88.235243363572181
 20
152.19797643826971
 30
0.0
 11
88.297643363572178
 21
152.17507643826971
 31
0.0
  0
LINE
  5
1620
  8
0
 39
5.0
 10
88.297643363572178
 20
152.17507643826971
 30
0.0
 11
88.357243363572195
 21
152.14617643826969
 31
0.0
  0
LINE
  5
1621
  8
0
 39
5.0
 10
88.357243363572195
 20
152.14617643826969
 30
0.0
 11
88.413443363572185
 21
152.11197643826969
 31
0.0
  0
LINE
  5
1622
  8
0
 39
5.0
 10
88.413443363572185
 20
152.11197643826969
 30
0.0
 11
88.465943363572194
 21
152.0726764382697
 31
0.0
  0
LINE
  5
1623
  8
0
 39
5.0
 10
88.465943363572194
 20
152.0726764382697
 30
0.0
 11
88.514243363572191
 21
152.02877643826969
 31
0.0
  0
LINE
  5
1624
  8
0
 39
5.0
 10
88.514243363572191
 20
152.02877643826969
 30
0.0
 11
88.558343363572192
 21
151.98017643826969
 31
0.0
  0
LINE
  5
1625
  8
0
 39
5.0
 10
88.558343363572192
 20
151.98017643826969
 30
0.0
 11
88.597643363572189
 21
151.92777643826969
 31
0.0
  0
LINE
  5
1626
  8
0
 39
5.0
 10
88.597643363572189
 20
151.92777643826969
 30
0.0
 11
88.631843363572187
 21
151.8715764382697
 31
0.0
  0
LINE
  5
1627
  8
0
 39
5.0
 10
88.631843363572187
 20
151.8715764382697
 30
0.0
 11
88.660543363572188
 21
151.81217643826969
 31
0.0
  0
LINE
  5
1628
  8
0
 39
5.0
 10
88.660543363572188
 20
151.81217643826969
 30
0.0
 11
88.683643363572187
 21
151.74957643826971
 31
0.0
  0
LINE
  5
1629
  8
0
 39
5.0
 10
88.683643363572187
 20
151.74957643826971
 30
0.0
 11
88.700443363572191
 21
151.68447643826971
 31
0.0
  0
LINE
  5
162A
  8
0
 39
5.0
 10
88.700443363572191
 20
151.68447643826971
 30
0.0
 11
88.710843363572195
 21
151.61697643826969
 31
0.0
  0
LINE
  5
162B
  8
0
 39
5.0
 10
88.710843363572195
 20
151.61697643826969
 30
0.0
 11
88.714243363572194
 21
151.54767643826969
 31
0.0
  0
LINE
  5
162C
  8
0
 39
5.0
 10
88.714243363572194
 20
151.54767643826969
 30
0.0
 11
88.714243363572194
 21
149.5882764382697
 31
0.0
  0
LINE
  5
162D
  8
0
 39
5.0
 10
88.714243363572194
 20
149.5882764382697
 30
0.0
 11
88.714243363572194
 21
149.5882764382697
 31
0.0
  0
LINE
  5
162E
  8
0
 39
5.0
 10
88.714243363572194
 20
149.5882764382697
 30
0.0
 11
88.710843363572195
 21
149.51867643826969
 31
0.0
  0
LINE
  5
162F
  8
0
 39
5.0
 10
88.710843363572195
 20
149.51867643826969
 30
0.0
 11
88.700443363572191
 21
149.4512764382697
 31
0.0
  0
LINE
  5
1630
  8
0
 39
5.0
 10
88.700443363572191
 20
149.4512764382697
 30
0.0
 11
88.683643363572187
 21
149.38597643826969
 31
0.0
  0
LINE
  5
1631
  8
0
 39
5.0
 10
88.683643363572187
 20
149.38597643826969
 30
0.0
 11
88.660543363572188
 21
149.3235764382697
 31
0.0
  0
LINE
  5
1632
  8
0
 39
5.0
 10
88.660543363572188
 20
149.3235764382697
 30
0.0
 11
88.631843363572187
 21
149.26397643826971
 31
0.0
  0
LINE
  5
1633
  8
0
 39
5.0
 10
88.631843363572187
 20
149.26397643826971
 30
0.0
 11
88.597643363572189
 21
149.20777643826969
 31
0.0
  0
LINE
  5
1634
  8
0
 39
5.0
 10
88.597643363572189
 20
149.20777643826969
 30
0.0
 11
88.558343363572192
 21
149.15527643826971
 31
0.0
  0
LINE
  5
1635
  8
0
 39
5.0
 10
88.558343363572192
 20
149.15527643826971
 30
0.0
 11
88.514243363572191
 21
149.1069764382697
 31
0.0
  0
LINE
  5
1636
  8
0
 39
5.0
 10
88.514243363572191
 20
149.1069764382697
 30
0.0
 11
88.465943363572194
 21
149.06287643826971
 31
0.0
  0
LINE
  5
1637
  8
0
 39
5.0
 10
88.465943363572194
 20
149.06287643826971
 30
0.0
 11
88.413443363572185
 21
149.02357643826971
 31
0.0
  0
LINE
  5
1638
  8
0
 39
5.0
 10
88.413443363572185
 20
149.02357643826971
 30
0.0
 11
88.357243363572195
 21
148.98937643826969
 31
0.0
  0
LINE
  5
1639
  8
0
 39
5.0
 10
88.357243363572195
 20
148.98937643826969
 30
0.0
 11
88.297643363572178
 21
148.9606764382697
 31
0.0
  0
LINE
  5
163A
  8
0
 39
5.0
 10
88.297643363572178
 20
148.9606764382697
 30
0.0
 11
88.235243363572181
 21
148.9375764382697
 31
0.0
  0
LINE
  5
163B
  8
0
 39
5.0
 10
88.235243363572181
 20
148.9375764382697
 30
0.0
 11
88.169943363572173
 21
148.92077643826971
 31
0.0
  0
LINE
  5
163C
  8
0
 39
5.0
 10
88.169943363572173
 20
148.92077643826971
 30
0.0
 11
88.102543363572181
 21
148.91037643826971
 31
0.0
  0
LINE
  5
163D
  8
0
 39
5.0
 10
88.102543363572181
 20
148.91037643826971
 30
0.0
 11
88.032943363572187
 21
148.90697643826971
 31
0.0
  0
LINE
  5
163E
  8
0
 39
5.0
 10
88.032943363572187
 20
148.90697643826971
 30
0.0
 11
85.599743363572188
 21
148.90697643826971
 31
0.0
  0
LINE
  5
163F
  8
0
 39
5.0
 10
85.599743363572188
 20
152.22897643826971
 30
0.0
 11
83.166543363572188
 21
152.22897643826971
 31
0.0
  0
LINE
  5
1640
  8
0
 10
89.298143363572194
 20
152.22897643826971
 30
0.0
 11
88.032943363572187
 21
152.22897643826971
 31
0.0
  0
LINE
  5
1641
  8
0
 10
88.032943363572187
 20
148.90697643826971
 30
0.0
 11
89.298143363572194
 21
148.90697643826971
 31
0.0
  0
LINE
  5
164A
  8
0
 10
85.599743363572188
 20
124.9322764382697
 30
0.0
 11
92.599743363572188
 21
124.9322764382697
 31
0.0
  0
LINE
  5
16A8
  8
0
 39
5.0
 10
93.485243363572167
 20
105.70567643826971
 30
0.0
 11
93.485243363572167
 21
105.70107643826969
 31
0.0
  0
LINE
  5
16AB
  8
0
 39
5.0
 10
85.599743363572188
 20
110.5863764382697
 30
0.0
 11
89.963443363572182
 21
110.5863764382697
 31
0.0
  0
LINE
  5
16AC
  8
0
 39
5.0
 10
89.963443363572182
 20
110.5863764382697
 30
0.0
 11
89.963443363572182
 21
110.5863764382697
 31
0.0
  0
LINE
  5
16AD
  8
0
 39
5.0
 10
89.963443363572182
 20
110.5863764382697
 30
0.0
 11
89.993243363572176
 21
110.5770764382697
 31
0.0
  0
LINE
  5
16AE
  8
0
 39
5.0
 10
89.993243363572176
 20
110.5770764382697
 30
0.0
 11
90.036543363572207
 21
110.56577643826969
 31
0.0
  0
LINE
  5
16AF
  8
0
 39
5.0
 10
90.036543363572207
 20
110.56577643826969
 30
0.0
 11
90.091043363572155
 21
110.5514764382697
 31
0.0
  0
LINE
  5
16B0
  8
0
 39
5.0
 10
90.091043363572155
 20
110.5514764382697
 30
0.0
 11
90.154443363572156
 21
110.53357643826971
 31
0.0
  0
LINE
  5
16B1
  8
0
 39
5.0
 10
90.154443363572156
 20
110.53357643826971
 30
0.0
 11
90.224543363572195
 21
110.51097643826969
 31
0.0
  0
LINE
  5
16B2
  8
0
 39
5.0
 10
90.224543363572195
 20
110.51097643826969
 30
0.0
 11
90.298643363572168
 21
110.48317643826969
 31
0.0
  0
LINE
  5
16B3
  8
0
 39
5.0
 10
90.298643363572168
 20
110.48317643826969
 30
0.0
 11
90.374743363572165
 21
110.44927643826971
 31
0.0
  0
LINE
  5
16B4
  8
0
 39
5.0
 10
90.374743363572165
 20
110.44927643826971
 30
0.0
 11
90.450343363572159
 21
110.40867643826969
 31
0.0
  0
LINE
  5
16B5
  8
0
 39
5.0
 10
90.450343363572159
 20
110.40867643826969
 30
0.0
 11
90.523343363572152
 21
110.3601764382697
 31
0.0
  0
LINE
  5
16B6
  8
0
 39
5.0
 10
90.523343363572152
 20
110.3601764382697
 30
0.0
 11
90.591143363572186
 21
110.30337643826969
 31
0.0
  0
LINE
  5
16B7
  8
0
 39
5.0
 10
90.591143363572186
 20
110.30337643826969
 30
0.0
 11
90.651543363572173
 21
110.23737643826971
 31
0.0
  0
LINE
  5
16B8
  8
0
 39
5.0
 10
90.651543363572173
 20
110.23737643826971
 30
0.0
 11
90.702143363572176
 21
110.1613764382697
 31
0.0
  0
LINE
  5
16B9
  8
0
 39
5.0
 10
90.702143363572176
 20
110.1613764382697
 30
0.0
 11
90.74074336357215
 21
110.0745764382697
 31
0.0
  0
LINE
  5
16BA
  8
0
 39
5.0
 10
90.74074336357215
 20
110.0745764382697
 30
0.0
 11
90.764743363572151
 21
109.97627643826969
 31
0.0
  0
LINE
  5
16BB
  8
0
 39
5.0
 10
90.764743363572151
 20
109.97627643826969
 30
0.0
 11
90.77214336357217
 21
109.8656764382697
 31
0.0
  0
LINE
  5
16BC
  8
0
 39
5.0
 10
90.77214336357217
 20
109.8656764382697
 30
0.0
 11
90.760143363572155
 21
109.7419764382697
 31
0.0
  0
LINE
  5
16BD
  8
0
 39
5.0
 10
90.760143363572155
 20
109.7419764382697
 30
0.0
 11
90.760143363572155
 21
106.7205764382697
 31
0.0
  0
LINE
  5
16BE
  8
0
 39
5.0
 10
90.760143363572155
 20
106.7205764382697
 30
0.0
 11
90.760143363572155
 21
106.7205764382697
 31
0.0
  0
LINE
  5
16BF
  8
0
 39
5.0
 10
90.760143363572155
 20
106.7205764382697
 30
0.0
 11
90.774043363572176
 21
106.6151764382697
 31
0.0
  0
LINE
  5
16C0
  8
0
 39
5.0
 10
90.774043363572176
 20
106.6151764382697
 30
0.0
 11
90.772343363572176
 21
106.5153764382697
 31
0.0
  0
LINE
  5
16C1
  8
0
 39
5.0
 10
90.772343363572176
 20
106.5153764382697
 30
0.0
 11
90.757043363572151
 21
106.42107643826969
 31
0.0
  0
LINE
  5
16C2
  8
0
 39
5.0
 10
90.757043363572151
 20
106.42107643826969
 30
0.0
 11
90.729743363572169
 21
106.3323764382697
 31
0.0
  0
LINE
  5
16C3
  8
0
 39
5.0
 10
90.729743363572169
 20
106.3323764382697
 30
0.0
 11
90.692643363572174
 21
106.2491764382697
 31
0.0
  0
LINE
  5
16C4
  8
0
 39
5.0
 10
90.692643363572174
 20
106.2491764382697
 30
0.0
 11
90.647143363572184
 21
106.1715764382697
 31
0.0
  0
LINE
  5
16C5
  8
0
 39
5.0
 10
90.647143363572184
 20
106.1715764382697
 30
0.0
 11
90.595343363572155
 21
106.09957643826969
 31
0.0
  0
LINE
  5
16C6
  8
0
 39
5.0
 10
90.595343363572155
 20
106.09957643826969
 30
0.0
 11
90.538743363572166
 21
106.0332764382697
 31
0.0
  0
LINE
  5
16C7
  8
0
 39
5.0
 10
90.538743363572166
 20
106.0332764382697
 30
0.0
 11
90.479643363572166
 21
105.9722764382697
 31
0.0
  0
LINE
  5
16C8
  8
0
 39
5.0
 10
90.479643363572166
 20
105.9722764382697
 30
0.0
 11
90.419443363572157
 21
105.9168764382697
 31
0.0
  0
LINE
  5
16C9
  8
0
 39
5.0
 10
90.419443363572157
 20
105.9168764382697
 30
0.0
 11
90.360243363572167
 21
105.8669764382697
 31
0.0
  0
LINE
  5
16CA
  8
0
 39
5.0
 10
90.360243363572167
 20
105.8669764382697
 30
0.0
 11
90.303643363572164
 21
105.8226764382697
 31
0.0
  0
LINE
  5
16CB
  8
0
 39
5.0
 10
90.303643363572164
 20
105.8226764382697
 30
0.0
 11
90.251643363572171
 21
105.7838764382697
 31
0.0
  0
LINE
  5
16CC
  8
0
 39
5.0
 10
90.251643363572171
 20
105.7838764382697
 30
0.0
 11
90.205843363572157
 21
105.75067643826971
 31
0.0
  0
LINE
  5
16CD
  8
0
 39
5.0
 10
90.205843363572157
 20
105.75067643826971
 30
0.0
 11
90.168243363572145
 21
105.7230764382697
 31
0.0
  0
LINE
  5
16CE
  8
0
 39
5.0
 10
90.168243363572145
 20
105.7230764382697
 30
0.0
 11
90.140443363572174
 21
105.70107643826969
 31
0.0
  0
LINE
  5
16CF
  8
0
 39
5.0
 10
90.140443363572174
 20
105.70107643826969
 30
0.0
 11
85.599743363572188
 21
105.70107643826969
 31
0.0
  0
LINE
  5
16D0
  8
0
 39
5.0
 10
85.599743363572188
 20
105.70567643826971
 30
0.0
 11
89.963443363572182
 21
105.70567643826971
 31
0.0
  0
LINE
  5
16D1
  8
0
 39
5.0
 10
89.963443363572182
 20
105.70567643826971
 30
0.0
 11
89.963443363572182
 21
105.70567643826971
 31
0.0
  0
LINE
  5
16D2
  8
0
 39
5.0
 10
89.963443363572182
 20
105.70567643826971
 30
0.0
 11
89.993243363572176
 21
105.6963764382697
 31
0.0
  0
LINE
  5
16D3
  8
0
 39
5.0
 10
89.993243363572176
 20
105.6963764382697
 30
0.0
 11
90.036543363572207
 21
105.6850764382697
 31
0.0
  0
LINE
  5
16D4
  8
0
 39
5.0
 10
90.036543363572207
 20
105.6850764382697
 30
0.0
 11
90.091043363572155
 21
105.6707764382697
 31
0.0
  0
LINE
  5
16D5
  8
0
 39
5.0
 10
90.091043363572155
 20
105.6707764382697
 30
0.0
 11
90.154443363572156
 21
105.6528764382697
 31
0.0
  0
LINE
  5
16D6
  8
0
 39
5.0
 10
90.154443363572156
 20
105.6528764382697
 30
0.0
 11
90.224543363572195
 21
105.6302764382697
 31
0.0
  0
LINE
  5
16D7
  8
0
 39
5.0
 10
90.224543363572195
 20
105.6302764382697
 30
0.0
 11
90.298643363572168
 21
105.6024764382697
 31
0.0
  0
LINE
  5
16D8
  8
0
 39
5.0
 10
90.298643363572168
 20
105.6024764382697
 30
0.0
 11
90.374743363572165
 21
105.5685764382697
 31
0.0
  0
LINE
  5
16D9
  8
0
 39
5.0
 10
90.374743363572165
 20
105.5685764382697
 30
0.0
 11
90.450343363572159
 21
105.5279764382697
 31
0.0
  0
LINE
  5
16DA
  8
0
 39
5.0
 10
90.450343363572159
 20
105.5279764382697
 30
0.0
 11
90.523343363572152
 21
105.4794764382697
 31
0.0
  0
LINE
  5
16DB
  8
0
 39
5.0
 10
90.523343363572152
 20
105.4794764382697
 30
0.0
 11
90.591143363572186
 21
105.4226764382697
 31
0.0
  0
LINE
  5
16DC
  8
0
 39
5.0
 10
90.591143363572186
 20
105.4226764382697
 30
0.0
 11
90.651543363572173
 21
105.3566764382697
 31
0.0
  0
LINE
  5
16DD
  8
0
 39
5.0
 10
90.651543363572173
 20
105.3566764382697
 30
0.0
 11
90.702143363572176
 21
105.28067643826969
 31
0.0
  0
LINE
  5
16DE
  8
0
 39
5.0
 10
90.702143363572176
 20
105.28067643826969
 30
0.0
 11
90.74074336357215
 21
105.1938764382697
 31
0.0
  0
LINE
  5
16DF
  8
0
 39
5.0
 10
90.74074336357215
 20
105.1938764382697
 30
0.0
 11
90.764743363572151
 21
105.0955764382697
 31
0.0
  0
LINE
  5
16E0
  8
0
 39
5.0
 10
90.764743363572151
 20
105.0955764382697
 30
0.0
 11
90.77214336357217
 21
104.9849764382697
 31
0.0
  0
LINE
  5
16E1
  8
0
 39
5.0
 10
90.77214336357217
 20
104.9849764382697
 30
0.0
 11
90.760143363572155
 21
104.8612764382697
 31
0.0
  0
LINE
  5
16E2
  8
0
 39
5.0
 10
90.760143363572155
 20
104.8612764382697
 30
0.0
 11
90.760143363572155
 21
101.8398764382697
 31
0.0
  0
LINE
  5
16E3
  8
0
 39
5.0
 10
90.760143363572155
 20
101.8398764382697
 30
0.0
 11
90.760143363572155
 21
101.8398764382697
 31
0.0
  0
LINE
  5
16E4
  8
0
 39
5.0
 10
90.760143363572155
 20
101.8398764382697
 30
0.0
 11
90.774043363572176
 21
101.7344764382697
 31
0.0
  0
LINE
  5
16E5
  8
0
 39
5.0
 10
90.774043363572176
 20
101.7344764382697
 30
0.0
 11
90.772343363572176
 21
101.63467643826969
 31
0.0
  0
LINE
  5
16E6
  8
0
 39
5.0
 10
90.772343363572176
 20
101.63467643826969
 30
0.0
 11
90.757043363572151
 21
101.5403764382697
 31
0.0
  0
LINE
  5
16E7
  8
0
 39
5.0
 10
90.757043363572151
 20
101.5403764382697
 30
0.0
 11
90.729743363572169
 21
101.4516764382697
 31
0.0
  0
LINE
  5
16E8
  8
0
 39
5.0
 10
90.729743363572169
 20
101.4516764382697
 30
0.0
 11
90.692643363572174
 21
101.3684764382697
 31
0.0
  0
LINE
  5
16E9
  8
0
 39
5.0
 10
90.692643363572174
 20
101.3684764382697
 30
0.0
 11
90.647143363572184
 21
101.29087643826971
 31
0.0
  0
LINE
  5
16EA
  8
0
 39
5.0
 10
90.647143363572184
 20
101.29087643826971
 30
0.0
 11
90.595343363572155
 21
101.2188764382697
 31
0.0
  0
LINE
  5
16EB
  8
0
 39
5.0
 10
90.595343363572155
 20
101.2188764382697
 30
0.0
 11
90.538743363572166
 21
101.1525764382697
 31
0.0
  0
LINE
  5
16EC
  8
0
 39
5.0
 10
90.538743363572166
 20
101.1525764382697
 30
0.0
 11
90.479643363572166
 21
101.0915764382697
 31
0.0
  0
LINE
  5
16ED
  8
0
 39
5.0
 10
90.479643363572166
 20
101.0915764382697
 30
0.0
 11
90.419443363572157
 21
101.03617643826971
 31
0.0
  0
LINE
  5
16EE
  8
0
 39
5.0
 10
90.419443363572157
 20
101.03617643826971
 30
0.0
 11
90.360243363572167
 21
100.9862764382697
 31
0.0
  0
LINE
  5
16EF
  8
0
 39
5.0
 10
90.360243363572167
 20
100.9862764382697
 30
0.0
 11
90.303643363572164
 21
100.94197643826971
 31
0.0
  0
LINE
  5
16F0
  8
0
 39
5.0
 10
90.303643363572164
 20
100.94197643826971
 30
0.0
 11
90.251643363572171
 21
100.9031764382697
 31
0.0
  0
LINE
  5
16F1
  8
0
 39
5.0
 10
90.251643363572171
 20
100.9031764382697
 30
0.0
 11
90.205843363572157
 21
100.8699764382697
 31
0.0
  0
LINE
  5
16F2
  8
0
 39
5.0
 10
90.205843363572157
 20
100.8699764382697
 30
0.0
 11
90.168243363572145
 21
100.8423764382697
 31
0.0
  0
LINE
  5
16F3
  8
0
 39
5.0
 10
90.168243363572145
 20
100.8423764382697
 30
0.0
 11
90.140443363572174
 21
100.8203764382697
 31
0.0
  0
LINE
  5
16F4
  8
0
 39
5.0
 10
90.140443363572174
 20
100.8203764382697
 30
0.0
 11
85.599743363572188
 21
100.8203764382697
 31
0.0
  0
LINE
  5
16F5
  8
0
 10
90.140443363572174
 20
100.8203764382697
 30
0.0
 11
91.695843363572166
 21
100.8203764382697
 31
0.0
  0
LINE
  5
16F6
  8
0
 10
89.963443363572182
 20
105.70567643826971
 30
0.0
 11
91.695843363572166
 21
105.70567643826971
 31
0.0
  0
LINE
  5
16F7
  8
0
 10
89.963443363572182
 20
110.5863764382697
 30
0.0
 11
91.695843363572166
 21
110.5863764382697
 31
0.0
  0
LINE
  5
16FC
  8
0
 39
5.0
 10
91.695843363572166
 20
110.5863764382697
 30
0.0
 11
95.664043363572191
 21
110.5863764382697
 31
0.0
  0
LINE
  5
16FD
  8
0
 39
5.0
 10
95.664043363572191
 20
110.5863764382697
 30
0.0
 11
95.664043363572191
 21
110.5863764382697
 31
0.0
  0
LINE
  5
16FE
  8
0
 39
5.0
 10
95.664043363572191
 20
110.5863764382697
 30
0.0
 11
95.759543363572178
 21
110.58157643826971
 31
0.0
  0
LINE
  5
16FF
  8
0
 39
5.0
 10
95.759543363572178
 20
110.58157643826971
 30
0.0
 11
95.852143363572154
 21
110.5677764382697
 31
0.0
  0
LINE
  5
1700
  8
0
 39
5.0
 10
95.852143363572154
 20
110.5677764382697
 30
0.0
 11
95.941743363572186
 21
110.5453764382697
 31
0.0
  0
LINE
  5
1701
  8
0
 39
5.0
 10
95.941743363572186
 20
110.5453764382697
 30
0.0
 11
96.027543363572178
 21
110.5148764382697
 31
0.0
  0
LINE
  5
1702
  8
0
 39
5.0
 10
96.027543363572178
 20
110.5148764382697
 30
0.0
 11
96.109343363572165
 21
110.4765764382697
 31
0.0
  0
LINE
  5
1703
  8
0
 39
5.0
 10
96.109343363572165
 20
110.4765764382697
 30
0.0
 11
96.186443363572195
 21
110.4311764382697
 31
0.0
  0
LINE
  5
1704
  8
0
 39
5.0
 10
96.186443363572195
 20
110.4311764382697
 30
0.0
 11
96.258443363572198
 21
110.3789764382697
 31
0.0
  0
LINE
  5
1705
  8
0
 39
5.0
 10
96.258443363572198
 20
110.3789764382697
 30
0.0
 11
96.324943363572174
 21
110.3205764382697
 31
0.0
  0
LINE
  5
1706
  8
0
 39
5.0
 10
96.324943363572174
 20
110.3205764382697
 30
0.0
 11
96.385543363572182
 21
110.2561764382697
 31
0.0
  0
LINE
  5
1707
  8
0
 39
5.0
 10
96.385543363572182
 20
110.2561764382697
 30
0.0
 11
96.439543363572156
 21
110.18647643826969
 31
0.0
  0
LINE
  5
1708
  8
0
 39
5.0
 10
96.439543363572156
 20
110.18647643826969
 30
0.0
 11
96.486543363572181
 21
110.1118764382697
 31
0.0
  0
LINE
  5
1709
  8
0
 39
5.0
 10
96.486543363572181
 20
110.1118764382697
 30
0.0
 11
96.525943363572182
 21
110.0329764382697
 31
0.0
  0
LINE
  5
170A
  8
0
 39
5.0
 10
96.525943363572182
 20
110.0329764382697
 30
0.0
 11
96.557643363572183
 21
109.9498764382697
 31
0.0
  0
LINE
  5
170B
  8
0
 39
5.0
 10
96.557643363572183
 20
109.9498764382697
 30
0.0
 11
96.580743363572182
 21
109.8633764382697
 31
0.0
  0
LINE
  5
170C
  8
0
 39
5.0
 10
96.580743363572182
 20
109.8633764382697
 30
0.0
 11
96.595043363572174
 21
109.77377643826971
 31
0.0
  0
LINE
  5
170D
  8
0
 39
5.0
 10
96.595043363572174
 20
109.77377643826971
 30
0.0
 11
96.599743363572188
 21
109.6818764382697
 31
0.0
  0
LINE
  5
170E
  8
0
 39
5.0
 10
96.599743363572188
 20
109.6818764382697
 30
0.0
 11
96.599743363572188
 21
106.60557643826969
 31
0.0
  0
LINE
  5
170F
  8
0
 39
5.0
 10
96.599743363572188
 20
106.60557643826969
 30
0.0
 11
96.599743363572188
 21
106.60557643826969
 31
0.0
  0
LINE
  5
1710
  8
0
 39
5.0
 10
96.599743363572188
 20
106.60557643826969
 30
0.0
 11
96.595043363572174
 21
106.5133764382697
 31
0.0
  0
LINE
  5
1711
  8
0
 39
5.0
 10
96.595043363572174
 20
106.5133764382697
 30
0.0
 11
96.580743363572182
 21
106.4237764382697
 31
0.0
  0
LINE
  5
1712
  8
0
 39
5.0
 10
96.580743363572182
 20
106.4237764382697
 30
0.0
 11
96.557643363572183
 21
106.33717643826969
 31
0.0
  0
LINE
  5
1713
  8
0
 39
5.0
 10
96.557643363572183
 20
106.33717643826969
 30
0.0
 11
96.525943363572182
 21
106.2542764382697
 31
0.0
  0
LINE
  5
1714
  8
0
 39
5.0
 10
96.525943363572182
 20
106.2542764382697
 30
0.0
 11
96.486543363572181
 21
106.1751764382697
 31
0.0
  0
LINE
  5
1715
  8
0
 39
5.0
 10
96.486543363572181
 20
106.1751764382697
 30
0.0
 11
96.439543363572156
 21
106.1005764382697
 31
0.0
  0
LINE
  5
1716
  8
0
 39
5.0
 10
96.439543363572156
 20
106.1005764382697
 30
0.0
 11
96.385543363572182
 21
106.0308764382697
 31
0.0
  0
LINE
  5
1717
  8
0
 39
5.0
 10
96.385543363572182
 20
106.0308764382697
 30
0.0
 11
96.324943363572174
 21
105.9666764382697
 31
0.0
  0
LINE
  5
1718
  8
0
 39
5.0
 10
96.324943363572174
 20
105.9666764382697
 30
0.0
 11
96.258443363572198
 21
105.9080764382697
 31
0.0
  0
LINE
  5
1719
  8
0
 39
5.0
 10
96.258443363572198
 20
105.9080764382697
 30
0.0
 11
96.186443363572195
 21
105.85597643826971
 31
0.0
  0
LINE
  5
171A
  8
0
 39
5.0
 10
96.186443363572195
 20
105.85597643826971
 30
0.0
 11
96.109343363572165
 21
105.8104764382697
 31
0.0
  0
LINE
  5
171B
  8
0
 39
5.0
 10
96.109343363572165
 20
105.8104764382697
 30
0.0
 11
96.027543363572178
 21
105.7723764382697
 31
0.0
  0
LINE
  5
171C
  8
0
 39
5.0
 10
96.027543363572178
 20
105.7723764382697
 30
0.0
 11
95.941743363572186
 21
105.7417764382697
 31
0.0
  0
LINE
  5
171D
  8
0
 39
5.0
 10
95.941743363572186
 20
105.7417764382697
 30
0.0
 11
95.852143363572154
 21
105.71947643826969
 31
0.0
  0
LINE
  5
171E
  8
0
 39
5.0
 10
95.852143363572154
 20
105.71947643826969
 30
0.0
 11
95.759543363572178
 21
105.70567643826971
 31
0.0
  0
LINE
  5
171F
  8
0
 39
5.0
 10
95.759543363572178
 20
105.70567643826971
 30
0.0
 11
95.664043363572191
 21
105.70107643826969
 31
0.0
  0
LINE
  5
1720
  8
0
 39
5.0
 10
95.664043363572191
 20
105.70107643826969
 30
0.0
 11
91.695843363572166
 21
105.70107643826969
 31
0.0
  0
LINE
  5
1721
  8
0
 39
5.0
 10
91.695843363572166
 20
105.70107643826969
 30
0.0
 11
91.695843363572166
 21
105.70107643826969
 31
0.0
  0
LINE
  5
1722
  8
0
 39
5.0
 10
91.695843363572166
 20
105.70107643826969
 30
0.0
 11
91.600643363572189
 21
105.70567643826971
 31
0.0
  0
LINE
  5
1723
  8
0
 39
5.0
 10
91.600643363572189
 20
105.70567643826971
 30
0.0
 11
91.508043363572185
 21
105.71947643826969
 31
0.0
  0
LINE
  5
1724
  8
0
 39
5.0
 10
91.508043363572185
 20
105.71947643826969
 30
0.0
 11
91.418643363572173
 21
105.7417764382697
 31
0.0
  0
LINE
  5
1725
  8
0
 39
5.0
 10
91.418643363572173
 20
105.7417764382697
 30
0.0
 11
91.33264336357216
 21
105.7723764382697
 31
0.0
  0
LINE
  5
1726
  8
0
 39
5.0
 10
91.33264336357216
 20
105.7723764382697
 30
0.0
 11
91.250943363572176
 21
105.8104764382697
 31
0.0
  0
LINE
  5
1727
  8
0
 39
5.0
 10
91.250943363572176
 20
105.8104764382697
 30
0.0
 11
91.173743363572171
 21
105.85597643826971
 31
0.0
  0
LINE
  5
1728
  8
0
 39
5.0
 10
91.173743363572171
 20
105.85597643826971
 30
0.0
 11
91.101743363572197
 21
105.9080764382697
 31
0.0
  0
LINE
  5
1729
  8
0
 39
5.0
 10
91.101743363572197
 20
105.9080764382697
 30
0.0
 11
91.035043363572157
 21
105.9666764382697
 31
0.0
  0
LINE
  5
172A
  8
0
 39
5.0
 10
91.035043363572157
 20
105.9666764382697
 30
0.0
 11
90.974643363572156
 21
106.0308764382697
 31
0.0
  0
LINE
  5
172B
  8
0
 39
5.0
 10
90.974643363572156
 20
106.0308764382697
 30
0.0
 11
90.920643363572182
 21
106.1005764382697
 31
0.0
  0
LINE
  5
172C
  8
0
 39
5.0
 10
90.920643363572182
 20
106.1005764382697
 30
0.0
 11
90.873743363572189
 21
106.1751764382697
 31
0.0
  0
LINE
  5
172D
  8
0
 39
5.0
 10
90.873743363572189
 20
106.1751764382697
 30
0.0
 11
90.83404336357215
 21
106.2542764382697
 31
0.0
  0
LINE
  5
172E
  8
0
 39
5.0
 10
90.83404336357215
 20
106.2542764382697
 30
0.0
 11
90.802643363572187
 21
106.33717643826969
 31
0.0
  0
LINE
  5
172F
  8
0
 39
5.0
 10
90.802643363572187
 20
106.33717643826969
 30
0.0
 11
90.779343363572181
 21
106.4237764382697
 31
0.0
  0
LINE
  5
1730
  8
0
 39
5.0
 10
90.779343363572181
 20
106.4237764382697
 30
0.0
 11
90.76504336357219
 21
106.5133764382697
 31
0.0
  0
LINE
  5
1731
  8
0
 39
5.0
 10
90.76504336357219
 20
106.5133764382697
 30
0.0
 11
90.760143363572155
 21
106.60557643826969
 31
0.0
  0
LINE
  5
1732
  8
0
 39
5.0
 10
90.760143363572155
 20
106.60557643826969
 30
0.0
 11
90.760143363572155
 21
109.6818764382697
 31
0.0
  0
LINE
  5
1733
  8
0
 39
5.0
 10
90.760143363572155
 20
109.6818764382697
 30
0.0
 11
90.760143363572155
 21
109.6818764382697
 31
0.0
  0
LINE
  5
1734
  8
0
 39
5.0
 10
90.760143363572155
 20
109.6818764382697
 30
0.0
 11
90.76504336357219
 21
109.77377643826971
 31
0.0
  0
LINE
  5
1735
  8
0
 39
5.0
 10
90.76504336357219
 20
109.77377643826971
 30
0.0
 11
90.779343363572181
 21
109.8633764382697
 31
0.0
  0
LINE
  5
1736
  8
0
 39
5.0
 10
90.779343363572181
 20
109.8633764382697
 30
0.0
 11
90.802643363572187
 21
109.9498764382697
 31
0.0
  0
LINE
  5
1737
  8
0
 39
5.0
 10
90.802643363572187
 20
109.9498764382697
 30
0.0
 11
90.83404336357215
 21
110.0329764382697
 31
0.0
  0
LINE
  5
1738
  8
0
 39
5.0
 10
90.83404336357215
 20
110.0329764382697
 30
0.0
 11
90.873743363572189
 21
110.1118764382697
 31
0.0
  0
LINE
  5
1739
  8
0
 39
5.0
 10
90.873743363572189
 20
110.1118764382697
 30
0.0
 11
90.920643363572182
 21
110.18647643826969
 31
0.0
  0
LINE
  5
173A
  8
0
 39
5.0
 10
90.920643363572182
 20
110.18647643826969
 30
0.0
 11
90.974643363572156
 21
110.2561764382697
 31
0.0
  0
LINE
  5
173B
  8
0
 39
5.0
 10
90.974643363572156
 20
110.2561764382697
 30
0.0
 11
91.035043363572157
 21
110.3205764382697
 31
0.0
  0
LINE
  5
173C
  8
0
 39
5.0
 10
91.035043363572157
 20
110.3205764382697
 30
0.0
 11
91.101743363572197
 21
110.3789764382697
 31
0.0
  0
LINE
  5
173D
  8
0
 39
5.0
 10
91.101743363572197
 20
110.3789764382697
 30
0.0
 11
91.173743363572171
 21
110.4311764382697
 31
0.0
  0
LINE
  5
173E
  8
0
 39
5.0
 10
91.173743363572171
 20
110.4311764382697
 30
0.0
 11
91.250943363572176
 21
110.4765764382697
 31
0.0
  0
LINE
  5
173F
  8
0
 39
5.0
 10
91.250943363572176
 20
110.4765764382697
 30
0.0
 11
91.33264336357216
 21
110.5148764382697
 31
0.0
  0
LINE
  5
1740
  8
0
 39
5.0
 10
91.33264336357216
 20
110.5148764382697
 30
0.0
 11
91.418643363572173
 21
110.5453764382697
 31
0.0
  0
LINE
  5
1741
  8
0
 39
5.0
 10
91.418643363572173
 20
110.5453764382697
 30
0.0
 11
91.508043363572185
 21
110.5677764382697
 31
0.0
  0
LINE
  5
1742
  8
0
 39
5.0
 10
91.508043363572185
 20
110.5677764382697
 30
0.0
 11
91.600643363572189
 21
110.58157643826971
 31
0.0
  0
LINE
  5
1743
  8
0
 39
5.0
 10
91.600643363572189
 20
110.58157643826971
 30
0.0
 11
91.695843363572166
 21
110.5863764382697
 31
0.0
  0
LINE
  5
1744
  8
0
 39
5.0
 10
91.695843363572166
 20
105.70567643826971
 30
0.0
 11
95.664043363572191
 21
105.70567643826971
 31
0.0
  0
LINE
  5
1745
  8
0
 39
5.0
 10
95.664043363572191
 20
105.70567643826971
 30
0.0
 11
95.664043363572191
 21
105.70567643826971
 31
0.0
  0
LINE
  5
1746
  8
0
 39
5.0
 10
95.664043363572191
 20
105.70567643826971
 30
0.0
 11
95.759543363572178
 21
105.7008764382697
 31
0.0
  0
LINE
  5
1747
  8
0
 39
5.0
 10
95.759543363572178
 20
105.7008764382697
 30
0.0
 11
95.852143363572154
 21
105.6870764382697
 31
0.0
  0
LINE
  5
1748
  8
0
 39
5.0
 10
95.852143363572154
 20
105.6870764382697
 30
0.0
 11
95.941743363572186
 21
105.66467643826969
 31
0.0
  0
LINE
  5
1749
  8
0
 39
5.0
 10
95.941743363572186
 20
105.66467643826969
 30
0.0
 11
96.027543363572178
 21
105.63417643826971
 31
0.0
  0
LINE
  5
174A
  8
0
 39
5.0
 10
96.027543363572178
 20
105.63417643826971
 30
0.0
 11
96.109343363572165
 21
105.5958764382697
 31
0.0
  0
LINE
  5
174B
  8
0
 39
5.0
 10
96.109343363572165
 20
105.5958764382697
 30
0.0
 11
96.186443363572195
 21
105.5504764382697
 31
0.0
  0
LINE
  5
174C
  8
0
 39
5.0
 10
96.186443363572195
 20
105.5504764382697
 30
0.0
 11
96.258443363572198
 21
105.4982764382697
 31
0.0
  0
LINE
  5
174D
  8
0
 39
5.0
 10
96.258443363572198
 20
105.4982764382697
 30
0.0
 11
96.324943363572174
 21
105.43987643826971
 31
0.0
  0
LINE
  5
174E
  8
0
 39
5.0
 10
96.324943363572174
 20
105.43987643826971
 30
0.0
 11
96.385543363572182
 21
105.3754764382697
 31
0.0
  0
LINE
  5
174F
  8
0
 39
5.0
 10
96.385543363572182
 20
105.3754764382697
 30
0.0
 11
96.439543363572156
 21
105.3057764382697
 31
0.0
  0
LINE
  5
1750
  8
0
 39
5.0
 10
96.439543363572156
 20
105.3057764382697
 30
0.0
 11
96.486543363572181
 21
105.2311764382697
 31
0.0
  0
LINE
  5
1751
  8
0
 39
5.0
 10
96.486543363572181
 20
105.2311764382697
 30
0.0
 11
96.525943363572182
 21
105.15227643826969
 31
0.0
  0
LINE
  5
1752
  8
0
 39
5.0
 10
96.525943363572182
 20
105.15227643826969
 30
0.0
 11
96.557643363572183
 21
105.06917643826969
 31
0.0
  0
LINE
  5
1753
  8
0
 39
5.0
 10
96.557643363572183
 20
105.06917643826969
 30
0.0
 11
96.580743363572182
 21
104.98267643826971
 31
0.0
  0
LINE
  5
1754
  8
0
 39
5.0
 10
96.580743363572182
 20
104.98267643826971
 30
0.0
 11
96.595043363572174
 21
104.8930764382697
 31
0.0
  0
LINE
  5
1755
  8
0
 39
5.0
 10
96.595043363572174
 20
104.8930764382697
 30
0.0
 11
96.599743363572188
 21
104.80117643826971
 31
0.0
  0
LINE
  5
1756
  8
0
 39
5.0
 10
96.599743363572188
 20
104.80117643826971
 30
0.0
 11
96.599743363572188
 21
101.7248764382697
 31
0.0
  0
LINE
  5
1757
  8
0
 39
5.0
 10
96.599743363572188
 20
101.7248764382697
 30
0.0
 11
96.599743363572188
 21
101.7248764382697
 31
0.0
  0
LINE
  5
1758
  8
0
 39
5.0
 10
96.599743363572188
 20
101.7248764382697
 30
0.0
 11
96.595043363572174
 21
101.6326764382697
 31
0.0
  0
LINE
  5
1759
  8
0
 39
5.0
 10
96.595043363572174
 20
101.6326764382697
 30
0.0
 11
96.580743363572182
 21
101.54307643826969
 31
0.0
  0
LINE
  5
175A
  8
0
 39
5.0
 10
96.580743363572182
 20
101.54307643826969
 30
0.0
 11
96.557643363572183
 21
101.4564764382697
 31
0.0
  0
LINE
  5
175B
  8
0
 39
5.0
 10
96.557643363572183
 20
101.4564764382697
 30
0.0
 11
96.525943363572182
 21
101.37357643826969
 31
0.0
  0
LINE
  5
175C
  8
0
 39
5.0
 10
96.525943363572182
 20
101.37357643826969
 30
0.0
 11
96.486543363572181
 21
101.2944764382697
 31
0.0
  0
LINE
  5
175D
  8
0
 39
5.0
 10
96.486543363572181
 20
101.2944764382697
 30
0.0
 11
96.439543363572156
 21
101.21987643826969
 31
0.0
  0
LINE
  5
175E
  8
0
 39
5.0
 10
96.439543363572156
 20
101.21987643826969
 30
0.0
 11
96.385543363572182
 21
101.1501764382697
 31
0.0
  0
LINE
  5
175F
  8
0
 39
5.0
 10
96.385543363572182
 20
101.1501764382697
 30
0.0
 11
96.324943363572174
 21
101.0859764382697
 31
0.0
  0
LINE
  5
1760
  8
0
 39
5.0
 10
96.324943363572174
 20
101.0859764382697
 30
0.0
 11
96.258443363572198
 21
101.0273764382697
 31
0.0
  0
LINE
  5
1761
  8
0
 39
5.0
 10
96.258443363572198
 20
101.0273764382697
 30
0.0
 11
96.186443363572195
 21
100.9752764382697
 31
0.0
  0
LINE
  5
1762
  8
0
 39
5.0
 10
96.186443363572195
 20
100.9752764382697
 30
0.0
 11
96.109343363572165
 21
100.9297764382697
 31
0.0
  0
LINE
  5
1763
  8
0
 39
5.0
 10
96.109343363572165
 20
100.9297764382697
 30
0.0
 11
96.027543363572178
 21
100.8916764382697
 31
0.0
  0
LINE
  5
1764
  8
0
 39
5.0
 10
96.027543363572178
 20
100.8916764382697
 30
0.0
 11
95.941743363572186
 21
100.86107643826971
 31
0.0
  0
LINE
  5
1765
  8
0
 39
5.0
 10
95.941743363572186
 20
100.86107643826971
 30
0.0
 11
95.852143363572154
 21
100.8387764382697
 31
0.0
  0
LINE
  5
1766
  8
0
 39
5.0
 10
95.852143363572154
 20
100.8387764382697
 30
0.0
 11
95.759543363572178
 21
100.8249764382697
 31
0.0
  0
LINE
  5
1767
  8
0
 39
5.0
 10
95.759543363572178
 20
100.8249764382697
 30
0.0
 11
95.664043363572191
 21
100.8203764382697
 31
0.0
  0
LINE
  5
1768
  8
0
 39
5.0
 10
95.664043363572191
 20
100.8203764382697
 30
0.0
 11
91.695843363572166
 21
100.8203764382697
 31
0.0
  0
LINE
  5
1769
  8
0
 39
5.0
 10
91.695843363572166
 20
100.8203764382697
 30
0.0
 11
91.695843363572166
 21
100.8203764382697
 31
0.0
  0
LINE
  5
176A
  8
0
 39
5.0
 10
91.695843363572166
 20
100.8203764382697
 30
0.0
 11
91.600643363572189
 21
100.8249764382697
 31
0.0
  0
LINE
  5
176B
  8
0
 39
5.0
 10
91.600643363572189
 20
100.8249764382697
 30
0.0
 11
91.508043363572185
 21
100.8387764382697
 31
0.0
  0
LINE
  5
176C
  8
0
 39
5.0
 10
91.508043363572185
 20
100.8387764382697
 30
0.0
 11
91.418643363572173
 21
100.86107643826971
 31
0.0
  0
LINE
  5
176D
  8
0
 39
5.0
 10
91.418643363572173
 20
100.86107643826971
 30
0.0
 11
91.33264336357216
 21
100.8916764382697
 31
0.0
  0
LINE
  5
176E
  8
0
 39
5.0
 10
91.33264336357216
 20
100.8916764382697
 30
0.0
 11
91.250943363572176
 21
100.9297764382697
 31
0.0
  0
LINE
  5
176F
  8
0
 39
5.0
 10
91.250943363572176
 20
100.9297764382697
 30
0.0
 11
91.173743363572171
 21
100.9752764382697
 31
0.0
  0
LINE
  5
1770
  8
0
 39
5.0
 10
91.173743363572171
 20
100.9752764382697
 30
0.0
 11
91.101743363572197
 21
101.0273764382697
 31
0.0
  0
LINE
  5
1771
  8
0
 39
5.0
 10
91.101743363572197
 20
101.0273764382697
 30
0.0
 11
91.035043363572157
 21
101.0859764382697
 31
0.0
  0
LINE
  5
1772
  8
0
 39
5.0
 10
91.035043363572157
 20
101.0859764382697
 30
0.0
 11
90.974643363572156
 21
101.1501764382697
 31
0.0
  0
LINE
  5
1773
  8
0
 39
5.0
 10
90.974643363572156
 20
101.1501764382697
 30
0.0
 11
90.920643363572182
 21
101.21987643826969
 31
0.0
  0
LINE
  5
1774
  8
0
 39
5.0
 10
90.920643363572182
 20
101.21987643826969
 30
0.0
 11
90.873743363572189
 21
101.2944764382697
 31
0.0
  0
LINE
  5
1775
  8
0
 39
5.0
 10
90.873743363572189
 20
101.2944764382697
 30
0.0
 11
90.83404336357215
 21
101.37357643826969
 31
0.0
  0
LINE
  5
1776
  8
0
 39
5.0
 10
90.83404336357215
 20
101.37357643826969
 30
0.0
 11
90.802643363572187
 21
101.4564764382697
 31
0.0
  0
LINE
  5
1777
  8
0
 39
5.0
 10
90.802643363572187
 20
101.4564764382697
 30
0.0
 11
90.779343363572181
 21
101.54307643826969
 31
0.0
  0
LINE
  5
1778
  8
0
 39
5.0
 10
90.779343363572181
 20
101.54307643826969
 30
0.0
 11
90.76504336357219
 21
101.6326764382697
 31
0.0
  0
LINE
  5
1779
  8
0
 39
5.0
 10
90.76504336357219
 20
101.6326764382697
 30
0.0
 11
90.760143363572155
 21
101.7248764382697
 31
0.0
  0
LINE
  5
177A
  8
0
 39
5.0
 10
90.760143363572155
 20
101.7248764382697
 30
0.0
 11
90.760143363572155
 21
104.80117643826971
 31
0.0
  0
LINE
  5
177B
  8
0
 39
5.0
 10
90.760143363572155
 20
104.80117643826971
 30
0.0
 11
90.760143363572155
 21
104.80117643826971
 31
0.0
  0
LINE
  5
177C
  8
0
 39
5.0
 10
90.760143363572155
 20
104.80117643826971
 30
0.0
 11
90.76504336357219
 21
104.8930764382697
 31
0.0
  0
LINE
  5
177D
  8
0
 39
5.0
 10
90.76504336357219
 20
104.8930764382697
 30
0.0
 11
90.779343363572181
 21
104.98267643826971
 31
0.0
  0
LINE
  5
177E
  8
0
 39
5.0
 10
90.779343363572181
 20
104.98267643826971
 30
0.0
 11
90.802643363572187
 21
105.06917643826969
 31
0.0
  0
LINE
  5
177F
  8
0
 39
5.0
 10
90.802643363572187
 20
105.06917643826969
 30
0.0
 11
90.83404336357215
 21
105.15227643826969
 31
0.0
  0
LINE
  5
1780
  8
0
 39
5.0
 10
90.83404336357215
 20
105.15227643826969
 30
0.0
 11
90.873743363572189
 21
105.2311764382697
 31
0.0
  0
LINE
  5
1781
  8
0
 39
5.0
 10
90.873743363572189
 20
105.2311764382697
 30
0.0
 11
90.920643363572182
 21
105.3057764382697
 31
0.0
  0
LINE
  5
1782
  8
0
 39
5.0
 10
90.920643363572182
 20
105.3057764382697
 30
0.0
 11
90.974643363572156
 21
105.3754764382697
 31
0.0
  0
LINE
  5
1783
  8
0
 39
5.0
 10
90.974643363572156
 20
105.3754764382697
 30
0.0
 11
91.035043363572157
 21
105.43987643826971
 31
0.0
  0
LINE
  5
1784
  8
0
 39
5.0
 10
91.035043363572157
 20
105.43987643826971
 30
0.0
 11
91.101743363572197
 21
105.4982764382697
 31
0.0
  0
LINE
  5
1785
  8
0
 39
5.0
 10
91.101743363572197
 20
105.4982764382697
 30
0.0
 11
91.173743363572171
 21
105.5504764382697
 31
0.0
  0
LINE
  5
1786
  8
0
 39
5.0
 10
91.173743363572171
 20
105.5504764382697
 30
0.0
 11
91.250943363572176
 21
105.5958764382697
 31
0.0
  0
LINE
  5
1787
  8
0
 39
5.0
 10
91.250943363572176
 20
105.5958764382697
 30
0.0
 11
91.33264336357216
 21
105.63417643826971
 31
0.0
  0
LINE
  5
1788
  8
0
 39
5.0
 10
91.33264336357216
 20
105.63417643826971
 30
0.0
 11
91.418643363572173
 21
105.66467643826969
 31
0.0
  0
LINE
  5
1789
  8
0
 39
5.0
 10
91.418643363572173
 20
105.66467643826969
 30
0.0
 11
91.508043363572185
 21
105.6870764382697
 31
0.0
  0
LINE
  5
178A
  8
0
 39
5.0
 10
91.508043363572185
 20
105.6870764382697
 30
0.0
 11
91.600643363572189
 21
105.7008764382697
 31
0.0
  0
LINE
  5
178B
  8
0
 39
5.0
 10
91.600643363572189
 20
105.7008764382697
 30
0.0
 11
91.695843363572166
 21
105.70567643826971
 31
0.0
  0
LINE
  5
1807
  8
0
 39
5.0
 10
92.095943363572204
 20
36.932276438269753
 30
0.0
 11
94.431843363572213
 21
36.932276438269753
 31
0.0
  0
LINE
  5
1808
  8
0
 39
5.0
 10
94.431843363572213
 20
36.932276438269753
 30
0.0
 11
94.431843363572213
 21
36.932276438269753
 31
0.0
  0
LINE
  5
1809
  8
0
 39
5.0
 10
94.431843363572213
 20
36.932276438269753
 30
0.0
 11
94.550943363572216
 21
36.926076438269739
 31
0.0
  0
LINE
  5
180A
  8
0
 39
5.0
 10
94.550943363572216
 20
36.926076438269739
 30
0.0
 11
94.666543363572188
 21
36.908276438269752
 31
0.0
  0
LINE
  5
180B
  8
0
 39
5.0
 10
94.666543363572188
 20
36.908276438269752
 30
0.0
 11
94.778343363572205
 21
36.879376438269738
 31
0.0
  0
LINE
  5
180C
  8
0
 39
5.0
 10
94.778343363572205
 20
36.879376438269738
 30
0.0
 11
94.885443363572193
 21
36.840076438269747
 31
0.0
  0
LINE
  5
180D
  8
0
 39
5.0
 10
94.885443363572193
 20
36.840076438269747
 30
0.0
 11
94.987543363572215
 21
36.790576438269738
 31
0.0
  0
LINE
  5
180E
  8
0
 39
5.0
 10
94.987543363572215
 20
36.790576438269738
 30
0.0
 11
95.0838433635722
 21
36.731976438269747
 31
0.0
  0
LINE
  5
180F
  8
0
 39
5.0
 10
95.0838433635722
 20
36.731976438269747
 30
0.0
 11
95.173843363572203
 21
36.664576438269748
 31
0.0
  0
LINE
  5
1810
  8
0
 39
5.0
 10
95.173843363572203
 20
36.664576438269748
 30
0.0
 11
95.256743363572227
 21
36.589176438269739
 31
0.0
  0
LINE
  5
1811
  8
0
 39
5.0
 10
95.256743363572227
 20
36.589176438269739
 30
0.0
 11
95.33244336357221
 21
36.505976438269748
 31
0.0
  0
LINE
  5
1812
  8
0
 39
5.0
 10
95.33244336357221
 20
36.505976438269748
 30
0.0
 11
95.399743363572199
 21
36.415976438269752
 31
0.0
  0
LINE
  5
1813
  8
0
 39
5.0
 10
95.399743363572199
 20
36.415976438269752
 30
0.0
 11
95.458543363572204
 21
36.319676438269752
 31
0.0
  0
LINE
  5
1814
  8
0
 39
5.0
 10
95.458543363572204
 20
36.319676438269752
 30
0.0
 11
95.507743363572189
 21
36.217776438269752
 31
0.0
  0
LINE
  5
1815
  8
0
 39
5.0
 10
95.507743363572189
 20
36.217776438269752
 30
0.0
 11
95.547143363572204
 21
36.110576438269739
 31
0.0
  0
LINE
  5
1816
  8
0
 39
5.0
 10
95.547143363572204
 20
36.110576438269739
 30
0.0
 11
95.575943363572193
 21
35.99887643826974
 31
0.0
  0
LINE
  5
1817
  8
0
 39
5.0
 10
95.575943363572193
 20
35.99887643826974
 30
0.0
 11
95.593743363572216
 21
35.883276438269739
 31
0.0
  0
LINE
  5
1818
  8
0
 39
5.0
 10
95.593743363572216
 20
35.883276438269739
 30
0.0
 11
95.599743363572188
 21
35.76437643826975
 31
0.0
  0
LINE
  5
1819
  8
0
 39
5.0
 10
95.599743363572188
 20
35.76437643826975
 30
0.0
 11
95.599743363572188
 21
21.099276438269751
 31
0.0
  0
LINE
  5
181A
  8
0
 39
5.0
 10
95.599743363572188
 20
21.099276438269751
 30
0.0
 11
95.599743363572188
 21
21.099276438269751
 31
0.0
  0
LINE
  5
181B
  8
0
 39
5.0
 10
95.599743363572188
 20
21.099276438269751
 30
0.0
 11
95.593743363572216
 21
20.980176438269751
 31
0.0
  0
LINE
  5
181C
  8
0
 39
5.0
 10
95.593743363572216
 20
20.980176438269751
 30
0.0
 11
95.575943363572193
 21
20.864576438269751
 31
0.0
  0
LINE
  5
181D
  8
0
 39
5.0
 10
95.575943363572193
 20
20.864576438269751
 30
0.0
 11
95.547143363572204
 21
20.752776438269748
 31
0.0
  0
LINE
  5
181E
  8
0
 39
5.0
 10
95.547143363572204
 20
20.752776438269748
 30
0.0
 11
95.507743363572189
 21
20.645676438269739
 31
0.0
  0
LINE
  5
181F
  8
0
 39
5.0
 10
95.507743363572189
 20
20.645676438269739
 30
0.0
 11
95.458543363572204
 21
20.543576438269749
 31
0.0
  0
LINE
  5
1820
  8
0
 39
5.0
 10
95.458543363572204
 20
20.543576438269749
 30
0.0
 11
95.399743363572199
 21
20.447276438269729
 31
0.0
  0
LINE
  5
1821
  8
0
 39
5.0
 10
95.399743363572199
 20
20.447276438269729
 30
0.0
 11
95.33244336357221
 21
20.357276438269739
 31
0.0
  0
LINE
  5
1822
  8
0
 39
5.0
 10
95.33244336357221
 20
20.357276438269739
 30
0.0
 11
95.256743363572227
 21
20.274376438269741
 31
0.0
  0
LINE
  5
1823
  8
0
 39
5.0
 10
95.256743363572227
 20
20.274376438269741
 30
0.0
 11
95.173843363572203
 21
20.198676438269739
 31
0.0
  0
LINE
  5
1824
  8
0
 39
5.0
 10
95.173843363572203
 20
20.198676438269739
 30
0.0
 11
95.0838433635722
 21
20.131376438269729
 31
0.0
  0
LINE
  5
1825
  8
0
 39
5.0
 10
95.0838433635722
 20
20.131376438269729
 30
0.0
 11
94.987543363572215
 21
20.072576438269738
 31
0.0
  0
LINE
  5
1826
  8
0
 39
5.0
 10
94.987543363572215
 20
20.072576438269738
 30
0.0
 11
94.885443363572193
 21
20.02337643826975
 31
0.0
  0
LINE
  5
1827
  8
0
 39
5.0
 10
94.885443363572193
 20
20.02337643826975
 30
0.0
 11
94.778343363572205
 21
19.983976438269739
 31
0.0
  0
LINE
  5
1828
  8
0
 39
5.0
 10
94.778343363572205
 20
19.983976438269739
 30
0.0
 11
94.666543363572188
 21
19.955176438269739
 31
0.0
  0
LINE
  5
1829
  8
0
 39
5.0
 10
94.666543363572188
 20
19.955176438269739
 30
0.0
 11
94.550943363572216
 21
19.937376438269752
 31
0.0
  0
LINE
  5
182A
  8
0
 39
5.0
 10
94.550943363572216
 20
19.937376438269752
 30
0.0
 11
94.449708363572242
 21
19.932276438269749
 31
0.0
  0
LINE
  5
182B
  8
0
 39
5.0
 10
94.431843363572213
 20
19.931376438269751
 30
0.0
 11
92.095943363572204
 21
19.931376438269751
 31
0.0
  0
LINE
  5
182C
  8
0
 39
5.0
 10
92.095943363572204
 20
19.931376438269751
 30
0.0
 11
92.095943363572204
 21
19.931376438269751
 31
0.0
  0
LINE
  5
182D
  8
0
 39
5.0
 10
92.095943363572204
 20
19.931376438269751
 30
0.0
 11
91.977043363572207
 21
19.937376438269752
 31
0.0
  0
LINE
  5
182E
  8
0
 39
5.0
 10
91.977043363572207
 20
19.937376438269752
 30
0.0
 11
91.861443363572207
 21
19.955176438269739
 31
0.0
  0
LINE
  5
182F
  8
0
 39
5.0
 10
91.861443363572207
 20
19.955176438269739
 30
0.0
 11
91.749743363572207
 21
19.983976438269739
 31
0.0
  0
LINE
  5
1830
  8
0
 39
5.0
 10
91.749743363572207
 20
19.983976438269739
 30
0.0
 11
91.642543363572187
 21
20.02337643826975
 31
0.0
  0
LINE
  5
1831
  8
0
 39
5.0
 10
91.642543363572187
 20
20.02337643826975
 30
0.0
 11
91.540643363572187
 21
20.072576438269738
 31
0.0
  0
LINE
  5
1832
  8
0
 39
5.0
 10
91.540643363572187
 20
20.072576438269738
 30
0.0
 11
91.444343363572187
 21
20.131376438269729
 31
0.0
  0
LINE
  5
1833
  8
0
 39
5.0
 10
91.444343363572187
 20
20.131376438269729
 30
0.0
 11
91.354343363572227
 21
20.198676438269739
 31
0.0
  0
LINE
  5
1834
  8
0
 39
5.0
 10
91.354343363572227
 20
20.198676438269739
 30
0.0
 11
91.271143363572193
 21
20.274376438269741
 31
0.0
  0
LINE
  5
1835
  8
0
 39
5.0
 10
91.271143363572193
 20
20.274376438269741
 30
0.0
 11
91.195743363572191
 21
20.357276438269739
 31
0.0
  0
LINE
  5
1836
  8
0
 39
5.0
 10
91.195743363572191
 20
20.357276438269739
 30
0.0
 11
91.128343363572213
 21
20.447276438269729
 31
0.0
  0
LINE
  5
1837
  8
0
 39
5.0
 10
91.128343363572213
 20
20.447276438269729
 30
0.0
 11
91.069743363572215
 21
20.543576438269749
 31
0.0
  0
LINE
  5
1838
  8
0
 39
5.0
 10
91.069743363572215
 20
20.543576438269749
 30
0.0
 11
91.020243363572192
 21
20.645676438269739
 31
0.0
  0
LINE
  5
1839
  8
0
 39
5.0
 10
91.020243363572192
 20
20.645676438269739
 30
0.0
 11
90.980943363572223
 21
20.752776438269748
 31
0.0
  0
LINE
  5
183A
  8
0
 39
5.0
 10
90.980943363572223
 20
20.752776438269748
 30
0.0
 11
90.952043363572201
 21
20.864576438269751
 31
0.0
  0
LINE
  5
183B
  8
0
 39
5.0
 10
90.952043363572201
 20
20.864576438269751
 30
0.0
 11
90.934243363572207
 21
20.980176438269751
 31
0.0
  0
LINE
  5
183C
  8
0
 39
5.0
 10
90.934243363572207
 20
20.980176438269751
 30
0.0
 11
90.928043363572201
 21
21.099276438269751
 31
0.0
  0
LINE
  5
183D
  8
0
 39
5.0
 10
90.928043363572201
 20
21.099276438269751
 30
0.0
 11
90.928043363572201
 21
35.76437643826975
 31
0.0
  0
LINE
  5
183E
  8
0
 39
5.0
 10
90.928043363572201
 20
35.76437643826975
 30
0.0
 11
90.928043363572201
 21
35.76437643826975
 31
0.0
  0
LINE
  5
183F
  8
0
 39
5.0
 10
90.928043363572201
 20
35.76437643826975
 30
0.0
 11
90.934243363572207
 21
35.883276438269739
 31
0.0
  0
LINE
  5
1840
  8
0
 39
5.0
 10
90.934243363572207
 20
35.883276438269739
 30
0.0
 11
90.952043363572201
 21
35.99887643826974
 31
0.0
  0
LINE
  5
1841
  8
0
 39
5.0
 10
90.952043363572201
 20
35.99887643826974
 30
0.0
 11
90.980943363572223
 21
36.110576438269739
 31
0.0
  0
LINE
  5
1842
  8
0
 39
5.0
 10
90.980943363572223
 20
36.110576438269739
 30
0.0
 11
91.020243363572192
 21
36.217776438269752
 31
0.0
  0
LINE
  5
1843
  8
0
 39
5.0
 10
91.020243363572192
 20
36.217776438269752
 30
0.0
 11
91.069743363572215
 21
36.319676438269752
 31
0.0
  0
LINE
  5
1844
  8
0
 39
5.0
 10
91.069743363572215
 20
36.319676438269752
 30
0.0
 11
91.128343363572213
 21
36.415976438269752
 31
0.0
  0
LINE
  5
1845
  8
0
 39
5.0
 10
91.128343363572213
 20
36.415976438269752
 30
0.0
 11
91.195743363572191
 21
36.505976438269748
 31
0.0
  0
LINE
  5
1846
  8
0
 39
5.0
 10
91.195743363572191
 20
36.505976438269748
 30
0.0
 11
91.271143363572193
 21
36.589176438269739
 31
0.0
  0
LINE
  5
1847
  8
0
 39
5.0
 10
91.271143363572193
 20
36.589176438269739
 30
0.0
 11
91.354343363572227
 21
36.664576438269748
 31
0.0
  0
LINE
  5
1848
  8
0
 39
5.0
 10
91.354343363572227
 20
36.664576438269748
 30
0.0
 11
91.444343363572187
 21
36.731976438269747
 31
0.0
  0
LINE
  5
1849
  8
0
 39
5.0
 10
91.444343363572187
 20
36.731976438269747
 30
0.0
 11
91.540643363572187
 21
36.790576438269738
 31
0.0
  0
LINE
  5
184A
  8
0
 39
5.0
 10
91.540643363572187
 20
36.790576438269738
 30
0.0
 11
91.642543363572187
 21
36.840076438269747
 31
0.0
  0
LINE
  5
184B
  8
0
 39
5.0
 10
91.642543363572187
 20
36.840076438269747
 30
0.0
 11
91.749743363572207
 21
36.879376438269738
 31
0.0
  0
LINE
  5
184C
  8
0
 39
5.0
 10
91.749743363572207
 20
36.879376438269738
 30
0.0
 11
91.861443363572207
 21
36.908276438269752
 31
0.0
  0
LINE
  5
184D
  8
0
 39
5.0
 10
91.861443363572207
 20
36.908276438269752
 30
0.0
 11
91.977043363572207
 21
36.926076438269739
 31
0.0
  0
LINE
  5
184E
  8
0
 39
5.0
 10
91.977043363572207
 20
36.926076438269739
 30
0.0
 11
92.095943363572204
 21
36.932276438269753
 31
0.0
  0
LINE
  5
184F
  8
0
 39
5.0
 10
85.599743363572188
 20
36.932276438269753
 30
0.0
 11
89.849643363572198
 21
36.932276438269753
 31
0.0
  0
LINE
  5
1850
  8
0
 39
5.0
 10
89.849643363572198
 20
36.932276438269753
 30
0.0
 11
89.849643363572198
 21
36.932276438269753
 31
0.0
  0
LINE
  5
1851
  8
0
 39
5.0
 10
89.849643363572198
 20
36.932276438269753
 30
0.0
 11
89.936143363572214
 21
36.913576438269743
 31
0.0
  0
LINE
  5
1852
  8
0
 39
5.0
 10
89.936143363572214
 20
36.913576438269743
 30
0.0
 11
90.023843363572198
 21
36.89057643826974
 31
0.0
  0
LINE
  5
1853
  8
0
 39
5.0
 10
90.023843363572198
 20
36.89057643826974
 30
0.0
 11
90.112243363572205
 21
36.862976438269747
 31
0.0
  0
LINE
  5
1854
  8
0
 39
5.0
 10
90.112243363572205
 20
36.862976438269747
 30
0.0
 11
90.200243363572199
 21
36.830976438269737
 31
0.0
  0
LINE
  5
1855
  8
0
 39
5.0
 10
90.200243363572199
 20
36.830976438269737
 30
0.0
 11
90.287243363572188
 21
36.79427643826974
 31
0.0
  0
LINE
  5
1856
  8
0
 39
5.0
 10
90.287243363572188
 20
36.79427643826974
 30
0.0
 11
90.372143363572192
 21
36.753276438269751
 31
0.0
  0
LINE
  5
1857
  8
0
 39
5.0
 10
90.372143363572192
 20
36.753276438269751
 30
0.0
 11
90.454243363572203
 21
36.707676438269743
 31
0.0
  0
LINE
  5
1858
  8
0
 39
5.0
 10
90.454243363572203
 20
36.707676438269743
 30
0.0
 11
90.532643363572205
 21
36.657676438269739
 31
0.0
  0
LINE
  5
1859
  8
0
 39
5.0
 10
90.532643363572205
 20
36.657676438269739
 30
0.0
 11
90.606843363572224
 21
36.602976438269749
 31
0.0
  0
LINE
  5
185A
  8
0
 39
5.0
 10
90.606843363572224
 20
36.602976438269749
 30
0.0
 11
90.675443363572214
 21
36.543776438269738
 31
0.0
  0
LINE
  5
185B
  8
0
 39
5.0
 10
90.675443363572214
 20
36.543776438269738
 30
0.0
 11
90.737943363572214
 21
36.480076438269748
 31
0.0
  0
LINE
  5
185C
  8
0
 39
5.0
 10
90.737943363572214
 20
36.480076438269748
 30
0.0
 11
90.793343363572177
 21
36.41207643826975
 31
0.0
  0
LINE
  5
185D
  8
0
 39
5.0
 10
90.793343363572177
 20
36.41207643826975
 30
0.0
 11
90.841043363572211
 21
36.339376438269731
 31
0.0
  0
LINE
  5
185E
  8
0
 39
5.0
 10
90.841043363572211
 20
36.339376438269731
 30
0.0
 11
90.879943363572224
 21
36.262176438269741
 31
0.0
  0
LINE
  5
185F
  8
0
 39
5.0
 10
90.879943363572224
 20
36.262176438269741
 30
0.0
 11
90.909243363572202
 21
36.18047643826975
 31
0.0
  0
LINE
  5
1860
  8
0
 39
5.0
 10
90.909243363572202
 20
36.18047643826975
 30
0.0
 11
90.928043363572201
 21
36.094476438269751
 31
0.0
  0
LINE
  5
1861
  8
0
 39
5.0
 10
90.928043363572201
 20
36.094476438269751
 30
0.0
 11
90.928043363572201
 21
20.865576438269748
 31
0.0
  0
LINE
  5
1862
  8
0
 39
5.0
 10
90.928043363572201
 20
20.865576438269748
 30
0.0
 11
90.928043363572201
 21
20.865576438269748
 31
0.0
  0
LINE
  5
1863
  8
0
 39
5.0
 10
90.928043363572201
 20
20.865576438269748
 30
0.0
 11
90.908043363572204
 21
20.75627643826973
 31
0.0
  0
LINE
  5
1864
  8
0
 39
5.0
 10
90.908043363572204
 20
20.75627643826973
 30
0.0
 11
90.883343363572223
 21
20.653976438269751
 31
0.0
  0
LINE
  5
1865
  8
0
 39
5.0
 10
90.883343363572223
 20
20.653976438269751
 30
0.0
 11
90.854143363572234
 21
20.55827643826974
 31
0.0
  0
LINE
  5
1866
  8
0
 39
5.0
 10
90.854143363572234
 20
20.55827643826974
 30
0.0
 11
90.820343363572206
 21
20.46947643826973
 31
0.0
  0
LINE
  5
1867
  8
0
 39
5.0
 10
90.820343363572206
 20
20.46947643826973
 30
0.0
 11
90.782143363572217
 21
20.38727643826973
 31
0.0
  0
LINE
  5
1868
  8
0
 39
5.0
 10
90.782143363572217
 20
20.38727643826973
 30
0.0
 11
90.739443363572207
 21
20.312076438269742
 31
0.0
  0
LINE
  5
1869
  8
0
 39
5.0
 10
90.739443363572207
 20
20.312076438269742
 30
0.0
 11
90.692243363572203
 21
20.243576438269741
 31
0.0
  0
LINE
  5
186A
  8
0
 39
5.0
 10
90.692243363572203
 20
20.243576438269741
 30
0.0
 11
90.640443363572203
 21
20.18187643826974
 31
0.0
  0
LINE
  5
186B
  8
0
 39
5.0
 10
90.640443363572203
 20
20.18187643826974
 30
0.0
 11
90.58444336357222
 21
20.12687643826974
 31
0.0
  0
LINE
  5
186C
  8
0
 39
5.0
 10
90.58444336357222
 20
20.12687643826974
 30
0.0
 11
90.523743363572237
 21
20.078676438269749
 31
0.0
  0
LINE
  5
186D
  8
0
 39
5.0
 10
90.523743363572237
 20
20.078676438269749
 30
0.0
 11
90.458643363572193
 21
20.037176438269729
 31
0.0
  0
LINE
  5
186E
  8
0
 39
5.0
 10
90.458643363572193
 20
20.037176438269729
 30
0.0
 11
90.388943363572182
 21
20.002476438269749
 31
0.0
  0
LINE
  5
186F
  8
0
 39
5.0
 10
90.388943363572182
 20
20.002476438269749
 30
0.0
 11
90.314943363572226
 21
19.97447643826974
 31
0.0
  0
LINE
  5
1870
  8
0
 39
5.0
 10
90.314943363572226
 20
19.97447643826974
 30
0.0
 11
90.236243363572214
 21
19.953276438269729
 31
0.0
  0
LINE
  5
1871
  8
0
 39
5.0
 10
90.236243363572214
 20
19.953276438269729
 30
0.0
 11
90.153043363572223
 21
19.938876438269741
 31
0.0
  0
LINE
  5
1872
  8
0
 39
5.0
 10
90.153043363572223
 20
19.938876438269741
 30
0.0
 11
90.065343363572168
 21
19.931376438269751
 31
0.0
  0
LINE
  5
1876
  8
0
 10
92.095943363572204
 20
36.932276438269753
 30
0.0
 11
89.849643363572198
 21
36.932276438269753
 31
0.0
  0
LINE
  5
1885
  8
0
 10
92.599743363572188
 20
66.932276438269753
 30
0.0
 11
85.599743363572188
 21
66.932276438269753
 31
0.0
  0
LINE
  5
1886
  8
0
 10
80.538743363572181
 20
66.932276438269739
 30
0.0
 11
78.599743363572173
 21
66.932276438269753
 31
0.0
  0
LINE
  5
188A
  8
0
 10
76.749778363572162
 20
19.932276438269749
 30
0.0
 11
82.485343363572184
 21
19.93227643826976
 31
0.0
  0
LINE
  5
188B
  8
2
 39
5.0
 10
92.164243363572183
 20
124.9322764382697
 30
0.0
 11
92.164243363572183
 21
110.5863764382697
 31
0.0
  0
LINE
  5
188C
  8
2
 39
5.0
 10
82.096043363572193
 20
129.9322764382697
 30
0.0
 11
82.096043363572193
 21
125.7130681738069
 31
0.0
  0
LINE
  5
188D
  8
2
 39
5.0
 10
79.035243363572192
 20
124.9322764382697
 30
0.0
 11
79.035243363572192
 21
110.5863764382697
 31
0.0
  0
LINE
  5
188E
  8
2
 39
5.0
 10
92.164243363572183
 20
100.8203764382697
 30
0.0
 11
92.164243363572183
 21
75.102876438269732
 31
0.0
  0
LINE
  5
188F
  8
2
 39
5.0
 10
75.599743363572173
 20
29.651776438269739
 30
0.0
 11
81.803943363572188
 21
29.651776438269739
 31
0.0
  0
LINE
  5
1890
  8
2
 39
5.0
 10
75.599743363572173
 20
24.212776438269749
 30
0.0
 11
81.803943363572188
 21
24.212776438269749
 31
0.0
  0
LINE
  5
1891
  8
0
 39
5.0
 10
46.398043363572178
 20
26.932276438269749
 30
0.0
 11
46.398043363572178
 21
28.605376438269762
 31
0.0
  0
LINE
  5
1893
  8
2
 39
5.0
 10
79.035243363572192
 20
100.8203764382697
 30
0.0
 11
79.035243363572192
 21
75.102876438269732
 31
0.0
  0
LINE
  5
1894
  8
0
 39
5.0
 10
89.298143363572194
 20
152.22897643826971
 30
0.0
 11
91.634043363572189
 21
152.22897643826971
 31
0.0
  0
LINE
  5
1895
  8
0
 39
5.0
 10
91.634043363572189
 20
152.22897643826971
 30
0.0
 11
91.634043363572189
 21
152.22897643826971
 31
0.0
  0
LINE
  5
1896
  8
0
 39
5.0
 10
91.634043363572189
 20
152.22897643826971
 30
0.0
 11
91.693643363572193
 21
152.22577643826969
 31
0.0
  0
LINE
  5
1897
  8
0
 39
5.0
 10
91.693643363572193
 20
152.22577643826969
 30
0.0
 11
91.751443363572179
 21
152.21687643826971
 31
0.0
  0
LINE
  5
1898
  8
0
 39
5.0
 10
91.751443363572179
 20
152.21687643826971
 30
0.0
 11
91.807343363572187
 21
152.20237643826971
 31
0.0
  0
LINE
  5
1899
  8
0
 39
5.0
 10
91.807343363572187
 20
152.20237643826971
 30
0.0
 11
91.860843363572187
 21
152.18277643826971
 31
0.0
  0
LINE
  5
189A
  8
0
 39
5.0
 10
91.860843363572187
 20
152.18277643826971
 30
0.0
 11
91.911943363572178
 21
152.15797643826971
 31
0.0
  0
LINE
  5
189B
  8
0
 39
5.0
 10
91.911943363572178
 20
152.15797643826971
 30
0.0
 11
91.960043363572197
 21
152.12867643826971
 31
0.0
  0
LINE
  5
189C
  8
0
 39
5.0
 10
91.960043363572197
 20
152.12867643826971
 30
0.0
 11
92.005143363572188
 21
152.0949764382697
 31
0.0
  0
LINE
  5
189D
  8
0
 39
5.0
 10
92.005143363572188
 20
152.0949764382697
 30
0.0
 11
92.046543363572198
 21
152.0573764382697
 31
0.0
  0
LINE
  5
189E
  8
0
 39
5.0
 10
92.046543363572198
 20
152.0573764382697
 30
0.0
 11
92.084443363572191
 21
152.01567643826971
 31
0.0
  0
LINE
  5
189F
  8
0
 39
5.0
 10
92.084443363572191
 20
152.01567643826971
 30
0.0
 11
92.118043363572184
 21
151.9707764382697
 31
0.0
  0
LINE
  5
18A0
  8
0
 39
5.0
 10
92.118043363572184
 20
151.9707764382697
 30
0.0
 11
92.14734336357219
 21
151.92257643826969
 31
0.0
  0
LINE
  5
18A1
  8
0
 39
5.0
 10
92.14734336357219
 20
151.92257643826969
 30
0.0
 11
92.171943363572183
 21
151.8716764382697
 31
0.0
  0
LINE
  5
18A2
  8
0
 39
5.0
 10
92.171943363572183
 20
151.8716764382697
 30
0.0
 11
92.191643363572183
 21
151.81797643826971
 31
0.0
  0
LINE
  5
18A3
  8
0
 39
5.0
 10
92.191643363572183
 20
151.81797643826971
 30
0.0
 11
92.206043363572164
 21
151.76227643826971
 31
0.0
  0
LINE
  5
18A4
  8
0
 39
5.0
 10
92.206043363572164
 20
151.76227643826971
 30
0.0
 11
92.214943363572189
 21
151.70437643826969
 31
0.0
  0
LINE
  5
18A5
  8
0
 39
5.0
 10
92.214943363572189
 20
151.70437643826969
 30
0.0
 11
92.217943363572175
 21
151.64507643826971
 31
0.0
  0
LINE
  5
18A6
  8
0
 39
5.0
 10
92.217943363572175
 20
151.64507643826971
 30
0.0
 11
92.217943363572175
 21
149.49087643826971
 31
0.0
  0
LINE
  5
18A7
  8
0
 39
5.0
 10
92.217943363572175
 20
149.49087643826971
 30
0.0
 11
92.217943363572175
 21
149.49087643826971
 31
0.0
  0
LINE
  5
18A8
  8
0
 39
5.0
 10
92.217943363572175
 20
149.49087643826971
 30
0.0
 11
92.214943363572189
 21
149.43127643826969
 31
0.0
  0
LINE
  5
18A9
  8
0
 39
5.0
 10
92.214943363572189
 20
149.43127643826969
 30
0.0
 11
92.206043363572164
 21
149.37347643826971
 31
0.0
  0
LINE
  5
18AA
  8
0
 39
5.0
 10
92.206043363572164
 20
149.37347643826971
 30
0.0
 11
92.191643363572183
 21
149.3175764382697
 31
0.0
  0
LINE
  5
18AB
  8
0
 39
5.0
 10
92.191643363572183
 20
149.3175764382697
 30
0.0
 11
92.171943363572183
 21
149.26407643826971
 31
0.0
  0
LINE
  5
18AC
  8
0
 39
5.0
 10
92.171943363572183
 20
149.26407643826971
 30
0.0
 11
92.14734336357219
 21
149.21297643826969
 31
0.0
  0
LINE
  5
18AD
  8
0
 39
5.0
 10
92.14734336357219
 20
149.21297643826969
 30
0.0
 11
92.118043363572184
 21
149.16487643826969
 31
0.0
  0
LINE
  5
18AE
  8
0
 39
5.0
 10
92.118043363572184
 20
149.16487643826969
 30
0.0
 11
92.084443363572191
 21
149.1197764382697
 31
0.0
  0
LINE
  5
18AF
  8
0
 39
5.0
 10
92.084443363572191
 20
149.1197764382697
 30
0.0
 11
92.046543363572198
 21
149.07837643826969
 31
0.0
  0
LINE
  5
18B0
  8
0
 39
5.0
 10
92.046543363572198
 20
149.07837643826969
 30
0.0
 11
92.005143363572188
 21
149.04047643826971
 31
0.0
  0
LINE
  5
18B1
  8
0
 39
5.0
 10
92.005143363572188
 20
149.04047643826971
 30
0.0
 11
91.960043363572197
 21
149.0068764382697
 31
0.0
  0
LINE
  5
18B2
  8
0
 39
5.0
 10
91.960043363572197
 20
149.0068764382697
 30
0.0
 11
91.911943363572178
 21
148.97757643826969
 31
0.0
  0
LINE
  5
18B3
  8
0
 39
5.0
 10
91.911943363572178
 20
148.97757643826969
 30
0.0
 11
91.860843363572187
 21
148.9529764382697
 31
0.0
  0
LINE
  5
18B4
  8
0
 39
5.0
 10
91.860843363572187
 20
148.9529764382697
 30
0.0
 11
91.807343363572187
 21
148.9332764382697
 31
0.0
  0
LINE
  5
18B5
  8
0
 39
5.0
 10
91.807343363572187
 20
148.9332764382697
 30
0.0
 11
91.751443363572179
 21
148.91887643826971
 31
0.0
  0
LINE
  5
18B6
  8
0
 39
5.0
 10
91.751443363572179
 20
148.91887643826971
 30
0.0
 11
91.693643363572193
 21
148.90997643826969
 31
0.0
  0
LINE
  5
18B7
  8
0
 39
5.0
 10
91.693643363572193
 20
148.90997643826969
 30
0.0
 11
91.634043363572189
 21
148.90697643826971
 31
0.0
  0
LINE
  5
18B8
  8
0
 39
5.0
 10
91.634043363572189
 20
148.90697643826971
 30
0.0
 11
89.298143363572194
 21
148.90697643826971
 31
0.0
  0
LINE
  5
18B9
  8
0
 39
5.0
 10
89.298143363572194
 20
148.90697643826971
 30
0.0
 11
89.298143363572194
 21
148.90697643826971
 31
0.0
  0
LINE
  5
18BA
  8
0
 39
5.0
 10
89.298143363572194
 20
148.90697643826971
 30
0.0
 11
89.238843363572187
 21
148.90997643826969
 31
0.0
  0
LINE
  5
18BB
  8
0
 39
5.0
 10
89.238843363572187
 20
148.90997643826969
 30
0.0
 11
89.180943363572183
 21
148.91887643826971
 31
0.0
  0
LINE
  5
18BC
  8
0
 39
5.0
 10
89.180943363572183
 20
148.91887643826971
 30
0.0
 11
89.125243363572196
 21
148.9332764382697
 31
0.0
  0
LINE
  5
18BD
  8
0
 39
5.0
 10
89.125243363572196
 20
148.9332764382697
 30
0.0
 11
89.071543363572189
 21
148.9529764382697
 31
0.0
  0
LINE
  5
18BE
  8
0
 39
5.0
 10
89.071543363572189
 20
148.9529764382697
 30
0.0
 11
89.020643363572177
 21
148.97757643826969
 31
0.0
  0
LINE
  5
18BF
  8
0
 39
5.0
 10
89.020643363572177
 20
148.97757643826969
 30
0.0
 11
88.972443363572182
 21
149.0068764382697
 31
0.0
  0
LINE
  5
18C0
  8
0
 39
5.0
 10
88.972443363572182
 20
149.0068764382697
 30
0.0
 11
88.927543363572184
 21
149.04047643826971
 31
0.0
  0
LINE
  5
18C1
  8
0
 39
5.0
 10
88.927543363572184
 20
149.04047643826971
 30
0.0
 11
88.885843363572164
 21
149.07837643826969
 31
0.0
  0
LINE
  5
18C2
  8
0
 39
5.0
 10
88.885843363572164
 20
149.07837643826969
 30
0.0
 11
88.848243363572166
 21
149.1197764382697
 31
0.0
  0
LINE
  5
18C3
  8
0
 39
5.0
 10
88.848243363572166
 20
149.1197764382697
 30
0.0
 11
88.814543363572199
 21
149.16487643826969
 31
0.0
  0
LINE
  5
18C4
  8
0
 39
5.0
 10
88.814543363572199
 20
149.16487643826969
 30
0.0
 11
88.785243363572192
 21
149.21297643826969
 31
0.0
  0
LINE
  5
18C5
  8
0
 39
5.0
 10
88.785243363572192
 20
149.21297643826969
 30
0.0
 11
88.760443363572193
 21
149.26407643826971
 31
0.0
  0
LINE
  5
18C6
  8
0
 39
5.0
 10
88.760443363572193
 20
149.26407643826971
 30
0.0
 11
88.740843363572196
 21
149.3175764382697
 31
0.0
  0
LINE
  5
18C7
  8
0
 39
5.0
 10
88.740843363572196
 20
149.3175764382697
 30
0.0
 11
88.726343363572198
 21
149.37347643826971
 31
0.0
  0
LINE
  5
18C8
  8
0
 39
5.0
 10
88.726343363572198
 20
149.37347643826971
 30
0.0
 11
88.717443363572187
 21
149.43127643826969
 31
0.0
  0
LINE
  5
18C9
  8
0
 39
5.0
 10
88.717443363572187
 20
149.43127643826969
 30
0.0
 11
88.714243363572194
 21
149.49087643826971
 31
0.0
  0
LINE
  5
18CA
  8
0
 39
5.0
 10
88.714243363572194
 20
149.49087643826971
 30
0.0
 11
88.714243363572194
 21
151.64507643826971
 31
0.0
  0
LINE
  5
18CB
  8
0
 39
5.0
 10
88.714243363572194
 20
151.64507643826971
 30
0.0
 11
88.714243363572194
 21
151.64507643826971
 31
0.0
  0
LINE
  5
18CC
  8
0
 39
5.0
 10
88.714243363572194
 20
151.64507643826971
 30
0.0
 11
88.717443363572187
 21
151.70437643826969
 31
0.0
  0
LINE
  5
18CD
  8
0
 39
5.0
 10
88.717443363572187
 20
151.70437643826969
 30
0.0
 11
88.726343363572198
 21
151.76227643826971
 31
0.0
  0
LINE
  5
18CE
  8
0
 39
5.0
 10
88.726343363572198
 20
151.76227643826971
 30
0.0
 11
88.740843363572196
 21
151.81797643826971
 31
0.0
  0
LINE
  5
18CF
  8
0
 39
5.0
 10
88.740843363572196
 20
151.81797643826971
 30
0.0
 11
88.760443363572193
 21
151.8716764382697
 31
0.0
  0
LINE
  5
18D0
  8
0
 39
5.0
 10
88.760443363572193
 20
151.8716764382697
 30
0.0
 11
88.785243363572192
 21
151.92257643826969
 31
0.0
  0
LINE
  5
18D1
  8
0
 39
5.0
 10
88.785243363572192
 20
151.92257643826969
 30
0.0
 11
88.814543363572199
 21
151.9707764382697
 31
0.0
  0
LINE
  5
18D2
  8
0
 39
5.0
 10
88.814543363572199
 20
151.9707764382697
 30
0.0
 11
88.848243363572166
 21
152.01567643826971
 31
0.0
  0
LINE
  5
18D3
  8
0
 39
5.0
 10
88.848243363572166
 20
152.01567643826971
 30
0.0
 11
88.885843363572164
 21
152.0573764382697
 31
0.0
  0
LINE
  5
18D4
  8
0
 39
5.0
 10
88.885843363572164
 20
152.0573764382697
 30
0.0
 11
88.927543363572184
 21
152.0949764382697
 31
0.0
  0
LINE
  5
18D5
  8
0
 39
5.0
 10
88.927543363572184
 20
152.0949764382697
 30
0.0
 11
88.972443363572182
 21
152.12867643826971
 31
0.0
  0
LINE
  5
18D6
  8
0
 39
5.0
 10
88.972443363572182
 20
152.12867643826971
 30
0.0
 11
89.020643363572177
 21
152.15797643826971
 31
0.0
  0
LINE
  5
18D7
  8
0
 39
5.0
 10
89.020643363572177
 20
152.15797643826971
 30
0.0
 11
89.071543363572189
 21
152.18277643826971
 31
0.0
  0
LINE
  5
18D8
  8
0
 39
5.0
 10
89.071543363572189
 20
152.18277643826971
 30
0.0
 11
89.125243363572196
 21
152.20237643826971
 31
0.0
  0
LINE
  5
18D9
  8
0
 39
5.0
 10
89.125243363572196
 20
152.20237643826971
 30
0.0
 11
89.180943363572183
 21
152.21687643826971
 31
0.0
  0
LINE
  5
18DA
  8
0
 39
5.0
 10
89.180943363572183
 20
152.21687643826971
 30
0.0
 11
89.238843363572187
 21
152.22577643826969
 31
0.0
  0
LINE
  5
18DB
  8
0
 39
5.0
 10
89.238843363572187
 20
152.22577643826969
 30
0.0
 11
89.298143363572194
 21
152.22897643826971
 31
0.0
  0
LINE
  5
18DC
  8
0
 39
5.0
 10
81.901343363572181
 20
152.22897643826971
 30
0.0
 11
79.565443363572186
 21
152.22897643826971
 31
0.0
  0
LINE
  5
18DD
  8
0
 39
5.0
 10
79.565443363572186
 20
152.22897643826971
 30
0.0
 11
79.565443363572186
 21
152.22897643826971
 31
0.0
  0
LINE
  5
18DE
  8
0
 39
5.0
 10
79.565443363572186
 20
152.22897643826971
 30
0.0
 11
79.505843363572183
 21
152.22577643826969
 31
0.0
  0
LINE
  5
18DF
  8
0
 39
5.0
 10
79.505843363572183
 20
152.22577643826969
 30
0.0
 11
79.448043363572197
 21
152.21687643826971
 31
0.0
  0
LINE
  5
18E0
  8
0
 39
5.0
 10
79.448043363572197
 20
152.21687643826971
 30
0.0
 11
79.392143363572188
 21
152.20237643826971
 31
0.0
  0
LINE
  5
18E1
  8
0
 39
5.0
 10
79.392143363572188
 20
152.20237643826971
 30
0.0
 11
79.338643363572189
 21
152.18277643826971
 31
0.0
  0
LINE
  5
18E2
  8
0
 39
5.0
 10
79.338643363572189
 20
152.18277643826971
 30
0.0
 11
79.287543363572183
 21
152.15797643826971
 31
0.0
  0
LINE
  5
18E3
  8
0
 39
5.0
 10
79.287543363572183
 20
152.15797643826971
 30
0.0
 11
79.239443363572178
 21
152.12867643826971
 31
0.0
  0
LINE
  5
18E4
  8
0
 39
5.0
 10
79.239443363572178
 20
152.12867643826971
 30
0.0
 11
79.194343363572187
 21
152.0949764382697
 31
0.0
  0
LINE
  5
18E5
  8
0
 39
5.0
 10
79.194343363572187
 20
152.0949764382697
 30
0.0
 11
79.152943363572163
 21
152.0573764382697
 31
0.0
  0
LINE
  5
18E6
  8
0
 39
5.0
 10
79.152943363572163
 20
152.0573764382697
 30
0.0
 11
79.115043363572184
 21
152.01567643826971
 31
0.0
  0
LINE
  5
18E7
  8
0
 39
5.0
 10
79.115043363572184
 20
152.01567643826971
 30
0.0
 11
79.081443363572191
 21
151.9707764382697
 31
0.0
  0
LINE
  5
18E8
  8
0
 39
5.0
 10
79.081443363572191
 20
151.9707764382697
 30
0.0
 11
79.052143363572185
 21
151.92257643826969
 31
0.0
  0
LINE
  5
18E9
  8
0
 39
5.0
 10
79.052143363572185
 20
151.92257643826969
 30
0.0
 11
79.027543363572192
 21
151.8716764382697
 31
0.0
  0
LINE
  5
18EA
  8
0
 39
5.0
 10
79.027543363572192
 20
151.8716764382697
 30
0.0
 11
79.007843363572192
 21
151.81797643826971
 31
0.0
  0
LINE
  5
18EB
  8
0
 39
5.0
 10
79.007843363572192
 20
151.81797643826971
 30
0.0
 11
78.993443363572197
 21
151.76227643826971
 31
0.0
  0
LINE
  5
18EC
  8
0
 39
5.0
 10
78.993443363572197
 20
151.76227643826971
 30
0.0
 11
78.984543363572186
 21
151.70437643826969
 31
0.0
  0
LINE
  5
18ED
  8
0
 39
5.0
 10
78.984543363572186
 20
151.70437643826969
 30
0.0
 11
78.981543363572186
 21
151.64507643826971
 31
0.0
  0
LINE
  5
18EE
  8
0
 39
5.0
 10
78.981543363572186
 20
151.64507643826971
 30
0.0
 11
78.981543363572186
 21
149.49087643826971
 31
0.0
  0
LINE
  5
18EF
  8
0
 39
5.0
 10
78.981543363572186
 20
149.49087643826971
 30
0.0
 11
78.981543363572186
 21
149.49087643826971
 31
0.0
  0
LINE
  5
18F0
  8
0
 39
5.0
 10
78.981543363572186
 20
149.49087643826971
 30
0.0
 11
78.984543363572186
 21
149.43127643826969
 31
0.0
  0
LINE
  5
18F1
  8
0
 39
5.0
 10
78.984543363572186
 20
149.43127643826969
 30
0.0
 11
78.993443363572197
 21
149.37347643826971
 31
0.0
  0
LINE
  5
18F2
  8
0
 39
5.0
 10
78.993443363572197
 20
149.37347643826971
 30
0.0
 11
79.007843363572192
 21
149.3175764382697
 31
0.0
  0
LINE
  5
18F3
  8
0
 39
5.0
 10
79.007843363572192
 20
149.3175764382697
 30
0.0
 11
79.027543363572192
 21
149.26407643826971
 31
0.0
  0
LINE
  5
18F4
  8
0
 39
5.0
 10
79.027543363572192
 20
149.26407643826971
 30
0.0
 11
79.052143363572185
 21
149.21297643826969
 31
0.0
  0
LINE
  5
18F5
  8
0
 39
5.0
 10
79.052143363572185
 20
149.21297643826969
 30
0.0
 11
79.081443363572191
 21
149.16487643826969
 31
0.0
  0
LINE
  5
18F6
  8
0
 39
5.0
 10
79.081443363572191
 20
149.16487643826969
 30
0.0
 11
79.115043363572184
 21
149.1197764382697
 31
0.0
  0
LINE
  5
18F7
  8
0
 39
5.0
 10
79.115043363572184
 20
149.1197764382697
 30
0.0
 11
79.152943363572163
 21
149.07837643826969
 31
0.0
  0
LINE
  5
18F8
  8
0
 39
5.0
 10
79.152943363572163
 20
149.07837643826969
 30
0.0
 11
79.194343363572187
 21
149.04047643826971
 31
0.0
  0
LINE
  5
18F9
  8
0
 39
5.0
 10
79.194343363572187
 20
149.04047643826971
 30
0.0
 11
79.239443363572178
 21
149.0068764382697
 31
0.0
  0
LINE
  5
18FA
  8
0
 39
5.0
 10
79.239443363572178
 20
149.0068764382697
 30
0.0
 11
79.287543363572183
 21
148.97757643826969
 31
0.0
  0
LINE
  5
18FB
  8
0
 39
5.0
 10
79.287543363572183
 20
148.97757643826969
 30
0.0
 11
79.338643363572189
 21
148.9529764382697
 31
0.0
  0
LINE
  5
18FC
  8
0
 39
5.0
 10
79.338643363572189
 20
148.9529764382697
 30
0.0
 11
79.392143363572188
 21
148.9332764382697
 31
0.0
  0
LINE
  5
18FD
  8
0
 39
5.0
 10
79.392143363572188
 20
148.9332764382697
 30
0.0
 11
79.448043363572197
 21
148.91887643826971
 31
0.0
  0
LINE
  5
18FE
  8
0
 39
5.0
 10
79.448043363572197
 20
148.91887643826971
 30
0.0
 11
79.505843363572183
 21
148.90997643826969
 31
0.0
  0
LINE
  5
18FF
  8
0
 39
5.0
 10
79.505843363572183
 20
148.90997643826969
 30
0.0
 11
79.565443363572186
 21
148.90697643826971
 31
0.0
  0
LINE
  5
1900
  8
0
 39
5.0
 10
79.565443363572186
 20
148.90697643826971
 30
0.0
 11
81.901343363572181
 21
148.90697643826971
 31
0.0
  0
LINE
  5
1901
  8
0
 39
5.0
 10
81.901343363572181
 20
148.90697643826971
 30
0.0
 11
81.901343363572181
 21
148.90697643826971
 31
0.0
  0
LINE
  5
1902
  8
0
 39
5.0
 10
81.901343363572181
 20
148.90697643826971
 30
0.0
 11
81.960643363572188
 21
148.90997643826969
 31
0.0
  0
LINE
  5
1903
  8
0
 39
5.0
 10
81.960643363572188
 20
148.90997643826969
 30
0.0
 11
82.018543363572178
 21
148.91887643826971
 31
0.0
  0
LINE
  5
1904
  8
0
 39
5.0
 10
82.018543363572178
 20
148.91887643826971
 30
0.0
 11
82.074243363572194
 21
148.9332764382697
 31
0.0
  0
LINE
  5
1905
  8
0
 39
5.0
 10
82.074243363572194
 20
148.9332764382697
 30
0.0
 11
82.127943363572186
 21
148.9529764382697
 31
0.0
  0
LINE
  5
1906
  8
0
 39
5.0
 10
82.127943363572186
 20
148.9529764382697
 30
0.0
 11
82.178843363572184
 21
148.97757643826969
 31
0.0
  0
LINE
  5
1907
  8
0
 39
5.0
 10
82.178843363572184
 20
148.97757643826969
 30
0.0
 11
82.227043363572193
 21
149.0068764382697
 31
0.0
  0
LINE
  5
1908
  8
0
 39
5.0
 10
82.227043363572193
 20
149.0068764382697
 30
0.0
 11
82.271943363572177
 21
149.04047643826971
 31
0.0
  0
LINE
  5
1909
  8
0
 39
5.0
 10
82.271943363572177
 20
149.04047643826971
 30
0.0
 11
82.313643363572197
 21
149.07837643826969
 31
0.0
  0
LINE
  5
190A
  8
0
 39
5.0
 10
82.313643363572197
 20
149.07837643826969
 30
0.0
 11
82.351243363572195
 21
149.1197764382697
 31
0.0
  0
LINE
  5
190B
  8
0
 39
5.0
 10
82.351243363572195
 20
149.1197764382697
 30
0.0
 11
82.384943363572177
 21
149.16487643826969
 31
0.0
  0
LINE
  5
190C
  8
0
 39
5.0
 10
82.384943363572177
 20
149.16487643826969
 30
0.0
 11
82.414243363572169
 21
149.21297643826969
 31
0.0
  0
LINE
  5
190D
  8
0
 39
5.0
 10
82.414243363572169
 20
149.21297643826969
 30
0.0
 11
82.439043363572182
 21
149.26407643826971
 31
0.0
  0
LINE
  5
190E
  8
0
 39
5.0
 10
82.439043363572182
 20
149.26407643826971
 30
0.0
 11
82.458643363572179
 21
149.3175764382697
 31
0.0
  0
LINE
  5
190F
  8
0
 39
5.0
 10
82.458643363572179
 20
149.3175764382697
 30
0.0
 11
82.473143363572177
 21
149.37347643826971
 31
0.0
  0
LINE
  5
1910
  8
0
 39
5.0
 10
82.473143363572177
 20
149.37347643826971
 30
0.0
 11
82.482043363572174
 21
149.43127643826969
 31
0.0
  0
LINE
  5
1911
  8
0
 39
5.0
 10
82.482043363572174
 20
149.43127643826969
 30
0.0
 11
82.485243363572195
 21
149.49087643826971
 31
0.0
  0
LINE
  5
1912
  8
0
 39
5.0
 10
82.485243363572195
 20
149.49087643826971
 30
0.0
 11
82.485243363572195
 21
151.64507643826971
 31
0.0
  0
LINE
  5
1913
  8
0
 39
5.0
 10
82.485243363572195
 20
151.64507643826971
 30
0.0
 11
82.485243363572195
 21
151.64507643826971
 31
0.0
  0
LINE
  5
1914
  8
0
 39
5.0
 10
82.485243363572195
 20
151.64507643826971
 30
0.0
 11
82.482043363572174
 21
151.70437643826969
 31
0.0
  0
LINE
  5
1915
  8
0
 39
5.0
 10
82.482043363572174
 20
151.70437643826969
 30
0.0
 11
82.473143363572177
 21
151.76227643826971
 31
0.0
  0
LINE
  5
1916
  8
0
 39
5.0
 10
82.473143363572177
 20
151.76227643826971
 30
0.0
 11
82.458643363572179
 21
151.81797643826971
 31
0.0
  0
LINE
  5
1917
  8
0
 39
5.0
 10
82.458643363572179
 20
151.81797643826971
 30
0.0
 11
82.439043363572182
 21
151.8716764382697
 31
0.0
  0
LINE
  5
1918
  8
0
 39
5.0
 10
82.439043363572182
 20
151.8716764382697
 30
0.0
 11
82.414243363572169
 21
151.92257643826969
 31
0.0
  0
LINE
  5
1919
  8
0
 39
5.0
 10
82.414243363572169
 20
151.92257643826969
 30
0.0
 11
82.384943363572177
 21
151.9707764382697
 31
0.0
  0
LINE
  5
191A
  8
0
 39
5.0
 10
82.384943363572177
 20
151.9707764382697
 30
0.0
 11
82.351243363572195
 21
152.01567643826971
 31
0.0
  0
LINE
  5
191B
  8
0
 39
5.0
 10
82.351243363572195
 20
152.01567643826971
 30
0.0
 11
82.313643363572197
 21
152.0573764382697
 31
0.0
  0
LINE
  5
191C
  8
0
 39
5.0
 10
82.313643363572197
 20
152.0573764382697
 30
0.0
 11
82.271943363572177
 21
152.0949764382697
 31
0.0
  0
LINE
  5
191D
  8
0
 39
5.0
 10
82.271943363572177
 20
152.0949764382697
 30
0.0
 11
82.227043363572193
 21
152.12867643826971
 31
0.0
  0
LINE
  5
191E
  8
0
 39
5.0
 10
82.227043363572193
 20
152.12867643826971
 30
0.0
 11
82.178843363572184
 21
152.15797643826971
 31
0.0
  0
LINE
  5
191F
  8
0
 39
5.0
 10
82.178843363572184
 20
152.15797643826971
 30
0.0
 11
82.127943363572186
 21
152.18277643826971
 31
0.0
  0
LINE
  5
1920
  8
0
 39
5.0
 10
82.127943363572186
 20
152.18277643826971
 30
0.0
 11
82.074243363572194
 21
152.20237643826971
 31
0.0
  0
LINE
  5
1921
  8
0
 39
5.0
 10
82.074243363572194
 20
152.20237643826971
 30
0.0
 11
82.018543363572178
 21
152.21687643826971
 31
0.0
  0
LINE
  5
1922
  8
0
 39
5.0
 10
82.018543363572178
 20
152.21687643826971
 30
0.0
 11
81.960643363572188
 21
152.22577643826969
 31
0.0
  0
LINE
  5
1923
  8
0
 39
5.0
 10
81.960643363572188
 20
152.22577643826969
 30
0.0
 11
81.901343363572181
 21
152.22897643826971
 31
0.0
  0
LINE
  5
1924
  8
0
 10
85.599743363572188
 20
19.932276438269749
 30
0.0
 11
94.449708363572242
 21
19.932276438269749
 31
0.0
  0
LINE
  5
1926
  8
0
 10
81.409675920819197
 20
11.532276438269751
 30
0.0
 11
89.789810806325178
 21
11.532276438269751
 31
0.0
  0
LINE
  5
1929
  8
0
 10
90.849743363572173
 20
13.13227643826975
 30
0.0
 11
88.714143363572191
 21
13.13227643826975
 31
0.0
  0
LINE
  5
192B
  8
0
 10
82.485343363572184
 20
13.13227643826975
 30
0.0
 11
80.349743363572188
 21
13.13227643826975
 31
0.0
  0
LINE
  5
192E
  8
1
 10
86.599743363572188
 20
26.932276438269749
 30
2.5
 11
45.398043363572178
 21
26.932276438269749
 31
2.5
  0
LINE
  5
1961
  8
0
 10
62.108410030238851
 20
29.432276438269749
 30
0.0
 11
58.398043363572178
 21
29.432276438269749
 31
0.0
  0
LINE
  5
1962
  8
0
 10
53.130743363572172
 20
29.432276438269749
 30
0.0
 11
51.755943363572179
 21
29.43227643826976
 31
0.0
  0
LINE
  5
1963
  8
0
 10
62.108410030238851
 20
24.432276438269749
 30
0.0
 11
58.398043363572178
 21
24.432276438269749
 31
0.0
  0
LINE
  5
1964
  8
0
 10
62.108410030238851
 20
29.432276438269749
 30
0.0
 11
62.108410030238851
 21
24.432276438269749
 31
0.0
  0
LINE
  5
1966
  8
0
 10
49.852101862106572
 20
29.432276438269749
 30
0.0
 11
48.820943363572177
 21
29.432276438269749
 31
0.0
  0
LINE
  5
1967
  8
0
 10
48.820943363572177
 20
29.432276438269749
 30
0.0
 11
47.959143363572181
 21
28.605376438269762
 31
0.0
  0
LINE
  5
1968
  8
0
 10
51.755943363572179
 20
29.43227643826976
 30
0.0
 11
50.620643363572178
 21
29.118176438269749
 31
0.0
  0
LINE
  5
1969
  8
0
 39
5.0
 10
49.852101862106558
 20
24.746479875887701
 30
0.0
 11
50.620643363572178
 21
24.746376438269749
 31
0.0
  0
LINE
  5
196A
  8
0
 39
5.0
 10
46.398043363572178
 20
25.259176438269751
 30
0.0
 11
47.959143363572181
 21
25.259176438269751
 31
0.0
  0
LINE
  5
196B
  8
0
 39
5.0
 10
46.398043363572178
 20
26.932276438269749
 30
0.0
 11
46.398043363572178
 21
25.259176438269751
 31
0.0
  0
LINE
  5
196C
  8
0
 10
51.755943363572179
 20
24.432276438269739
 30
0.0
 11
50.620643363572178
 21
24.746376438269749
 31
0.0
  0
LINE
  5
196D
  8
0
 10
48.820943363572191
 20
24.432276438269749
 30
0.0
 11
48.820943363572177
 21
26.932276438269749
 31
0.0
  0
LINE
  5
196E
  8
0
 10
49.852101862106572
 20
24.432276438269749
 30
0.0
 11
49.852101862106572
 21
26.932276438269749
 31
0.0
  0
LINE
  5
196F
  8
0
 10
50.620643363572178
 20
24.746376438269749
 30
0.0
 11
50.620643363572178
 21
26.932276438269749
 31
0.0
  0
LINE
  5
1970
  8
0
 10
47.959143363572181
 20
25.259176438269751
 30
0.0
 11
47.959143363572181
 21
26.932276438269749
 31
0.0
  0
LINE
  5
1971
  8
0
 10
48.820943363572177
 20
24.432276438269749
 30
0.0
 11
47.959143363572181
 21
25.259176438269751
 31
0.0
  0
LINE
  5
1972
  8
0
 10
49.852101862106572
 20
24.432276438269749
 30
0.0
 11
48.820943363572177
 21
24.432276438269749
 31
0.0
  0
LINE
  5
1973
  8
0
 10
51.755943363572179
 20
24.432276438269749
 30
0.0
 11
51.755943363572179
 21
26.932276438269749
 31
0.0
  0
LINE
  5
1974
  8
0
 10
53.130743363572172
 20
24.432276438269749
 30
0.0
 11
51.755943363572179
 21
24.432276438269739
 31
0.0
  0
LINE
  5
1976
  8
0
 10
58.398043363572178
 20
31.313276438269749
 30
0.0
 11
58.398043363572178
 21
22.551276438269749
 31
0.0
  0
LINE
  5
1979
  8
0
 10
62.398043363572178
 20
28.910936438269751
 30
0.0
 11
62.398043363572178
 21
24.953616438269759
 31
0.0
  0
DIMENSION
  5
1988
  8
2
  2
*D1
 10
110.7742797068353
 20
124.9322764382697
 30
0.0
 11
108.8992797068353
 21
127.4322764382697
 31
0.0
 70
     0
 13
91.821143363572105
 23
129.9322764382697
 33
0.0
 14
92.599743363572188
 24
124.9322764382697
 34
0.0
 50
90.0
  0
DIMENSION
  5
1997
  8
2
  2
*D2
 10
110.7742797068353
 20
66.932276438269739
 30
0.0
 11
108.8992797068353
 21
95.932276438269767
 31
0.0
 70
     0
 13
110.7742797068353
 23
124.9322764382697
 33
0.0
 14
92.599743363572188
 24
66.932276438269753
 34
0.0
 50
90.0
  0
DIMENSION
  5
19A4
  8
2
  2
*D3
 10
110.7742797068353
 20
36.932276438269753
 30
0.0
 11
108.8992797068353
 21
51.932276438269753
 31
0.0
 70
     0
 13
110.7742797068353
 23
66.932276438269739
 33
0.0
 14
94.431843363572213
 24
36.932276438269753
 34
0.0
 50
90.0
  0
DIMENSION
  5
19B4
  8
2
  2
*D4
 10
110.7742797068353
 20
19.931376438269741
 30
0.0
 11
108.8992797068353
 21
28.431826438269759
 31
0.0
 70
     0
 13
110.7742797068353
 23
36.932276438269739
 33
0.0
 14
94.431843363572213
 24
19.931376438269751
 34
0.0
 50
90.0
  0
DIMENSION
  5
19CF
  8
2
  2
*D5
 10
118.25037435568331
 20
19.93137643826973
 30
0.0
 11
116.37537435568331
 21
74.931826438269766
 31
0.0
 70
     0
  1
(<>)
 13
110.7742797068353
 23
129.9322764382697
 33
0.0
 14
110.1492797068353
 24
19.93137643826973
 34
0.0
 50
90.0
  0
DIMENSION
  5
19DC
  8
2
  2
*D6
 10
125.03905191509649
 20
11.53227643826974
 30
0.0
 11
123.16405191509661
 21
70.732276438269778
 31
0.0
 70
     0
  1
(<>)
 13
118.25037435568331
 23
129.9322764382697
 33
0.0
 14
89.789810806325178
 24
11.532276438269751
 34
0.0
 50
90.0
  0
DIMENSION
  5
1A1B
  8
2
  2
*D7
 10
118.25037435568331
 20
11.53227643826974
 30
0.0
 11
116.37537435568331
 21
15.731826438269749
 31
0.0
 70
     0
 13
118.25037435568331
 23
19.93137643826973
 33
0.0
 14
89.789810806325178
 24
11.532276438269751
 34
0.0
 50
90.0
  0
DIMENSION
  5
1A28
  8
2
  2
*D8
 10
110.805080361725
 20
13.13227643826974
 30
0.0
 11
110.805080361725
 21
2.9020890912781852
 31
0.0
 70
   128
 13
89.789810806325178
 23
11.532276438269751
 33
0.0
 14
90.849743363572173
 24
13.13227643826975
 34
0.0
 50
90.0
  0
DIMENSION
  5
1A64
  8
2
  2
*D9
 10
90.849743363572173
 20
2.8856006245543422
 30
0.0
 11
85.599743363572188
 21
4.7606006245543417
 31
0.0
 70
     0
  1
%%c<>
 13
80.349743363572188
 23
12.30618759089443
 33
0.0
 14
90.849743363572173
 24
12.30618759089443
 34
0.0
  0
DIMENSION
  5
1A7E
  8
2
  2
*D10
 10
58.398043363572178
 20
13.801077374245599
 30
0.0
 11
52.398043363572178
 21
15.676077374245599
 31
0.0
 70
     0
 13
46.398043363572178
 23
25.259176438269751
 33
0.0
 14
58.398043363572178
 24
22.551276438269749
 34
0.0
  0
DIMENSION
  5
1A8B
  8
2
  2
*D11
 10
62.398043363572178
 20
8.7760941027848958
 30
0.0
 11
54.398043363572192
 21
10.65109410278489
 31
0.0
 70
     0
 13
46.398043363572178
 23
25.259176438269751
 33
0.0
 14
62.398043363572178
 24
25.01567643826975
 34
0.0
  0
DIMENSION
  5
1A98
  8
2
  2
*D12
 10
38.118631979195349
 20
29.432276438269749
 30
0.0
 11
36.243631979195349
 21
37.140609771603089
 31
0.0
 70
     0
  1
%%c<>
 13
48.820943363572191
 23
24.432276438269749
 33
0.0
 14
48.820943363572191
 24
29.432276438269749
 34
0.0
 50
90.0
  0
TEXT
  5
1AB6
  8
2
 10
63.280227830495839
 20
125.5869660713627
 30
0.0
 40
2.5
  1
H12
  0
TEXT
  5
1AB7
  8
2
 10
63.16743107580487
 20
131.4453690684644
 30
0.0
 40
2.5
  1
M5x0.8
  0
TEXT
  5
1AB8
  8
2
 10
63.963919287675701
 20
120.9754787870732
 30
0.0
 40
2.5
  1
M14x1
  0
TEXT
  5
1AB9
  8
2
 10
64.068184873342261
 20
113.773650172915
 30
0.0
 40
2.5
  1
H19
  0
TEXT
  5
1ABA
  8
2
 10
63.959047837642629
 20
31.392485160430169
 30
0.0
 40
2.5
  1
H17
  0
TEXT
  5
1ABB
  8
2
 10
64.247766326197052
 20
15.877311007088791
 30
0.0
 40
2.5
  1
M5x0.8
  0
DIMENSION
  5
1AC7
  8
2
  2
*D13
 10
60.609206259052151
 20
36.932276438269753
 30
0.0
 11
58.734206259052137
 21
51.932276438269753
 31
0.0
 70
     0
 13
78.599743363572173
 23
66.932276438269753
 33
0.0
 14
80.538743363572195
 24
36.932276438269753
 34
0.0
 50
90.0
  0
POLYLINE
  8
2
  5
1D61
  66
     1
 10
0.000000
 20
0.000000
 30
0.000000
  70
     8
  0
VERTEX
  8
2
  5
1D62
 10
83.0997
 20
127.090
 30
0.000000
  70
    32
  0
VERTEX
  8
2
  5
1D63
 10
75.6431
 20
131.181
 30
0.000000
  70
    32
  0
VERTEX
  8
2
  5
1D64
 10
62.5445
 20
131.181
 30
0.000000
  70
    32
  0
SEQEND
  8
2
  5
1D65
  0
POLYLINE
  8
2
  5
1D66
  66
     1
 10
0.000000
 20
0.000000
 30
0.000000
  70
     8
  0
VERTEX
  8
2
  5
1D67
 10
78.5997
 20
127.432
 30
0.000000
  70
    32
  0
VERTEX
  8
2
  5
1D68
 10
69.7039
 20
125.210
 30
0.000000
  70
    32
  0
VERTEX
  8
2
  5
1D69
 10
62.4469
 20
125.215
 30
0.000000
  70
    32
  0
SEQEND
  8
2
  5
1D6A
  0
POLYLINE
  8
2
  5
1D6B
  66
     1
 10
0.000000
 20
0.000000
 30
0.000000
  70
     8
  0
VERTEX
  8
2
  5
1D6C
 10
78.5997
 20
117.759
 30
0.000000
  70
    32
  0
VERTEX
  8
2
  5
1D6D
 10
74.6032
 20
120.237
 30
0.000000
  70
    32
  0
VERTEX
  8
2
  5
1D6E
 10
63.2382
 20
120.237
 30
0.000000
  70
    32
  0
SEQEND
  8
2
  5
1D6F
  0
POLYLINE
  8
2
  5
1D70
  66
     1
 10
0.000000
 20
0.000000
 30
0.000000
  70
     8
  0
VERTEX
  8
2
  5
1D71
 10
74.5997
 20
108.144
 30
0.000000
  70
    32
  0
VERTEX
  8
2
  5
1D72
 10
70.2240
 20
113.469
 30
0.000000
  70
    32
  0
VERTEX
  8
2
  5
1D73
 10
62.9254
 20
113.469
 30
0.000000
  70
    32
  0
SEQEND
  8
2
  5
1D74
  0
POLYLINE
  8
2
  5
1D75
  66
     1
 10
0.000000
 20
0.000000
 30
0.000000
  70
     8
  0
VERTEX
  8
2
  5
1D76
 10
75.5997
 20
35.7644
 30
2.50000
  70
    32
  0
VERTEX
  8
2
  5
1D77
 10
69.2107
 20
30.9686
 30
2.50000
  70
    32
  0
VERTEX
  8
2
  5
1D78
 10
63.7993
 20
30.9686
 30
2.50000
  70
    32
  0
SEQEND
  8
2
  5
1D79
  0
POLYLINE
  8
2
  5
1D7A
  66
     1
 10
0.000000
 20
0.000000
 30
0.000000
  70
     8
  0
VERTEX
  8
2
  5
1D7B
 10
78.7018
 20
24.2128
 30
0.000000
  70
    32
  0
VERTEX
  8
2
  5
1D7C
 10
76.7130
 20
15.1954
 30
0.000000
  70
    32
  0
VERTEX
  8
2
  5
1D7D
 10
63.8748
 20
15.1954
 30
0.000000
  70
    32
  0
SEQEND
  8
2
  5
1D7E
  0
CIRCLE
  5
1CD3
  8
0
 10
80.760143363572183
 20
97.684576438269744
 30
0.0
 40
0.5
  0
LINE
  5
1CD4
  8
1
 10
80.760143363572183
 20
98.184576438269744
 30
0.0
 11
80.760143363572183
 21
98.184576438269744
 31
0.0
  0
LINE
  5
1CD5
  8
1
 10
81.016103233989554
 20
98.114093079083474
 30
0.0
 11
81.317343363572164
 21
97.934576438269744
 31
0.0
  0
LINE
  5
1CD6
  8
1
 10
80.580662065077632
 20
97.217900465574871
 30
0.0
 11
81.317343363572164
 21
96.934576438269744
 31
0.0
  0
CIRCLE
  5
1CDF
  8
0
 10
80.760143363572183
 20
94.684576438269744
 30
0.0
 40
0.5
  0
LINE
  5
1CE0
  8
1
 10
80.760143363572183
 20
95.184576438269744
 30
0.0
 11
80.760143363572183
 21
95.184576438269744
 31
0.0
  0
LINE
  5
1CE1
  8
1
 10
81.016103233989554
 20
95.114093079083474
 30
0.0
 11
81.317343363572164
 21
94.934576438269744
 31
0.0
  0
LINE
  5
1CE2
  8
1
 10
80.580662065077632
 20
94.217900465574886
 30
0.0
 11
81.317343363572164
 21
93.934576438269744
 31
0.0
  0
CIRCLE
  5
1CEB
  8
0
 10
80.760143363572183
 20
91.684576438269744
 30
0.0
 40
0.5
  0
LINE
  5
1CEC
  8
1
 10
80.760143363572183
 20
92.184576438269744
 30
0.0
 11
80.760143363572183
 21
92.184576438269744
 31
0.0
  0
LINE
  5
1CED
  8
1
 10
81.016103233989554
 20
92.114093079083474
 30
0.0
 11
81.317343363572164
 21
91.934576438269744
 31
0.0
  0
LINE
  5
1CEE
  8
1
 10
80.580662065077632
 20
91.217900465574871
 30
0.0
 11
81.317343363572164
 21
90.934576438269744
 31
0.0
  0
CIRCLE
  5
1CF7
  8
0
 10
80.760143363572183
 20
88.684576438269744
 30
0.0
 40
0.5
  0
LINE
  5
1CF8
  8
1
 10
80.760143363572183
 20
89.184576438269744
 30
0.0
 11
80.760143363572183
 21
89.184576438269744
 31
0.0
  0
LINE
  5
1CF9
  8
1
 10
81.016103233989554
 20
89.114093079083474
 30
0.0
 11
81.317343363572164
 21
88.934576438269744
 31
0.0
  0
LINE
  5
1CFA
  8
1
 10
80.580662065077632
 20
88.217900465574857
 30
0.0
 11
81.317343363572164
 21
87.934576438269744
 31
0.0
  0
CIRCLE
  5
1D03
  8
0
 10
80.760143363572183
 20
85.684576438269744
 30
0.0
 40
0.5
  0
LINE
  5
1D04
  8
1
 10
80.760143363572183
 20
86.184576438269744
 30
0.0
 11
80.760143363572183
 21
86.184576438269744
 31
0.0
  0
LINE
  5
1D05
  8
1
 10
81.016103233989554
 20
86.114093079083474
 30
0.0
 11
81.317343363572164
 21
85.934576438269744
 31
0.0
  0
LINE
  5
1D06
  8
1
 10
80.580662065077632
 20
85.217900465574871
 30
0.0
 11
81.317343363572164
 21
84.934576438269744
 31
0.0
  0
CIRCLE
  5
1D0F
  8
0
 10
80.760143363572183
 20
82.684576438269744
 30
0.0
 40
0.5
  0
LINE
  5
1D10
  8
1
 10
80.760143363572183
 20
83.184576438269744
 30
0.0
 11
80.760143363572183
 21
83.184576438269744
 31
0.0
  0
LINE
  5
1D11
  8
1
 10
81.016103233989554
 20
83.114093079083474
 30
0.0
 11
81.317343363572164
 21
82.934576438269744
 31
0.0
  0
LINE
  5
1D12
  8
1
 10
80.580662065077632
 20
82.217900465574871
 30
0.0
 11
81.317343363572164
 21
81.934576438269744
 31
0.0
  0
CIRCLE
  5
1D1B
  8
0
 10
80.760143363572183
 20
79.684576438269744
 30
0.0
 40
0.5
  0
LINE
  5
1D1C
  8
1
 10
80.760143363572183
 20
80.184576438269744
 30
0.0
 11
80.760143363572183
 21
80.184576438269744
 31
0.0
  0
LINE
  5
1D1D
  8
1
 10
81.016103233989554
 20
80.114093079083474
 30
0.0
 11
81.317343363572164
 21
79.934576438269744
 31
0.0
  0
LINE
  5
1D1E
  8
1
 10
80.580662065077632
 20
79.217900465574871
 30
0.0
 11
81.317343363572164
 21
78.934576438269744
 31
0.0
  0
CIRCLE
  5
1D27
  8
0
 10
80.760143363572183
 20
76.684576438269744
 30
0.0
 40
0.5
  0
LINE
  5
1D28
  8
1
 10
80.760143363572183
 20
77.184576438269744
 30
0.0
 11
80.760143363572183
 21
77.184576438269744
 31
0.0
  0
LINE
  5
1D29
  8
1
 10
81.016103233989554
 20
77.114093079083474
 30
0.0
 11
81.317343363572164
 21
76.934576438269744
 31
0.0
  0
LINE
  5
1D2A
  8
1
 10
80.580662065077632
 20
76.217900465574871
 30
0.0
 11
81.317343363572164
 21
75.934576438269744
 31
0.0
  0
ENDSEC
  0
EOF
