  0
SECTION
  2
HEADER
  9
$ACADVER
  1
AC1009
  9
$INSBASE
 10
0.0
 20
0.0
 30
0.0
  9
$EXTMIN
 10
19.844243724303851
 20
-10.20496395718226
 30
0.0
  9
$EXTMAX
 10
124.32640068003261
 20
155.2222629407847
 30
5.0
  9
$LIMMIN
 10
0.0
 20
0.0
  9
$LIMMAX
 10
420.0
 20
297.0
  9
$ORTHOMODE
 70
     0
  9
$REGENMODE
 70
     1
  9
$FILLMODE
 70
     1
  9
$QTEXTMODE
 70
     0
  9
$MIRRTEXT
 70
     1
  9
$DRAGMODE
 70
     2
  9
$LTSCALE
 40
0.3
  9
$OSMODE
 70
    37
  9
$ATTMODE
 70
     1
  9
$TEXTSIZE
 40
2.5
  9
$TRACEWID
 40
1.0
  9
$TEXTSTYLE
  7
STANDARD
  9
$CLAYER
  8
1
  9
$CELTYPE
  6
BYLAYER
  9
$CECOLOR
 62
   256
  9
$DIMSCALE
 40
1.0
  9
$DIMASZ
 40
2.5
  9
$DIMEXO
 40
0.625
  9
$DIMDLI
 40
3.75
  9
$DIMRND
 40
0.0
  9
$DIMDLE
 40
0.0
  9
$DIMEXE
 40
1.25
  9
$DIMTP
 40
0.0
  9
$DIMTM
 40
0.0
  9
$DIMTXT
 40
2.5
  9
$DIMCEN
 40
2.5
  9
$DIMTSZ
 40
0.0
  9
$DIMTOL
 70
     0
  9
$DIMLIM
 70
     0
  9
$DIMTIH
 70
     0
  9
$DIMTOH
 70
     0
  9
$DIMSE1
 70
     0
  9
$DIMSE2
 70
     0
  9
$DIMTAD
 70
     1
  9
$DIMZIN
 70
     8
  9
$DIMBLK
  1

  9
$DIMASO
 70
     1
  9
$DIMSHO
 70
     1
  9
$DIMPOST
  1

  9
$DIMAPOST
  1

  9
$DIMALT
 70
     0
  9
$DIMALTD
 70
     3
  9
$DIMALTF
 40
0.03937007874016
  9
$DIMLFAC
 40
1.0
  9
$DIMTOFL
 70
     1
  9
$DIMTVP
 40
0.0
  9
$DIMTIX
 70
     0
  9
$DIMSOXD
 70
     0
  9
$DIMSAH
 70
     0
  9
$DIMBLK1
  1

  9
$DIMBLK2
  1

  9
$DIMSTYLE
  2
ISO-25
  9
$DIMCLRD
 70
     0
  9
$DIMCLRE
 70
     0
  9
$DIMCLRT
 70
     0
  9
$DIMTFAC
 40
1.0
  9
$DIMGAP
 40
0.625
  9
$LUNITS
 70
     2
  9
$LUPREC
 70
     4
  9
$SKETCHINC
 40
1.0
  9
$FILLETRAD
 40
10.0
  9
$AUNITS
 70
     0
  9
$AUPREC
 70
     0
  9
$MENU
  1
.
  9
$ELEVATION
 40
0.0
  9
$PELEVATION
 40
0.0
  9
$THICKNESS
 40
0.0
  9
$LIMCHECK
 70
     0
  9
$BLIPMODE
 70
     0
  9
$CHAMFERA
 40
10.0
  9
$CHAMFERB
 40
10.0
  9
$SKPOLY
 70
     0
  9
$TDCREATE
 40
2453446.449420948
  9
$TDUPDATE
 40
2453551.937240602
  9
$TDINDWG
 40
0.1206678472
  9
$TDUSRTIMER
 40
0.1206678472
  9
$USRTIMER
 70
     1
  9
$ANGBASE
 50
0.0
  9
$ANGDIR
 70
     0
  9
$PDMODE
 70
     0
  9
$PDSIZE
 40
0.0
  9
$PLINEWID
 40
0.0
  9
$COORDS
 70
     1
  9
$SPLFRAME
 70
     0
  9
$SPLINETYPE
 70
     6
  9
$SPLINESEGS
 70
     8
  9
$ATTDIA
 70
     0
  9
$ATTREQ
 70
     1
  9
$HANDLING
 70
-16383
  9
$HANDSEED
  5
2022
  9
$SURFTAB1
 70
     6
  9
$SURFTAB2
 70
     6
  9
$SURFTYPE
 70
     6
  9
$SURFU
 70
     6
  9
$SURFV
 70
     6
  9
$UCSNAME
  2

  9
$UCSORG
 10
0.0
 20
0.0
 30
0.0
  9
$UCSXDIR
 10
1.0
 20
0.0
 30
0.0
  9
$UCSYDIR
 10
0.0
 20
1.0
 30
0.0
  9
$PUCSNAME
  2

  9
$PUCSORG
 10
0.0
 20
0.0
 30
0.0
  9
$PUCSXDIR
 10
1.0
 20
0.0
 30
0.0
  9
$PUCSYDIR
 10
0.0
 20
1.0
 30
0.0
  9
$USERI1
 70
     0
  9
$USERI2
 70
     0
  9
$USERI3
 70
     0
  9
$USERI4
 70
     0
  9
$USERI5
 70
     0
  9
$USERR1
 40
0.0
  9
$USERR2
 40
0.0
  9
$USERR3
 40
0.0
  9
$USERR4
 40
0.0
  9
$USERR5
 40
0.0
  9
$WORLDVIEW
 70
     1
  9
$SHADEDGE
 70
     3
  9
$SHADEDIF
 70
    70
  9
$TILEMODE
 70
     1
  9
$MAXACTVP
 70
    64
  9
$PLIMCHECK
 70
     0
  9
$PEXTMIN
 10
1.0000000000000000E+020
 20
1.0000000000000000E+020
 30
1.0000000000000000E+020
  9
$PEXTMAX
 10
-1.0000000000000000E+020
 20
-1.0000000000000000E+020
 30
-1.0000000000000000E+020
  9
$PLIMMIN
 10
0.0
 20
0.0
  9
$PLIMMAX
 10
420.0
 20
297.0
  9
$UNITMODE
 70
     0
  9
$VISRETAIN
 70
     1
  9
$PLINEGEN
 70
     0
  9
$PSLTSCALE
 70
     1
  0
ENDSEC
  0
SECTION
  2
TABLES
  0
TABLE
  2
VPORT
 70
     2
  0
VPORT
  2
*ACTIVE
 70
     0
 10
0.0
 20
0.0
 11
1.0
 21
1.0
 12
106.4234522647897
 22
85.097168138826518
 13
0.0
 23
0.0
 14
10.0
 24
10.0
 15
10.0
 25
10.0
 16
0.0
 26
0.0
 36
1.0
 17
0.0
 27
0.0
 37
0.0
 40
227.2968617468529
 41
2.5392405063291141
 42
50.0
 43
0.0
 44
0.0
 50
0.0
 51
0.0
 71
     0
 72
   100
 73
     1
 74
     3
 75
     0
 76
     0
 77
     0
 78
     0
  0
ENDTAB
  0
TABLE
  2
LTYPE
 70
     3
  0
LTYPE
  2
CONTINUOUS
 70
     0
  3
Solid line
 72
    65
 73
     0
 40
0.0
  0
LTYPE
  2
CENTER
 70
     0
  3
Center ____ _ ____ _ ____ _ ____ _ ____ _ ____
 72
    65
 73
     4
 40
50.799999999999997
 49
31.75
 49
-6.3499999999999988
 49
6.3499999999999988
 49
-6.3499999999999988
  0
LTYPE
  2
DASHED2
 70
     0
  3
Dashed (.5x) _ _ _ _ _ _ _ _ _ _ _ _ _ _ _ _ _
 72
    65
 73
     2
 40
9.5249999999999986
 49
6.3499999999999988
 49
-3.1749999999999989
  0
ENDTAB
  0
TABLE
  2
LAYER
 70
     5
  0
LAYER
  2
0
 70
     0
 62
     7
  6
CONTINUOUS
  0
LAYER
  2
1
 70
     0
 62
     7
  6
CENTER
  0
LAYER
  2
2
 70
     0
 62
     7
  6
CONTINUOUS
  0
LAYER
  2
3
 70
     0
 62
     7
  6
DASHED2
  0
LAYER
  2
DEFPOINTS
 70
     0
 62
     7
  6
CONTINUOUS
  0
ENDTAB
  0
TABLE
  2
STYLE
 70
     4
  0
STYLE
  2
STANDARD
 70
     0
 40
0.0
 41
1.0
 50
0.0
 71
     0
 42
2.5
  3
txt
  4

  0
STYLE
  2
\U+00C9L\U+00C9R_\U+00C2S\U+00C2V\U+00C2B\U+00C2N
 70
     0
 40
1.0
 41
1.0
 50
0.0
 71
     0
 42
1.0
  3
\U+00E9l\U+00E9r \U+00E2S\U+00E2V\U+00E2b\U+00E2N
  4

  0
STYLE
  2
SWIS721_CN_BT
 70
     0
 40
1.0
 41
1.0
 50
0.0
 71
     0
 42
1.0
  3
Swis721 Cn BT
  4

  0
STYLE
  2

 70
     1
 40
0.0
 41
1.0
 50
0.0
 71
     0
 42
2.5
  3
ltypeshp.shx
  4

  0
ENDTAB
  0
TABLE
  2
VIEW
 70
     0
  0
ENDTAB
  0
TABLE
  2
UCS
 70
     0
  0
ENDTAB
  0
TABLE
  2
APPID
 70
     1
  0
APPID
  2
ACAD
 70
     0
  0
ENDTAB
  0
TABLE
  2
DIMSTYLE
 70
     2
  0
DIMSTYLE
  2
ISO-25
 70
     0
  3

  4

  5

  6

  7

 40
1.0
 41
2.5
 42
0.625
 43
3.75
 44
1.25
 45
0.0
 46
0.0
 47
0.0
 48
0.0
140
2.5
141
2.5
142
0.0
143
0.03937007874016
144
1.0
145
0.0
146
1.0
147
0.625
 71
     0
 72
     0
 73
     0
 74
     0
 75
     0
 76
     0
 77
     1
 78
     8
170
     0
171
     3
172
     1
173
     0
174
     0
175
     0
176
     0
177
     0
178
     0
  0
DIMSTYLE
  2
STANDARD
 70
     0
  3

  4

  5

  6

  7

 40
1.0
 41
0.18
 42
0.0625
 43
0.38
 44
0.18
 45
0.0
 46
0.0
 47
0.0
 48
0.0
140
0.18
141
0.09
142
0.0
143
25.399999999999999
144
1.0
145
0.0
146
1.0
147
0.09
 71
     0
 72
     0
 73
     1
 74
     1
 75
     0
 76
     0
 77
     0
 78
     0
170
     0
171
     2
172
     0
173
     0
174
     0
175
     0
176
     0
177
     0
178
     0
  0
ENDTAB
  0
ENDSEC
  0
SECTION
  2
BLOCKS
  0
BLOCK
  8
0
  2
$MODEL_SPACE
 70
     0
 10
0.0
 20
0.0
 30
0.0
  3
$MODEL_SPACE
  1

  0
ENDBLK
  5
21
  8
0
  0
BLOCK
 67
     1
  8
0
  2
$PAPER_SPACE
 70
     0
 10
0.0
 20
0.0
 30
0.0
  3
$PAPER_SPACE
  1

  0
ENDBLK
  5
1D
 67
     1
  8
0
  0
BLOCK
  8
0
  2
A$C551229B9
 70
     0
 10
0.0
 20
0.0
 30
0.0
  3
A$C551229B9
  1

  0
LINE
  5
F4C
  8
0
 39
5.0
 10
4.2904972019513821
 20
-4.0942859646743841
 30
0.0
 11
4.2789000000000073
 21
-4.165300000000002
 31
0.0
  0
LINE
  5
F4D
  8
0
 39
5.0
 10
5.2181000000005184
 20
0.0000000000000284
 30
0.0
 11
9.1863000000000028
 21
0.0
 31
0.0
  0
LINE
  5
F4E
  8
0
 39
5.0
 10
7.0074999999999932
 20
-4.8807000000000178
 30
0.0
 11
7.0074999999999932
 21
-4.8853
 31
0.0
  0
POLYLINE
  5
F4F
  8
2
 66
     1
 10
0.0
 20
0.0
 30
0.0
 39
5.0
  0
VERTEX
  5
1FED
  8
2
 10
6.5644999999999953
 20
-4.8807000000000036
 30
0.0
  0
VERTEX
  5
1FEE
  8
2
 10
6.5644999999999953
 20
-4.8853
 30
0.0
  0
SEQEND
  5
1FEF
  8
2
  0
LINE
  5
F50
  8
0
 39
5.0
 10
9.1863000000000028
 20
-4.8807000000000036
 30
0.0
 11
9.1863000000000028
 21
-4.8807000000000036
 31
0.0
  0
LINE
  5
F51
  8
0
 39
5.0
 10
5.1226000000000047
 20
-0.004800000000003
 30
0.0
 11
5.218100000000006
 21
0.0
 31
0.0
  0
LINE
  5
F52
  8
0
 39
5.0
 10
5.0300000000000011
 20
-0.0186000000000064
 30
0.0
 11
5.1226000000000047
 21
-0.004800000000003
 31
0.0
  0
LINE
  5
F53
  8
0
 39
5.0
 10
4.940400000000011
 20
-0.0409999999999968
 30
0.0
 11
5.0300000000000011
 21
-0.0186000000000064
 31
0.0
  0
LINE
  5
F54
  8
0
 39
5.0
 10
4.854600000000004
 20
-0.0715000000000004
 30
0.0
 11
4.940400000000011
 21
-0.0409999999999968
 31
0.0
  0
LINE
  5
F55
  8
0
 39
5.0
 10
4.7728000000000028
 20
-0.109800000000007
 30
0.0
 11
4.854600000000004
 21
-0.0715000000000004
 31
0.0
  0
LINE
  5
F56
  8
0
 39
5.0
 10
4.6957000000000022
 20
-0.1552000000000078
 30
0.0
 11
4.7728000000000028
 21
-0.109800000000007
 31
0.0
  0
LINE
  5
F57
  8
0
 39
5.0
 10
4.6237000000000128
 20
-0.2074000000000069
 30
0.0
 11
4.6957000000000022
 21
-0.1552000000000078
 31
0.0
  0
LINE
  5
F58
  8
0
 39
5.0
 10
4.5572000000000079
 20
-0.2657999999999987
 30
0.0
 11
4.6237000000000128
 21
-0.2074000000000069
 31
0.0
  0
LINE
  5
F59
  8
0
 39
5.0
 10
4.4965999999999999
 20
-0.3302000000000049
 30
0.0
 11
4.5572000000000079
 21
-0.2657999999999987
 31
0.0
  0
LINE
  5
F5A
  8
0
 39
5.0
 10
4.4425999999999979
 20
-0.3999000000000024
 30
0.0
 11
4.4965999999999999
 21
-0.3302000000000049
 31
0.0
  0
LINE
  5
F5B
  8
0
 39
5.0
 10
4.3956000000000008
 20
-0.4745000000000062
 30
0.0
 11
4.4425999999999979
 21
-0.3999000000000024
 31
0.0
  0
LINE
  5
F5C
  8
0
 39
5.0
 10
4.3562000000000012
 20
-0.5533999999999965
 30
0.0
 11
4.3956000000000008
 21
-0.4745000000000062
 31
0.0
  0
LINE
  5
F5D
  8
0
 39
5.0
 10
4.3244999999999996
 20
-0.6364999999999981
 30
0.0
 11
4.3562000000000012
 21
-0.5533999999999965
 31
0.0
  0
LINE
  5
F5E
  8
0
 39
5.0
 10
4.301400000000001
 20
-0.722999999999999
 30
0.0
 11
4.3244999999999996
 21
-0.6364999999999981
 31
0.0
  0
LINE
  5
F5F
  8
0
 39
5.0
 10
4.2871000000000086
 20
-0.8126000000000033
 30
0.0
 11
4.301400000000001
 21
-0.722999999999999
 31
0.0
  0
LINE
  5
F60
  8
0
 39
5.0
 10
4.2823999999999947
 20
-0.9044999999999988
 30
0.0
 11
4.2871000000000086
 21
-0.8126000000000033
 31
0.0
  0
LINE
  5
F61
  8
0
 39
5.0
 10
4.2823999999999947
 20
-0.9044999999999988
 30
0.0
 11
4.2823999999999947
 21
-0.9044999999999988
 31
0.0
  0
LINE
  5
F62
  8
0
 39
5.0
 10
4.2823999999999947
 20
-3.9808000000000021
 30
0.0
 11
4.2823999999999947
 21
-0.9044999999999988
 31
0.0
  0
LINE
  5
F63
  8
0
 39
5.0
 10
4.2871000000000086
 20
-4.0729999999999933
 30
0.0
 11
4.2823999999999947
 21
-3.9808000000000021
 31
0.0
  0
LINE
  5
F64
  8
0
 39
5.0
 10
4.301400000000001
 20
-4.162600000000011
 30
0.0
 11
4.2871000000000086
 21
-4.0729999999999933
 31
0.0
  0
LINE
  5
F65
  8
0
 39
5.0
 10
4.3244999999999996
 20
-4.249200000000001
 30
0.0
 11
4.301400000000001
 21
-4.162600000000011
 31
0.0
  0
LINE
  5
F66
  8
0
 39
5.0
 10
4.3562000000000012
 20
-4.3321000000000112
 30
0.0
 11
4.3244999999999996
 21
-4.249200000000001
 31
0.0
  0
LINE
  5
F67
  8
0
 39
5.0
 10
4.3956000000000008
 20
-4.4111999999999929
 30
0.0
 11
4.3562000000000012
 21
-4.3321000000000112
 31
0.0
  0
LINE
  5
F68
  8
0
 39
5.0
 10
4.4425999999999979
 20
-4.4857999999999967
 30
0.0
 11
4.3956000000000008
 21
-4.4111999999999929
 31
0.0
  0
LINE
  5
F69
  8
0
 39
5.0
 10
4.4965999999999999
 20
-4.5555000000000092
 30
0.0
 11
4.4425999999999979
 21
-4.4857999999999967
 31
0.0
  0
LINE
  5
F6A
  8
0
 39
5.0
 10
4.5572000000000079
 20
-4.6197000000000079
 30
0.0
 11
4.4965999999999999
 21
-4.5555000000000092
 31
0.0
  0
LINE
  5
F6B
  8
0
 39
5.0
 10
4.6237000000000128
 20
-4.678299999999993
 30
0.0
 11
4.5572000000000079
 21
-4.6197000000000079
 31
0.0
  0
LINE
  5
F6C
  8
0
 39
5.0
 10
4.6957000000000022
 20
-4.730400000000003
 30
0.0
 11
4.6237000000000128
 21
-4.678299999999993
 31
0.0
  0
LINE
  5
F6D
  8
0
 39
5.0
 10
4.7728000000000028
 20
-4.775899999999992
 30
0.0
 11
4.6957000000000022
 21
-4.730400000000003
 31
0.0
  0
LINE
  5
F6E
  8
0
 39
5.0
 10
4.854600000000004
 20
-4.8140000000000072
 30
0.0
 11
4.7728000000000028
 21
-4.775899999999992
 31
0.0
  0
LINE
  5
F6F
  8
0
 39
5.0
 10
4.940400000000011
 20
-4.8445999999999989
 30
0.0
 11
4.854600000000004
 21
-4.8140000000000072
 31
0.0
  0
LINE
  5
F70
  8
0
 39
5.0
 10
5.0300000000000011
 20
-4.8669000000000011
 30
0.0
 11
4.940400000000011
 21
-4.8445999999999989
 31
0.0
  0
LINE
  5
F71
  8
0
 39
5.0
 10
5.1226000000000047
 20
-4.8807000000000036
 30
0.0
 11
5.0300000000000011
 21
-4.8669000000000011
 31
0.0
  0
LINE
  5
F72
  8
0
 39
5.0
 10
5.218100000000006
 20
-4.8853
 30
0.0
 11
5.1226000000000047
 21
-4.8807000000000036
 31
0.0
  0
LINE
  5
F73
  8
0
 39
5.0
 10
5.218100000000006
 20
-4.8853
 30
0.0
 11
5.218100000000006
 21
-4.8853
 31
0.0
  0
LINE
  5
F74
  8
0
 39
5.0
 10
9.1863000000000028
 20
-4.8853
 30
0.0
 11
5.218100000000006
 21
-4.8853
 31
0.0
  0
LINE
  5
F75
  8
0
 39
5.0
 10
9.2815000000000083
 20
-4.8807000000000036
 30
0.0
 11
9.1863000000000028
 21
-4.8853
 31
0.0
  0
LINE
  5
F76
  8
0
 39
5.0
 10
9.3740999999999985
 20
-4.8669000000000011
 30
0.0
 11
9.2815000000000083
 21
-4.8807000000000036
 31
0.0
  0
LINE
  5
F77
  8
0
 39
5.0
 10
9.4635000000000105
 20
-4.8445999999999989
 30
0.0
 11
9.3740999999999985
 21
-4.8669000000000011
 31
0.0
  0
LINE
  5
F78
  8
0
 39
5.0
 10
9.5495000000000072
 20
-4.8140000000000072
 30
0.0
 11
9.4635000000000105
 21
-4.8445999999999989
 31
0.0
  0
LINE
  5
F79
  8
0
 39
5.0
 10
9.6312000000000069
 20
-4.775899999999992
 30
0.0
 11
9.5495000000000072
 21
-4.8140000000000072
 31
0.0
  0
LINE
  5
F7A
  8
0
 39
5.0
 10
9.7084000000000117
 20
-4.730400000000003
 30
0.0
 11
9.6312000000000069
 21
-4.775899999999992
 31
0.0
  0
LINE
  5
F7B
  8
0
 39
5.0
 10
9.7804000000000144
 20
-4.678299999999993
 30
0.0
 11
9.7084000000000117
 21
-4.730400000000003
 31
0.0
  0
LINE
  5
F7C
  8
0
 39
5.0
 10
9.8471000000000117
 20
-4.6197000000000079
 30
0.0
 11
9.7804000000000144
 21
-4.678299999999993
 31
0.0
  0
LINE
  5
F7D
  8
0
 39
5.0
 10
9.9074999999999989
 20
-4.5555000000000092
 30
0.0
 11
9.8471000000000117
 21
-4.6197000000000079
 31
0.0
  0
LINE
  5
F7E
  8
0
 39
5.0
 10
9.9614999999999991
 20
-4.4857999999999967
 30
0.0
 11
9.9074999999999989
 21
-4.5555000000000092
 31
0.0
  0
LINE
  5
F7F
  8
0
 39
5.0
 10
10.0084
 20
-4.4111999999999929
 30
0.0
 11
9.9614999999999991
 21
-4.4857999999999967
 31
0.0
  0
LINE
  5
F80
  8
0
 39
5.0
 10
10.0481
 20
-4.3321000000000112
 30
0.0
 11
10.0084
 21
-4.4111999999999929
 31
0.0
  0
LINE
  5
F81
  8
0
 39
5.0
 10
10.079499999999991
 20
-4.249200000000001
 30
0.0
 11
10.0481
 21
-4.3321000000000112
 31
0.0
  0
LINE
  5
F82
  8
0
 39
5.0
 10
10.1028
 20
-4.162600000000011
 30
0.0
 11
10.079499999999991
 21
-4.249200000000001
 31
0.0
  0
LINE
  5
F83
  8
0
 39
5.0
 10
10.117100000000001
 20
-4.0729999999999933
 30
0.0
 11
10.1028
 21
-4.162600000000011
 31
0.0
  0
LINE
  5
F84
  8
0
 39
5.0
 10
10.122000000000011
 20
-3.9808000000000021
 30
0.0
 11
10.117100000000001
 21
-4.0729999999999933
 31
0.0
  0
LINE
  5
F85
  8
0
 39
5.0
 10
10.122000000000011
 20
-3.9808000000000021
 30
0.0
 11
10.122000000000011
 21
-3.9808000000000021
 31
0.0
  0
LINE
  5
F86
  8
0
 39
5.0
 10
10.122000000000011
 20
-0.9044999999999988
 30
0.0
 11
10.122000000000011
 21
-3.9808000000000021
 31
0.0
  0
LINE
  5
F87
  8
0
 39
5.0
 10
10.117100000000001
 20
-0.8126000000000033
 30
0.0
 11
10.122000000000011
 21
-0.9044999999999988
 31
0.0
  0
LINE
  5
F88
  8
0
 39
5.0
 10
10.1028
 20
-0.722999999999999
 30
0.0
 11
10.117100000000001
 21
-0.8126000000000033
 31
0.0
  0
LINE
  5
F89
  8
0
 39
5.0
 10
10.079499999999991
 20
-0.6364999999999981
 30
0.0
 11
10.1028
 21
-0.722999999999999
 31
0.0
  0
LINE
  5
F8A
  8
0
 39
5.0
 10
10.0481
 20
-0.5533999999999965
 30
0.0
 11
10.079499999999991
 21
-0.6364999999999981
 31
0.0
  0
LINE
  5
F8B
  8
0
 39
5.0
 10
10.0084
 20
-0.4745000000000062
 30
0.0
 11
10.0481
 21
-0.5533999999999965
 31
0.0
  0
LINE
  5
F8C
  8
0
 39
5.0
 10
9.9614999999999991
 20
-0.3999000000000024
 30
0.0
 11
10.0084
 21
-0.4745000000000062
 31
0.0
  0
LINE
  5
F8D
  8
0
 39
5.0
 10
9.9074999999999989
 20
-0.3302000000000049
 30
0.0
 11
9.9614999999999991
 21
-0.3999000000000024
 31
0.0
  0
LINE
  5
F8E
  8
0
 39
5.0
 10
9.8471000000000117
 20
-0.2657999999999987
 30
0.0
 11
9.9074999999999989
 21
-0.3302000000000049
 31
0.0
  0
LINE
  5
F8F
  8
0
 39
5.0
 10
9.7804000000000144
 20
-0.2074000000000069
 30
0.0
 11
9.8471000000000117
 21
-0.2657999999999987
 31
0.0
  0
LINE
  5
F90
  8
0
 39
5.0
 10
9.7084000000000117
 20
-0.1552000000000078
 30
0.0
 11
9.7804000000000144
 21
-0.2074000000000069
 31
0.0
  0
LINE
  5
F91
  8
0
 39
5.0
 10
9.6312000000000069
 20
-0.109800000000007
 30
0.0
 11
9.7084000000000117
 21
-0.1552000000000078
 31
0.0
  0
LINE
  5
F92
  8
0
 39
5.0
 10
9.5495000000000072
 20
-0.0715000000000004
 30
0.0
 11
9.6312000000000069
 21
-0.109800000000007
 31
0.0
  0
LINE
  5
F93
  8
0
 39
5.0
 10
9.4635000000000105
 20
-0.0409999999999968
 30
0.0
 11
9.5495000000000072
 21
-0.0715000000000004
 31
0.0
  0
LINE
  5
F94
  8
0
 39
5.0
 10
9.3740999999999985
 20
-0.0186000000000064
 30
0.0
 11
9.4635000000000105
 21
-0.0409999999999968
 31
0.0
  0
LINE
  5
F95
  8
0
 39
5.0
 10
9.2815000000000083
 20
-0.004800000000003
 30
0.0
 11
9.3740999999999985
 21
-0.0186000000000064
 31
0.0
  0
LINE
  5
F96
  8
0
 39
5.0
 10
9.1863000000000028
 20
0.0
 30
0.0
 11
9.2815000000000083
 21
-0.004800000000003
 31
0.0
  0
LINE
  5
F97
  8
0
 39
5.0
 10
9.1863000000000028
 20
0.0
 30
0.0
 11
9.1863000000000028
 21
0.0
 31
0.0
  0
LINE
  5
F98
  8
0
 39
5.0
 10
3.6627000000000001
 20
-4.8853
 30
0.0
 11
0.0
 21
-4.8853
 31
0.0
  0
LINE
  5
F99
  8
0
 39
5.0
 10
3.6902000000000039
 20
-4.8632999999999953
 30
0.0
 11
3.6627000000000001
 21
-4.8853
 31
0.0
  0
LINE
  5
F9A
  8
0
 39
5.0
 10
3.7279000000000049
 20
-4.8357000000000019
 30
0.0
 11
3.6902000000000039
 21
-4.8632999999999953
 31
0.0
  0
LINE
  5
F9B
  8
0
 39
5.0
 10
3.7736000000000161
 20
-4.802499999999994
 30
0.0
 11
3.7279000000000049
 21
-4.8357000000000019
 31
0.0
  0
LINE
  5
F9C
  8
0
 39
5.0
 10
3.825700000000011
 20
-4.7637
 30
0.0
 11
3.7736000000000161
 21
-4.802499999999994
 31
0.0
  0
LINE
  5
F9D
  8
0
 39
5.0
 10
3.8822000000000112
 20
-4.7193999999999932
 30
0.0
 11
3.825700000000011
 21
-4.7637
 31
0.0
  0
LINE
  5
F9E
  8
0
 39
5.0
 10
3.9414000000000149
 20
-4.6695000000000126
 30
0.0
 11
3.8822000000000112
 21
-4.7193999999999932
 31
0.0
  0
LINE
  5
F9F
  8
0
 39
5.0
 10
4.0015000000000072
 20
-4.6140999999999934
 30
0.0
 11
3.9414000000000149
 21
-4.6695000000000126
 31
0.0
  0
LINE
  5
FA0
  8
0
 39
5.0
 10
4.0608000000000004
 20
-4.5530999999999997
 30
0.0
 11
4.0015000000000072
 21
-4.6140999999999934
 31
0.0
  0
LINE
  5
FA1
  8
0
 39
5.0
 10
4.1171000000000069
 20
-4.4868000000000023
 30
0.0
 11
4.0608000000000004
 21
-4.5530999999999997
 31
0.0
  0
LINE
  5
FA2
  8
0
 39
5.0
 10
4.1690000000000111
 20
-4.4147999999999987
 30
0.0
 11
4.1171000000000069
 21
-4.4868000000000023
 31
0.0
  0
LINE
  5
FA3
  8
0
 39
5.0
 10
4.214400000000011
 20
-4.337200000000009
 30
0.0
 11
4.1690000000000111
 21
-4.4147999999999987
 31
0.0
  0
LINE
  5
FA4
  8
0
 39
5.0
 10
4.2516999999999987
 20
-4.254000000000004
 30
0.0
 11
4.214400000000011
 21
-4.337200000000009
 31
0.0
  0
LINE
  5
FA5
  8
0
 39
5.0
 10
4.2789000000000073
 20
-4.165300000000002
 30
0.0
 11
4.2516999999999987
 21
-4.254000000000004
 31
0.0
  0
LINE
  5
FA6
  8
0
 39
5.0
 10
4.2823999999999947
 20
-0.8444000000000073
 30
0.0
 11
4.2823999999999947
 21
-3.8658000000000068
 31
0.0
  0
LINE
  5
FA7
  8
0
 39
5.0
 10
4.2941000000000136
 20
-0.7207000000000079
 30
0.0
 11
4.2823999999999947
 21
-0.8444000000000073
 31
0.0
  0
LINE
  5
FA8
  8
0
 39
5.0
 10
4.2866999999999962
 20
-0.6101000000000028
 30
0.0
 11
4.2941000000000136
 21
-0.7207000000000079
 31
0.0
  0
LINE
  5
FA9
  8
0
 39
5.0
 10
4.262500000000002
 20
-0.5118000000000081
 30
0.0
 11
4.2866999999999962
 21
-0.6101000000000028
 31
0.0
  0
LINE
  5
FAA
  8
0
 39
5.0
 10
4.2241000000000071
 20
-0.4249999999999972
 30
0.0
 11
4.262500000000002
 21
-0.5118000000000081
 31
0.0
  0
LINE
  5
FAB
  8
0
 39
5.0
 10
4.1734000000000151
 20
-0.3490000000000037
 30
0.0
 11
4.2241000000000071
 21
-0.4249999999999972
 31
0.0
  0
LINE
  5
FAC
  8
0
 39
5.0
 10
4.113100000000002
 20
-0.2830000000000012
 30
0.0
 11
4.1734000000000151
 21
-0.3490000000000037
 31
0.0
  0
LINE
  5
FAD
  8
0
 39
5.0
 10
4.0452000000000083
 20
-0.2262000000000057
 30
0.0
 11
4.113100000000002
 21
-0.2830000000000012
 31
0.0
  0
LINE
  5
FAE
  8
0
 39
5.0
 10
3.972400000000007
 20
-0.1777000000000015
 30
0.0
 11
4.0452000000000083
 21
-0.2262000000000057
 31
0.0
  0
LINE
  5
FAF
  8
0
 39
5.0
 10
3.8966000000000061
 20
-0.1371000000000038
 30
0.0
 11
3.972400000000007
 21
-0.1777000000000015
 31
0.0
  0
LINE
  5
FB0
  8
0
 39
5.0
 10
3.8205000000000089
 20
-0.1032000000000011
 30
0.0
 11
3.8966000000000061
 21
-0.1371000000000038
 31
0.0
  0
LINE
  5
FB1
  8
0
 39
5.0
 10
3.7462000000000151
 20
-0.0754000000000019
 30
0.0
 11
3.8205000000000089
 21
-0.1032000000000011
 31
0.0
  0
LINE
  5
FB2
  8
0
 39
5.0
 10
3.676400000000001
 20
-0.0528000000000049
 30
0.0
 11
3.7462000000000151
 21
-0.0754000000000019
 31
0.0
  0
LINE
  5
FB3
  8
0
 39
5.0
 10
3.6128999999999958
 20
-0.0349000000000075
 30
0.0
 11
3.676400000000001
 21
-0.0528000000000049
 31
0.0
  0
LINE
  5
FB4
  8
0
 39
5.0
 10
3.5585000000000089
 20
-0.0206000000000017
 30
0.0
 11
3.6128999999999958
 21
-0.0349000000000075
 31
0.0
  0
LINE
  5
FB5
  8
0
 39
5.0
 10
3.5152000000000072
 20
-0.0092999999999961
 30
0.0
 11
3.5585000000000089
 21
-0.0206000000000017
 31
0.0
  0
LINE
  5
FB6
  8
0
 39
5.0
 10
3.485700000000008
 20
0.0
 30
0.0
 11
3.5152000000000072
 21
-0.0092999999999961
 31
0.0
  0
LINE
  5
FB7
  8
0
 39
5.0
 10
3.485700000000008
 20
0.0
 30
0.0
 11
3.485700000000008
 21
0.0
 31
0.0
  0
LINE
  5
FB8
  8
0
 39
5.0
 10
0.0
 20
0.0
 30
0.0
 11
3.485700000000008
 21
0.0
 31
0.0
  0
LINE
  5
FB9
  8
0
 10
5.2181000000005753
 20
0.0000000000000284
 30
0.0
 11
3.4856999999999232
 21
0.0000000000000284
 31
0.0
  0
ENDBLK
  5
FBB
  8
0
  0
BLOCK
  8
0
  2
*D2
 70
     1
 10
0.0
 20
0.0
 30
0.0
  3
*D2
  1

  0
LINE
  5
1CA6
  8
2
 62
     0
 10
90.418281561315425
 20
132.14319374249769
 30
0.0
 11
110.0004076792054
 21
132.14319374249769
 31
0.0
  0
LINE
  5
1CA7
  8
2
 62
     0
 10
90.418281561315425
 20
127.1431937424977
 30
0.0
 11
110.0004076792054
 21
127.1431937424977
 31
0.0
  0
LINE
  5
1CA8
  8
2
 62
     0
 10
108.7504076792054
 20
134.64319374249769
 30
0.0
 11
108.7504076792054
 21
137.14319374249769
 31
0.0
  0
LINE
  5
1CA9
  8
2
 62
     0
 10
108.7504076792054
 20
124.6431937424977
 30
0.0
 11
108.7504076792054
 21
122.1431937424977
 31
0.0
  0
LINE
  5
1CAA
  8
2
 62
     0
 10
108.7504076792054
 20
132.14319374249769
 30
0.0
 11
108.7504076792054
 21
127.1431937424977
 31
0.0
  0
SOLID
  5
1CAB
  8
2
 62
     0
 10
108.3337410125387
 20
134.64319374249769
 30
0.0
 11
109.167074345872
 21
134.64319374249769
 31
0.0
 12
108.7504076792054
 22
132.14319374249769
 32
0.0
 13
108.7504076792054
 23
132.14319374249769
 33
0.0
  0
SOLID
  5
1CAC
  8
2
 62
     0
 10
108.3337410125387
 20
124.6431937424977
 30
0.0
 11
109.167074345872
 21
124.6431937424977
 31
0.0
 12
108.7504076792054
 22
127.1431937424977
 32
0.0
 13
108.7504076792054
 23
127.1431937424977
 33
0.0
  0
TEXT
  5
1CAD
  8
1
 62
     0
 10
108.1254076792053
 20
128.8098604091644
 30
0.0
 40
2.5
  1
5
 50
90.0
  0
POINT
  5
1CAE
  8
DEFPOINTS
 62
     0
 10
89.793281561315425
 20
132.14319374249769
 30
0.0
  0
POINT
  5
1CAF
  8
DEFPOINTS
 62
     0
 10
89.793281561315425
 20
127.1431937424977
 30
0.0
  0
POINT
  5
1CB0
  8
DEFPOINTS
 62
     0
 10
108.7504076792054
 20
127.1431937424977
 30
0.0
  0
ENDBLK
  5
1CA5
  8
0
  0
BLOCK
  8
0
  2
*D3
 70
     1
 10
0.0
 20
0.0
 30
0.0
  3
*D3
  1

  0
LINE
  5
1F3E
  8
2
 62
     0
 10
108.1254076792054
 20
127.1431937424977
 30
0.0
 11
107.5004076792054
 21
127.1431937424977
 31
0.0
  0
LINE
  5
1F3F
  8
2
 62
     0
 10
91.255381561315431
 20
69.143193742497786
 30
0.0
 11
110.0004076792054
 21
69.143193742497772
 31
0.0
  0
LINE
  5
1F40
  8
2
 62
     0
 10
108.7504076792054
 20
124.6431937424977
 30
0.0
 11
108.7504076792054
 21
71.643193742497772
 31
0.0
  0
SOLID
  5
1F41
  8
2
 62
     0
 10
108.3337410125387
 20
124.6431937424977
 30
0.0
 11
109.167074345872
 21
124.6431937424977
 31
0.0
 12
108.7504076792054
 22
127.1431937424977
 32
0.0
 13
108.7504076792054
 23
127.1431937424977
 33
0.0
  0
SOLID
  5
1F42
  8
2
 62
     0
 10
108.3337410125387
 20
71.643193742497772
 30
0.0
 11
109.167074345872
 21
71.643193742497772
 31
0.0
 12
108.7504076792054
 22
69.143193742497772
 32
0.0
 13
108.7504076792054
 23
69.143193742497772
 33
0.0
  0
TEXT
  5
1F43
  8
1
 62
     0
 10
108.1254076792053
 20
96.059860409164486
 30
0.0
 40
2.5
  1
58
 50
90.0
  0
POINT
  5
1F44
  8
DEFPOINTS
 62
     0
 10
108.7504076792054
 20
127.1431937424977
 30
0.0
  0
POINT
  5
1F45
  8
DEFPOINTS
 62
     0
 10
90.630381561315431
 20
69.143193742497786
 30
0.0
  0
POINT
  5
1F46
  8
DEFPOINTS
 62
     0
 10
108.7504076792054
 20
69.143193742497772
 30
0.0
  0
ENDBLK
  5
1CBD
  8
0
  0
BLOCK
  8
0
  2
*D4
 70
     1
 10
0.0
 20
0.0
 30
0.0
  3
*D4
  1

  0
LINE
  5
1F50
  8
2
 62
     0
 10
108.1254076792053
 20
69.143193742497772
 30
0.0
 11
107.5004076792053
 21
69.143193742497772
 31
0.0
  0
LINE
  5
1F51
  8
2
 62
     0
 10
93.087481561315414
 20
39.143193742497772
 30
0.0
 11
110.0004076792054
 21
39.143193742497772
 31
0.0
  0
LINE
  5
1F52
  8
2
 62
     0
 10
108.7504076792054
 20
66.643193742497772
 30
0.0
 11
108.7504076792054
 21
41.643193742497772
 31
0.0
  0
SOLID
  5
1F53
  8
2
 62
     0
 10
108.3337410125387
 20
66.643193742497772
 30
0.0
 11
109.167074345872
 21
66.643193742497772
 31
0.0
 12
108.7504076792054
 22
69.143193742497772
 32
0.0
 13
108.7504076792054
 23
69.143193742497772
 33
0.0
  0
SOLID
  5
1F54
  8
2
 62
     0
 10
108.3337410125387
 20
41.643193742497772
 30
0.0
 11
109.167074345872
 21
41.643193742497772
 31
0.0
 12
108.7504076792054
 22
39.143193742497772
 32
0.0
 13
108.7504076792054
 23
39.143193742497772
 33
0.0
  0
TEXT
  5
1F55
  8
1
 62
     0
 10
108.1254076792053
 20
52.268193742497793
 30
0.0
 40
2.5
  1
30
 50
90.0
  0
POINT
  5
1F56
  8
DEFPOINTS
 62
     0
 10
108.7504076792054
 20
69.143193742497772
 30
0.0
  0
POINT
  5
1F57
  8
DEFPOINTS
 62
     0
 10
92.462481561315414
 20
39.143193742497772
 30
0.0
  0
POINT
  5
1F58
  8
DEFPOINTS
 62
     0
 10
108.7504076792054
 20
39.143193742497772
 30
0.0
  0
ENDBLK
  5
1CCC
  8
0
  0
BLOCK
  8
0
  2
*D5
 70
     1
 10
0.0
 20
0.0
 30
0.0
  3
*D5
  1

  0
LINE
  5
1F18
  8
2
 62
     0
 10
109.3754076792053
 20
39.143193742497751
 30
0.0
 11
110.0004076792054
 21
39.143193742497751
 31
0.0
  0
LINE
  5
1F19
  8
2
 62
     0
 10
93.105316561315206
 20
22.143193742497768
 30
0.0
 11
110.0004076792054
 21
22.143193742497768
 31
0.0
  0
LINE
  5
1F1A
  8
2
 62
     0
 10
108.7504076792054
 20
36.643193742497751
 30
0.0
 11
108.7504076792054
 21
24.643193742497768
 31
0.0
  0
SOLID
  5
1F1B
  8
2
 62
     0
 10
108.3337410125387
 20
36.643193742497751
 30
0.0
 11
109.167074345872
 21
36.643193742497751
 31
0.0
 12
108.7504076792054
 22
39.143193742497751
 32
0.0
 13
108.7504076792054
 23
39.143193742497751
 33
0.0
  0
SOLID
  5
1F1C
  8
2
 62
     0
 10
108.3337410125387
 20
24.643193742497768
 30
0.0
 11
109.167074345872
 21
24.643193742497768
 31
0.0
 12
108.7504076792054
 22
22.143193742497768
 32
0.0
 13
108.7504076792054
 23
22.143193742497768
 33
0.0
  0
TEXT
  5
1F1D
  8
1
 62
     0
 10
108.1254076792053
 20
28.976527075831111
 30
0.0
 40
2.5
  1
17
 50
90.0
  0
POINT
  5
1F1E
  8
DEFPOINTS
 62
     0
 10
108.7504076792054
 20
39.143193742497751
 30
0.0
  0
POINT
  5
1F1F
  8
DEFPOINTS
 62
     0
 10
92.480316561315206
 20
22.143193742497768
 30
0.0
  0
POINT
  5
1F20
  8
DEFPOINTS
 62
     0
 10
108.7504076792054
 20
22.143193742497768
 30
0.0
  0
ENDBLK
  5
1CD9
  8
0
  0
BLOCK
  8
0
  2
*D6
 70
     1
 10
0.0
 20
0.0
 30
0.0
  3
*D6
  1

  0
LINE
  5
1F0F
  8
2
 62
     0
 10
109.3754076792054
 20
132.14319374249769
 30
0.0
 11
117.0660581091804
 21
132.14319374249769
 31
0.0
  0
LINE
  5
1F10
  8
2
 62
     0
 10
109.3754076792053
 20
22.143193742497751
 30
0.0
 11
117.0660581091804
 21
22.143193742497751
 31
0.0
  0
LINE
  5
1F11
  8
2
 62
     0
 10
115.8160581091804
 20
129.64319374249769
 30
0.0
 11
115.8160581091804
 21
24.643193742497751
 31
0.0
  0
SOLID
  5
1F12
  8
2
 62
     0
 10
115.3993914425137
 20
129.64319374249769
 30
0.0
 11
116.232724775847
 21
129.64319374249769
 31
0.0
 12
115.8160581091804
 22
132.14319374249769
 32
0.0
 13
115.8160581091804
 23
132.14319374249769
 33
0.0
  0
SOLID
  5
1F13
  8
2
 62
     0
 10
115.3993914425137
 20
24.643193742497751
 30
0.0
 11
116.232724775847
 21
24.643193742497751
 31
0.0
 12
115.8160581091804
 22
22.143193742497751
 32
0.0
 13
115.8160581091804
 23
22.143193742497751
 33
0.0
  0
TEXT
  5
1F14
  8
1
 62
     0
 10
115.1910581091803
 20
73.184860409164457
 30
0.0
 40
2.5
  1
(110)
 50
90.0
  0
POINT
  5
1F15
  8
DEFPOINTS
 62
     0
 10
108.7504076792054
 20
132.14319374249769
 30
0.0
  0
POINT
  5
1F16
  8
DEFPOINTS
 62
     0
 10
108.7504076792054
 20
22.143193742497751
 30
0.0
  0
POINT
  5
1F17
  8
DEFPOINTS
 62
     0
 10
115.8160581091804
 20
22.143193742497751
 30
0.0
  0
ENDBLK
  5
1CE6
  8
0
  0
BLOCK
  8
0
  2
*D7
 70
     1
 10
0.0
 20
0.0
 30
0.0
  3
*D7
  1

  0
LINE
  5
1F21
  8
2
 62
     0
 10
90.146192357854517
 20
12.54319374249777
 30
0.0
 11
117.0660581091804
 21
12.54319374249776
 31
0.0
  0
LINE
  5
1F22
  8
2
 62
     0
 10
115.1910581091803
 20
22.143193742497751
 30
0.0
 11
114.5660581091804
 21
22.143193742497751
 31
0.0
  0
LINE
  5
1F23
  8
2
 62
     0
 10
115.8160581091804
 20
15.04319374249776
 30
0.0
 11
115.8160581091804
 21
19.643193742497751
 31
0.0
  0
SOLID
  5
1F24
  8
2
 62
     0
 10
115.3993914425137
 20
15.04319374249776
 30
0.0
 11
116.232724775847
 21
15.04319374249776
 31
0.0
 12
115.8160581091804
 22
12.54319374249776
 32
0.0
 13
115.8160581091804
 23
12.54319374249776
 33
0.0
  0
SOLID
  5
1F25
  8
2
 62
     0
 10
115.3993914425137
 20
19.643193742497751
 30
0.0
 11
116.232724775847
 21
19.643193742497751
 31
0.0
 12
115.8160581091804
 22
22.143193742497751
 32
0.0
 13
115.8160581091804
 23
22.143193742497751
 33
0.0
  0
TEXT
  5
1F26
  8
1
 62
     0
 10
115.1910581091803
 20
14.84319374249778
 30
0.0
 40
2.5
  1
9.6
 50
90.0
  0
POINT
  5
1F27
  8
DEFPOINTS
 62
     0
 10
89.521192357854517
 20
12.54319374249777
 30
0.0
  0
POINT
  5
1F28
  8
DEFPOINTS
 62
     0
 10
115.8160581091804
 20
22.143193742497751
 30
0.0
  0
POINT
  5
1F29
  8
DEFPOINTS
 62
     0
 10
115.8160581091804
 20
22.143193742497751
 30
0.0
  0
ENDBLK
  5
1CF4
  8
0
  0
BLOCK
  8
0
  2
*D8
 70
     1
 10
0.0
 20
0.0
 30
0.0
  3
*D8
  1

  0
LINE
  5
1F06
  8
2
 62
     0
 10
116.4410581091804
 20
132.14319374249769
 30
0.0
 11
124.32640068003261
 21
132.14319374249769
 31
0.0
  0
LINE
  5
1F07
  8
2
 62
     0
 10
116.4410581091803
 20
12.54319374249776
 30
0.0
 11
124.32640068003261
 21
12.54319374249776
 31
0.0
  0
LINE
  5
1F08
  8
2
 62
     0
 10
123.07640068003261
 20
129.64319374249769
 30
0.0
 11
123.07640068003261
 21
15.04319374249776
 31
0.0
  0
SOLID
  5
1F09
  8
2
 62
     0
 10
122.65973401336591
 20
129.64319374249769
 30
0.0
 11
123.49306734669931
 21
129.64319374249769
 31
0.0
 12
123.07640068003261
 22
132.14319374249769
 32
0.0
 13
123.07640068003261
 23
132.14319374249769
 33
0.0
  0
SOLID
  5
1F0A
  8
2
 62
     0
 10
122.65973401336591
 20
15.04319374249776
 30
0.0
 11
123.49306734669931
 21
15.04319374249776
 31
0.0
 12
123.07640068003261
 22
12.54319374249776
 32
0.0
 13
123.07640068003261
 23
12.54319374249776
 33
0.0
  0
TEXT
  5
1F0B
  8
1
 62
     0
 10
122.45140068003261
 20
66.509860409164446
 30
0.0
 40
2.5
  1
(119.6)
 50
90.0
  0
POINT
  5
1F0C
  8
DEFPOINTS
 62
     0
 10
115.8160581091804
 20
132.14319374249769
 30
0.0
  0
POINT
  5
1F0D
  8
DEFPOINTS
 62
     0
 10
115.8160581091804
 20
12.54319374249776
 30
0.0
  0
POINT
  5
1F0E
  8
DEFPOINTS
 62
     0
 10
123.07640068003261
 20
12.54319374249776
 30
0.0
  0
ENDBLK
  5
1D01
  8
0
  0
BLOCK
  8
0
  2
*D9
 70
     1
 10
0.0
 20
0.0
 30
0.0
  3
*D9
  1

  0
LINE
  5
1F33
  8
2
 62
     0
 10
90.771192357854517
 20
12.54319374249777
 30
0.0
 11
110.0062661776378
 21
12.54319374249776
 31
0.0
  0
LINE
  5
1F34
  8
2
 62
     0
 10
91.255381561315431
 20
15.64319374249777
 30
0.0
 11
110.0062661776378
 21
15.643193742497759
 31
0.0
  0
LINE
  5
1F35
  8
2
 62
     0
 10
108.7562661776378
 20
18.143193742497761
 30
0.0
 11
108.7562661776378
 21
20.643193742497761
 31
0.0
  0
LINE
  5
1F36
  8
2
 62
     0
 10
108.7562661776378
 20
10.04319374249776
 30
0.0
 11
108.7562661776378
 21
2.1265270758310981
 31
0.0
  0
LINE
  5
1F37
  8
2
 62
     0
 10
108.7562661776378
 20
15.643193742497759
 30
0.0
 11
108.7562661776378
 21
12.54319374249776
 31
0.0
  0
SOLID
  5
1F38
  8
2
 62
     0
 10
108.3395995109711
 20
18.143193742497761
 30
0.0
 11
109.1729328443044
 21
18.143193742497761
 31
0.0
 12
108.7562661776378
 22
15.643193742497759
 32
0.0
 13
108.7562661776378
 23
15.643193742497759
 33
0.0
  0
SOLID
  5
1F39
  8
2
 62
     0
 10
108.3395995109711
 20
10.04319374249776
 30
0.0
 11
109.1729328443044
 21
10.04319374249776
 31
0.0
 12
108.7562661776378
 22
12.54319374249776
 32
0.0
 13
108.7562661776378
 23
12.54319374249776
 33
0.0
  0
TEXT
  5
1F3A
  8
1
 62
     0
 10
108.1312661776378
 20
2.751527075831115
 30
0.0
 40
2.5
  1
3.1
 50
90.0
  0
POINT
  5
1F3B
  8
DEFPOINTS
 62
     0
 10
90.146192357854517
 20
12.54319374249777
 30
0.0
  0
POINT
  5
1F3C
  8
DEFPOINTS
 62
     0
 10
90.630381561315431
 20
15.64319374249777
 30
0.0
  0
POINT
  5
1F3D
  8
DEFPOINTS
 62
     0
 10
108.7562661776378
 20
15.643193742497759
 30
0.0
  0
ENDBLK
  5
1D11
  8
0
  0
BLOCK
  8
0
  2
*D10
 70
     1
 10
0.0
 20
0.0
 30
0.0
  3
*D10
  1

  0
LINE
  5
1F2A
  8
2
 62
     0
 10
76.630381561315431
 20
12.62446525379919
 30
0.0
 11
76.630381561315431
 21
0.0714295522835471
 31
0.0
  0
LINE
  5
1F2B
  8
2
 62
     0
 10
90.630381561315431
 20
12.62446525379919
 30
0.0
 11
90.630381561315431
 21
0.0714295522835471
 31
0.0
  0
LINE
  5
1F2C
  8
2
 62
     0
 10
79.130381561315431
 20
1.3214295522835471
 30
0.0
 11
88.130381561315431
 21
1.3214295522835471
 31
0.0
  0
SOLID
  5
1F2D
  8
2
 62
     0
 10
79.130381561315431
 20
1.7380962189502129
 30
0.0
 11
79.130381561315431
 21
0.9047628856168805
 31
0.0
 12
76.630381561315431
 22
1.3214295522835471
 32
0.0
 13
76.630381561315431
 23
1.3214295522835471
 33
0.0
  0
SOLID
  5
1F2E
  8
2
 62
     0
 10
88.130381561315431
 20
1.7380962189502129
 30
0.0
 11
88.130381561315431
 21
0.9047628856168805
 31
0.0
 12
90.630381561315431
 22
1.3214295522835471
 32
0.0
 13
90.630381561315431
 23
1.3214295522835471
 33
0.0
  0
INSERT
  5
1F2F
  8
1
  2
*U15
 10
0.0
 20
0.0
 30
0.0
  0
POINT
  5
1F30
  8
DEFPOINTS
 62
     0
 10
76.630381561315431
 20
13.24946525379919
 30
0.0
  0
POINT
  5
1F31
  8
DEFPOINTS
 62
     0
 10
90.630381561315431
 20
13.24946525379919
 30
0.0
  0
POINT
  5
1F32
  8
DEFPOINTS
 62
     0
 10
90.630381561315431
 20
1.3214295522835471
 30
0.0
  0
ENDBLK
  5
1D2A
  8
0
  0
BLOCK
  8
0
  2
*D11
 70
     1
 10
0.0
 20
0.0
 30
0.0
  3
*D11
  1

  0
LINE
  5
1EFD
  8
2
 62
     0
 10
77.944381561315438
 20
39.143193742497111
 30
0.0
 11
62.060645619235508
 21
39.143193742497111
 31
0.0
  0
LINE
  5
1EFE
  8
2
 62
     0
 10
84.005381561315446
 20
29.143193742497068
 30
0.0
 11
62.060645619235508
 21
29.143193742497068
 31
0.0
  0
LINE
  5
1EFF
  8
2
 62
     0
 10
63.310645619235508
 20
36.643193742497111
 30
0.0
 11
63.310645619235508
 21
31.643193742497068
 31
0.0
  0
SOLID
  5
1F00
  8
2
 62
     0
 10
62.893978952568851
 20
36.643193742497111
 30
0.0
 11
63.72731228590218
 21
36.643193742497111
 31
0.0
 12
63.310645619235508
 22
39.143193742497111
 32
0.0
 13
63.310645619235508
 23
39.143193742497111
 33
0.0
  0
SOLID
  5
1F01
  8
2
 62
     0
 10
62.893978952568851
 20
31.643193742497068
 30
0.0
 11
63.72731228590218
 21
31.643193742497068
 31
0.0
 12
63.310645619235508
 22
29.143193742497068
 32
0.0
 13
63.310645619235508
 23
29.143193742497068
 33
0.0
  0
TEXT
  5
1F02
  8
1
 62
     0
 10
62.685645619235501
 20
32.684860409163768
 30
0.0
 40
2.5
  1
10
 50
90.0
  0
POINT
  5
1F03
  8
DEFPOINTS
 62
     0
 10
78.569381561315438
 20
39.143193742497111
 30
0.0
  0
POINT
  5
1F04
  8
DEFPOINTS
 62
     0
 10
84.630381561315446
 20
29.143193742497068
 30
0.0
  0
POINT
  5
1F05
  8
DEFPOINTS
 62
     0
 10
63.310645619235508
 20
29.143193742497068
 30
0.0
  0
ENDBLK
  5
1D56
  8
0
  0
BLOCK
  8
0
  2
*D12
 70
     1
 10
0.0
 20
0.0
 30
0.0
  3
*D12
  1

  0
LINE
  5
1F47
  8
2
 62
     0
 10
77.944381561315438
 20
69.1431937424978
 30
0.0
 11
62.06064561923553
 21
69.1431937424978
 31
0.0
  0
LINE
  5
1F48
  8
2
 62
     0
 10
77.944381561315438
 20
39.143193742497111
 30
0.0
 11
62.060645619235522
 21
39.143193742497111
 31
0.0
  0
LINE
  5
1F49
  8
2
 62
     0
 10
63.31064561923553
 20
66.6431937424978
 30
0.0
 11
63.310645619235522
 21
41.643193742497111
 31
0.0
  0
SOLID
  5
1F4A
  8
2
 62
     0
 10
62.893978952568858
 20
66.6431937424978
 30
0.0
 11
63.727312285902187
 21
66.6431937424978
 31
0.0
 12
63.31064561923553
 22
69.1431937424978
 32
0.0
 13
63.31064561923553
 23
69.1431937424978
 33
0.0
  0
SOLID
  5
1F4B
  8
2
 62
     0
 10
62.893978952568858
 20
41.643193742497111
 30
0.0
 11
63.72731228590218
 21
41.643193742497111
 31
0.0
 12
63.310645619235522
 22
39.143193742497111
 32
0.0
 13
63.310645619235522
 23
39.143193742497111
 33
0.0
  0
TEXT
  5
1F4C
  8
1
 62
     0
 10
62.685645619235508
 20
52.268193742497459
 30
0.0
 40
2.5
  1
30
 50
90.0
  0
POINT
  5
1F4D
  8
DEFPOINTS
 62
     0
 10
78.569381561315438
 20
69.1431937424978
 30
0.0
  0
POINT
  5
1F4E
  8
DEFPOINTS
 62
     0
 10
78.569381561315438
 20
39.143193742497111
 30
0.0
  0
POINT
  5
1F4F
  8
DEFPOINTS
 62
     0
 10
63.310645619235522
 20
39.143193742497111
 30
0.0
  0
ENDBLK
  5
1D65
  8
0
  0
BLOCK
  8
0
  2
*D13
 70
     1
 10
0.0
 20
0.0
 30
0.0
  3
*D13
  1

  0
LINE
  5
1EF4
  8
2
 62
     0
 10
20.84424372430383
 20
26.830693742497498
 30
0.0
 11
20.84424372430383
 21
16.783741456134091
 31
0.0
  0
LINE
  5
1EF5
  8
2
 62
     0
 10
32.844243724303809
 20
24.122793742497421
 30
0.0
 11
32.844243724303809
 21
16.783741456134091
 31
0.0
  0
LINE
  5
1EF6
  8
2
 62
     0
 10
23.34424372430383
 20
18.033741456134091
 30
0.0
 11
30.344243724303809
 21
18.033741456134091
 31
0.0
  0
SOLID
  5
1EF7
  8
2
 62
     0
 10
23.34424372430383
 20
18.450408122800759
 30
0.0
 11
23.34424372430383
 21
17.61707478946742
 31
0.0
 12
20.84424372430383
 22
18.033741456134091
 32
0.0
 13
20.84424372430383
 23
18.033741456134091
 33
0.0
  0
SOLID
  5
1EF8
  8
2
 62
     0
 10
30.344243724303809
 20
18.450408122800759
 30
0.0
 11
30.344243724303809
 21
17.61707478946742
 31
0.0
 12
32.844243724303809
 22
18.033741456134091
 32
0.0
 13
32.844243724303809
 23
18.033741456134091
 33
0.0
  0
TEXT
  5
1EF9
  8
1
 62
     0
 10
25.177577057637151
 20
18.658741456134091
 30
0.0
 40
2.5
  1
12
  0
POINT
  5
1EFA
  8
DEFPOINTS
 62
     0
 10
20.84424372430383
 20
27.455693742497498
 30
0.0
  0
POINT
  5
1EFB
  8
DEFPOINTS
 62
     0
 10
32.844243724303809
 20
24.747793742497421
 30
0.0
  0
POINT
  5
1EFC
  8
DEFPOINTS
 62
     0
 10
32.844243724303809
 20
18.033741456134091
 30
0.0
  0
ENDBLK
  5
1D74
  8
0
  0
BLOCK
  8
0
  2
*D14
 70
     1
 10
0.0
 20
0.0
 30
0.0
  3
*D14
  1

  0
LINE
  5
1EEB
  8
2
 62
     0
 10
20.84424372430383
 20
17.408741456134091
 30
0.0
 11
20.84424372430383
 21
9.9690211601046883
 31
0.0
  0
LINE
  5
1EEC
  8
2
 62
     0
 10
36.844243724303851
 20
28.518193742497338
 30
0.0
 11
36.844243724303851
 21
9.9690211601046883
 31
0.0
  0
LINE
  5
1EED
  8
2
 62
     0
 10
23.34424372430383
 20
11.219021160104679
 30
0.0
 11
34.344243724303851
 21
11.219021160104679
 31
0.0
  0
SOLID
  5
1EEE
  8
2
 62
     0
 10
23.34424372430383
 20
11.635687826771351
 30
0.0
 11
23.34424372430383
 21
10.80235449343802
 31
0.0
 12
20.84424372430383
 22
11.219021160104679
 32
0.0
 13
20.84424372430383
 23
11.219021160104679
 33
0.0
  0
SOLID
  5
1EEF
  8
2
 62
     0
 10
34.344243724303851
 20
11.635687826771351
 30
0.0
 11
34.344243724303851
 21
10.80235449343802
 31
0.0
 12
36.844243724303851
 22
11.219021160104679
 32
0.0
 13
36.844243724303851
 23
11.219021160104679
 33
0.0
  0
TEXT
  5
1EF0
  8
1
 62
     0
 10
27.177577057637169
 20
11.844021160104679
 30
0.0
 40
2.5
  1
16
  0
POINT
  5
1EF1
  8
DEFPOINTS
 62
     0
 10
20.84424372430383
 20
18.033741456134091
 30
0.0
  0
POINT
  5
1EF2
  8
DEFPOINTS
 62
     0
 10
36.844243724303851
 20
29.143193742497338
 30
0.0
  0
POINT
  5
1EF3
  8
DEFPOINTS
 62
     0
 10
36.844243724303851
 20
11.219021160104679
 30
0.0
  0
ENDBLK
  5
1D81
  8
0
  0
BLOCK
  8
0
  2
*U15
 70
     1
 10
0.0
 20
0.0
 30
0.0
  3
*U15
  1

  0
TEXT
  5
2000
  8
1
 62
     0
 10
80.71371489464876
 20
1.9464295522835471
 30
0.0
 40
2.5
  1
\U+2205
  0
TEXT
  5
2001
  8
1
 62
     0
 10
83.21371489464876
 20
1.9464295522835471
 30
0.0
 40
2.5
  1
14
  0
ENDBLK
  5
2003
  8
0
  0
ENDSEC
  0
SECTION
  2
ENTITIES
  0
POLYLINE
  5
5C2
  8
2
 66
     1
 10
0.0
 20
0.0
 30
0.0
 39
5.0
  0
VERTEX
  5
1FE7
  8
2
 10
77.065881561315436
 20
127.1431937424977
 30
0.0
  0
VERTEX
  5
1FE8
  8
2
 10
77.065881561315436
 20
77.313793742497765
 30
0.0
  0
SEQEND
  5
1FE9
  8
2
  0
POLYLINE
  5
9DB
  8
2
 66
     1
 10
0.0
 20
0.0
 30
0.0
 39
5.0
  0
VERTEX
  5
1FEA
  8
2
 10
80.126681561315436
 20
132.14319374249769
 30
0.0
  0
VERTEX
  5
1FEB
  8
2
 10
80.126681561315436
 20
127.1431937424978
 30
0.0
  0
SEQEND
  5
1FEC
  8
2
  0
TEXT
  5
ABC
  8
2
 10
75.361240326628035
 20
-10.204963957182249
 30
0.0
 40
2.5399440000000002
  1
50.337
 51
-0.0000015352344868
  7
\U+00C9L\U+00C9R_\U+00C2S\U+00C2V\U+00C2B\U+00C2N
  0
LINE
  5
ADD
  8
1
 10
83.630381561315417
 20
11.53949374249712
 30
0.0
 11
83.630381561315417
 21
155.2222629407847
 31
0.0
  0
LINE
  5
B6C
  8
2
 10
81.473181561315428
 20
151.1178937424977
 30
0.0
 11
81.473181561315428
 21
147.2287452363818
 31
0.0
  0
LINE
  5
B6E
  8
0
 39
5.0
 10
82.17058156131543
 20
146.81879374249769
 30
0.0
 11
83.630381561315417
 21
146.81879374249769
 31
0.0
  0
LINE
  5
B6F
  8
0
 39
5.0
 10
81.130381561315417
 20
147.43025279603691
 30
0.0
 11
82.17058156131543
 21
146.81879374249769
 31
0.0
  0
LINE
  5
B70
  8
0
 39
5.0
 10
78.78358156131543
 20
144.70839374249769
 30
0.0
 11
83.630381561315417
 21
144.70839374249769
 31
0.0
  0
LINE
  5
B71
  8
0
 39
5.0
 10
78.78358156131543
 20
145.7635937424977
 30
0.0
 11
78.78358156131543
 21
144.70839374249769
 31
0.0
  0
LINE
  5
B72
  8
0
 39
5.0
 10
83.630381561315417
 20
145.7635937424977
 30
0.0
 11
78.78358156131543
 21
145.7635937424977
 31
0.0
  0
LINE
  5
B74
  8
0
 39
5.0
 10
79.60978156131543
 20
154.43669374249771
 30
0.0
 11
79.550181561315426
 21
154.4398937424977
 31
0.0
  0
LINE
  5
B75
  8
0
 39
5.0
 10
79.66758156131543
 20
154.4277937424977
 30
0.0
 11
79.60978156131543
 21
154.43669374249771
 31
0.0
  0
LINE
  5
B76
  8
0
 39
5.0
 10
79.723481561315424
 20
154.4132937424977
 30
0.0
 11
79.66758156131543
 21
154.4277937424977
 31
0.0
  0
LINE
  5
B77
  8
0
 39
5.0
 10
79.776981561315438
 20
154.3936937424977
 30
0.0
 11
79.723481561315424
 21
154.4132937424977
 31
0.0
  0
LINE
  5
B78
  8
0
 39
5.0
 10
79.828081561315429
 20
154.3688937424977
 30
0.0
 11
79.776981561315438
 21
154.3936937424977
 31
0.0
  0
LINE
  5
B79
  8
0
 39
5.0
 10
79.876181561315434
 20
154.3395937424977
 30
0.0
 11
79.828081561315429
 21
154.3688937424977
 31
0.0
  0
LINE
  5
B7A
  8
0
 39
5.0
 10
79.921281561315425
 20
154.30589374249769
 30
0.0
 11
79.876181561315434
 21
154.3395937424977
 31
0.0
  0
LINE
  5
B7B
  8
0
 39
5.0
 10
79.962681561315435
 20
154.26829374249769
 30
0.0
 11
79.921281561315425
 21
154.30589374249769
 31
0.0
  0
LINE
  5
B7C
  8
0
 39
5.0
 10
80.000581561315414
 20
154.2265937424977
 30
0.0
 11
79.962681561315435
 21
154.26829374249769
 31
0.0
  0
LINE
  5
B7D
  8
0
 39
5.0
 10
80.034181561315435
 20
154.18169374249771
 30
0.0
 11
80.000581561315414
 21
154.2265937424977
 31
0.0
  0
LINE
  5
B7E
  8
0
 39
5.0
 10
80.063481561315413
 20
154.13349374249771
 30
0.0
 11
80.034181561315435
 21
154.18169374249771
 31
0.0
  0
LINE
  5
B7F
  8
0
 39
5.0
 10
80.088081561315406
 20
154.08259374249769
 30
0.0
 11
80.063481561315413
 21
154.13349374249771
 31
0.0
  0
LINE
  5
B80
  8
0
 39
5.0
 10
80.107781561315406
 20
154.0288937424977
 30
0.0
 11
80.088081561315406
 21
154.08259374249769
 31
0.0
  0
LINE
  5
B81
  8
0
 39
5.0
 10
80.122181561315429
 20
153.9731937424977
 30
0.0
 11
80.107781561315406
 21
154.0288937424977
 31
0.0
  0
LINE
  5
B82
  8
0
 39
5.0
 10
80.131081561315426
 20
153.91529374249771
 30
0.0
 11
80.122181561315429
 21
153.9731937424977
 31
0.0
  0
LINE
  5
B83
  8
0
 39
5.0
 10
80.134081561315426
 20
153.8559937424977
 30
0.0
 11
80.131081561315426
 21
153.91529374249771
 31
0.0
  0
LINE
  5
B84
  8
0
 39
5.0
 10
80.134081561315426
 20
153.8559937424977
 30
0.0
 11
80.134081561315426
 21
153.8559937424977
 31
0.0
  0
LINE
  5
B85
  8
0
 39
5.0
 10
80.134081561315426
 20
151.7017937424977
 30
0.0
 11
80.134081561315426
 21
153.8559937424977
 31
0.0
  0
LINE
  5
B86
  8
0
 39
5.0
 10
80.131081561315426
 20
151.64219374249771
 30
0.0
 11
80.134081561315426
 21
151.7017937424977
 31
0.0
  0
LINE
  5
B87
  8
0
 39
5.0
 10
80.122181561315429
 20
151.5843937424977
 30
0.0
 11
80.131081561315426
 21
151.64219374249771
 31
0.0
  0
LINE
  5
B88
  8
0
 39
5.0
 10
80.107781561315406
 20
151.52849374249769
 30
0.0
 11
80.122181561315429
 21
151.5843937424977
 31
0.0
  0
LINE
  5
B89
  8
0
 39
5.0
 10
80.088081561315406
 20
151.4749937424977
 30
0.0
 11
80.107781561315406
 21
151.52849374249769
 31
0.0
  0
LINE
  5
B8A
  8
0
 39
5.0
 10
80.063481561315413
 20
151.42389374249771
 30
0.0
 11
80.088081561315406
 21
151.4749937424977
 31
0.0
  0
LINE
  5
B8B
  8
0
 39
5.0
 10
80.034181561315435
 20
151.37579374249771
 30
0.0
 11
80.063481561315413
 21
151.42389374249771
 31
0.0
  0
LINE
  5
B8C
  8
0
 39
5.0
 10
80.000581561315414
 20
151.33069374249769
 30
0.0
 11
80.034181561315435
 21
151.37579374249771
 31
0.0
  0
LINE
  5
B8D
  8
0
 39
5.0
 10
79.962681561315435
 20
151.2892937424977
 30
0.0
 11
80.000581561315414
 21
151.33069374249769
 31
0.0
  0
LINE
  5
B8E
  8
0
 39
5.0
 10
79.921281561315425
 20
151.2513937424977
 30
0.0
 11
79.962681561315435
 21
151.2892937424977
 31
0.0
  0
LINE
  5
B8F
  8
0
 39
5.0
 10
79.876181561315434
 20
151.21779374249769
 30
0.0
 11
79.921281561315425
 21
151.2513937424977
 31
0.0
  0
LINE
  5
B90
  8
0
 39
5.0
 10
79.828081561315429
 20
151.18849374249771
 30
0.0
 11
79.876181561315434
 21
151.21779374249769
 31
0.0
  0
LINE
  5
B91
  8
0
 39
5.0
 10
79.776981561315438
 20
151.16389374249769
 30
0.0
 11
79.828081561315429
 21
151.18849374249771
 31
0.0
  0
LINE
  5
B92
  8
0
 39
5.0
 10
79.723481561315424
 20
151.14419374249769
 30
0.0
 11
79.776981561315438
 21
151.16389374249769
 31
0.0
  0
LINE
  5
B93
  8
0
 39
5.0
 10
79.66758156131543
 20
151.1297937424977
 30
0.0
 11
79.723481561315424
 21
151.14419374249769
 31
0.0
  0
LINE
  5
B94
  8
0
 39
5.0
 10
79.60978156131543
 20
151.12089374249771
 30
0.0
 11
79.66758156131543
 21
151.1297937424977
 31
0.0
  0
LINE
  5
B95
  8
0
 39
5.0
 10
79.550181561315426
 20
151.1178937424977
 30
0.0
 11
79.60978156131543
 21
151.12089374249771
 31
0.0
  0
LINE
  5
B96
  8
0
 39
5.0
 10
79.550181561315426
 20
151.1178937424977
 30
0.0
 11
79.550181561315426
 21
151.1178937424977
 31
0.0
  0
LINE
  5
B97
  8
0
 39
5.0
 10
77.214281561315431
 20
151.1178937424977
 30
0.0
 11
79.550181561315426
 21
151.1178937424977
 31
0.0
  0
LINE
  5
B98
  8
0
 39
5.0
 10
77.154981561315424
 20
151.12089374249771
 30
0.0
 11
77.214281561315431
 21
151.1178937424977
 31
0.0
  0
LINE
  5
B99
  8
0
 39
5.0
 10
77.097081561315434
 20
151.1297937424977
 30
0.0
 11
77.154981561315424
 21
151.12089374249771
 31
0.0
  0
LINE
  5
B9A
  8
0
 39
5.0
 10
77.041381561315433
 20
151.14419374249769
 30
0.0
 11
77.097081561315434
 21
151.1297937424977
 31
0.0
  0
LINE
  5
B9B
  8
0
 39
5.0
 10
76.987681561315426
 20
151.16389374249769
 30
0.0
 11
77.041381561315433
 21
151.14419374249769
 31
0.0
  0
LINE
  5
B9C
  8
0
 39
5.0
 10
76.936781561315428
 20
151.18849374249771
 30
0.0
 11
76.987681561315426
 21
151.16389374249769
 31
0.0
  0
LINE
  5
B9D
  8
0
 39
5.0
 10
76.888581561315419
 20
151.21779374249769
 30
0.0
 11
76.936781561315428
 21
151.18849374249771
 31
0.0
  0
LINE
  5
B9E
  8
0
 39
5.0
 10
76.843681561315435
 20
151.2513937424977
 30
0.0
 11
76.888581561315419
 21
151.21779374249769
 31
0.0
  0
LINE
  5
B9F
  8
0
 39
5.0
 10
76.801981561315429
 20
151.2892937424977
 30
0.0
 11
76.843681561315435
 21
151.2513937424977
 31
0.0
  0
LINE
  5
BA0
  8
0
 39
5.0
 10
76.764381561315417
 20
151.33069374249769
 30
0.0
 11
76.801981561315429
 21
151.2892937424977
 31
0.0
  0
LINE
  5
BA1
  8
0
 39
5.0
 10
76.730681561315436
 20
151.37579374249771
 30
0.0
 11
76.764381561315417
 21
151.33069374249769
 31
0.0
  0
LINE
  5
BA2
  8
0
 39
5.0
 10
76.701381561315415
 20
151.42389374249771
 30
0.0
 11
76.730681561315436
 21
151.37579374249771
 31
0.0
  0
LINE
  5
BA3
  8
0
 39
5.0
 10
76.67658156131543
 20
151.4749937424977
 30
0.0
 11
76.701381561315415
 21
151.42389374249771
 31
0.0
  0
LINE
  5
BA4
  8
0
 39
5.0
 10
76.656981561315433
 20
151.52849374249769
 30
0.0
 11
76.67658156131543
 21
151.4749937424977
 31
0.0
  0
LINE
  5
BA5
  8
0
 39
5.0
 10
76.642481561315435
 20
151.5843937424977
 30
0.0
 11
76.656981561315433
 21
151.52849374249769
 31
0.0
  0
LINE
  5
BA6
  8
0
 39
5.0
 10
76.633581561315424
 20
151.64219374249771
 30
0.0
 11
76.642481561315435
 21
151.5843937424977
 31
0.0
  0
LINE
  5
BA7
  8
0
 39
5.0
 10
76.630381561315431
 20
151.7017937424977
 30
0.0
 11
76.633581561315424
 21
151.64219374249771
 31
0.0
  0
LINE
  5
BA8
  8
0
 39
5.0
 10
76.630381561315431
 20
151.7017937424977
 30
0.0
 11
76.630381561315431
 21
151.7017937424977
 31
0.0
  0
LINE
  5
BA9
  8
0
 39
5.0
 10
76.630381561315431
 20
153.8559937424977
 30
0.0
 11
76.630381561315431
 21
151.7017937424977
 31
0.0
  0
LINE
  5
BAA
  8
0
 39
5.0
 10
76.633581561315424
 20
153.91529374249771
 30
0.0
 11
76.630381561315431
 21
153.8559937424977
 31
0.0
  0
LINE
  5
BAB
  8
0
 39
5.0
 10
76.642481561315435
 20
153.9731937424977
 30
0.0
 11
76.633581561315424
 21
153.91529374249771
 31
0.0
  0
LINE
  5
BAC
  8
0
 39
5.0
 10
76.656981561315433
 20
154.0288937424977
 30
0.0
 11
76.642481561315435
 21
153.9731937424977
 31
0.0
  0
LINE
  5
BAD
  8
0
 39
5.0
 10
76.67658156131543
 20
154.08259374249769
 30
0.0
 11
76.656981561315433
 21
154.0288937424977
 31
0.0
  0
LINE
  5
BAE
  8
0
 39
5.0
 10
76.701381561315415
 20
154.13349374249771
 30
0.0
 11
76.67658156131543
 21
154.08259374249769
 31
0.0
  0
LINE
  5
BAF
  8
0
 39
5.0
 10
76.730681561315436
 20
154.18169374249771
 30
0.0
 11
76.701381561315415
 21
154.13349374249771
 31
0.0
  0
LINE
  5
BB0
  8
0
 39
5.0
 10
76.764381561315417
 20
154.2265937424977
 30
0.0
 11
76.730681561315436
 21
154.18169374249771
 31
0.0
  0
LINE
  5
BB1
  8
0
 39
5.0
 10
76.801981561315429
 20
154.26829374249769
 30
0.0
 11
76.764381561315417
 21
154.2265937424977
 31
0.0
  0
LINE
  5
BB2
  8
0
 39
5.0
 10
76.843681561315435
 20
154.30589374249769
 30
0.0
 11
76.801981561315429
 21
154.26829374249769
 31
0.0
  0
LINE
  5
BB3
  8
0
 39
5.0
 10
76.888581561315419
 20
154.3395937424977
 30
0.0
 11
76.843681561315435
 21
154.30589374249769
 31
0.0
  0
LINE
  5
BB4
  8
0
 39
5.0
 10
76.936781561315428
 20
154.3688937424977
 30
0.0
 11
76.888581561315419
 21
154.3395937424977
 31
0.0
  0
LINE
  5
BB5
  8
0
 39
5.0
 10
76.987681561315426
 20
154.3936937424977
 30
0.0
 11
76.936781561315428
 21
154.3688937424977
 31
0.0
  0
LINE
  5
BB6
  8
0
 39
5.0
 10
77.041381561315433
 20
154.4132937424977
 30
0.0
 11
76.987681561315426
 21
154.3936937424977
 31
0.0
  0
LINE
  5
BB7
  8
0
 39
5.0
 10
77.097081561315434
 20
154.4277937424977
 30
0.0
 11
77.041381561315433
 21
154.4132937424977
 31
0.0
  0
LINE
  5
BB8
  8
0
 39
5.0
 10
77.154981561315424
 20
154.43669374249771
 30
0.0
 11
77.097081561315434
 21
154.4277937424977
 31
0.0
  0
LINE
  5
BB9
  8
0
 39
5.0
 10
77.214281561315431
 20
154.4398937424977
 30
0.0
 11
77.154981561315424
 21
154.43669374249771
 31
0.0
  0
LINE
  5
BBA
  8
0
 39
5.0
 10
77.214281561315431
 20
154.4398937424977
 30
0.0
 11
77.214281561315431
 21
154.4398937424977
 31
0.0
  0
LINE
  5
BBB
  8
0
 39
5.0
 10
79.550181561315426
 20
154.4398937424977
 30
0.0
 11
77.214281561315431
 21
154.4398937424977
 31
0.0
  0
LINE
  5
BBC
  8
0
 39
5.0
 10
80.815381561315434
 20
151.1178937424977
 30
0.0
 11
83.630381561315417
 21
151.1178937424977
 31
0.0
  0
LINE
  5
BBD
  8
0
 39
5.0
 10
80.746081561315435
 20
151.1212937424977
 30
0.0
 11
80.815381561315434
 21
151.1178937424977
 31
0.0
  0
LINE
  5
BBE
  8
0
 39
5.0
 10
80.678581561315426
 20
151.1316937424977
 30
0.0
 11
80.746081561315435
 21
151.1212937424977
 31
0.0
  0
LINE
  5
BBF
  8
0
 39
5.0
 10
80.613481561315425
 20
151.14849374249769
 30
0.0
 11
80.678581561315426
 21
151.1316937424977
 31
0.0
  0
LINE
  5
BC0
  8
0
 39
5.0
 10
80.550881561315435
 20
151.17159374249769
 30
0.0
 11
80.613481561315425
 21
151.14849374249769
 31
0.0
  0
LINE
  5
BC1
  8
0
 39
5.0
 10
80.491481561315425
 20
151.20029374249771
 30
0.0
 11
80.550881561315435
 21
151.17159374249769
 31
0.0
  0
LINE
  5
BC2
  8
0
 39
5.0
 10
80.435281561315435
 20
151.2344937424977
 30
0.0
 11
80.491481561315425
 21
151.20029374249771
 31
0.0
  0
LINE
  5
BC3
  8
0
 39
5.0
 10
80.382881561315415
 20
151.2737937424977
 30
0.0
 11
80.435281561315435
 21
151.2344937424977
 31
0.0
  0
LINE
  5
BC4
  8
0
 39
5.0
 10
80.334281561315436
 20
151.31789374249769
 30
0.0
 11
80.382881561315415
 21
151.2737937424977
 31
0.0
  0
LINE
  5
BC5
  8
0
 39
5.0
 10
80.290381561315428
 20
151.3661937424977
 30
0.0
 11
80.334281561315436
 21
151.31789374249769
 31
0.0
  0
LINE
  5
BC6
  8
0
 39
5.0
 10
80.251081561315416
 20
151.41869374249771
 30
0.0
 11
80.290381561315428
 21
151.3661937424977
 31
0.0
  0
LINE
  5
BC7
  8
0
 39
5.0
 10
80.216881561315446
 20
151.4748937424977
 30
0.0
 11
80.251081561315416
 21
151.41869374249771
 31
0.0
  0
LINE
  5
BC8
  8
0
 39
5.0
 10
80.187981561315425
 20
151.53449374249769
 30
0.0
 11
80.216881561315446
 21
151.4748937424977
 31
0.0
  0
LINE
  5
BC9
  8
0
 39
5.0
 10
80.165081561315404
 20
151.59689374249771
 30
0.0
 11
80.187981561315425
 21
151.53449374249769
 31
0.0
  0
LINE
  5
BCA
  8
0
 39
5.0
 10
80.148081561315408
 20
151.66219374249769
 30
0.0
 11
80.165081561315404
 21
151.59689374249771
 31
0.0
  0
LINE
  5
BCB
  8
0
 39
5.0
 10
80.137681561315418
 20
151.72959374249771
 30
0.0
 11
80.148081561315408
 21
151.66219374249769
 31
0.0
  0
LINE
  5
BCC
  8
0
 39
5.0
 10
80.134081561315426
 20
151.79919374249769
 30
0.0
 11
80.137681561315418
 21
151.72959374249771
 31
0.0
  0
LINE
  5
BCD
  8
0
 39
5.0
 10
80.134081561315426
 20
151.79919374249769
 30
0.0
 11
80.134081561315426
 21
151.79919374249769
 31
0.0
  0
LINE
  5
BCE
  8
0
 39
5.0
 10
80.134081561315426
 20
153.75859374249771
 30
0.0
 11
80.134081561315426
 21
151.79919374249769
 31
0.0
  0
LINE
  5
BCF
  8
0
 39
5.0
 10
80.137681561315418
 20
153.82789374249771
 30
0.0
 11
80.134081561315426
 21
153.75859374249771
 31
0.0
  0
LINE
  5
BD0
  8
0
 39
5.0
 10
80.148081561315408
 20
153.8953937424977
 30
0.0
 11
80.137681561315418
 21
153.82789374249771
 31
0.0
  0
LINE
  5
BD1
  8
0
 39
5.0
 10
80.165081561315404
 20
153.9604937424977
 30
0.0
 11
80.148081561315408
 21
153.8953937424977
 31
0.0
  0
LINE
  5
BD2
  8
0
 39
5.0
 10
80.187981561315425
 20
154.02309374249771
 30
0.0
 11
80.165081561315404
 21
153.9604937424977
 31
0.0
  0
LINE
  5
BD3
  8
0
 39
5.0
 10
80.216881561315446
 20
154.08249374249769
 30
0.0
 11
80.187981561315425
 21
154.02309374249771
 31
0.0
  0
LINE
  5
BD4
  8
0
 39
5.0
 10
80.251081561315416
 20
154.13869374249771
 30
0.0
 11
80.216881561315446
 21
154.08249374249769
 31
0.0
  0
LINE
  5
BD5
  8
0
 39
5.0
 10
80.290381561315428
 20
154.19109374249771
 30
0.0
 11
80.251081561315416
 21
154.13869374249771
 31
0.0
  0
LINE
  5
BD6
  8
0
 39
5.0
 10
80.334281561315436
 20
154.23969374249771
 30
0.0
 11
80.290381561315428
 21
154.19109374249771
 31
0.0
  0
LINE
  5
BD7
  8
0
 39
5.0
 10
80.382881561315415
 20
154.28359374249769
 30
0.0
 11
80.334281561315436
 21
154.23969374249771
 31
0.0
  0
LINE
  5
BD8
  8
0
 39
5.0
 10
80.435281561315435
 20
154.32289374249771
 30
0.0
 11
80.382881561315415
 21
154.28359374249769
 31
0.0
  0
LINE
  5
BD9
  8
0
 39
5.0
 10
80.491481561315425
 20
154.35709374249771
 30
0.0
 11
80.435281561315435
 21
154.32289374249771
 31
0.0
  0
LINE
  5
BDA
  8
0
 39
5.0
 10
80.550881561315435
 20
154.3859937424977
 30
0.0
 11
80.491481561315425
 21
154.35709374249771
 31
0.0
  0
LINE
  5
BDB
  8
0
 39
5.0
 10
80.613481561315425
 20
154.4088937424977
 30
0.0
 11
80.550881561315435
 21
154.3859937424977
 31
0.0
  0
LINE
  5
BDC
  8
0
 39
5.0
 10
80.678581561315426
 20
154.42589374249769
 30
0.0
 11
80.613481561315425
 21
154.4088937424977
 31
0.0
  0
LINE
  5
BDD
  8
0
 39
5.0
 10
80.746081561315435
 20
154.4362937424977
 30
0.0
 11
80.678581561315426
 21
154.42589374249769
 31
0.0
  0
LINE
  5
BDE
  8
0
 39
5.0
 10
80.815381561315434
 20
154.4398937424977
 30
0.0
 11
80.746081561315435
 21
154.4362937424977
 31
0.0
  0
LINE
  5
BDF
  8
0
 39
5.0
 10
80.815381561315434
 20
154.4398937424977
 30
0.0
 11
80.815381561315434
 21
154.4398937424977
 31
0.0
  0
LINE
  5
BE0
  8
0
 39
5.0
 10
83.630381561315417
 20
154.4398937424977
 30
0.0
 11
80.815381561315434
 21
154.4398937424977
 31
0.0
  0
LINE
  5
BE1
  8
0
 39
5.0
 10
79.550181561315426
 20
154.4398937424977
 30
0.0
 11
80.815381561315434
 21
154.4398937424977
 31
0.0
  0
LINE
  5
BE2
  8
0
 39
5.0
 10
80.815381561315434
 20
151.1178937424977
 30
0.0
 11
79.550181561315426
 21
151.1178937424977
 31
0.0
  0
LINE
  5
C62
  8
0
 39
5.0
 10
77.408981561315741
 20
132.14319374249769
 30
0.0
 11
83.630381561315417
 21
132.14319374249769
 31
0.0
  0
LINE
  5
C88
  8
0
 39
5.0
 10
77.408981561315414
 20
127.1431937424977
 30
0.0
 11
77.329481561315404
 21
127.1470937424977
 31
0.0
  0
LINE
  5
C89
  8
0
 39
5.0
 10
77.329481561315404
 20
127.1470937424977
 30
0.0
 11
77.252381561315417
 21
127.1589937424977
 31
0.0
  0
LINE
  5
C8A
  8
0
 39
5.0
 10
77.252381561315417
 20
127.1589937424977
 30
0.0
 11
77.177781561315427
 21
127.1781937424977
 31
0.0
  0
LINE
  5
C8B
  8
0
 39
5.0
 10
77.177781561315427
 20
127.1781937424977
 30
0.0
 11
77.106481561315434
 21
127.2044937424977
 31
0.0
  0
LINE
  5
C8C
  8
0
 39
5.0
 10
77.106481561315434
 20
127.2044937424977
 30
0.0
 11
77.038281561315415
 21
127.2372937424977
 31
0.0
  0
LINE
  5
C8D
  8
0
 39
5.0
 10
77.038281561315415
 20
127.2372937424977
 30
0.0
 11
76.974181561315419
 21
127.2763937424977
 31
0.0
  0
LINE
  5
C8E
  8
0
 39
5.0
 10
76.974181561315419
 20
127.2763937424977
 30
0.0
 11
76.914181561315417
 21
127.3212937424977
 31
0.0
  0
LINE
  5
C8F
  8
0
 39
5.0
 10
76.914181561315417
 20
127.3212937424977
 30
0.0
 11
76.858981561315431
 21
127.3717937424977
 31
0.0
  0
LINE
  5
C90
  8
0
 39
5.0
 10
76.858981561315431
 20
127.3717937424977
 30
0.0
 11
76.808481561315432
 21
127.4269937424977
 31
0.0
  0
LINE
  5
C91
  8
0
 39
5.0
 10
76.808481561315432
 20
127.4269937424977
 30
0.0
 11
76.763581561315405
 21
127.4869937424977
 31
0.0
  0
LINE
  5
C92
  8
0
 39
5.0
 10
76.763581561315405
 20
127.4869937424977
 30
0.0
 11
76.724481561315429
 21
127.5510937424977
 31
0.0
  0
LINE
  5
C93
  8
0
 39
5.0
 10
76.724481561315429
 20
127.5510937424977
 30
0.0
 11
76.69168156131542
 21
127.6192937424977
 31
0.0
  0
LINE
  5
C94
  8
0
 39
5.0
 10
76.69168156131542
 20
127.6192937424977
 30
0.0
 11
76.665381561315428
 21
127.6905937424977
 31
0.0
  0
LINE
  5
C95
  8
0
 39
5.0
 10
76.665381561315428
 20
127.6905937424977
 30
0.0
 11
76.646181561315416
 21
127.7651937424977
 31
0.0
  0
LINE
  5
C96
  8
0
 39
5.0
 10
76.646181561315416
 20
127.7651937424977
 30
0.0
 11
76.634281561315419
 21
127.8422937424977
 31
0.0
  0
LINE
  5
C97
  8
0
 39
5.0
 10
76.634281561315419
 20
127.8422937424977
 30
0.0
 11
76.630381561315431
 21
127.9217937424977
 31
0.0
  0
LINE
  5
C98
  8
0
 39
5.0
 10
76.630381561315431
 20
127.9217937424977
 30
0.0
 11
76.630381561315431
 21
131.3645937424977
 31
0.0
  0
LINE
  5
C99
  8
0
 39
5.0
 10
76.630381561315431
 20
131.3645937424977
 30
0.0
 11
76.630381561315431
 21
131.3645937424977
 31
0.0
  0
LINE
  5
C9A
  8
0
 39
5.0
 10
76.630381561315431
 20
131.3645937424977
 30
0.0
 11
76.634281561315419
 21
131.44379374249769
 31
0.0
  0
LINE
  5
C9B
  8
0
 39
5.0
 10
76.634281561315419
 20
131.44379374249769
 30
0.0
 11
76.646181561315416
 21
131.52089374249769
 31
0.0
  0
LINE
  5
C9C
  8
0
 39
5.0
 10
76.646181561315416
 20
131.52089374249769
 30
0.0
 11
76.665381561315428
 21
131.59529374249769
 31
0.0
  0
LINE
  5
C9D
  8
0
 39
5.0
 10
76.665381561315428
 20
131.59529374249769
 30
0.0
 11
76.69168156131542
 21
131.6667937424977
 31
0.0
  0
LINE
  5
C9E
  8
0
 39
5.0
 10
76.69168156131542
 20
131.6667937424977
 30
0.0
 11
76.724481561315429
 21
131.73469374249771
 31
0.0
  0
LINE
  5
C9F
  8
0
 39
5.0
 10
76.724481561315429
 20
131.73469374249771
 30
0.0
 11
76.763581561315405
 21
131.79889374249771
 31
0.0
  0
LINE
  5
CA0
  8
0
 39
5.0
 10
76.763581561315405
 20
131.79889374249771
 30
0.0
 11
76.808481561315432
 21
131.85889374249771
 31
0.0
  0
LINE
  5
CA1
  8
0
 39
5.0
 10
76.808481561315432
 20
131.85889374249771
 30
0.0
 11
76.858981561315431
 21
131.91439374249771
 31
0.0
  0
LINE
  5
CA2
  8
0
 39
5.0
 10
76.858981561315431
 20
131.91439374249771
 30
0.0
 11
76.914181561315417
 21
131.9646937424977
 31
0.0
  0
LINE
  5
CA3
  8
0
 39
5.0
 10
76.914181561315417
 20
131.9646937424977
 30
0.0
 11
76.974181561315419
 21
132.00959374249771
 31
0.0
  0
LINE
  5
CA4
  8
0
 39
5.0
 10
76.974181561315419
 20
132.00959374249771
 30
0.0
 11
77.038281561315415
 21
132.0486937424977
 31
0.0
  0
LINE
  5
CA5
  8
0
 39
5.0
 10
77.038281561315415
 20
132.0486937424977
 30
0.0
 11
77.106481561315434
 21
132.08169374249769
 31
0.0
  0
LINE
  5
CA6
  8
0
 39
5.0
 10
77.106481561315434
 20
132.08169374249769
 30
0.0
 11
77.177781561315427
 21
132.10789374249771
 31
0.0
  0
LINE
  5
CA7
  8
0
 39
5.0
 10
77.177781561315427
 20
132.10789374249771
 30
0.0
 11
77.252381561315417
 21
132.1271937424977
 31
0.0
  0
LINE
  5
CA8
  8
0
 39
5.0
 10
77.252381561315417
 20
132.1271937424977
 30
0.0
 11
77.329481561315404
 21
132.13909374249769
 31
0.0
  0
LINE
  5
CA9
  8
0
 39
5.0
 10
77.329481561315404
 20
132.13909374249769
 30
0.0
 11
77.408981561315414
 21
132.14319374249769
 31
0.0
  0
LINE
  5
CAA
  8
0
 39
5.0
 10
81.489181561315434
 20
124.40749374249771
 30
0.0
 11
83.630381561315417
 21
124.40749374249771
 31
0.0
  0
LINE
  5
CAD
  8
2
 39
5.0
 10
81.489181561315434
 20
132.14319374249769
 30
0.0
 11
81.489181561315434
 21
124.40749374249771
 31
0.0
  0
LINE
  5
CB0
  8
0
 39
5.0
 10
79.347981561315436
 20
132.14319374249769
 30
0.0
 11
79.347981561315436
 21
127.1431937424977
 31
0.0
  0
LINE
  5
CC4
  8
0
 39
5.0
 10
78.569381561315438
 20
76.241393742497777
 30
0.0
 11
78.569381561315438
 21
39.143193742497111
 31
0.0
  0
LINE
  5
CE3
  8
0
 39
5.0
 10
81.130381561315417
 20
126.45929374249771
 30
0.0
 11
83.630381561315417
 21
126.45929374249771
 31
0.0
  0
LINE
  5
CF1
  8
0
 39
5.0
 10
80.126681561315436
 20
127.1431937424977
 30
0.0
 11
76.630381561315431
 21
127.1431937424977
 31
0.0
  0
LINE
  5
CF5
  8
0
 39
5.0
 10
77.790781561315441
 20
121.39549374249771
 30
0.0
 11
79.269281561315438
 21
121.39549374249771
 31
0.0
  0
LINE
  5
CF8
  8
0
 39
5.0
 10
78.101481561315438
 20
127.1431937424977
 30
0.0
 11
78.101481561315438
 21
121.39549374249771
 31
0.0
  0
LINE
  5
CFB
  8
0
 10
79.269281561315438
 20
127.1431937424977
 30
0.0
 11
79.269281561315424
 21
76.241393742497777
 31
0.0
  0
LINE
  5
D0C
  8
0
 39
5.0
 10
77.790781561315441
 20
121.39549374249771
 30
0.0
 11
77.790781561315441
 21
74.968893742497769
 31
0.0
  0
CIRCLE
  5
D0E
  8
0
 10
78.290781561315441
 20
120.89549374249771
 30
0.0
 40
0.5
  0
LINE
  5
D10
  8
0
 10
78.546274663001697
 20
121.3252881991752
 30
0.0
 11
79.269281561315438
 21
120.89549374249771
 31
0.0
  0
LINE
  5
D11
  8
0
 10
78.081978303469398
 20
120.4411797546953
 30
0.0
 11
79.269281561315438
 21
119.89549374249771
 31
0.0
  0
LINE
  5
D29
  8
0
 10
78.081978303469398
 20
117.4411797546953
 30
0.0
 11
79.269281561315438
 21
116.89549374249771
 31
0.0
  0
LINE
  5
D2A
  8
0
 10
78.546274663001697
 20
118.3252881991752
 30
0.0
 11
79.269281561315438
 21
117.89549374249771
 31
0.0
  0
CIRCLE
  5
D2B
  8
0
 10
78.290781561315441
 20
117.89549374249771
 30
0.0
 40
0.5
  0
CIRCLE
  5
D37
  8
0
 10
78.290781561315441
 20
114.89549374249771
 30
0.0
 40
0.5
  0
LINE
  5
D38
  8
0
 10
78.546274663001697
 20
115.3252881991752
 30
0.0
 11
79.269281561315438
 21
114.89549374249771
 31
0.0
  0
LINE
  5
D39
  8
0
 10
78.081978303469398
 20
114.4411797546954
 30
0.0
 11
79.269281561315438
 21
113.89549374249771
 31
0.0
  0
CIRCLE
  5
D43
  8
0
 10
78.290781561315441
 20
111.89549374249771
 30
0.0
 40
0.5
  0
LINE
  5
D44
  8
0
 10
78.546274663001697
 20
112.3252881991752
 30
0.0
 11
79.269281561315438
 21
111.89549374249771
 31
0.0
  0
LINE
  5
D45
  8
0
 10
78.081978303469398
 20
111.4411797546954
 30
0.0
 11
79.269281561315438
 21
110.89549374249771
 31
0.0
  0
CIRCLE
  5
D4F
  8
0
 10
78.290781561315441
 20
108.89549374249771
 30
0.0
 40
0.5
  0
LINE
  5
D50
  8
0
 10
78.546274663001697
 20
109.3252881991752
 30
0.0
 11
79.269281561315438
 21
108.89549374249771
 31
0.0
  0
LINE
  5
D51
  8
0
 10
78.081978303469398
 20
108.4411797546954
 30
0.0
 11
79.269281561315438
 21
107.89549374249771
 31
0.0
  0
CIRCLE
  5
D5B
  8
0
 10
78.290781561315441
 20
105.89549374249771
 30
0.0
 40
0.5
  0
LINE
  5
D5C
  8
0
 10
78.546274663001697
 20
106.3252881991752
 30
0.0
 11
79.269281561315438
 21
105.89549374249771
 31
0.0
  0
LINE
  5
D5D
  8
0
 10
78.081978303469398
 20
105.4411797546954
 30
0.0
 11
79.269281561315438
 21
104.89549374249771
 31
0.0
  0
CIRCLE
  5
D67
  8
0
 10
78.290781561315441
 20
102.89549374249771
 30
0.0
 40
0.5
  0
LINE
  5
D68
  8
0
 10
78.546274663001697
 20
103.3252881991752
 30
0.0
 11
79.269281561315438
 21
102.89549374249771
 31
0.0
  0
LINE
  5
D69
  8
0
 10
78.081978303469398
 20
102.4411797546953
 30
0.0
 11
79.269281561315438
 21
101.89549374249771
 31
0.0
  0
POLYLINE
  5
FC3
  8
0
 66
     1
 10
0.0
 20
0.0
 30
0.0
 39
4.9999999999999991
  0
VERTEX
  5
1FF0
  8
0
 10
77.065881561315436
 20
77.313903882744626
 30
0.0
  0
VERTEX
  5
1FF1
  8
0
 10
76.630381561315431
 20
77.313911189669
 30
0.0
  0
SEQEND
  5
1FF2
  8
0
  0
LINE
  5
FC6
  8
0
 10
79.269281561315424
 20
76.241393742497777
 30
0.0
 11
78.569381561315438
 21
76.241393742497777
 31
0.0
  0
LINE
  5
FCD
  8
0
 39
5.0
 10
78.569281561315435
 20
74.968893742497769
 30
0.0
 11
77.401481561315435
 21
74.968893742497769
 31
0.0
  0
LINE
  5
FCE
  8
0
 39
5.0
 10
77.401481561315435
 20
74.968893742497769
 30
0.0
 11
77.401481561315421
 21
69.143193742497786
 31
0.0
  0
LINE
  5
10AF
  8
0
 39
5.0
 10
73.566081561315443
 20
107.9119937424977
 30
0.0
 11
73.566081561315443
 21
107.9119937424977
 31
0.0
  0
LINE
  5
10B0
  8
0
 39
5.0
 10
73.566081561315443
 20
107.9119937424977
 30
0.0
 11
73.470881561315437
 21
107.9071937424977
 31
0.0
  0
LINE
  5
10B1
  8
0
 39
5.0
 10
73.470881561315437
 20
107.9071937424977
 30
0.0
 11
73.378281561315447
 21
107.89339374249769
 31
0.0
  0
LINE
  5
10B2
  8
0
 39
5.0
 10
73.378281561315447
 20
107.89339374249769
 30
0.0
 11
73.288881561315435
 21
107.8709937424977
 31
0.0
  0
LINE
  5
10B3
  8
0
 39
5.0
 10
73.288881561315435
 20
107.8709937424977
 30
0.0
 11
73.202881561315436
 21
107.8404937424977
 31
0.0
  0
LINE
  5
10B4
  8
0
 39
5.0
 10
73.202881561315436
 20
107.8404937424977
 30
0.0
 11
73.121181561315439
 21
107.80219374249771
 31
0.0
  0
LINE
  5
10B5
  8
0
 39
5.0
 10
73.121181561315439
 20
107.80219374249771
 30
0.0
 11
73.043981561315434
 21
107.75679374249771
 31
0.0
  0
LINE
  5
10B6
  8
0
 39
5.0
 10
73.043981561315434
 20
107.75679374249771
 30
0.0
 11
72.971981561315431
 21
107.70459374249771
 31
0.0
  0
LINE
  5
10B7
  8
0
 39
5.0
 10
72.971981561315431
 20
107.70459374249771
 30
0.0
 11
72.905281561315434
 21
107.6461937424977
 31
0.0
  0
LINE
  5
10B8
  8
0
 39
5.0
 10
72.905281561315434
 20
107.6461937424977
 30
0.0
 11
72.844881561315447
 21
107.58179374249769
 31
0.0
  0
LINE
  5
10B9
  8
0
 39
5.0
 10
72.844881561315447
 20
107.58179374249769
 30
0.0
 11
72.790881561315445
 21
107.5120937424977
 31
0.0
  0
LINE
  5
10BA
  8
0
 39
5.0
 10
72.790881561315445
 20
107.5120937424977
 30
0.0
 11
72.743981561315437
 21
107.43749374249769
 31
0.0
  0
LINE
  5
10BB
  8
0
 39
5.0
 10
72.743981561315437
 20
107.43749374249769
 30
0.0
 11
72.70428156131544
 21
107.3585937424977
 31
0.0
  0
LINE
  5
10BC
  8
0
 39
5.0
 10
72.70428156131544
 20
107.3585937424977
 30
0.0
 11
72.67288156131545
 21
107.2754937424977
 31
0.0
  0
LINE
  5
10BD
  8
0
 39
5.0
 10
72.67288156131545
 20
107.2754937424977
 30
0.0
 11
72.649581561315443
 21
107.1889937424977
 31
0.0
  0
LINE
  5
10BE
  8
0
 39
5.0
 10
72.649581561315443
 20
107.1889937424977
 30
0.0
 11
72.635281561315438
 21
107.0993937424977
 31
0.0
  0
LINE
  5
10BF
  8
0
 39
5.0
 10
72.635281561315438
 20
107.0993937424977
 30
0.0
 11
72.630381561315431
 21
107.0074937424977
 31
0.0
  0
LINE
  5
10C0
  8
0
 39
5.0
 10
72.630381561315431
 20
107.0074937424977
 30
0.0
 11
72.630381561315431
 21
103.9311937424977
 31
0.0
  0
LINE
  5
10C1
  8
0
 39
5.0
 10
72.630381561315431
 20
103.9311937424977
 30
0.0
 11
72.630381561315431
 21
103.9311937424977
 31
0.0
  0
LINE
  5
10C2
  8
0
 39
5.0
 10
72.630381561315431
 20
103.9311937424977
 30
0.0
 11
72.635281561315438
 21
103.83899374249771
 31
0.0
  0
LINE
  5
10C3
  8
0
 39
5.0
 10
72.635281561315438
 20
103.83899374249771
 30
0.0
 11
72.649581561315443
 21
103.7493937424977
 31
0.0
  0
LINE
  5
10C4
  8
0
 39
5.0
 10
72.649581561315443
 20
103.7493937424977
 30
0.0
 11
72.67288156131545
 21
103.6627937424977
 31
0.0
  0
LINE
  5
10C5
  8
0
 39
5.0
 10
72.67288156131545
 20
103.6627937424977
 30
0.0
 11
72.70428156131544
 21
103.5798937424977
 31
0.0
  0
LINE
  5
10C6
  8
0
 39
5.0
 10
72.70428156131544
 20
103.5798937424977
 30
0.0
 11
72.743981561315437
 21
103.50079374249771
 31
0.0
  0
LINE
  5
10C7
  8
0
 39
5.0
 10
72.743981561315437
 20
103.50079374249771
 30
0.0
 11
72.790881561315445
 21
103.4261937424977
 31
0.0
  0
LINE
  5
10C8
  8
0
 39
5.0
 10
72.790881561315445
 20
103.4261937424977
 30
0.0
 11
72.844881561315447
 21
103.3564937424977
 31
0.0
  0
LINE
  5
10C9
  8
0
 39
5.0
 10
72.844881561315447
 20
103.3564937424977
 30
0.0
 11
72.905281561315434
 21
103.29229374249771
 31
0.0
  0
LINE
  5
10CA
  8
0
 39
5.0
 10
72.905281561315434
 20
103.29229374249771
 30
0.0
 11
72.971981561315431
 21
103.23369374249771
 31
0.0
  0
LINE
  5
10CB
  8
0
 39
5.0
 10
72.971981561315431
 20
103.23369374249771
 30
0.0
 11
73.043981561315434
 21
103.1815937424977
 31
0.0
  0
LINE
  5
10CC
  8
0
 39
5.0
 10
73.043981561315434
 20
103.1815937424977
 30
0.0
 11
73.121181561315439
 21
103.13609374249771
 31
0.0
  0
LINE
  5
10CD
  8
0
 39
5.0
 10
73.121181561315439
 20
103.13609374249771
 30
0.0
 11
73.202881561315436
 21
103.09799374249771
 31
0.0
  0
LINE
  5
10CE
  8
0
 39
5.0
 10
73.202881561315436
 20
103.09799374249771
 30
0.0
 11
73.288881561315435
 21
103.0673937424977
 31
0.0
  0
LINE
  5
10CF
  8
0
 39
5.0
 10
73.288881561315435
 20
103.0673937424977
 30
0.0
 11
73.378281561315447
 21
103.0450937424977
 31
0.0
  0
LINE
  5
10D0
  8
0
 39
5.0
 10
73.378281561315447
 20
103.0450937424977
 30
0.0
 11
73.470881561315437
 21
103.0312937424977
 31
0.0
  0
LINE
  5
10D1
  8
0
 39
5.0
 10
73.470881561315437
 20
103.0312937424977
 30
0.0
 11
73.566081561315443
 21
103.0266937424977
 31
0.0
  0
LINE
  5
10D2
  8
0
 39
5.0
 10
73.566081561315443
 20
103.0312937424977
 30
0.0
 11
73.566081561315443
 21
103.0312937424977
 31
0.0
  0
LINE
  5
10D3
  8
0
 39
5.0
 10
73.566081561315443
 20
107.9165937424977
 30
0.0
 11
73.566081561315443
 21
107.9165937424977
 31
0.0
  0
LINE
  5
10D4
  8
0
 39
5.0
 10
73.470881561315437
 20
107.9165937424977
 30
0.0
 11
73.566081561315443
 21
107.9119937424977
 31
0.0
  0
LINE
  5
10D5
  8
0
 39
5.0
 10
73.378281561315447
 20
107.9303937424977
 30
0.0
 11
73.470881561315437
 21
107.9165937424977
 31
0.0
  0
LINE
  5
10D6
  8
0
 39
5.0
 10
73.288881561315435
 20
107.9526937424977
 30
0.0
 11
73.378281561315447
 21
107.9303937424977
 31
0.0
  0
LINE
  5
10D7
  8
0
 39
5.0
 10
73.202881561315436
 20
107.98329374249769
 30
0.0
 11
73.288881561315435
 21
107.9526937424977
 31
0.0
  0
LINE
  5
10D8
  8
0
 39
5.0
 10
73.121181561315439
 20
108.02139374249769
 30
0.0
 11
73.202881561315436
 21
107.98329374249769
 31
0.0
  0
LINE
  5
10D9
  8
0
 39
5.0
 10
73.043981561315434
 20
108.0668937424977
 30
0.0
 11
73.121181561315439
 21
108.02139374249769
 31
0.0
  0
LINE
  5
10DA
  8
0
 39
5.0
 10
72.971981561315431
 20
108.11899374249769
 30
0.0
 11
73.043981561315434
 21
108.0668937424977
 31
0.0
  0
LINE
  5
10DB
  8
0
 39
5.0
 10
72.905281561315434
 20
108.17759374249771
 30
0.0
 11
72.971981561315431
 21
108.11899374249769
 31
0.0
  0
LINE
  5
10DC
  8
0
 39
5.0
 10
72.844881561315447
 20
108.24179374249771
 30
0.0
 11
72.905281561315434
 21
108.17759374249771
 31
0.0
  0
LINE
  5
10DD
  8
0
 39
5.0
 10
72.790881561315445
 20
108.3114937424977
 30
0.0
 11
72.844881561315447
 21
108.24179374249771
 31
0.0
  0
LINE
  5
10DE
  8
0
 39
5.0
 10
72.743981561315437
 20
108.38609374249771
 30
0.0
 11
72.790881561315445
 21
108.3114937424977
 31
0.0
  0
LINE
  5
10DF
  8
0
 39
5.0
 10
72.70428156131544
 20
108.4651937424977
 30
0.0
 11
72.743981561315437
 21
108.38609374249771
 31
0.0
  0
LINE
  5
10E0
  8
0
 39
5.0
 10
72.67288156131545
 20
108.5480937424977
 30
0.0
 11
72.70428156131544
 21
108.4651937424977
 31
0.0
  0
LINE
  5
10E1
  8
0
 39
5.0
 10
72.649581561315443
 20
108.6346937424977
 30
0.0
 11
72.67288156131545
 21
108.5480937424977
 31
0.0
  0
LINE
  5
10E2
  8
0
 39
5.0
 10
72.635281561315438
 20
108.72429374249769
 30
0.0
 11
72.649581561315443
 21
108.6346937424977
 31
0.0
  0
LINE
  5
10E3
  8
0
 39
5.0
 10
72.630381561315431
 20
108.8164937424977
 30
0.0
 11
72.635281561315438
 21
108.72429374249769
 31
0.0
  0
LINE
  5
10E4
  8
0
 39
5.0
 10
72.630381561315431
 20
108.8164937424977
 30
0.0
 11
72.630381561315431
 21
108.8164937424977
 31
0.0
  0
LINE
  5
10E5
  8
0
 39
5.0
 10
72.630381561315431
 20
111.8927937424977
 30
0.0
 11
72.630381561315431
 21
108.8164937424977
 31
0.0
  0
LINE
  5
10E6
  8
0
 39
5.0
 10
72.635281561315438
 20
111.9846937424977
 30
0.0
 11
72.630381561315431
 21
111.8927937424977
 31
0.0
  0
LINE
  5
10E7
  8
0
 39
5.0
 10
72.649581561315443
 20
112.0742937424977
 30
0.0
 11
72.635281561315438
 21
111.9846937424977
 31
0.0
  0
LINE
  5
10E8
  8
0
 39
5.0
 10
72.67288156131545
 20
112.1607937424977
 30
0.0
 11
72.649581561315443
 21
112.0742937424977
 31
0.0
  0
LINE
  5
10E9
  8
0
 39
5.0
 10
72.70428156131544
 20
112.2438937424977
 30
0.0
 11
72.67288156131545
 21
112.1607937424977
 31
0.0
  0
LINE
  5
10EA
  8
0
 39
5.0
 10
72.743981561315437
 20
112.32279374249769
 30
0.0
 11
72.70428156131544
 21
112.2438937424977
 31
0.0
  0
LINE
  5
10EB
  8
0
 39
5.0
 10
72.790881561315445
 20
112.3973937424977
 30
0.0
 11
72.743981561315437
 21
112.32279374249769
 31
0.0
  0
LINE
  5
10EC
  8
0
 39
5.0
 10
72.844881561315447
 20
112.4670937424977
 30
0.0
 11
72.790881561315445
 21
112.3973937424977
 31
0.0
  0
LINE
  5
10ED
  8
0
 39
5.0
 10
72.905281561315434
 20
112.5314937424977
 30
0.0
 11
72.844881561315447
 21
112.4670937424977
 31
0.0
  0
LINE
  5
10EE
  8
0
 39
5.0
 10
72.971981561315431
 20
112.58989374249769
 30
0.0
 11
72.905281561315434
 21
112.5314937424977
 31
0.0
  0
LINE
  5
10EF
  8
0
 39
5.0
 10
73.043981561315434
 20
112.64209374249771
 30
0.0
 11
72.971981561315431
 21
112.58989374249769
 31
0.0
  0
LINE
  5
10F0
  8
0
 39
5.0
 10
73.121181561315439
 20
112.68749374249769
 30
0.0
 11
73.043981561315434
 21
112.64209374249771
 31
0.0
  0
LINE
  5
10F1
  8
0
 39
5.0
 10
73.202881561315436
 20
112.7257937424977
 30
0.0
 11
73.121181561315439
 21
112.68749374249769
 31
0.0
  0
LINE
  5
10F2
  8
0
 39
5.0
 10
73.288881561315435
 20
112.7562937424977
 30
0.0
 11
73.202881561315436
 21
112.7257937424977
 31
0.0
  0
LINE
  5
10F3
  8
0
 39
5.0
 10
73.378281561315447
 20
112.77869374249769
 30
0.0
 11
73.288881561315435
 21
112.7562937424977
 31
0.0
  0
LINE
  5
10F4
  8
0
 39
5.0
 10
73.470881561315437
 20
112.7924937424977
 30
0.0
 11
73.378281561315447
 21
112.77869374249769
 31
0.0
  0
LINE
  5
10F5
  8
0
 39
5.0
 10
73.566081561315443
 20
112.7972937424977
 30
0.0
 11
73.470881561315437
 21
112.7924937424977
 31
0.0
  0
LINE
  5
10F6
  8
0
 39
5.0
 10
73.566081561315443
 20
112.7972937424977
 30
0.0
 11
73.566081561315443
 21
112.7972937424977
 31
0.0
  0
LINE
  5
10F7
  8
0
 10
77.065881561315436
 20
112.7972937424977
 30
0.0
 11
73.566081561315826
 21
112.7972937424977
 31
0.0
  0
LINE
  5
10F8
  8
0
 10
77.065881561315436
 20
103.0266937424977
 30
0.0
 11
73.566081561315869
 21
103.0266937424977
 31
0.0
  0
LINE
  5
10FB
  8
0
 10
77.065881561315436
 20
107.9119937424977
 30
0.0
 11
73.566081561315571
 21
107.9119937424977
 31
0.0
  0
LINE
  5
117D
  8
0
 39
5.0
 10
77.739570764776332
 20
12.54319374249776
 30
0.0
 11
76.630381561315431
 21
13.24946525379919
 31
0.0
  0
LINE
  5
1180
  8
0
 39
5.0
 10
78.815981561315439
 20
15.64319374249777
 30
0.0
 11
78.815981561315439
 21
22.143193742497768
 31
0.0
  0
LINE
  5
1184
  8
0
 39
5.0
 10
74.679381561315438
 20
22.148293742497131
 30
0.0
 11
74.780446561302966
 21
22.143193742497768
 31
0.0
  0
LINE
  5
1185
  8
0
 39
5.0
 10
74.563781561315437
 20
22.166093742497129
 30
0.0
 11
74.679381561315438
 21
22.148293742497131
 31
0.0
  0
LINE
  5
1186
  8
0
 39
5.0
 10
74.452081561315438
 20
22.194893742497118
 30
0.0
 11
74.563781561315437
 21
22.166093742497129
 31
0.0
  0
LINE
  5
1187
  8
0
 39
5.0
 10
74.344881561315447
 20
22.234293742497119
 30
0.0
 11
74.452081561315438
 21
22.194893742497118
 31
0.0
  0
LINE
  5
1188
  8
0
 39
5.0
 10
74.242981561315446
 20
22.283493742497139
 30
0.0
 11
74.344881561315447
 21
22.234293742497119
 31
0.0
  0
LINE
  5
1189
  8
0
 39
5.0
 10
74.146681561315432
 20
22.34229374249713
 30
0.0
 11
74.242981561315446
 21
22.283493742497139
 31
0.0
  0
LINE
  5
118A
  8
0
 39
5.0
 10
74.056681561315429
 20
22.40959374249713
 30
0.0
 11
74.146681561315432
 21
22.34229374249713
 31
0.0
  0
LINE
  5
118B
  8
0
 39
5.0
 10
73.973481561315438
 20
22.485293742497131
 30
0.0
 11
74.056681561315429
 21
22.40959374249713
 31
0.0
  0
LINE
  5
118C
  8
0
 39
5.0
 10
73.898081561315436
 20
22.56819374249713
 30
0.0
 11
73.973481561315438
 21
22.485293742497131
 31
0.0
  0
LINE
  5
118D
  8
0
 39
5.0
 10
73.830681561315416
 20
22.658193742497129
 30
0.0
 11
73.898081561315436
 21
22.56819374249713
 31
0.0
  0
LINE
  5
118E
  8
0
 39
5.0
 10
73.772081561315446
 20
22.754493742497129
 30
0.0
 11
73.830681561315416
 21
22.658193742497129
 31
0.0
  0
LINE
  5
118F
  8
0
 39
5.0
 10
73.722581561315437
 20
22.856593742497139
 30
0.0
 11
73.772081561315446
 21
22.754493742497129
 31
0.0
  0
LINE
  5
1190
  8
0
 39
5.0
 10
73.683281561315439
 20
22.963693742497121
 30
0.0
 11
73.722581561315437
 21
22.856593742497139
 31
0.0
  0
LINE
  5
1191
  8
0
 39
5.0
 10
73.654381561315432
 20
23.075493742497141
 30
0.0
 11
73.683281561315439
 21
22.963693742497121
 31
0.0
  0
LINE
  5
1192
  8
0
 39
5.0
 10
73.636581561315438
 20
23.191093742497142
 30
0.0
 11
73.654381561315432
 21
23.075493742497141
 31
0.0
  0
LINE
  5
1193
  8
0
 39
5.0
 10
73.630381561315431
 20
23.31019374249713
 30
0.0
 11
73.636581561315438
 21
23.191093742497142
 31
0.0
  0
LINE
  5
1194
  8
0
 39
5.0
 10
73.630381561315431
 20
23.31019374249713
 30
0.0
 11
73.630381561315431
 21
23.31019374249713
 31
0.0
  0
LINE
  5
1195
  8
0
 39
5.0
 10
73.630381561315431
 20
37.975293742497144
 30
0.0
 11
73.630381561315431
 21
23.31019374249713
 31
0.0
  0
LINE
  5
1196
  8
0
 39
5.0
 10
73.636581561315438
 20
38.094193742497133
 30
0.0
 11
73.630381561315431
 21
37.975293742497144
 31
0.0
  0
LINE
  5
1197
  8
0
 39
5.0
 10
73.654381561315432
 20
38.209793742497141
 30
0.0
 11
73.636581561315438
 21
38.094193742497133
 31
0.0
  0
LINE
  5
1198
  8
0
 39
5.0
 10
73.683281561315439
 20
38.32149374249714
 30
0.0
 11
73.654381561315432
 21
38.209793742497141
 31
0.0
  0
LINE
  5
1199
  8
0
 39
5.0
 10
73.722581561315437
 20
38.428693742497131
 30
0.0
 11
73.683281561315439
 21
38.32149374249714
 31
0.0
  0
LINE
  5
119A
  8
0
 39
5.0
 10
73.772081561315446
 20
38.530593742497132
 30
0.0
 11
73.722581561315437
 21
38.428693742497131
 31
0.0
  0
LINE
  5
119B
  8
0
 39
5.0
 10
73.830681561315416
 20
38.626893742497131
 30
0.0
 11
73.772081561315446
 21
38.530593742497132
 31
0.0
  0
LINE
  5
119C
  8
0
 39
5.0
 10
73.898081561315436
 20
38.716893742497128
 30
0.0
 11
73.830681561315416
 21
38.626893742497131
 31
0.0
  0
LINE
  5
119D
  8
0
 39
5.0
 10
73.973481561315438
 20
38.80009374249714
 30
0.0
 11
73.898081561315436
 21
38.716893742497128
 31
0.0
  0
LINE
  5
119E
  8
0
 39
5.0
 10
74.056681561315429
 20
38.87549374249712
 30
0.0
 11
73.973481561315438
 21
38.80009374249714
 31
0.0
  0
LINE
  5
119F
  8
0
 39
5.0
 10
74.146681561315432
 20
38.942893742497127
 30
0.0
 11
74.056681561315429
 21
38.87549374249712
 31
0.0
  0
LINE
  5
11A0
  8
0
 39
5.0
 10
74.242981561315446
 20
39.001493742497132
 30
0.0
 11
74.146681561315432
 21
38.942893742497127
 31
0.0
  0
LINE
  5
11A1
  8
0
 39
5.0
 10
74.344881561315447
 20
39.050993742497141
 30
0.0
 11
74.242981561315446
 21
39.001493742497132
 31
0.0
  0
LINE
  5
11A2
  8
0
 39
5.0
 10
74.452081561315438
 20
39.090293742497138
 30
0.0
 11
74.344881561315447
 21
39.050993742497141
 31
0.0
  0
LINE
  5
11A3
  8
0
 39
5.0
 10
74.563781561315437
 20
39.119193742497131
 30
0.0
 11
74.452081561315438
 21
39.090293742497138
 31
0.0
  0
LINE
  5
11A4
  8
0
 39
5.0
 10
74.679381561315438
 20
39.13699374249714
 30
0.0
 11
74.563781561315437
 21
39.119193742497131
 31
0.0
  0
LINE
  5
11A5
  8
0
 39
5.0
 10
74.798281561315434
 20
39.143193742497132
 30
0.0
 11
74.679381561315438
 21
39.13699374249714
 31
0.0
  0
LINE
  5
11A6
  8
0
 39
5.0
 10
74.798281561315434
 20
39.143193742497132
 30
0.0
 11
74.798281561315434
 21
39.143193742497132
 31
0.0
  0
LINE
  5
11A8
  8
0
 10
74.798281561315207
 20
39.143193742497132
 30
0.0
 11
79.834681561315435
 21
39.143193742497097
 31
0.0
  0
LINE
  5
11AA
  8
2
 10
79.347981561315436
 20
39.143293742497121
 30
0.0
 11
79.347981561315436
 21
32.90299374249711
 31
0.0
  0
LINE
  5
11AE
  8
0
 10
79.834681561315435
 20
39.143193742497097
 30
0.0
 11
79.834681561315435
 21
26.05059374249711
 31
0.0
  0
LINE
  5
11B0
  8
0
 39
5.0
 10
79.834681561315435
 20
26.05059374249711
 30
0.0
 11
83.630281561315428
 21
26.05059374249711
 31
0.0
  0
LINE
  5
11B2
  8
0
 39
5.0
 10
83.630281561315428
 20
32.90299374249711
 30
0.0
 11
79.347981561315436
 21
32.90299374249711
 31
0.0
  0
LINE
  5
11BA
  8
0
 10
79.834681561315435
 20
26.05059374249711
 30
0.0
 11
81.623281561315423
 21
24.40909374249712
 31
0.0
  0
LINE
  5
11BD
  8
0
 39
5.0
 10
83.630281561315428
 20
24.40909374249712
 30
0.0
 11
81.623281561315423
 21
24.40909374249712
 31
0.0
  0
LINE
  5
11BE
  8
0
 39
5.0
 10
81.623281561315423
 20
24.40909374249712
 30
0.0
 11
81.623281561315423
 21
12.54319374249777
 31
0.0
  0
LINE
  5
11EF
  8
0
 39
5.0
 10
27.576943724303849
 20
33.538593742497312
 30
0.0
 11
32.844243724303851
 21
33.538593742497312
 31
0.0
  0
LINE
  5
11F3
  8
0
 39
5.0
 10
27.576943724303842
 20
31.24089374249732
 30
0.0
 11
32.844243724303851
 21
31.24089374249732
 31
0.0
  0
LINE
  5
11F8
  8
0
 39
5.0
 10
36.562610390970491
 20
31.643193742497349
 30
0.0
 11
36.844243724303851
 21
31.136253742497331
 31
0.0
  0
LINE
  5
11FD
  8
0
 39
5.0
 10
20.844243724303851
 20
30.83069374249731
 30
0.0
 11
22.405343724303851
 21
30.83069374249731
 31
0.0
  0
LINE
  5
1200
  8
0
 39
5.0
 10
24.308618172037839
 20
31.643193742497399
 30
0.0
 11
24.323843724303849
 21
31.343393742497309
 31
0.0
  0
LINE
  5
1201
  8
0
 39
5.0
 10
24.323843724303849
 20
31.343393742497309
 30
0.0
 11
25.066843724303851
 21
31.343493742497309
 31
0.0
  0
LINE
  5
120C
  8
0
 39
5.0
 10
20.844243724303851
 20
29.143193742497409
 30
0.0
 11
20.844243724303851
 21
30.83069374249731
 31
0.0
  0
LINE
  5
1212
  8
0
 10
27.576943724303849
 20
33.538593742497312
 30
0.0
 11
27.576943724303849
 21
29.143193742497392
 31
0.0
  0
LINE
  5
1214
  8
0
 10
22.405343724303851
 20
29.143193742497409
 30
0.0
 11
22.405343724303851
 21
30.83069374249731
 31
0.0
  0
LINE
  5
1215
  8
0
 10
23.26714372430385
 20
31.643193742497399
 30
0.0
 11
23.26714372430385
 21
29.157593742497308
 31
0.0
  0
LINE
  5
1216
  8
0
 10
24.323843724303849
 20
31.343393742497309
 30
0.0
 11
24.323843724303849
 21
29.143193742497399
 31
0.0
  0
LINE
  5
1218
  8
0
 10
26.202143724303848
 20
31.643193742497392
 30
0.0
 11
26.202143724303848
 21
29.143193742497399
 31
0.0
  0
LINE
  5
121C
  8
2
 10
32.844243724303851
 20
31.27419374249731
 30
0.0
 11
36.767610390970511
 21
31.27419374249731
 31
0.0
  0
LINE
  5
1524
  8
0
 39
5.0
 10
88.183481561315432
 20
22.149793742497771
 30
0.0
 11
88.106481561315334
 21
22.143193742497768
 31
0.0
  0
LINE
  5
1525
  8
0
 39
5.0
 10
88.266681561315409
 20
22.164193742497769
 30
0.0
 11
88.183481561315432
 21
22.149793742497771
 31
0.0
  0
LINE
  5
1526
  8
0
 39
5.0
 10
88.345181561315414
 20
22.185393742497759
 30
0.0
 11
88.266681561315409
 21
22.164193742497769
 31
0.0
  0
LINE
  5
1527
  8
0
 39
5.0
 10
88.419381561315419
 20
22.213393742497772
 30
0.0
 11
88.345181561315414
 21
22.185393742497759
 31
0.0
  0
LINE
  5
1528
  8
0
 39
5.0
 10
88.488881561315424
 20
22.248093742497769
 30
0.0
 11
88.419381561315419
 21
22.213393742497772
 31
0.0
  0
LINE
  5
1529
  8
0
 39
5.0
 10
88.554081561315428
 20
22.289593742497772
 30
0.0
 11
88.488881561315424
 21
22.248093742497769
 31
0.0
  0
LINE
  5
152A
  8
0
 39
5.0
 10
88.614681561315408
 20
22.337793742497759
 30
0.0
 11
88.554081561315428
 21
22.289593742497772
 31
0.0
  0
LINE
  5
152B
  8
0
 39
5.0
 10
88.670981561315443
 20
22.392793742497769
 30
0.0
 11
88.614681561315408
 21
22.337793742497759
 31
0.0
  0
LINE
  5
152C
  8
0
 39
5.0
 10
88.722481561315419
 20
22.454493742497771
 30
0.0
 11
88.670981561315443
 21
22.392793742497769
 31
0.0
  0
LINE
  5
152D
  8
0
 39
5.0
 10
88.769681561315423
 20
22.522993742497771
 30
0.0
 11
88.722481561315419
 21
22.454493742497771
 31
0.0
  0
LINE
  5
152E
  8
0
 39
5.0
 10
88.812381561315419
 20
22.59819374249777
 30
0.0
 11
88.769681561315423
 21
22.522993742497771
 31
0.0
  0
LINE
  5
152F
  8
0
 39
5.0
 10
88.850681561315412
 20
22.68039374249777
 30
0.0
 11
88.812381561315419
 21
22.59819374249777
 31
0.0
  0
LINE
  5
1530
  8
0
 39
5.0
 10
88.884381561315422
 20
22.76919374249777
 30
0.0
 11
88.850681561315412
 21
22.68039374249777
 31
0.0
  0
LINE
  5
1531
  8
0
 39
5.0
 10
88.913681561315428
 20
22.864893742497781
 30
0.0
 11
88.884381561315422
 21
22.76919374249777
 31
0.0
  0
LINE
  5
1532
  8
0
 39
5.0
 10
88.938381561315424
 20
22.967193742497759
 30
0.0
 11
88.913681561315428
 21
22.864893742497781
 31
0.0
  0
LINE
  5
1533
  8
0
 39
5.0
 10
88.958681561315416
 20
23.076493742497771
 30
0.0
 11
88.938381561315424
 21
22.967193742497759
 31
0.0
  0
LINE
  5
1534
  8
0
 39
5.0
 10
88.958681561315416
 20
23.076493742497771
 30
0.0
 11
88.958681561315416
 21
23.076493742497771
 31
0.0
  0
LINE
  5
1535
  8
0
 39
5.0
 10
88.958681561315416
 20
38.30539374249777
 30
0.0
 11
88.958681561315416
 21
23.076493742497771
 31
0.0
  0
LINE
  5
1536
  8
0
 39
5.0
 10
88.939581561315435
 20
38.391393742497783
 30
0.0
 11
88.958681561315416
 21
38.30539374249777
 31
0.0
  0
LINE
  5
1537
  8
0
 39
5.0
 10
88.910281561315429
 20
38.473093742497767
 30
0.0
 11
88.939581561315435
 21
38.391393742497783
 31
0.0
  0
LINE
  5
1538
  8
0
 39
5.0
 10
88.871281561315413
 20
38.550293742497772
 30
0.0
 11
88.910281561315429
 21
38.473093742497767
 31
0.0
  0
LINE
  5
1539
  8
0
 39
5.0
 10
88.823781561315414
 20
38.622993742497769
 30
0.0
 11
88.871281561315413
 21
38.550293742497772
 31
0.0
  0
LINE
  5
153A
  8
0
 39
5.0
 10
88.76818156131543
 20
38.690993742497781
 30
0.0
 11
88.823781561315414
 21
38.622993742497769
 31
0.0
  0
LINE
  5
153B
  8
0
 39
5.0
 10
88.705781561315433
 20
38.754693742497778
 30
0.0
 11
88.76818156131543
 21
38.690993742497781
 31
0.0
  0
LINE
  5
153C
  8
0
 39
5.0
 10
88.637081561315426
 20
38.813893742497761
 30
0.0
 11
88.705781561315433
 21
38.754693742497778
 31
0.0
  0
LINE
  5
153D
  8
0
 39
5.0
 10
88.563181561315403
 20
38.868593742497779
 30
0.0
 11
88.637081561315426
 21
38.813893742497761
 31
0.0
  0
LINE
  5
153E
  8
0
 39
5.0
 10
88.484581561315423
 20
38.918593742497777
 30
0.0
 11
88.563181561315403
 21
38.868593742497779
 31
0.0
  0
LINE
  5
153F
  8
0
 39
5.0
 10
88.402481561315426
 20
38.964193742497777
 30
0.0
 11
88.484581561315423
 21
38.918593742497777
 31
0.0
  0
LINE
  5
1540
  8
0
 39
5.0
 10
88.317481561315418
 20
39.005193742497781
 30
0.0
 11
88.402481561315426
 21
38.964193742497777
 31
0.0
  0
LINE
  5
1541
  8
0
 39
5.0
 10
88.230681561315436
 20
39.041893742497777
 30
0.0
 11
88.317481561315418
 21
39.005193742497781
 31
0.0
  0
LINE
  5
1542
  8
0
 39
5.0
 10
88.142581561315424
 20
39.073893742497773
 30
0.0
 11
88.230681561315436
 21
39.041893742497777
 31
0.0
  0
LINE
  5
1543
  8
0
 39
5.0
 10
88.054281561315435
 20
39.10149374249778
 30
0.0
 11
88.142581561315424
 21
39.073893742497773
 31
0.0
  0
LINE
  5
1544
  8
0
 39
5.0
 10
87.966481561315419
 20
39.124493742497769
 30
0.0
 11
88.054281561315435
 21
39.10149374249778
 31
0.0
  0
LINE
  5
1545
  8
0
 39
5.0
 10
87.880281561315428
 20
39.143193742497772
 30
0.0
 11
87.966481561315419
 21
39.124493742497769
 31
0.0
  0
LINE
  5
1546
  8
0
 39
5.0
 10
87.880281561315428
 20
39.143193742497772
 30
0.0
 11
87.880281561315428
 21
39.143193742497772
 31
0.0
  0
LINE
  5
1547
  8
0
 39
5.0
 10
83.630381561315417
 20
39.143193742497772
 30
0.0
 11
87.880281561315428
 21
39.143193742497772
 31
0.0
  0
LINE
  5
1548
  8
0
 39
5.0
 10
90.007481561315416
 20
39.136993742497779
 30
0.0
 11
90.126581561315405
 21
39.143193742497772
 31
0.0
  0
LINE
  5
1549
  8
0
 39
5.0
 10
89.891881561315415
 20
39.119193742497771
 30
0.0
 11
90.007481561315416
 21
39.136993742497779
 31
0.0
  0
LINE
  5
154A
  8
0
 39
5.0
 10
89.780081561315427
 20
39.090293742497778
 30
0.0
 11
89.891881561315415
 21
39.119193742497771
 31
0.0
  0
LINE
  5
154B
  8
0
 39
5.0
 10
89.672981561315424
 20
39.050993742497781
 30
0.0
 11
89.780081561315427
 21
39.090293742497778
 31
0.0
  0
LINE
  5
154C
  8
0
 39
5.0
 10
89.570881561315417
 20
39.001493742497772
 30
0.0
 11
89.672981561315424
 21
39.050993742497781
 31
0.0
  0
LINE
  5
154D
  8
0
 39
5.0
 10
89.474581561315446
 20
38.942893742497773
 30
0.0
 11
89.570881561315417
 21
39.001493742497772
 31
0.0
  0
LINE
  5
154E
  8
0
 39
5.0
 10
89.384581561315429
 20
38.87549374249776
 30
0.0
 11
89.474581561315446
 21
38.942893742497773
 31
0.0
  0
LINE
  5
154F
  8
0
 39
5.0
 10
89.301681561315434
 20
38.800093742497779
 30
0.0
 11
89.384581561315429
 21
38.87549374249776
 31
0.0
  0
LINE
  5
1550
  8
0
 39
5.0
 10
89.225981561315422
 20
38.716893742497767
 30
0.0
 11
89.301681561315434
 21
38.800093742497779
 31
0.0
  0
LINE
  5
1551
  8
0
 39
5.0
 10
89.158681561315419
 20
38.626893742497771
 30
0.0
 11
89.225981561315422
 21
38.716893742497767
 31
0.0
  0
LINE
  5
1552
  8
0
 39
5.0
 10
89.099881561315456
 20
38.530593742497771
 30
0.0
 11
89.158681561315419
 21
38.626893742497771
 31
0.0
  0
LINE
  5
1553
  8
0
 39
5.0
 10
89.050681561315429
 20
38.428693742497771
 30
0.0
 11
89.099881561315456
 21
38.530593742497771
 31
0.0
  0
LINE
  5
1554
  8
0
 39
5.0
 10
89.011281561315428
 20
38.321493742497779
 30
0.0
 11
89.050681561315429
 21
38.428693742497771
 31
0.0
  0
LINE
  5
1555
  8
0
 39
5.0
 10
88.982481561315424
 20
38.20979374249778
 30
0.0
 11
89.011281561315428
 21
38.321493742497779
 31
0.0
  0
LINE
  5
1556
  8
0
 39
5.0
 10
88.964681561315416
 20
38.094193742497772
 30
0.0
 11
88.982481561315424
 21
38.20979374249778
 31
0.0
  0
LINE
  5
1557
  8
0
 39
5.0
 10
88.958681561315416
 20
37.975293742497783
 30
0.0
 11
88.964681561315416
 21
38.094193742497772
 31
0.0
  0
LINE
  5
1558
  8
0
 39
5.0
 10
88.958681561315416
 20
37.975293742497783
 30
0.0
 11
88.958681561315416
 21
37.975293742497783
 31
0.0
  0
LINE
  5
1559
  8
0
 39
5.0
 10
88.958681561315416
 20
23.31019374249777
 30
0.0
 11
88.958681561315416
 21
37.975293742497783
 31
0.0
  0
LINE
  5
155A
  8
0
 39
5.0
 10
88.964681561315416
 20
23.191093742497781
 30
0.0
 11
88.958681561315416
 21
23.31019374249777
 31
0.0
  0
LINE
  5
155B
  8
0
 39
5.0
 10
88.982481561315424
 20
23.07549374249778
 30
0.0
 11
88.964681561315416
 21
23.191093742497781
 31
0.0
  0
LINE
  5
155C
  8
0
 39
5.0
 10
89.011281561315428
 20
22.96369374249776
 30
0.0
 11
88.982481561315424
 21
23.07549374249778
 31
0.0
  0
LINE
  5
155D
  8
0
 39
5.0
 10
89.050681561315429
 20
22.856593742497779
 30
0.0
 11
89.011281561315428
 21
22.96369374249776
 31
0.0
  0
LINE
  5
155E
  8
0
 39
5.0
 10
89.099881561315456
 20
22.754493742497768
 30
0.0
 11
89.050681561315429
 21
22.856593742497779
 31
0.0
  0
LINE
  5
155F
  8
0
 39
5.0
 10
89.158681561315419
 20
22.658193742497769
 30
0.0
 11
89.099881561315456
 21
22.754493742497768
 31
0.0
  0
LINE
  5
1560
  8
0
 39
5.0
 10
89.225981561315422
 20
22.568193742497769
 30
0.0
 11
89.158681561315419
 21
22.658193742497769
 31
0.0
  0
LINE
  5
1561
  8
0
 39
5.0
 10
89.301681561315434
 20
22.48529374249777
 30
0.0
 11
89.225981561315422
 21
22.568193742497769
 31
0.0
  0
LINE
  5
1562
  8
0
 39
5.0
 10
89.384581561315429
 20
22.409593742497769
 30
0.0
 11
89.301681561315434
 21
22.48529374249777
 31
0.0
  0
LINE
  5
1563
  8
0
 39
5.0
 10
89.474581561315446
 20
22.34229374249777
 30
0.0
 11
89.384581561315429
 21
22.409593742497769
 31
0.0
  0
LINE
  5
1564
  8
0
 39
5.0
 10
89.570881561315417
 20
22.283493742497779
 30
0.0
 11
89.474581561315446
 21
22.34229374249777
 31
0.0
  0
LINE
  5
1565
  8
0
 39
5.0
 10
89.672981561315424
 20
22.234293742497758
 30
0.0
 11
89.570881561315417
 21
22.283493742497779
 31
0.0
  0
LINE
  5
1566
  8
0
 39
5.0
 10
89.780081561315427
 20
22.194893742497761
 30
0.0
 11
89.672981561315424
 21
22.234293742497758
 31
0.0
  0
LINE
  5
1567
  8
0
 39
5.0
 10
89.891881561315415
 20
22.166093742497772
 30
0.0
 11
89.780081561315427
 21
22.194893742497761
 31
0.0
  0
LINE
  5
1568
  8
0
 39
5.0
 10
90.007481561315416
 20
22.148293742497771
 30
0.0
 11
89.891881561315415
 21
22.166093742497772
 31
0.0
  0
LINE
  5
1569
  8
0
 39
5.0
 10
90.108716561315504
 20
22.143193742497779
 30
0.0
 11
90.007481561315416
 21
22.148293742497771
 31
0.0
  0
LINE
  5
156C
  8
0
 39
5.0
 10
92.581381561315425
 20
22.148293742497771
 30
0.0
 11
92.480316561315206
 21
22.143193742497768
 31
0.0
  0
LINE
  5
156D
  8
0
 39
5.0
 10
92.696981561315425
 20
22.166093742497772
 30
0.0
 11
92.581381561315425
 21
22.148293742497771
 31
0.0
  0
LINE
  5
156E
  8
0
 39
5.0
 10
92.808681561315439
 20
22.194893742497761
 30
0.0
 11
92.696981561315425
 21
22.166093742497772
 31
0.0
  0
LINE
  5
156F
  8
0
 39
5.0
 10
92.915881561315416
 20
22.234293742497758
 30
0.0
 11
92.808681561315439
 21
22.194893742497761
 31
0.0
  0
LINE
  5
1570
  8
0
 39
5.0
 10
93.017781561315417
 20
22.283493742497779
 30
0.0
 11
92.915881561315416
 21
22.234293742497758
 31
0.0
  0
LINE
  5
1571
  8
0
 39
5.0
 10
93.11408156131543
 20
22.34229374249777
 30
0.0
 11
93.017781561315417
 21
22.283493742497779
 31
0.0
  0
LINE
  5
1572
  8
0
 39
5.0
 10
93.204081561315434
 20
22.409593742497769
 30
0.0
 11
93.11408156131543
 21
22.34229374249777
 31
0.0
  0
LINE
  5
1573
  8
0
 39
5.0
 10
93.28728156131541
 20
22.48529374249777
 30
0.0
 11
93.204081561315434
 21
22.409593742497769
 31
0.0
  0
LINE
  5
1574
  8
0
 39
5.0
 10
93.362681561315412
 20
22.568193742497769
 30
0.0
 11
93.28728156131541
 21
22.48529374249777
 31
0.0
  0
LINE
  5
1575
  8
0
 39
5.0
 10
93.430081561315447
 20
22.658193742497769
 30
0.0
 11
93.362681561315412
 21
22.568193742497769
 31
0.0
  0
LINE
  5
1576
  8
0
 39
5.0
 10
93.488681561315417
 20
22.754493742497768
 30
0.0
 11
93.430081561315447
 21
22.658193742497769
 31
0.0
  0
LINE
  5
1577
  8
0
 39
5.0
 10
93.538181561315412
 20
22.856593742497779
 30
0.0
 11
93.488681561315417
 21
22.754493742497768
 31
0.0
  0
LINE
  5
1578
  8
0
 39
5.0
 10
93.577481561315437
 20
22.96369374249776
 30
0.0
 11
93.538181561315412
 21
22.856593742497779
 31
0.0
  0
LINE
  5
1579
  8
0
 39
5.0
 10
93.60638156131543
 20
23.07549374249778
 30
0.0
 11
93.577481561315437
 21
22.96369374249776
 31
0.0
  0
LINE
  5
157A
  8
0
 39
5.0
 10
93.624181561315424
 20
23.191093742497781
 30
0.0
 11
93.60638156131543
 21
23.07549374249778
 31
0.0
  0
LINE
  5
157B
  8
0
 39
5.0
 10
93.630381561315417
 20
23.31019374249777
 30
0.0
 11
93.624181561315424
 21
23.191093742497781
 31
0.0
  0
LINE
  5
157C
  8
0
 39
5.0
 10
93.630381561315417
 20
23.31019374249777
 30
0.0
 11
93.630381561315417
 21
23.31019374249777
 31
0.0
  0
LINE
  5
157D
  8
0
 39
5.0
 10
93.630381561315417
 20
37.975293742497783
 30
0.0
 11
93.630381561315417
 21
23.31019374249777
 31
0.0
  0
LINE
  5
157E
  8
0
 39
5.0
 10
93.624181561315424
 20
38.094193742497772
 30
0.0
 11
93.630381561315417
 21
37.975293742497783
 31
0.0
  0
LINE
  5
157F
  8
0
 39
5.0
 10
93.60638156131543
 20
38.20979374249778
 30
0.0
 11
93.624181561315424
 21
38.094193742497772
 31
0.0
  0
LINE
  5
1580
  8
0
 39
5.0
 10
93.577481561315437
 20
38.321493742497779
 30
0.0
 11
93.60638156131543
 21
38.20979374249778
 31
0.0
  0
LINE
  5
1581
  8
0
 39
5.0
 10
93.538181561315412
 20
38.428693742497771
 30
0.0
 11
93.577481561315437
 21
38.321493742497779
 31
0.0
  0
LINE
  5
1582
  8
0
 39
5.0
 10
93.488681561315417
 20
38.530593742497771
 30
0.0
 11
93.538181561315412
 21
38.428693742497771
 31
0.0
  0
LINE
  5
1583
  8
0
 39
5.0
 10
93.430081561315447
 20
38.626893742497771
 30
0.0
 11
93.488681561315417
 21
38.530593742497771
 31
0.0
  0
LINE
  5
1584
  8
0
 39
5.0
 10
93.362681561315412
 20
38.716893742497767
 30
0.0
 11
93.430081561315447
 21
38.626893742497771
 31
0.0
  0
LINE
  5
1585
  8
0
 39
5.0
 10
93.28728156131541
 20
38.800093742497779
 30
0.0
 11
93.362681561315412
 21
38.716893742497767
 31
0.0
  0
LINE
  5
1586
  8
0
 39
5.0
 10
93.204081561315434
 20
38.87549374249776
 30
0.0
 11
93.28728156131541
 21
38.800093742497779
 31
0.0
  0
LINE
  5
1587
  8
0
 39
5.0
 10
93.11408156131543
 20
38.942893742497773
 30
0.0
 11
93.204081561315434
 21
38.87549374249776
 31
0.0
  0
LINE
  5
1588
  8
0
 39
5.0
 10
93.017781561315417
 20
39.001493742497772
 30
0.0
 11
93.11408156131543
 21
38.942893742497773
 31
0.0
  0
LINE
  5
1589
  8
0
 39
5.0
 10
92.915881561315416
 20
39.050993742497781
 30
0.0
 11
93.017781561315417
 21
39.001493742497772
 31
0.0
  0
LINE
  5
158A
  8
0
 39
5.0
 10
92.808681561315439
 20
39.090293742497778
 30
0.0
 11
92.915881561315416
 21
39.050993742497781
 31
0.0
  0
LINE
  5
158B
  8
0
 39
5.0
 10
92.696981561315425
 20
39.119193742497771
 30
0.0
 11
92.808681561315439
 21
39.090293742497778
 31
0.0
  0
LINE
  5
158C
  8
0
 39
5.0
 10
92.581381561315425
 20
39.136993742497779
 30
0.0
 11
92.696981561315425
 21
39.119193742497771
 31
0.0
  0
LINE
  5
158D
  8
0
 39
5.0
 10
92.462481561315414
 20
39.143193742497772
 30
0.0
 11
92.581381561315425
 21
39.136993742497779
 31
0.0
  0
LINE
  5
158E
  8
0
 39
5.0
 10
92.462481561315414
 20
39.143193742497772
 30
0.0
 11
92.462481561315414
 21
39.143193742497772
 31
0.0
  0
LINE
  5
158F
  8
0
 39
5.0
 10
90.126581561315405
 20
39.143193742497772
 30
0.0
 11
92.462481561315414
 21
39.143193742497772
 31
0.0
  0
LINE
  5
176F
  8
0
 10
90.126581561315405
 20
39.143193742497772
 30
0.0
 11
87.880281561315428
 21
39.143193742497772
 31
0.0
  0
LINE
  5
17A0
  8
0
 10
81.130381561315417
 20
151.1211710873751
 30
0.0
 11
81.130381561315417
 21
147.43025279603691
 31
0.0
  0
LINE
  5
17A2
  8
0
 10
81.130381561315417
 20
147.43025279603691
 30
0.0
 11
83.630381561315417
 21
147.43025279603691
 31
0.0
  0
LINE
  5
17AF
  8
0
 10
81.130381561315417
 20
132.14319374249769
 30
0.0
 11
81.130381561315417
 21
126.45929374249771
 31
0.0
  0
LINE
  5
17B7
  8
0
 10
76.630381561315431
 20
127.1431937424977
 30
0.0
 11
76.630381561315403
 21
112.7972937424977
 31
0.0
  0
LINE
  5
17B9
  8
0
 10
76.630381561315431
 20
103.0266937424977
 30
0.0
 11
76.630381561315431
 21
69.1431937424978
 31
0.0
  0
LINE
  5
17D3
  8
0
 10
36.562610390970491
 20
31.643193742497349
 30
0.0
 11
32.844243724303851
 21
31.64319374249737
 31
0.0
  0
LINE
  5
17D4
  8
0
 10
36.562610390970491
 20
31.643193742497349
 30
0.0
 11
36.562610390970491
 21
29.143193742497349
 31
0.0
  0
LINE
  5
17D6
  8
0
 10
24.308618172037839
 20
31.643193742497399
 30
0.0
 11
23.26714372430385
 21
31.643193742497399
 31
0.0
  0
LINE
  5
17D7
  8
0
 10
26.202143724303848
 20
31.643193742497399
 30
0.0
 11
27.576943724303849
 21
31.643193742497399
 31
0.0
  0
LINE
  5
17D8
  8
0
 10
22.405343724303851
 20
30.83069374249731
 30
0.0
 11
23.26714372430385
 21
31.643193742497399
 31
0.0
  0
LINE
  5
17D9
  8
0
 10
25.066843724303851
 20
31.343493742497309
 30
0.0
 11
26.202143724303848
 21
31.643193742497392
 31
0.0
  0
LINE
  5
17DA
  8
0
 10
25.066843724303851
 20
31.343493742497309
 30
0.0
 11
25.066843724303851
 21
29.143193742497399
 31
0.0
  0
LINE
  5
17DF
  8
0
 10
32.844243724303851
 20
33.538593742497312
 30
0.0
 11
32.844243724303851
 21
29.14319374249737
 31
0.0
  0
LINE
  5
17E0
  8
0
 10
36.844243724303851
 20
31.136253742497331
 30
0.0
 11
36.844243724303851
 21
29.143193742497349
 31
0.0
  0
LINE
  5
17E3
  8
0
 39
5.0
 10
36.562610390970477
 20
26.643193742497338
 30
0.0
 11
36.84424372430383
 21
27.150133742497371
 31
0.0
  0
LINE
  5
17E4
  8
0
 39
5.0
 10
27.57694372430382
 20
27.045493742497449
 30
0.0
 11
32.844243724303823
 21
27.04549374249741
 31
0.0
  0
LINE
  5
17E5
  8
0
 39
5.0
 10
27.57694372430381
 20
24.747793742497461
 30
0.0
 11
32.844243724303809
 21
24.747793742497421
 31
0.0
  0
LINE
  5
17E6
  8
0
 39
5.0
 10
24.308618172037821
 20
26.643193742497399
 30
0.0
 11
24.323843724303821
 21
26.942993742497489
 31
0.0
  0
LINE
  5
17E7
  8
0
 39
5.0
 10
20.844243724303851
 20
29.143193742497399
 30
0.0
 11
20.84424372430383
 21
27.455693742497498
 31
0.0
  0
LINE
  5
17E8
  8
0
 39
5.0
 10
24.323843724303821
 20
26.942993742497489
 30
0.0
 11
25.06684372430383
 21
26.942893742497471
 31
0.0
  0
LINE
  5
17E9
  8
0
 39
5.0
 10
20.84424372430383
 20
27.455693742497498
 30
0.0
 11
22.40534372430383
 21
27.455693742497498
 31
0.0
  0
LINE
  5
17EA
  8
2
 10
32.844243724303823
 20
27.012193742497409
 30
0.0
 11
36.767610390970489
 21
27.012193742497381
 31
0.0
  0
LINE
  5
17EB
  8
0
 10
36.562610390970477
 20
26.643193742497338
 30
0.0
 11
32.844243724303823
 21
26.643193742497349
 31
0.0
  0
LINE
  5
17EC
  8
0
 10
32.844243724303809
 20
24.747793742497421
 30
0.0
 11
32.844243724303851
 21
29.143193742497349
 31
0.0
  0
LINE
  5
17ED
  8
0
 10
25.06684372430383
 20
26.942893742497471
 30
0.0
 11
25.066843724303851
 21
29.143193742497392
 31
0.0
  0
LINE
  5
17EE
  8
0
 10
26.202143724303831
 20
26.643193742497399
 30
0.0
 11
26.202143724303848
 21
29.143193742497392
 31
0.0
  0
LINE
  5
17EF
  8
0
 10
23.267143724303821
 20
26.643193742497399
 30
0.0
 11
23.26714372430385
 21
29.128793742497489
 31
0.0
  0
LINE
  5
17F0
  8
0
 10
27.57694372430381
 20
24.747793742497461
 30
0.0
 11
27.576943724303849
 21
29.143193742497392
 31
0.0
  0
LINE
  5
17F1
  8
0
 10
24.323843724303821
 20
26.942993742497489
 30
0.0
 11
24.323843724303849
 21
29.143193742497399
 31
0.0
  0
LINE
  5
17F2
  8
0
 10
22.405343724303851
 20
29.143193742497399
 30
0.0
 11
22.40534372430383
 21
27.455693742497498
 31
0.0
  0
LINE
  5
17F3
  8
0
 10
25.06684372430383
 20
26.942893742497471
 30
0.0
 11
26.202143724303831
 21
26.643193742497399
 31
0.0
  0
LINE
  5
17F4
  8
0
 10
22.40534372430383
 20
27.455693742497498
 30
0.0
 11
23.267143724303821
 21
26.643193742497399
 31
0.0
  0
LINE
  5
17F5
  8
0
 10
24.308618172037821
 20
26.643193742497399
 30
0.0
 11
23.267143724303821
 21
26.643193742497399
 31
0.0
  0
LINE
  5
17F6
  8
0
 10
26.202143724303831
 20
26.643193742497392
 30
0.0
 11
27.576943724303831
 21
26.64319374249737
 31
0.0
  0
LINE
  5
17F7
  8
0
 10
36.84424372430383
 20
27.150133742497371
 30
0.0
 11
36.844243724303851
 21
29.143193742497338
 31
0.0
  0
LINE
  5
17F8
  8
0
 10
36.562610390970477
 20
26.643193742497338
 30
0.0
 11
36.562610390970491
 21
29.143193742497338
 31
0.0
  0
LINE
  5
1804
  8
1
 10
19.844243724303851
 20
29.143193742497441
 30
0.0
 11
84.630381561315446
 21
29.143193742497068
 31
0.0
  0
LINE
  5
182A
  8
2
 10
73.630381561315431
 20
31.643193742497129
 30
0.0
 11
79.834681561315435
 21
31.6431937424971
 31
0.0
  0
LINE
  5
182B
  8
2
 10
79.834681561315435
 20
26.6431937424971
 30
0.0
 11
73.630381561315431
 21
26.643193742497139
 31
0.0
  0
LINE
  5
182C
  8
0
 10
73.630381561315431
 20
31.343193742497132
 30
0.0
 11
79.834681561315435
 21
31.3431937424971
 31
0.0
  0
LINE
  5
182D
  8
0
 10
79.834681561315435
 20
26.943193742497101
 30
0.0
 11
73.630381561315431
 21
26.94319374249713
 31
0.0
  0
LINE
  5
183B
  8
0
 10
86.130381561315417
 20
151.1211710873751
 30
0.0
 11
86.130381561315417
 21
147.43025279603691
 31
0.0
  0
LINE
  5
183C
  8
2
 10
85.787581561315434
 20
151.1178937424977
 30
0.0
 11
85.787581561315434
 21
147.2287452363818
 31
0.0
  0
LINE
  5
18AE
  8
0
 39
5.0
 10
88.444781561315409
 20
15.64319374249777
 30
0.0
 11
88.444781561315409
 21
22.143193742497768
 31
0.0
  0
LINE
  5
18B1
  8
0
 39
5.0
 10
89.521192357854517
 20
12.54319374249777
 30
0.0
 11
90.630381561315431
 21
13.24946525379919
 31
0.0
  0
POLYLINE
  5
18B5
  8
0
 66
     1
 10
0.0
 20
0.0
 30
0.0
 39
4.9999999999999991
  0
VERTEX
  5
1FF3
  8
0
 10
83.630381561315417
 20
77.313793741975275
 30
0.0
  0
VERTEX
  5
1FF4
  8
0
 10
90.630381561315431
 20
77.313911189669
 30
0.0
  0
SEQEND
  5
1FF5
  8
0
  0
LINE
  5
18C4
  8
0
 39
5.0
 10
83.630381561315417
 20
127.1431937424977
 30
0.0
 11
90.630381561315431
 21
127.1431937424977
 31
0.0
  0
LINE
  5
18C5
  8
0
 39
5.0
 10
88.691381561315438
 20
69.143193742497786
 30
0.0
 11
88.691381561315424
 21
39.143193742497111
 31
0.0
  0
LINE
  5
18ED
  8
0
 39
5.0
 10
83.630381561315417
 20
145.7635937424977
 30
0.0
 11
88.477181561315433
 21
145.7635937424977
 31
0.0
  0
LINE
  5
18EE
  8
0
 39
5.0
 10
88.477181561315433
 20
145.7635937424977
 30
0.0
 11
88.477181561315433
 21
144.70839374249769
 31
0.0
  0
LINE
  5
18EF
  8
0
 39
5.0
 10
88.477181561315433
 20
144.70839374249769
 30
0.0
 11
83.630381561315417
 21
144.70839374249769
 31
0.0
  0
LINE
  5
18F0
  8
0
 39
5.0
 10
86.130381561315417
 20
147.43025279603691
 30
0.0
 11
85.090181561315447
 21
146.81879374249769
 31
0.0
  0
LINE
  5
18F1
  8
0
 39
5.0
 10
85.090181561315447
 20
146.81879374249769
 30
0.0
 11
83.630381561315417
 21
146.81879374249769
 31
0.0
  0
POLYLINE
  5
18F3
  8
2
 66
     1
 10
0.0
 20
0.0
 30
0.0
 39
5.0
  0
VERTEX
  5
1FF6
  8
2
 10
90.194881561315427
 20
127.1431937424977
 30
0.0
  0
VERTEX
  5
1FF7
  8
2
 10
90.194881561315427
 20
112.7972937424977
 30
0.0
  0
SEQEND
  5
1FF8
  8
2
  0
LINE
  5
18F5
  8
0
 10
90.630381561315431
 20
103.0266937424977
 30
0.0
 11
90.630381561315431
 21
69.143193742497786
 31
0.0
  0
LINE
  5
1907
  8
0
 10
90.630381561315431
 20
127.1431937424977
 30
0.0
 11
90.630381561315446
 21
112.7972937424977
 31
0.0
  0
LINE
  5
191D
  8
0
 10
86.130381561315417
 20
147.43025279603691
 30
0.0
 11
83.630381561315417
 21
147.43025279603691
 31
0.0
  0
LINE
  5
191E
  8
0
 39
5.0
 10
86.445381561315429
 20
151.1178937424977
 30
0.0
 11
87.710581561315436
 21
151.1178937424977
 31
0.0
  0
LINE
  5
191F
  8
0
 39
5.0
 10
87.710581561315436
 20
154.4398937424977
 30
0.0
 11
86.445381561315429
 21
154.4398937424977
 31
0.0
  0
LINE
  5
1920
  8
0
 39
5.0
 10
83.630381561315417
 20
154.4398937424977
 30
0.0
 11
86.445381561315429
 21
154.4398937424977
 31
0.0
  0
LINE
  5
1921
  8
0
 39
5.0
 10
86.445381561315429
 20
154.4398937424977
 30
0.0
 11
86.445381561315429
 21
154.4398937424977
 31
0.0
  0
LINE
  5
1922
  8
0
 39
5.0
 10
86.445381561315429
 20
154.4398937424977
 30
0.0
 11
86.514681561315413
 21
154.4362937424977
 31
0.0
  0
LINE
  5
1923
  8
0
 39
5.0
 10
86.514681561315413
 20
154.4362937424977
 30
0.0
 11
86.582181561315437
 21
154.42589374249769
 31
0.0
  0
LINE
  5
1924
  8
0
 39
5.0
 10
86.582181561315437
 20
154.42589374249769
 30
0.0
 11
86.647281561315424
 21
154.4088937424977
 31
0.0
  0
LINE
  5
1925
  8
0
 39
5.0
 10
86.647281561315424
 20
154.4088937424977
 30
0.0
 11
86.709881561315413
 21
154.3859937424977
 31
0.0
  0
LINE
  5
1926
  8
0
 39
5.0
 10
86.709881561315413
 20
154.3859937424977
 30
0.0
 11
86.769281561315424
 21
154.35709374249771
 31
0.0
  0
LINE
  5
1927
  8
0
 39
5.0
 10
86.769281561315424
 20
154.35709374249771
 30
0.0
 11
86.825481561315428
 21
154.32289374249771
 31
0.0
  0
LINE
  5
1928
  8
0
 39
5.0
 10
86.825481561315428
 20
154.32289374249771
 30
0.0
 11
86.877881561315434
 21
154.28359374249769
 31
0.0
  0
LINE
  5
1929
  8
0
 39
5.0
 10
86.877881561315434
 20
154.28359374249769
 30
0.0
 11
86.926481561315427
 21
154.23969374249771
 31
0.0
  0
LINE
  5
192A
  8
0
 39
5.0
 10
86.926481561315427
 20
154.23969374249771
 30
0.0
 11
86.970381561315435
 21
154.19109374249771
 31
0.0
  0
LINE
  5
192B
  8
0
 39
5.0
 10
86.970381561315435
 20
154.19109374249771
 30
0.0
 11
87.009681561315418
 21
154.13869374249771
 31
0.0
  0
LINE
  5
192C
  8
0
 39
5.0
 10
87.009681561315418
 20
154.13869374249771
 30
0.0
 11
87.04388156131543
 21
154.08249374249769
 31
0.0
  0
LINE
  5
192D
  8
0
 39
5.0
 10
87.04388156131543
 20
154.08249374249769
 30
0.0
 11
87.072781561315423
 21
154.02309374249771
 31
0.0
  0
LINE
  5
192E
  8
0
 39
5.0
 10
87.072781561315423
 20
154.02309374249771
 30
0.0
 11
87.095681561315445
 21
153.9604937424977
 31
0.0
  0
LINE
  5
192F
  8
0
 39
5.0
 10
87.095681561315445
 20
153.9604937424977
 30
0.0
 11
87.112681561315426
 21
153.8953937424977
 31
0.0
  0
LINE
  5
1930
  8
0
 39
5.0
 10
87.112681561315426
 20
153.8953937424977
 30
0.0
 11
87.123081561315445
 21
153.82789374249771
 31
0.0
  0
LINE
  5
1931
  8
0
 39
5.0
 10
87.123081561315445
 20
153.82789374249771
 30
0.0
 11
87.126681561315436
 21
153.75859374249771
 31
0.0
  0
LINE
  5
1932
  8
0
 39
5.0
 10
87.126681561315436
 20
153.75859374249771
 30
0.0
 11
87.126681561315436
 21
151.79919374249769
 31
0.0
  0
LINE
  5
1933
  8
0
 39
5.0
 10
87.126681561315436
 20
151.79919374249769
 30
0.0
 11
87.126681561315436
 21
151.79919374249769
 31
0.0
  0
LINE
  5
1934
  8
0
 39
5.0
 10
87.126681561315436
 20
151.79919374249769
 30
0.0
 11
87.123081561315445
 21
151.72959374249771
 31
0.0
  0
LINE
  5
1935
  8
0
 39
5.0
 10
87.123081561315445
 20
151.72959374249771
 30
0.0
 11
87.112681561315426
 21
151.66219374249769
 31
0.0
  0
LINE
  5
1936
  8
0
 39
5.0
 10
87.112681561315426
 20
151.66219374249769
 30
0.0
 11
87.095681561315445
 21
151.59689374249771
 31
0.0
  0
LINE
  5
1937
  8
0
 39
5.0
 10
87.095681561315445
 20
151.59689374249771
 30
0.0
 11
87.072781561315423
 21
151.53449374249769
 31
0.0
  0
LINE
  5
1938
  8
0
 39
5.0
 10
87.072781561315423
 20
151.53449374249769
 30
0.0
 11
87.04388156131543
 21
151.4748937424977
 31
0.0
  0
LINE
  5
1939
  8
0
 39
5.0
 10
87.04388156131543
 20
151.4748937424977
 30
0.0
 11
87.009681561315418
 21
151.41869374249771
 31
0.0
  0
LINE
  5
193A
  8
0
 39
5.0
 10
87.009681561315418
 20
151.41869374249771
 30
0.0
 11
86.970381561315435
 21
151.3661937424977
 31
0.0
  0
LINE
  5
193B
  8
0
 39
5.0
 10
86.970381561315435
 20
151.3661937424977
 30
0.0
 11
86.926481561315427
 21
151.31789374249769
 31
0.0
  0
LINE
  5
193C
  8
0
 39
5.0
 10
86.926481561315427
 20
151.31789374249769
 30
0.0
 11
86.877881561315434
 21
151.2737937424977
 31
0.0
  0
LINE
  5
193D
  8
0
 39
5.0
 10
86.877881561315434
 20
151.2737937424977
 30
0.0
 11
86.825481561315428
 21
151.2344937424977
 31
0.0
  0
LINE
  5
193E
  8
0
 39
5.0
 10
86.825481561315428
 20
151.2344937424977
 30
0.0
 11
86.769281561315424
 21
151.20029374249771
 31
0.0
  0
LINE
  5
193F
  8
0
 39
5.0
 10
86.769281561315424
 20
151.20029374249771
 30
0.0
 11
86.709881561315413
 21
151.17159374249769
 31
0.0
  0
LINE
  5
1940
  8
0
 39
5.0
 10
86.709881561315413
 20
151.17159374249769
 30
0.0
 11
86.647281561315424
 21
151.14849374249769
 31
0.0
  0
LINE
  5
1941
  8
0
 39
5.0
 10
86.647281561315424
 20
151.14849374249769
 30
0.0
 11
86.582181561315437
 21
151.1316937424977
 31
0.0
  0
LINE
  5
1942
  8
0
 39
5.0
 10
86.582181561315437
 20
151.1316937424977
 30
0.0
 11
86.514681561315413
 21
151.1212937424977
 31
0.0
  0
LINE
  5
1943
  8
0
 39
5.0
 10
86.514681561315413
 20
151.1212937424977
 30
0.0
 11
86.445381561315429
 21
151.1178937424977
 31
0.0
  0
LINE
  5
1944
  8
0
 39
5.0
 10
86.445381561315429
 20
151.1178937424977
 30
0.0
 11
83.630381561315417
 21
151.1178937424977
 31
0.0
  0
LINE
  5
1945
  8
0
 39
5.0
 10
87.710581561315436
 20
154.4398937424977
 30
0.0
 11
90.046481561315417
 21
154.4398937424977
 31
0.0
  0
LINE
  5
1946
  8
0
 39
5.0
 10
90.046481561315417
 20
154.4398937424977
 30
0.0
 11
90.046481561315417
 21
154.4398937424977
 31
0.0
  0
LINE
  5
1947
  8
0
 39
5.0
 10
90.046481561315417
 20
154.4398937424977
 30
0.0
 11
90.105781561315425
 21
154.43669374249771
 31
0.0
  0
LINE
  5
1948
  8
0
 39
5.0
 10
90.105781561315425
 20
154.43669374249771
 30
0.0
 11
90.163681561315428
 21
154.4277937424977
 31
0.0
  0
LINE
  5
1949
  8
0
 39
5.0
 10
90.163681561315428
 20
154.4277937424977
 30
0.0
 11
90.21938156131543
 21
154.4132937424977
 31
0.0
  0
LINE
  5
194A
  8
0
 39
5.0
 10
90.21938156131543
 20
154.4132937424977
 30
0.0
 11
90.273081561315436
 21
154.3936937424977
 31
0.0
  0
LINE
  5
194B
  8
0
 39
5.0
 10
90.273081561315436
 20
154.3936937424977
 30
0.0
 11
90.323981561315435
 21
154.3688937424977
 31
0.0
  0
LINE
  5
194C
  8
0
 39
5.0
 10
90.323981561315435
 20
154.3688937424977
 30
0.0
 11
90.372181561315443
 21
154.3395937424977
 31
0.0
  0
LINE
  5
194D
  8
0
 39
5.0
 10
90.372181561315443
 20
154.3395937424977
 30
0.0
 11
90.417081561315428
 21
154.30589374249769
 31
0.0
  0
LINE
  5
194E
  8
0
 39
5.0
 10
90.417081561315428
 20
154.30589374249769
 30
0.0
 11
90.458781561315433
 21
154.26829374249769
 31
0.0
  0
LINE
  5
194F
  8
0
 39
5.0
 10
90.458781561315433
 20
154.26829374249769
 30
0.0
 11
90.496381561315445
 21
154.2265937424977
 31
0.0
  0
LINE
  5
1950
  8
0
 39
5.0
 10
90.496381561315445
 20
154.2265937424977
 30
0.0
 11
90.530081561315427
 21
154.18169374249771
 31
0.0
  0
LINE
  5
1951
  8
0
 39
5.0
 10
90.530081561315427
 20
154.18169374249771
 30
0.0
 11
90.559381561315433
 21
154.13349374249771
 31
0.0
  0
LINE
  5
1952
  8
0
 39
5.0
 10
90.559381561315433
 20
154.13349374249771
 30
0.0
 11
90.584181561315418
 21
154.08259374249769
 31
0.0
  0
LINE
  5
1953
  8
0
 39
5.0
 10
90.584181561315418
 20
154.08259374249769
 30
0.0
 11
90.603781561315429
 21
154.0288937424977
 31
0.0
  0
LINE
  5
1954
  8
0
 39
5.0
 10
90.603781561315429
 20
154.0288937424977
 30
0.0
 11
90.618281561315428
 21
153.9731937424977
 31
0.0
  0
LINE
  5
1955
  8
0
 39
5.0
 10
90.618281561315428
 20
153.9731937424977
 30
0.0
 11
90.627181561315425
 21
153.91529374249771
 31
0.0
  0
LINE
  5
1956
  8
0
 39
5.0
 10
90.627181561315425
 20
153.91529374249771
 30
0.0
 11
90.630381561315431
 21
153.8559937424977
 31
0.0
  0
LINE
  5
1957
  8
0
 39
5.0
 10
90.630381561315431
 20
153.8559937424977
 30
0.0
 11
90.630381561315431
 21
151.7017937424977
 31
0.0
  0
LINE
  5
1958
  8
0
 39
5.0
 10
90.630381561315431
 20
151.7017937424977
 30
0.0
 11
90.630381561315431
 21
151.7017937424977
 31
0.0
  0
LINE
  5
1959
  8
0
 39
5.0
 10
90.630381561315431
 20
151.7017937424977
 30
0.0
 11
90.627181561315425
 21
151.64219374249771
 31
0.0
  0
LINE
  5
195A
  8
0
 39
5.0
 10
90.627181561315425
 20
151.64219374249771
 30
0.0
 11
90.618281561315428
 21
151.5843937424977
 31
0.0
  0
LINE
  5
195B
  8
0
 39
5.0
 10
90.618281561315428
 20
151.5843937424977
 30
0.0
 11
90.603781561315429
 21
151.52849374249769
 31
0.0
  0
LINE
  5
195C
  8
0
 39
5.0
 10
90.603781561315429
 20
151.52849374249769
 30
0.0
 11
90.584181561315418
 21
151.4749937424977
 31
0.0
  0
LINE
  5
195D
  8
0
 39
5.0
 10
90.584181561315418
 20
151.4749937424977
 30
0.0
 11
90.559381561315433
 21
151.42389374249771
 31
0.0
  0
LINE
  5
195E
  8
0
 39
5.0
 10
90.559381561315433
 20
151.42389374249771
 30
0.0
 11
90.530081561315427
 21
151.37579374249771
 31
0.0
  0
LINE
  5
195F
  8
0
 39
5.0
 10
90.530081561315427
 20
151.37579374249771
 30
0.0
 11
90.496381561315445
 21
151.33069374249769
 31
0.0
  0
LINE
  5
1960
  8
0
 39
5.0
 10
90.496381561315445
 20
151.33069374249769
 30
0.0
 11
90.458781561315433
 21
151.2892937424977
 31
0.0
  0
LINE
  5
1961
  8
0
 39
5.0
 10
90.458781561315433
 20
151.2892937424977
 30
0.0
 11
90.417081561315428
 21
151.2513937424977
 31
0.0
  0
LINE
  5
1962
  8
0
 39
5.0
 10
90.417081561315428
 20
151.2513937424977
 30
0.0
 11
90.372181561315443
 21
151.21779374249769
 31
0.0
  0
LINE
  5
1963
  8
0
 39
5.0
 10
90.372181561315443
 20
151.21779374249769
 30
0.0
 11
90.323981561315435
 21
151.18849374249771
 31
0.0
  0
LINE
  5
1964
  8
0
 39
5.0
 10
90.323981561315435
 20
151.18849374249771
 30
0.0
 11
90.273081561315436
 21
151.16389374249769
 31
0.0
  0
LINE
  5
1965
  8
0
 39
5.0
 10
90.273081561315436
 20
151.16389374249769
 30
0.0
 11
90.21938156131543
 21
151.14419374249769
 31
0.0
  0
LINE
  5
1966
  8
0
 39
5.0
 10
90.21938156131543
 20
151.14419374249769
 30
0.0
 11
90.163681561315428
 21
151.1297937424977
 31
0.0
  0
LINE
  5
1967
  8
0
 39
5.0
 10
90.163681561315428
 20
151.1297937424977
 30
0.0
 11
90.105781561315425
 21
151.12089374249771
 31
0.0
  0
LINE
  5
1968
  8
0
 39
5.0
 10
90.105781561315425
 20
151.12089374249771
 30
0.0
 11
90.046481561315417
 21
151.1178937424977
 31
0.0
  0
LINE
  5
1969
  8
0
 39
5.0
 10
90.046481561315417
 20
151.1178937424977
 30
0.0
 11
87.710581561315436
 21
151.1178937424977
 31
0.0
  0
LINE
  5
196A
  8
0
 39
5.0
 10
87.710581561315436
 20
151.1178937424977
 30
0.0
 11
87.710581561315436
 21
151.1178937424977
 31
0.0
  0
LINE
  5
196B
  8
0
 39
5.0
 10
87.710581561315436
 20
151.1178937424977
 30
0.0
 11
87.650981561315433
 21
151.12089374249771
 31
0.0
  0
LINE
  5
196C
  8
0
 39
5.0
 10
87.650981561315433
 20
151.12089374249771
 30
0.0
 11
87.593181561315433
 21
151.1297937424977
 31
0.0
  0
LINE
  5
196D
  8
0
 39
5.0
 10
87.593181561315433
 20
151.1297937424977
 30
0.0
 11
87.537281561315424
 21
151.14419374249769
 31
0.0
  0
LINE
  5
196E
  8
0
 39
5.0
 10
87.537281561315424
 20
151.14419374249769
 30
0.0
 11
87.483781561315425
 21
151.16389374249769
 31
0.0
  0
LINE
  5
196F
  8
0
 39
5.0
 10
87.483781561315425
 20
151.16389374249769
 30
0.0
 11
87.432681561315434
 21
151.18849374249771
 31
0.0
  0
LINE
  5
1970
  8
0
 39
5.0
 10
87.432681561315434
 20
151.18849374249771
 30
0.0
 11
87.384581561315414
 21
151.21779374249769
 31
0.0
  0
LINE
  5
1971
  8
0
 39
5.0
 10
87.384581561315414
 20
151.21779374249769
 30
0.0
 11
87.339481561315438
 21
151.2513937424977
 31
0.0
  0
LINE
  5
1972
  8
0
 39
5.0
 10
87.339481561315438
 20
151.2513937424977
 30
0.0
 11
87.298081561315428
 21
151.2892937424977
 31
0.0
  0
LINE
  5
1973
  8
0
 39
5.0
 10
87.298081561315428
 20
151.2892937424977
 30
0.0
 11
87.260181561315434
 21
151.33069374249769
 31
0.0
  0
LINE
  5
1974
  8
0
 39
5.0
 10
87.260181561315434
 20
151.33069374249769
 30
0.0
 11
87.226581561315442
 21
151.37579374249771
 31
0.0
  0
LINE
  5
1975
  8
0
 39
5.0
 10
87.226581561315442
 20
151.37579374249771
 30
0.0
 11
87.197281561315435
 21
151.42389374249771
 31
0.0
  0
LINE
  5
1976
  8
0
 39
5.0
 10
87.197281561315435
 20
151.42389374249771
 30
0.0
 11
87.172681561315429
 21
151.4749937424977
 31
0.0
  0
LINE
  5
1977
  8
0
 39
5.0
 10
87.172681561315429
 20
151.4749937424977
 30
0.0
 11
87.152981561315428
 21
151.52849374249769
 31
0.0
  0
LINE
  5
1978
  8
0
 39
5.0
 10
87.152981561315428
 20
151.52849374249769
 30
0.0
 11
87.138581561315434
 21
151.5843937424977
 31
0.0
  0
LINE
  5
1979
  8
0
 39
5.0
 10
87.138581561315434
 20
151.5843937424977
 30
0.0
 11
87.129681561315437
 21
151.64219374249771
 31
0.0
  0
LINE
  5
197A
  8
0
 39
5.0
 10
87.129681561315437
 20
151.64219374249771
 30
0.0
 11
87.126681561315436
 21
151.7017937424977
 31
0.0
  0
LINE
  5
197B
  8
0
 39
5.0
 10
87.126681561315436
 20
151.7017937424977
 30
0.0
 11
87.126681561315436
 21
153.8559937424977
 31
0.0
  0
LINE
  5
197C
  8
0
 39
5.0
 10
87.126681561315436
 20
153.8559937424977
 30
0.0
 11
87.126681561315436
 21
153.8559937424977
 31
0.0
  0
LINE
  5
197D
  8
0
 39
5.0
 10
87.126681561315436
 20
153.8559937424977
 30
0.0
 11
87.129681561315437
 21
153.91529374249771
 31
0.0
  0
LINE
  5
197E
  8
0
 39
5.0
 10
87.129681561315437
 20
153.91529374249771
 30
0.0
 11
87.138581561315434
 21
153.9731937424977
 31
0.0
  0
LINE
  5
197F
  8
0
 39
5.0
 10
87.138581561315434
 20
153.9731937424977
 30
0.0
 11
87.152981561315428
 21
154.0288937424977
 31
0.0
  0
LINE
  5
1980
  8
0
 39
5.0
 10
87.152981561315428
 20
154.0288937424977
 30
0.0
 11
87.172681561315429
 21
154.08259374249769
 31
0.0
  0
LINE
  5
1981
  8
0
 39
5.0
 10
87.172681561315429
 20
154.08259374249769
 30
0.0
 11
87.197281561315435
 21
154.13349374249771
 31
0.0
  0
LINE
  5
1982
  8
0
 39
5.0
 10
87.197281561315435
 20
154.13349374249771
 30
0.0
 11
87.226581561315442
 21
154.18169374249771
 31
0.0
  0
LINE
  5
1983
  8
0
 39
5.0
 10
87.226581561315442
 20
154.18169374249771
 30
0.0
 11
87.260181561315434
 21
154.2265937424977
 31
0.0
  0
LINE
  5
1984
  8
0
 39
5.0
 10
87.260181561315434
 20
154.2265937424977
 30
0.0
 11
87.298081561315428
 21
154.26829374249769
 31
0.0
  0
LINE
  5
1985
  8
0
 39
5.0
 10
87.298081561315428
 20
154.26829374249769
 30
0.0
 11
87.339481561315438
 21
154.30589374249769
 31
0.0
  0
LINE
  5
1986
  8
0
 39
5.0
 10
87.339481561315438
 20
154.30589374249769
 30
0.0
 11
87.384581561315414
 21
154.3395937424977
 31
0.0
  0
LINE
  5
1987
  8
0
 39
5.0
 10
87.384581561315414
 20
154.3395937424977
 30
0.0
 11
87.432681561315434
 21
154.3688937424977
 31
0.0
  0
LINE
  5
1988
  8
0
 39
5.0
 10
87.432681561315434
 20
154.3688937424977
 30
0.0
 11
87.483781561315425
 21
154.3936937424977
 31
0.0
  0
LINE
  5
1989
  8
0
 39
5.0
 10
87.483781561315425
 20
154.3936937424977
 30
0.0
 11
87.537281561315424
 21
154.4132937424977
 31
0.0
  0
LINE
  5
198A
  8
0
 39
5.0
 10
87.537281561315424
 20
154.4132937424977
 30
0.0
 11
87.593181561315433
 21
154.4277937424977
 31
0.0
  0
LINE
  5
198B
  8
0
 39
5.0
 10
87.593181561315433
 20
154.4277937424977
 30
0.0
 11
87.650981561315433
 21
154.43669374249771
 31
0.0
  0
LINE
  5
198C
  8
0
 39
5.0
 10
87.650981561315433
 20
154.43669374249771
 30
0.0
 11
87.710581561315436
 21
154.4398937424977
 31
0.0
  0
LINE
  5
1A05
  8
0
 39
5.0
 10
87.909881561315444
 20
132.14319374249769
 30
0.0
 11
89.793281561315425
 21
132.14319374249769
 31
0.0
  0
LINE
  5
1A06
  8
0
 39
5.0
 10
89.793281561315425
 20
132.14319374249769
 30
0.0
 11
89.793281561315425
 21
132.14319374249769
 31
0.0
  0
LINE
  5
1A07
  8
0
 39
5.0
 10
89.793281561315425
 20
132.14319374249769
 30
0.0
 11
89.878381561315436
 21
132.13909374249769
 31
0.0
  0
LINE
  5
1A08
  8
0
 39
5.0
 10
89.878381561315436
 20
132.13909374249769
 30
0.0
 11
89.961281561315445
 21
132.1271937424977
 31
0.0
  0
LINE
  5
1A09
  8
0
 39
5.0
 10
89.961281561315445
 20
132.1271937424977
 30
0.0
 11
90.041281561315415
 21
132.10789374249771
 31
0.0
  0
LINE
  5
1A0A
  8
0
 39
5.0
 10
90.041281561315415
 20
132.10789374249771
 30
0.0
 11
90.118181561315424
 21
132.08169374249769
 31
0.0
  0
LINE
  5
1A0B
  8
0
 39
5.0
 10
90.118181561315424
 20
132.08169374249769
 30
0.0
 11
90.191281561315435
 21
132.0486937424977
 31
0.0
  0
LINE
  5
1A0C
  8
0
 39
5.0
 10
90.191281561315435
 20
132.0486937424977
 30
0.0
 11
90.260281561315452
 21
132.00959374249771
 31
0.0
  0
LINE
  5
1A0D
  8
0
 39
5.0
 10
90.260281561315452
 20
132.00959374249771
 30
0.0
 11
90.324781561315433
 21
131.9646937424977
 31
0.0
  0
LINE
  5
1A0E
  8
0
 39
5.0
 10
90.324781561315433
 20
131.9646937424977
 30
0.0
 11
90.384481561315425
 21
131.91439374249771
 31
0.0
  0
LINE
  5
1A0F
  8
0
 39
5.0
 10
90.384481561315425
 20
131.91439374249771
 30
0.0
 11
90.438481561315427
 21
131.85889374249771
 31
0.0
  0
LINE
  5
1A10
  8
0
 39
5.0
 10
90.438481561315427
 20
131.85889374249771
 30
0.0
 11
90.486781561315425
 21
131.79889374249771
 31
0.0
  0
LINE
  5
1A11
  8
0
 39
5.0
 10
90.486781561315425
 20
131.79889374249771
 30
0.0
 11
90.528781561315441
 21
131.73469374249771
 31
0.0
  0
LINE
  5
1A12
  8
0
 39
5.0
 10
90.528781561315441
 20
131.73469374249771
 30
0.0
 11
90.564281561315426
 21
131.6667937424977
 31
0.0
  0
LINE
  5
1A13
  8
0
 39
5.0
 10
90.564281561315426
 20
131.6667937424977
 30
0.0
 11
90.59238156131542
 21
131.59529374249769
 31
0.0
  0
LINE
  5
1A14
  8
0
 39
5.0
 10
90.59238156131542
 20
131.59529374249769
 30
0.0
 11
90.613181561315429
 21
131.52089374249769
 31
0.0
  0
LINE
  5
1A15
  8
0
 39
5.0
 10
90.613181561315429
 20
131.52089374249769
 30
0.0
 11
90.625981561315413
 21
131.44379374249769
 31
0.0
  0
LINE
  5
1A16
  8
0
 39
5.0
 10
90.625981561315413
 20
131.44379374249769
 30
0.0
 11
90.630381561315431
 21
131.3645937424977
 31
0.0
  0
LINE
  5
1A17
  8
0
 39
5.0
 10
90.630381561315431
 20
131.3645937424977
 30
0.0
 11
90.630381561315431
 21
127.9217937424977
 31
0.0
  0
LINE
  5
1A18
  8
0
 39
5.0
 10
90.630381561315431
 20
127.9217937424977
 30
0.0
 11
90.630381561315431
 21
127.9217937424977
 31
0.0
  0
LINE
  5
1A19
  8
0
 39
5.0
 10
90.630381561315431
 20
127.9217937424977
 30
0.0
 11
90.625981561315413
 21
127.8422937424977
 31
0.0
  0
LINE
  5
1A1A
  8
0
 39
5.0
 10
90.625981561315413
 20
127.8422937424977
 30
0.0
 11
90.613181561315429
 21
127.7651937424977
 31
0.0
  0
LINE
  5
1A1B
  8
0
 39
5.0
 10
90.613181561315429
 20
127.7651937424977
 30
0.0
 11
90.59238156131542
 21
127.6905937424977
 31
0.0
  0
LINE
  5
1A1C
  8
0
 39
5.0
 10
90.59238156131542
 20
127.6905937424977
 30
0.0
 11
90.564281561315426
 21
127.6192937424977
 31
0.0
  0
LINE
  5
1A1D
  8
0
 39
5.0
 10
90.564281561315426
 20
127.6192937424977
 30
0.0
 11
90.528781561315441
 21
127.5510937424977
 31
0.0
  0
LINE
  5
1A1E
  8
0
 39
5.0
 10
90.528781561315441
 20
127.5510937424977
 30
0.0
 11
90.486781561315425
 21
127.4869937424977
 31
0.0
  0
LINE
  5
1A1F
  8
0
 39
5.0
 10
90.486781561315425
 20
127.4869937424977
 30
0.0
 11
90.438481561315427
 21
127.4269937424977
 31
0.0
  0
LINE
  5
1A20
  8
0
 39
5.0
 10
90.438481561315427
 20
127.4269937424977
 30
0.0
 11
90.384481561315425
 21
127.3717937424977
 31
0.0
  0
LINE
  5
1A21
  8
0
 39
5.0
 10
90.384481561315425
 20
127.3717937424977
 30
0.0
 11
90.324781561315433
 21
127.3212937424977
 31
0.0
  0
LINE
  5
1A22
  8
0
 39
5.0
 10
90.324781561315433
 20
127.3212937424977
 30
0.0
 11
90.260281561315452
 21
127.2763937424977
 31
0.0
  0
LINE
  5
1A23
  8
0
 39
5.0
 10
90.260281561315452
 20
127.2763937424977
 30
0.0
 11
90.191281561315435
 21
127.2372937424977
 31
0.0
  0
LINE
  5
1A24
  8
0
 39
5.0
 10
90.191281561315435
 20
127.2372937424977
 30
0.0
 11
90.118181561315424
 21
127.2044937424977
 31
0.0
  0
LINE
  5
1A25
  8
0
 39
5.0
 10
90.118181561315424
 20
127.2044937424977
 30
0.0
 11
90.041281561315415
 21
127.1781937424977
 31
0.0
  0
LINE
  5
1A26
  8
0
 39
5.0
 10
90.041281561315415
 20
127.1781937424977
 30
0.0
 11
89.961281561315445
 21
127.1589937424977
 31
0.0
  0
LINE
  5
1A27
  8
0
 39
5.0
 10
89.961281561315445
 20
127.1589937424977
 30
0.0
 11
89.878381561315436
 21
127.1470937424977
 31
0.0
  0
LINE
  5
1A28
  8
0
 39
5.0
 10
89.878381561315436
 20
127.1470937424977
 30
0.0
 11
89.793281561315425
 21
127.1431937424977
 31
0.0
  0
LINE
  5
1A29
  8
0
 39
5.0
 10
89.793281561315425
 20
127.1431937424977
 30
0.0
 11
87.909881561315444
 21
127.1431937424977
 31
0.0
  0
LINE
  5
1A2A
  8
0
 39
5.0
 10
87.909881561315444
 20
127.1431937424977
 30
0.0
 11
87.909881561315444
 21
127.1431937424977
 31
0.0
  0
LINE
  5
1A2B
  8
0
 39
5.0
 10
87.909881561315444
 20
127.1431937424977
 30
0.0
 11
87.824481561315409
 21
127.1470937424977
 31
0.0
  0
LINE
  5
1A2C
  8
0
 39
5.0
 10
87.824481561315409
 20
127.1470937424977
 30
0.0
 11
87.741581561315428
 21
127.1589937424977
 31
0.0
  0
LINE
  5
1A2D
  8
0
 39
5.0
 10
87.741581561315428
 20
127.1589937424977
 30
0.0
 11
87.661381561315437
 21
127.1781937424977
 31
0.0
  0
LINE
  5
1A2E
  8
0
 39
5.0
 10
87.661381561315437
 20
127.1781937424977
 30
0.0
 11
87.584681561315421
 21
127.2044937424977
 31
0.0
  0
LINE
  5
1A2F
  8
0
 39
5.0
 10
87.584681561315421
 20
127.2044937424977
 30
0.0
 11
87.511381561315446
 21
127.2372937424977
 31
0.0
  0
LINE
  5
1A30
  8
0
 39
5.0
 10
87.511381561315446
 20
127.2372937424977
 30
0.0
 11
87.442481561315418
 21
127.2763937424977
 31
0.0
  0
LINE
  5
1A31
  8
0
 39
5.0
 10
87.442481561315418
 20
127.2763937424977
 30
0.0
 11
87.377981561315437
 21
127.3212937424977
 31
0.0
  0
LINE
  5
1A32
  8
0
 39
5.0
 10
87.377981561315437
 20
127.3212937424977
 30
0.0
 11
87.318581561315426
 21
127.3717937424977
 31
0.0
  0
LINE
  5
1A33
  8
0
 39
5.0
 10
87.318581561315426
 20
127.3717937424977
 30
0.0
 11
87.264281561315457
 21
127.4269937424977
 31
0.0
  0
LINE
  5
1A34
  8
0
 39
5.0
 10
87.264281561315457
 20
127.4269937424977
 30
0.0
 11
87.215981561315431
 21
127.4869937424977
 31
0.0
  0
LINE
  5
1A35
  8
0
 39
5.0
 10
87.215981561315431
 20
127.4869937424977
 30
0.0
 11
87.173981561315415
 21
127.5510937424977
 31
0.0
  0
LINE
  5
1A36
  8
0
 39
5.0
 10
87.173981561315415
 20
127.5510937424977
 30
0.0
 11
87.138681561315437
 21
127.6192937424977
 31
0.0
  0
LINE
  5
1A37
  8
0
 39
5.0
 10
87.138681561315437
 20
127.6192937424977
 30
0.0
 11
87.11038156131545
 21
127.6905937424977
 31
0.0
  0
LINE
  5
1A38
  8
0
 39
5.0
 10
87.11038156131545
 20
127.6905937424977
 30
0.0
 11
87.089781561315448
 21
127.7651937424977
 31
0.0
  0
LINE
  5
1A39
  8
0
 39
5.0
 10
87.089781561315448
 20
127.7651937424977
 30
0.0
 11
87.076981561315421
 21
127.8422937424977
 31
0.0
  0
LINE
  5
1A3A
  8
0
 39
5.0
 10
87.076981561315421
 20
127.8422937424977
 30
0.0
 11
87.072781561315452
 21
127.9217937424977
 31
0.0
  0
LINE
  5
1A3B
  8
0
 39
5.0
 10
87.072781561315452
 20
127.9217937424977
 30
0.0
 11
87.072781561315452
 21
131.3645937424977
 31
0.0
  0
LINE
  5
1A3C
  8
0
 39
5.0
 10
87.072781561315452
 20
131.3645937424977
 30
0.0
 11
87.072781561315452
 21
131.3645937424977
 31
0.0
  0
LINE
  5
1A3D
  8
0
 39
5.0
 10
87.072781561315452
 20
131.3645937424977
 30
0.0
 11
87.076981561315421
 21
131.44379374249769
 31
0.0
  0
LINE
  5
1A3E
  8
0
 39
5.0
 10
87.076981561315421
 20
131.44379374249769
 30
0.0
 11
87.089781561315448
 21
131.52089374249769
 31
0.0
  0
LINE
  5
1A3F
  8
0
 39
5.0
 10
87.089781561315448
 20
131.52089374249769
 30
0.0
 11
87.11038156131545
 21
131.59529374249769
 31
0.0
  0
LINE
  5
1A40
  8
0
 39
5.0
 10
87.11038156131545
 20
131.59529374249769
 30
0.0
 11
87.138681561315437
 21
131.6667937424977
 31
0.0
  0
LINE
  5
1A41
  8
0
 39
5.0
 10
87.138681561315437
 20
131.6667937424977
 30
0.0
 11
87.173981561315415
 21
131.73469374249771
 31
0.0
  0
LINE
  5
1A42
  8
0
 39
5.0
 10
87.173981561315415
 20
131.73469374249771
 30
0.0
 11
87.215981561315431
 21
131.79889374249771
 31
0.0
  0
LINE
  5
1A43
  8
0
 39
5.0
 10
87.215981561315431
 20
131.79889374249771
 30
0.0
 11
87.264281561315457
 21
131.85889374249771
 31
0.0
  0
LINE
  5
1A44
  8
0
 39
5.0
 10
87.264281561315457
 20
131.85889374249771
 30
0.0
 11
87.318581561315426
 21
131.91439374249771
 31
0.0
  0
LINE
  5
1A45
  8
0
 39
5.0
 10
87.318581561315426
 20
131.91439374249771
 30
0.0
 11
87.377981561315437
 21
131.9646937424977
 31
0.0
  0
LINE
  5
1A46
  8
0
 39
5.0
 10
87.377981561315437
 20
131.9646937424977
 30
0.0
 11
87.442481561315418
 21
132.00959374249771
 31
0.0
  0
LINE
  5
1A47
  8
0
 39
5.0
 10
87.442481561315418
 20
132.00959374249771
 30
0.0
 11
87.511381561315446
 21
132.0486937424977
 31
0.0
  0
LINE
  5
1A48
  8
0
 39
5.0
 10
87.511381561315446
 20
132.0486937424977
 30
0.0
 11
87.584681561315421
 21
132.08169374249769
 31
0.0
  0
LINE
  5
1A49
  8
0
 39
5.0
 10
87.584681561315421
 20
132.08169374249769
 30
0.0
 11
87.661381561315437
 21
132.10789374249771
 31
0.0
  0
LINE
  5
1A4A
  8
0
 39
5.0
 10
87.661381561315437
 20
132.10789374249771
 30
0.0
 11
87.741581561315428
 21
132.1271937424977
 31
0.0
  0
LINE
  5
1A4B
  8
0
 39
5.0
 10
87.741581561315428
 20
132.1271937424977
 30
0.0
 11
87.824481561315409
 21
132.13909374249769
 31
0.0
  0
LINE
  5
1A4C
  8
0
 39
5.0
 10
87.824481561315409
 20
132.13909374249769
 30
0.0
 11
87.909881561315444
 21
132.14319374249769
 31
0.0
  0
LINE
  5
1A4D
  8
0
 39
5.0
 10
86.321081561315424
 20
132.13909374249769
 30
0.0
 11
86.235681561315431
 21
132.14319374249769
 31
0.0
  0
LINE
  5
1A4E
  8
0
 39
5.0
 10
86.403981561315433
 20
132.1271937424977
 30
0.0
 11
86.321081561315424
 21
132.13909374249769
 31
0.0
  0
LINE
  5
1A4F
  8
0
 39
5.0
 10
86.484181561315438
 20
132.10789374249771
 30
0.0
 11
86.403981561315433
 21
132.1271937424977
 31
0.0
  0
LINE
  5
1A50
  8
0
 39
5.0
 10
86.560881561315426
 20
132.08169374249769
 30
0.0
 11
86.484181561315438
 21
132.10789374249771
 31
0.0
  0
LINE
  5
1A51
  8
0
 39
5.0
 10
86.634181561315444
 20
132.0486937424977
 30
0.0
 11
86.560881561315426
 21
132.08169374249769
 31
0.0
  0
LINE
  5
1A52
  8
0
 39
5.0
 10
86.703081561315429
 20
132.00959374249771
 30
0.0
 11
86.634181561315444
 21
132.0486937424977
 31
0.0
  0
LINE
  5
1A53
  8
0
 39
5.0
 10
86.767581561315438
 20
131.9646937424977
 30
0.0
 11
86.703081561315429
 21
132.00959374249771
 31
0.0
  0
LINE
  5
1A54
  8
0
 39
5.0
 10
86.826981561315449
 20
131.91439374249771
 30
0.0
 11
86.767581561315438
 21
131.9646937424977
 31
0.0
  0
LINE
  5
1A55
  8
0
 39
5.0
 10
86.881281561315433
 20
131.85889374249771
 30
0.0
 11
86.826981561315449
 21
131.91439374249771
 31
0.0
  0
LINE
  5
1A56
  8
0
 39
5.0
 10
86.929581561315445
 20
131.79889374249771
 30
0.0
 11
86.881281561315433
 21
131.85889374249771
 31
0.0
  0
LINE
  5
1A57
  8
0
 39
5.0
 10
86.971581561315446
 20
131.73469374249771
 30
0.0
 11
86.929581561315445
 21
131.79889374249771
 31
0.0
  0
LINE
  5
1A58
  8
0
 39
5.0
 10
87.006881561315467
 20
131.6667937424977
 30
0.0
 11
86.971581561315446
 21
131.73469374249771
 31
0.0
  0
LINE
  5
1A59
  8
0
 39
5.0
 10
87.035181561315454
 20
131.59529374249769
 30
0.0
 11
87.006881561315467
 21
131.6667937424977
 31
0.0
  0
LINE
  5
1A5A
  8
0
 39
5.0
 10
87.055781561315456
 20
131.52089374249769
 30
0.0
 11
87.035181561315454
 21
131.59529374249769
 31
0.0
  0
LINE
  5
1A5B
  8
0
 39
5.0
 10
87.068581561315426
 20
131.44379374249769
 30
0.0
 11
87.055781561315456
 21
131.52089374249769
 31
0.0
  0
LINE
  5
1A5C
  8
0
 39
5.0
 10
87.072781561315452
 20
131.3645937424977
 30
0.0
 11
87.068581561315426
 21
131.44379374249769
 31
0.0
  0
LINE
  5
1A5D
  8
0
 39
5.0
 10
87.072781561315452
 20
131.3645937424977
 30
0.0
 11
87.072781561315452
 21
131.3645937424977
 31
0.0
  0
LINE
  5
1A5E
  8
0
 39
5.0
 10
87.068581561315426
 20
127.8422937424977
 30
0.0
 11
87.072781561315452
 21
127.9217937424977
 31
0.0
  0
LINE
  5
1A5F
  8
0
 39
5.0
 10
87.055781561315456
 20
127.7651937424977
 30
0.0
 11
87.068581561315426
 21
127.8422937424977
 31
0.0
  0
LINE
  5
1A60
  8
0
 39
5.0
 10
87.035181561315454
 20
127.6905937424977
 30
0.0
 11
87.055781561315456
 21
127.7651937424977
 31
0.0
  0
LINE
  5
1A61
  8
0
 39
5.0
 10
87.006881561315467
 20
127.6192937424977
 30
0.0
 11
87.035181561315454
 21
127.6905937424977
 31
0.0
  0
LINE
  5
1A62
  8
0
 39
5.0
 10
86.971581561315446
 20
127.5510937424977
 30
0.0
 11
87.006881561315467
 21
127.6192937424977
 31
0.0
  0
LINE
  5
1A63
  8
0
 39
5.0
 10
86.929581561315445
 20
127.4869937424977
 30
0.0
 11
86.971581561315446
 21
127.5510937424977
 31
0.0
  0
LINE
  5
1A64
  8
0
 39
5.0
 10
86.881281561315433
 20
127.4269937424977
 30
0.0
 11
86.929581561315445
 21
127.4869937424977
 31
0.0
  0
LINE
  5
1A65
  8
0
 39
5.0
 10
86.826981561315449
 20
127.3717937424977
 30
0.0
 11
86.881281561315433
 21
127.4269937424977
 31
0.0
  0
LINE
  5
1A66
  8
0
 39
5.0
 10
86.767581561315438
 20
127.3212937424977
 30
0.0
 11
86.826981561315449
 21
127.3717937424977
 31
0.0
  0
LINE
  5
1A67
  8
0
 39
5.0
 10
86.703081561315429
 20
127.2763937424977
 30
0.0
 11
86.767581561315438
 21
127.3212937424977
 31
0.0
  0
LINE
  5
1A68
  8
0
 39
5.0
 10
86.634181561315444
 20
127.2372937424977
 30
0.0
 11
86.703081561315429
 21
127.2763937424977
 31
0.0
  0
LINE
  5
1A69
  8
0
 39
5.0
 10
86.560881561315426
 20
127.2044937424977
 30
0.0
 11
86.634181561315444
 21
127.2372937424977
 31
0.0
  0
LINE
  5
1A6A
  8
0
 39
5.0
 10
86.484181561315438
 20
127.1781937424977
 30
0.0
 11
86.560881561315426
 21
127.2044937424977
 31
0.0
  0
LINE
  5
1A6B
  8
0
 39
5.0
 10
86.403981561315433
 20
127.1589937424977
 30
0.0
 11
86.484181561315438
 21
127.1781937424977
 31
0.0
  0
LINE
  5
1A6C
  8
0
 39
5.0
 10
86.321081561315424
 20
127.1470937424977
 30
0.0
 11
86.403981561315433
 21
127.1589937424977
 31
0.0
  0
LINE
  5
1A6D
  8
0
 39
5.0
 10
86.235681561315431
 20
127.1431937424977
 30
0.0
 11
86.321081561315424
 21
127.1470937424977
 31
0.0
  0
LINE
  5
1A6E
  8
0
 39
5.0
 10
86.235681561315431
 20
127.1431937424977
 30
0.0
 11
86.235681561315431
 21
127.1431937424977
 31
0.0
  0
LINE
  5
1A6F
  8
0
 39
5.0
 10
83.630381561315417
 20
127.1431937424977
 30
0.0
 11
90.637881561315425
 21
127.1431937424977
 31
0.0
  0
LINE
  5
1A70
  8
0
 10
87.909881561315444
 20
132.14319374249769
 30
0.0
 11
83.630381561315417
 21
132.14319374249769
 31
0.0
  0
LINE
  5
1B5B
  8
0
 39
5.0
 10
83.630381561315417
 20
112.7972937424977
 30
0.0
 11
87.994081561315426
 21
112.7972937424977
 31
0.0
  0
LINE
  5
1B5C
  8
0
 39
5.0
 10
87.994081561315426
 20
112.7972937424977
 30
0.0
 11
87.994081561315426
 21
112.7972937424977
 31
0.0
  0
LINE
  5
1B5D
  8
0
 39
5.0
 10
87.994081561315426
 20
112.7972937424977
 30
0.0
 11
88.02358156131541
 21
112.7879937424977
 31
0.0
  0
LINE
  5
1B5E
  8
0
 39
5.0
 10
88.02358156131541
 20
112.7879937424977
 30
0.0
 11
88.066881561315427
 21
112.7766937424977
 31
0.0
  0
LINE
  5
1B5F
  8
0
 39
5.0
 10
88.066881561315427
 20
112.7766937424977
 30
0.0
 11
88.121281561315399
 21
112.76239374249769
 31
0.0
  0
LINE
  5
1B60
  8
0
 39
5.0
 10
88.121281561315399
 20
112.76239374249769
 30
0.0
 11
88.184781561315418
 21
112.7444937424977
 31
0.0
  0
LINE
  5
1B61
  8
0
 39
5.0
 10
88.184781561315418
 20
112.7444937424977
 30
0.0
 11
88.254581561315433
 21
112.7218937424977
 31
0.0
  0
LINE
  5
1B62
  8
0
 39
5.0
 10
88.254581561315433
 20
112.7218937424977
 30
0.0
 11
88.328881561315427
 21
112.6940937424977
 31
0.0
  0
LINE
  5
1B63
  8
0
 39
5.0
 10
88.328881561315427
 20
112.6940937424977
 30
0.0
 11
88.404981561315424
 21
112.6601937424977
 31
0.0
  0
LINE
  5
1B64
  8
0
 39
5.0
 10
88.404981561315424
 20
112.6601937424977
 30
0.0
 11
88.480781561315396
 21
112.6195937424977
 31
0.0
  0
LINE
  5
1B65
  8
0
 39
5.0
 10
88.480781561315396
 20
112.6195937424977
 30
0.0
 11
88.553581561315426
 21
112.57109374249769
 31
0.0
  0
LINE
  5
1B66
  8
0
 39
5.0
 10
88.553581561315426
 20
112.57109374249769
 30
0.0
 11
88.62148156131542
 21
112.5142937424977
 31
0.0
  0
LINE
  5
1B67
  8
0
 39
5.0
 10
88.62148156131542
 20
112.5142937424977
 30
0.0
 11
88.681781561315432
 21
112.4482937424977
 31
0.0
  0
LINE
  5
1B68
  8
0
 39
5.0
 10
88.681781561315432
 20
112.4482937424977
 30
0.0
 11
88.732481561315424
 21
112.3722937424977
 31
0.0
  0
LINE
  5
1B69
  8
0
 39
5.0
 10
88.732481561315424
 20
112.3722937424977
 30
0.0
 11
88.770881561315406
 21
112.28549374249771
 31
0.0
  0
LINE
  5
1B6A
  8
0
 39
5.0
 10
88.770881561315406
 20
112.28549374249771
 30
0.0
 11
88.795081561315399
 21
112.1871937424977
 31
0.0
  0
LINE
  5
1B6B
  8
0
 39
5.0
 10
88.795081561315399
 20
112.1871937424977
 30
0.0
 11
88.802481561315432
 21
112.07659374249771
 31
0.0
  0
LINE
  5
1B6C
  8
0
 39
5.0
 10
88.802481561315432
 20
112.07659374249771
 30
0.0
 11
88.790781561315413
 21
111.95289374249769
 31
0.0
  0
LINE
  5
1B6D
  8
0
 39
5.0
 10
88.790781561315413
 20
111.95289374249769
 30
0.0
 11
88.790781561315413
 21
108.93149374249769
 31
0.0
  0
LINE
  5
1B6E
  8
0
 39
5.0
 10
88.798878763266799
 20
108.7030077778233
 30
0.0
 11
88.787281561315424
 21
108.6319937424977
 31
0.0
  0
LINE
  5
1B6F
  8
0
 39
5.0
 10
88.787281561315424
 20
108.6319937424977
 30
0.0
 11
88.760081561315417
 21
108.5432937424977
 31
0.0
  0
LINE
  5
1B70
  8
0
 39
5.0
 10
88.760081561315417
 20
108.5432937424977
 30
0.0
 11
88.722781561315415
 21
108.4600937424977
 31
0.0
  0
LINE
  5
1B71
  8
0
 39
5.0
 10
88.722781561315415
 20
108.4600937424977
 30
0.0
 11
88.677381561315414
 21
108.3824937424977
 31
0.0
  0
LINE
  5
1B72
  8
0
 39
5.0
 10
88.677381561315414
 20
108.3824937424977
 30
0.0
 11
88.625481561315411
 21
108.3104937424977
 31
0.0
  0
LINE
  5
1B73
  8
0
 39
5.0
 10
88.625481561315411
 20
108.3104937424977
 30
0.0
 11
88.569181561315403
 21
108.2441937424977
 31
0.0
  0
LINE
  5
1B74
  8
0
 39
5.0
 10
88.569181561315403
 20
108.2441937424977
 30
0.0
 11
88.509881561315439
 21
108.18319374249771
 31
0.0
  0
LINE
  5
1B75
  8
0
 39
5.0
 10
88.509881561315439
 20
108.18319374249771
 30
0.0
 11
88.449781561315433
 21
108.1277937424977
 31
0.0
  0
LINE
  5
1B76
  8
0
 39
5.0
 10
88.449781561315433
 20
108.1277937424977
 30
0.0
 11
88.390581561315415
 21
108.07789374249769
 31
0.0
  0
LINE
  5
1B77
  8
0
 39
5.0
 10
88.390581561315415
 20
108.07789374249769
 30
0.0
 11
88.334081561315429
 21
108.0335937424977
 31
0.0
  0
LINE
  5
1B78
  8
0
 39
5.0
 10
88.334081561315429
 20
108.0335937424977
 30
0.0
 11
88.281981561315433
 21
107.99479374249771
 31
0.0
  0
LINE
  5
1B79
  8
0
 39
5.0
 10
88.281981561315433
 20
107.99479374249771
 30
0.0
 11
88.236281561315423
 21
107.9615937424977
 31
0.0
  0
LINE
  5
1B7A
  8
0
 39
5.0
 10
88.236281561315423
 20
107.9615937424977
 30
0.0
 11
88.198581561315436
 21
107.93399374249771
 31
0.0
  0
LINE
  5
1B7B
  8
0
 39
5.0
 10
88.198581561315436
 20
107.93399374249771
 30
0.0
 11
88.171081561315418
 21
107.9119937424977
 31
0.0
  0
LINE
  5
1B7C
  8
0
 39
5.0
 10
88.171081561315418
 20
107.9119937424977
 30
0.0
 11
83.630381561315417
 21
107.9119937424977
 31
0.0
  0
LINE
  5
1B7D
  8
0
 39
5.0
 10
89.726481561315921
 20
112.7972937424977
 30
0.0
 11
93.694681561315434
 21
112.7972937424977
 31
0.0
  0
LINE
  5
1B7E
  8
0
 39
5.0
 10
93.694681561315434
 20
112.7972937424977
 30
0.0
 11
93.694681561315434
 21
112.7972937424977
 31
0.0
  0
LINE
  5
1B7F
  8
0
 39
5.0
 10
93.694681561315434
 20
112.7972937424977
 30
0.0
 11
93.789881561315411
 21
112.7924937424977
 31
0.0
  0
LINE
  5
1B80
  8
0
 39
5.0
 10
93.789881561315411
 20
112.7924937424977
 30
0.0
 11
93.882481561315416
 21
112.77869374249769
 31
0.0
  0
LINE
  5
1B81
  8
0
 39
5.0
 10
93.882481561315416
 20
112.77869374249769
 30
0.0
 11
93.971881561315428
 21
112.7562937424977
 31
0.0
  0
LINE
  5
1B82
  8
0
 39
5.0
 10
93.971881561315428
 20
112.7562937424977
 30
0.0
 11
94.05788156131544
 21
112.7257937424977
 31
0.0
  0
LINE
  5
1B83
  8
0
 39
5.0
 10
94.05788156131544
 20
112.7257937424977
 30
0.0
 11
94.139581561315424
 21
112.68749374249769
 31
0.0
  0
LINE
  5
1B84
  8
0
 39
5.0
 10
94.139581561315424
 20
112.68749374249769
 30
0.0
 11
94.216781561315429
 21
112.64209374249771
 31
0.0
  0
LINE
  5
1B85
  8
0
 39
5.0
 10
94.216781561315429
 20
112.64209374249771
 30
0.0
 11
94.288781561315446
 21
112.58989374249769
 31
0.0
  0
LINE
  5
1B86
  8
0
 39
5.0
 10
94.288781561315446
 20
112.58989374249769
 30
0.0
 11
94.355481561315429
 21
112.5314937424977
 31
0.0
  0
LINE
  5
1B87
  8
0
 39
5.0
 10
94.355481561315429
 20
112.5314937424977
 30
0.0
 11
94.415881561315416
 21
112.4670937424977
 31
0.0
  0
LINE
  5
1B88
  8
0
 39
5.0
 10
94.415881561315416
 20
112.4670937424977
 30
0.0
 11
94.469881561315418
 21
112.3973937424977
 31
0.0
  0
LINE
  5
1B89
  8
0
 39
5.0
 10
94.469881561315418
 20
112.3973937424977
 30
0.0
 11
94.516781561315398
 21
112.32279374249769
 31
0.0
  0
LINE
  5
1B8A
  8
0
 39
5.0
 10
94.516781561315398
 20
112.32279374249769
 30
0.0
 11
94.556481561315437
 21
112.2438937424977
 31
0.0
  0
LINE
  5
1B8B
  8
0
 39
5.0
 10
94.556481561315437
 20
112.2438937424977
 30
0.0
 11
94.587881561315413
 21
112.1607937424977
 31
0.0
  0
LINE
  5
1B8C
  8
0
 39
5.0
 10
94.587881561315413
 20
112.1607937424977
 30
0.0
 11
94.611181561315419
 21
112.0742937424977
 31
0.0
  0
LINE
  5
1B8D
  8
0
 39
5.0
 10
94.611181561315419
 20
112.0742937424977
 30
0.0
 11
94.625481561315411
 21
111.9846937424977
 31
0.0
  0
LINE
  5
1B8E
  8
0
 39
5.0
 10
94.625481561315411
 20
111.9846937424977
 30
0.0
 11
94.630381561315446
 21
111.8927937424977
 31
0.0
  0
LINE
  5
1B8F
  8
0
 39
5.0
 10
94.630381561315446
 20
111.8927937424977
 30
0.0
 11
94.630381561315446
 21
108.8164937424977
 31
0.0
  0
LINE
  5
1B90
  8
0
 39
5.0
 10
94.630381561315446
 20
108.8164937424977
 30
0.0
 11
94.630381561315446
 21
108.8164937424977
 31
0.0
  0
LINE
  5
1B91
  8
0
 39
5.0
 10
94.630381561315446
 20
108.8164937424977
 30
0.0
 11
94.625481561315411
 21
108.72429374249769
 31
0.0
  0
LINE
  5
1B92
  8
0
 39
5.0
 10
94.625481561315411
 20
108.72429374249769
 30
0.0
 11
94.611181561315419
 21
108.6346937424977
 31
0.0
  0
LINE
  5
1B93
  8
0
 39
5.0
 10
94.611181561315419
 20
108.6346937424977
 30
0.0
 11
94.587881561315413
 21
108.5480937424977
 31
0.0
  0
LINE
  5
1B94
  8
0
 39
5.0
 10
94.587881561315413
 20
108.5480937424977
 30
0.0
 11
94.556481561315437
 21
108.4651937424977
 31
0.0
  0
LINE
  5
1B95
  8
0
 39
5.0
 10
94.556481561315437
 20
108.4651937424977
 30
0.0
 11
94.516781561315398
 21
108.38609374249771
 31
0.0
  0
LINE
  5
1B96
  8
0
 39
5.0
 10
94.516781561315398
 20
108.38609374249771
 30
0.0
 11
94.469881561315418
 21
108.3114937424977
 31
0.0
  0
LINE
  5
1B97
  8
0
 39
5.0
 10
94.469881561315418
 20
108.3114937424977
 30
0.0
 11
94.415881561315416
 21
108.24179374249771
 31
0.0
  0
LINE
  5
1B98
  8
0
 39
5.0
 10
94.415881561315416
 20
108.24179374249771
 30
0.0
 11
94.355481561315429
 21
108.17759374249771
 31
0.0
  0
LINE
  5
1B99
  8
0
 39
5.0
 10
94.355481561315429
 20
108.17759374249771
 30
0.0
 11
94.288781561315446
 21
108.11899374249769
 31
0.0
  0
LINE
  5
1B9A
  8
0
 39
5.0
 10
94.288781561315446
 20
108.11899374249769
 30
0.0
 11
94.216781561315429
 21
108.0668937424977
 31
0.0
  0
LINE
  5
1B9B
  8
0
 39
5.0
 10
94.216781561315429
 20
108.0668937424977
 30
0.0
 11
94.139581561315424
 21
108.02139374249769
 31
0.0
  0
LINE
  5
1B9C
  8
0
 39
5.0
 10
94.139581561315424
 20
108.02139374249769
 30
0.0
 11
94.05788156131544
 21
107.98329374249769
 31
0.0
  0
LINE
  5
1B9D
  8
0
 39
5.0
 10
94.05788156131544
 20
107.98329374249769
 30
0.0
 11
93.971881561315428
 21
107.9526937424977
 31
0.0
  0
LINE
  5
1B9E
  8
0
 39
5.0
 10
93.971881561315428
 20
107.9526937424977
 30
0.0
 11
93.882481561315416
 21
107.9303937424977
 31
0.0
  0
LINE
  5
1B9F
  8
0
 39
5.0
 10
93.882481561315416
 20
107.9303937424977
 30
0.0
 11
93.789881561315411
 21
107.9165937424977
 31
0.0
  0
LINE
  5
1BA0
  8
0
 39
5.0
 10
93.789881561315411
 20
107.9165937424977
 30
0.0
 11
93.694681561315434
 21
107.9119937424977
 31
0.0
  0
LINE
  5
1BA1
  8
0
 39
5.0
 10
93.694681561315434
 20
107.9119937424977
 30
0.0
 11
89.726481561315396
 21
107.9119937424977
 31
0.0
  0
LINE
  5
1BA2
  8
0
 39
5.0
 10
89.726481561315396
 20
107.9119937424977
 30
0.0
 11
89.726481561315396
 21
107.9119937424977
 31
0.0
  0
LINE
  5
1BA3
  8
0
 39
5.0
 10
89.726481561315396
 20
107.9119937424977
 30
0.0
 11
89.630981561315409
 21
107.9165937424977
 31
0.0
  0
LINE
  5
1BA4
  8
0
 39
5.0
 10
89.630981561315409
 20
107.9165937424977
 30
0.0
 11
89.538381561315418
 21
107.9303937424977
 31
0.0
  0
LINE
  5
1BA5
  8
0
 39
5.0
 10
89.538381561315418
 20
107.9303937424977
 30
0.0
 11
89.448781561315414
 21
107.9526937424977
 31
0.0
  0
LINE
  5
1BA6
  8
0
 39
5.0
 10
89.448781561315414
 20
107.9526937424977
 30
0.0
 11
89.362981561315422
 21
107.98329374249769
 31
0.0
  0
LINE
  5
1BA7
  8
0
 39
5.0
 10
89.362981561315422
 20
107.98329374249769
 30
0.0
 11
89.281181561315435
 21
108.02139374249769
 31
0.0
  0
LINE
  5
1BA8
  8
0
 39
5.0
 10
89.281181561315435
 20
108.02139374249769
 30
0.0
 11
89.204081561315405
 21
108.0668937424977
 31
0.0
  0
LINE
  5
1BA9
  8
0
 39
5.0
 10
89.204081561315405
 20
108.0668937424977
 30
0.0
 11
89.132081561315445
 21
108.11899374249769
 31
0.0
  0
LINE
  5
1BAA
  8
0
 39
5.0
 10
89.132081561315445
 20
108.11899374249769
 30
0.0
 11
89.065581561315426
 21
108.17759374249771
 31
0.0
  0
LINE
  5
1BAB
  8
0
 39
5.0
 10
89.065581561315426
 20
108.17759374249771
 30
0.0
 11
89.004981561315418
 21
108.24179374249771
 31
0.0
  0
LINE
  5
1BAC
  8
0
 39
5.0
 10
89.004981561315418
 20
108.24179374249771
 30
0.0
 11
88.950981561315416
 21
108.3114937424977
 31
0.0
  0
LINE
  5
1BAD
  8
0
 39
5.0
 10
88.950981561315416
 20
108.3114937424977
 30
0.0
 11
88.903981561315419
 21
108.38609374249771
 31
0.0
  0
LINE
  5
1BAE
  8
0
 39
5.0
 10
88.903981561315419
 20
108.38609374249771
 30
0.0
 11
88.864581561315418
 21
108.4651937424977
 31
0.0
  0
LINE
  5
1BAF
  8
0
 39
5.0
 10
88.864581561315418
 20
108.4651937424977
 30
0.0
 11
88.832881561315403
 21
108.5480937424977
 31
0.0
  0
LINE
  5
1BB0
  8
0
 39
5.0
 10
88.832881561315403
 20
108.5480937424977
 30
0.0
 11
88.809781561315418
 21
108.6346937424977
 31
0.0
  0
LINE
  5
1BB1
  8
0
 39
5.0
 10
88.809781561315418
 20
108.6346937424977
 30
0.0
 11
88.795481561315427
 21
108.72429374249769
 31
0.0
  0
LINE
  5
1BB2
  8
0
 39
5.0
 10
88.795481561315427
 20
108.72429374249769
 30
0.0
 11
88.790781561315413
 21
108.8164937424977
 31
0.0
  0
LINE
  5
1BB3
  8
0
 39
5.0
 10
88.790781561315413
 20
108.8164937424977
 30
0.0
 11
88.790781561315413
 21
111.8927937424977
 31
0.0
  0
LINE
  5
1BB4
  8
0
 39
5.0
 10
88.790781561315413
 20
111.8927937424977
 30
0.0
 11
88.790781561315413
 21
111.8927937424977
 31
0.0
  0
LINE
  5
1BB5
  8
0
 39
5.0
 10
88.790781561315413
 20
111.8927937424977
 30
0.0
 11
88.795481561315427
 21
111.9846937424977
 31
0.0
  0
LINE
  5
1BB6
  8
0
 39
5.0
 10
88.795481561315427
 20
111.9846937424977
 30
0.0
 11
88.809781561315418
 21
112.0742937424977
 31
0.0
  0
LINE
  5
1BB7
  8
0
 39
5.0
 10
88.809781561315418
 20
112.0742937424977
 30
0.0
 11
88.832881561315403
 21
112.1607937424977
 31
0.0
  0
LINE
  5
1BB8
  8
0
 39
5.0
 10
88.832881561315403
 20
112.1607937424977
 30
0.0
 11
88.864581561315418
 21
112.2438937424977
 31
0.0
  0
LINE
  5
1BB9
  8
0
 39
5.0
 10
88.864581561315418
 20
112.2438937424977
 30
0.0
 11
88.903981561315419
 21
112.32279374249769
 31
0.0
  0
LINE
  5
1BBA
  8
0
 39
5.0
 10
88.903981561315419
 20
112.32279374249769
 30
0.0
 11
88.950981561315416
 21
112.3973937424977
 31
0.0
  0
LINE
  5
1BBB
  8
0
 39
5.0
 10
88.950981561315416
 20
112.3973937424977
 30
0.0
 11
89.004981561315418
 21
112.4670937424977
 31
0.0
  0
LINE
  5
1BBC
  8
0
 39
5.0
 10
89.004981561315418
 20
112.4670937424977
 30
0.0
 11
89.065581561315426
 21
112.5314937424977
 31
0.0
  0
LINE
  5
1BBD
  8
0
 39
5.0
 10
89.065581561315426
 20
112.5314937424977
 30
0.0
 11
89.132081561315445
 21
112.58989374249769
 31
0.0
  0
LINE
  5
1BBE
  8
0
 39
5.0
 10
89.132081561315445
 20
112.58989374249769
 30
0.0
 11
89.204081561315405
 21
112.64209374249771
 31
0.0
  0
LINE
  5
1BBF
  8
0
 39
5.0
 10
89.204081561315405
 20
112.64209374249771
 30
0.0
 11
89.281181561315435
 21
112.68749374249769
 31
0.0
  0
LINE
  5
1BC0
  8
0
 39
5.0
 10
89.281181561315435
 20
112.68749374249769
 30
0.0
 11
89.362981561315422
 21
112.7257937424977
 31
0.0
  0
LINE
  5
1BC1
  8
0
 39
5.0
 10
89.362981561315422
 20
112.7257937424977
 30
0.0
 11
89.448781561315414
 21
112.7562937424977
 31
0.0
  0
LINE
  5
1BC2
  8
0
 39
5.0
 10
89.448781561315414
 20
112.7562937424977
 30
0.0
 11
89.538381561315418
 21
112.77869374249769
 31
0.0
  0
LINE
  5
1BC3
  8
0
 39
5.0
 10
89.538381561315418
 20
112.77869374249769
 30
0.0
 11
89.630981561315409
 21
112.7924937424977
 31
0.0
  0
LINE
  5
1BC4
  8
0
 39
5.0
 10
89.630981561315409
 20
112.7924937424977
 30
0.0
 11
89.726481561315396
 21
112.7972937424977
 31
0.0
  0
LINE
  5
1BC5
  8
0
 39
5.0
 10
93.694681561315434
 20
107.9165937424977
 30
0.0
 11
93.694681561315434
 21
107.9165937424977
 31
0.0
  0
POLYLINE
  5
1BC6
  8
2
 66
     1
 10
0.0
 20
0.0
 30
0.0
 39
5.0
  0
VERTEX
  5
1FF9
  8
2
 10
91.072881561315427
 20
107.9165937424977
 30
0.0
  0
VERTEX
  5
1FFA
  8
2
 10
91.072881561315427
 20
107.9119937424977
 30
0.0
  0
SEQEND
  5
1FFB
  8
2
  0
LINE
  5
1BC7
  8
0
 39
5.0
 10
91.51588156131541
 20
107.9165937424977
 30
0.0
 11
91.51588156131541
 21
107.9119937424977
 31
0.0
  0
LINE
  5
1BC8
  8
0
 39
5.0
 10
88.798878763266799
 20
103.8177077778233
 30
0.0
 11
88.787281561315424
 21
103.7466937424977
 31
0.0
  0
LINE
  5
1BC9
  8
0
 39
5.0
 10
89.726481561315921
 20
107.9119937424977
 30
0.0
 11
93.694681561315434
 21
107.9119937424977
 31
0.0
  0
LINE
  5
1BCA
  8
0
 39
5.0
 10
93.694681561315434
 20
103.0312937424977
 30
0.0
 11
93.694681561315434
 21
103.0312937424977
 31
0.0
  0
LINE
  5
1BCB
  8
0
 39
5.0
 10
89.630981561315409
 20
107.9071937424977
 30
0.0
 11
89.726481561315396
 21
107.9119937424977
 31
0.0
  0
LINE
  5
1BCC
  8
0
 39
5.0
 10
89.538381561315418
 20
107.89339374249769
 30
0.0
 11
89.630981561315409
 21
107.9071937424977
 31
0.0
  0
LINE
  5
1BCD
  8
0
 39
5.0
 10
89.448781561315414
 20
107.8709937424977
 30
0.0
 11
89.538381561315418
 21
107.89339374249769
 31
0.0
  0
LINE
  5
1BCE
  8
0
 39
5.0
 10
89.362981561315422
 20
107.8404937424977
 30
0.0
 11
89.448781561315414
 21
107.8709937424977
 31
0.0
  0
LINE
  5
1BCF
  8
0
 39
5.0
 10
89.281181561315435
 20
107.80219374249771
 30
0.0
 11
89.362981561315422
 21
107.8404937424977
 31
0.0
  0
LINE
  5
1BD0
  8
0
 39
5.0
 10
89.204081561315405
 20
107.75679374249771
 30
0.0
 11
89.281181561315435
 21
107.80219374249771
 31
0.0
  0
LINE
  5
1BD1
  8
0
 39
5.0
 10
89.132081561315445
 20
107.70459374249771
 30
0.0
 11
89.204081561315405
 21
107.75679374249771
 31
0.0
  0
LINE
  5
1BD2
  8
0
 39
5.0
 10
89.065581561315426
 20
107.6461937424977
 30
0.0
 11
89.132081561315445
 21
107.70459374249771
 31
0.0
  0
LINE
  5
1BD3
  8
0
 39
5.0
 10
89.004981561315418
 20
107.58179374249769
 30
0.0
 11
89.065581561315426
 21
107.6461937424977
 31
0.0
  0
LINE
  5
1BD4
  8
0
 39
5.0
 10
88.950981561315416
 20
107.5120937424977
 30
0.0
 11
89.004981561315418
 21
107.58179374249769
 31
0.0
  0
LINE
  5
1BD5
  8
0
 39
5.0
 10
88.903981561315419
 20
107.43749374249769
 30
0.0
 11
88.950981561315416
 21
107.5120937424977
 31
0.0
  0
LINE
  5
1BD6
  8
0
 39
5.0
 10
88.864581561315418
 20
107.3585937424977
 30
0.0
 11
88.903981561315419
 21
107.43749374249769
 31
0.0
  0
LINE
  5
1BD7
  8
0
 39
5.0
 10
88.832881561315403
 20
107.2754937424977
 30
0.0
 11
88.864581561315418
 21
107.3585937424977
 31
0.0
  0
LINE
  5
1BD8
  8
0
 39
5.0
 10
88.809781561315418
 20
107.1889937424977
 30
0.0
 11
88.832881561315403
 21
107.2754937424977
 31
0.0
  0
LINE
  5
1BD9
  8
0
 39
5.0
 10
88.795481561315427
 20
107.0993937424977
 30
0.0
 11
88.809781561315418
 21
107.1889937424977
 31
0.0
  0
LINE
  5
1BDA
  8
0
 39
5.0
 10
88.790781561315413
 20
107.0074937424977
 30
0.0
 11
88.795481561315427
 21
107.0993937424977
 31
0.0
  0
LINE
  5
1BDB
  8
0
 39
5.0
 10
88.790781561315413
 20
107.0074937424977
 30
0.0
 11
88.790781561315413
 21
107.0074937424977
 31
0.0
  0
LINE
  5
1BDC
  8
0
 39
5.0
 10
88.790781561315413
 20
103.9311937424977
 30
0.0
 11
88.790781561315413
 21
107.0074937424977
 31
0.0
  0
LINE
  5
1BDD
  8
0
 39
5.0
 10
88.795481561315427
 20
103.83899374249771
 30
0.0
 11
88.790781561315413
 21
103.9311937424977
 31
0.0
  0
LINE
  5
1BDE
  8
0
 39
5.0
 10
88.809781561315418
 20
103.7493937424977
 30
0.0
 11
88.795481561315427
 21
103.83899374249771
 31
0.0
  0
LINE
  5
1BDF
  8
0
 39
5.0
 10
88.832881561315403
 20
103.6627937424977
 30
0.0
 11
88.809781561315418
 21
103.7493937424977
 31
0.0
  0
LINE
  5
1BE0
  8
0
 39
5.0
 10
88.864581561315418
 20
103.5798937424977
 30
0.0
 11
88.832881561315403
 21
103.6627937424977
 31
0.0
  0
LINE
  5
1BE1
  8
0
 39
5.0
 10
88.903981561315419
 20
103.50079374249771
 30
0.0
 11
88.864581561315418
 21
103.5798937424977
 31
0.0
  0
LINE
  5
1BE2
  8
0
 39
5.0
 10
88.950981561315416
 20
103.4261937424977
 30
0.0
 11
88.903981561315419
 21
103.50079374249771
 31
0.0
  0
LINE
  5
1BE3
  8
0
 39
5.0
 10
89.004981561315418
 20
103.3564937424977
 30
0.0
 11
88.950981561315416
 21
103.4261937424977
 31
0.0
  0
LINE
  5
1BE4
  8
0
 39
5.0
 10
89.065581561315426
 20
103.29229374249771
 30
0.0
 11
89.004981561315418
 21
103.3564937424977
 31
0.0
  0
LINE
  5
1BE5
  8
0
 39
5.0
 10
89.132081561315445
 20
103.23369374249771
 30
0.0
 11
89.065581561315426
 21
103.29229374249771
 31
0.0
  0
LINE
  5
1BE6
  8
0
 39
5.0
 10
89.204081561315405
 20
103.1815937424977
 30
0.0
 11
89.132081561315445
 21
103.23369374249771
 31
0.0
  0
LINE
  5
1BE7
  8
0
 39
5.0
 10
89.281181561315435
 20
103.13609374249771
 30
0.0
 11
89.204081561315405
 21
103.1815937424977
 31
0.0
  0
LINE
  5
1BE8
  8
0
 39
5.0
 10
89.362981561315422
 20
103.09799374249771
 30
0.0
 11
89.281181561315435
 21
103.13609374249771
 31
0.0
  0
LINE
  5
1BE9
  8
0
 39
5.0
 10
89.448781561315414
 20
103.0673937424977
 30
0.0
 11
89.362981561315422
 21
103.09799374249771
 31
0.0
  0
LINE
  5
1BEA
  8
0
 39
5.0
 10
89.538381561315418
 20
103.0450937424977
 30
0.0
 11
89.448781561315414
 21
103.0673937424977
 31
0.0
  0
LINE
  5
1BEB
  8
0
 39
5.0
 10
89.630981561315409
 20
103.0312937424977
 30
0.0
 11
89.538381561315418
 21
103.0450937424977
 31
0.0
  0
LINE
  5
1BEC
  8
0
 39
5.0
 10
89.726481561315396
 20
103.0266937424977
 30
0.0
 11
89.630981561315409
 21
103.0312937424977
 31
0.0
  0
LINE
  5
1BED
  8
0
 39
5.0
 10
89.726481561315396
 20
103.0266937424977
 30
0.0
 11
89.726481561315396
 21
103.0266937424977
 31
0.0
  0
LINE
  5
1BEE
  8
0
 39
5.0
 10
93.694681561315434
 20
103.0266937424977
 30
0.0
 11
89.726481561315396
 21
103.0266937424977
 31
0.0
  0
LINE
  5
1BEF
  8
0
 39
5.0
 10
93.789881561315411
 20
103.0312937424977
 30
0.0
 11
93.694681561315434
 21
103.0266937424977
 31
0.0
  0
LINE
  5
1BF0
  8
0
 39
5.0
 10
93.882481561315416
 20
103.0450937424977
 30
0.0
 11
93.789881561315411
 21
103.0312937424977
 31
0.0
  0
LINE
  5
1BF1
  8
0
 39
5.0
 10
93.971881561315428
 20
103.0673937424977
 30
0.0
 11
93.882481561315416
 21
103.0450937424977
 31
0.0
  0
LINE
  5
1BF2
  8
0
 39
5.0
 10
94.05788156131544
 20
103.09799374249771
 30
0.0
 11
93.971881561315428
 21
103.0673937424977
 31
0.0
  0
LINE
  5
1BF3
  8
0
 39
5.0
 10
94.139581561315424
 20
103.13609374249771
 30
0.0
 11
94.05788156131544
 21
103.09799374249771
 31
0.0
  0
LINE
  5
1BF4
  8
0
 39
5.0
 10
94.216781561315429
 20
103.1815937424977
 30
0.0
 11
94.139581561315424
 21
103.13609374249771
 31
0.0
  0
LINE
  5
1BF5
  8
0
 39
5.0
 10
94.288781561315446
 20
103.23369374249771
 30
0.0
 11
94.216781561315429
 21
103.1815937424977
 31
0.0
  0
LINE
  5
1BF6
  8
0
 39
5.0
 10
94.355481561315429
 20
103.29229374249771
 30
0.0
 11
94.288781561315446
 21
103.23369374249771
 31
0.0
  0
LINE
  5
1BF7
  8
0
 39
5.0
 10
94.415881561315416
 20
103.3564937424977
 30
0.0
 11
94.355481561315429
 21
103.29229374249771
 31
0.0
  0
LINE
  5
1BF8
  8
0
 39
5.0
 10
94.469881561315418
 20
103.4261937424977
 30
0.0
 11
94.415881561315416
 21
103.3564937424977
 31
0.0
  0
LINE
  5
1BF9
  8
0
 39
5.0
 10
94.516781561315398
 20
103.50079374249771
 30
0.0
 11
94.469881561315418
 21
103.4261937424977
 31
0.0
  0
LINE
  5
1BFA
  8
0
 39
5.0
 10
94.556481561315437
 20
103.5798937424977
 30
0.0
 11
94.516781561315398
 21
103.50079374249771
 31
0.0
  0
LINE
  5
1BFB
  8
0
 39
5.0
 10
94.587881561315413
 20
103.6627937424977
 30
0.0
 11
94.556481561315437
 21
103.5798937424977
 31
0.0
  0
LINE
  5
1BFC
  8
0
 39
5.0
 10
94.611181561315419
 20
103.7493937424977
 30
0.0
 11
94.587881561315413
 21
103.6627937424977
 31
0.0
  0
LINE
  5
1BFD
  8
0
 39
5.0
 10
94.625481561315411
 20
103.83899374249771
 30
0.0
 11
94.611181561315419
 21
103.7493937424977
 31
0.0
  0
LINE
  5
1BFE
  8
0
 39
5.0
 10
94.630381561315446
 20
103.9311937424977
 30
0.0
 11
94.625481561315411
 21
103.83899374249771
 31
0.0
  0
LINE
  5
1BFF
  8
0
 39
5.0
 10
94.630381561315446
 20
103.9311937424977
 30
0.0
 11
94.630381561315446
 21
103.9311937424977
 31
0.0
  0
LINE
  5
1C00
  8
0
 39
5.0
 10
94.630381561315446
 20
107.0074937424977
 30
0.0
 11
94.630381561315446
 21
103.9311937424977
 31
0.0
  0
LINE
  5
1C01
  8
0
 39
5.0
 10
94.625481561315411
 20
107.0993937424977
 30
0.0
 11
94.630381561315446
 21
107.0074937424977
 31
0.0
  0
LINE
  5
1C02
  8
0
 39
5.0
 10
94.611181561315419
 20
107.1889937424977
 30
0.0
 11
94.625481561315411
 21
107.0993937424977
 31
0.0
  0
LINE
  5
1C03
  8
0
 39
5.0
 10
94.587881561315413
 20
107.2754937424977
 30
0.0
 11
94.611181561315419
 21
107.1889937424977
 31
0.0
  0
LINE
  5
1C04
  8
0
 39
5.0
 10
94.556481561315437
 20
107.3585937424977
 30
0.0
 11
94.587881561315413
 21
107.2754937424977
 31
0.0
  0
LINE
  5
1C05
  8
0
 39
5.0
 10
94.516781561315398
 20
107.43749374249769
 30
0.0
 11
94.556481561315437
 21
107.3585937424977
 31
0.0
  0
LINE
  5
1C06
  8
0
 39
5.0
 10
94.469881561315418
 20
107.5120937424977
 30
0.0
 11
94.516781561315398
 21
107.43749374249769
 31
0.0
  0
LINE
  5
1C07
  8
0
 39
5.0
 10
94.415881561315416
 20
107.58179374249769
 30
0.0
 11
94.469881561315418
 21
107.5120937424977
 31
0.0
  0
LINE
  5
1C08
  8
0
 39
5.0
 10
94.355481561315429
 20
107.6461937424977
 30
0.0
 11
94.415881561315416
 21
107.58179374249769
 31
0.0
  0
LINE
  5
1C09
  8
0
 39
5.0
 10
94.288781561315446
 20
107.70459374249771
 30
0.0
 11
94.355481561315429
 21
107.6461937424977
 31
0.0
  0
LINE
  5
1C0A
  8
0
 39
5.0
 10
94.216781561315429
 20
107.75679374249771
 30
0.0
 11
94.288781561315446
 21
107.70459374249771
 31
0.0
  0
LINE
  5
1C0B
  8
0
 39
5.0
 10
94.139581561315424
 20
107.80219374249771
 30
0.0
 11
94.216781561315429
 21
107.75679374249771
 31
0.0
  0
LINE
  5
1C0C
  8
0
 39
5.0
 10
94.05788156131544
 20
107.8404937424977
 30
0.0
 11
94.139581561315424
 21
107.80219374249771
 31
0.0
  0
LINE
  5
1C0D
  8
0
 39
5.0
 10
93.971881561315428
 20
107.8709937424977
 30
0.0
 11
94.05788156131544
 21
107.8404937424977
 31
0.0
  0
LINE
  5
1C0E
  8
0
 39
5.0
 10
93.882481561315416
 20
107.89339374249769
 30
0.0
 11
93.971881561315428
 21
107.8709937424977
 31
0.0
  0
LINE
  5
1C0F
  8
0
 39
5.0
 10
93.789881561315411
 20
107.9071937424977
 30
0.0
 11
93.882481561315416
 21
107.89339374249769
 31
0.0
  0
LINE
  5
1C10
  8
0
 39
5.0
 10
93.694681561315434
 20
107.9119937424977
 30
0.0
 11
93.789881561315411
 21
107.9071937424977
 31
0.0
  0
LINE
  5
1C11
  8
0
 39
5.0
 10
93.694681561315434
 20
107.9119937424977
 30
0.0
 11
93.694681561315434
 21
107.9119937424977
 31
0.0
  0
LINE
  5
1C12
  8
0
 39
5.0
 10
88.171081561315418
 20
103.0266937424977
 30
0.0
 11
83.630381561315417
 21
103.0266937424977
 31
0.0
  0
LINE
  5
1C13
  8
0
 39
5.0
 10
88.198581561315436
 20
103.0486937424977
 30
0.0
 11
88.171081561315418
 21
103.0266937424977
 31
0.0
  0
LINE
  5
1C14
  8
0
 39
5.0
 10
88.236281561315423
 20
103.0762937424977
 30
0.0
 11
88.198581561315436
 21
103.0486937424977
 31
0.0
  0
LINE
  5
1C15
  8
0
 39
5.0
 10
88.281981561315433
 20
103.1094937424977
 30
0.0
 11
88.236281561315423
 21
103.0762937424977
 31
0.0
  0
LINE
  5
1C16
  8
0
 39
5.0
 10
88.334081561315429
 20
103.1482937424977
 30
0.0
 11
88.281981561315433
 21
103.1094937424977
 31
0.0
  0
LINE
  5
1C17
  8
0
 39
5.0
 10
88.390581561315415
 20
103.19259374249771
 30
0.0
 11
88.334081561315429
 21
103.1482937424977
 31
0.0
  0
LINE
  5
1C18
  8
0
 39
5.0
 10
88.449781561315433
 20
103.2424937424977
 30
0.0
 11
88.390581561315415
 21
103.19259374249771
 31
0.0
  0
LINE
  5
1C19
  8
0
 39
5.0
 10
88.509881561315439
 20
103.29789374249771
 30
0.0
 11
88.449781561315433
 21
103.2424937424977
 31
0.0
  0
LINE
  5
1C1A
  8
0
 39
5.0
 10
88.569181561315403
 20
103.3588937424977
 30
0.0
 11
88.509881561315439
 21
103.29789374249771
 31
0.0
  0
LINE
  5
1C1B
  8
0
 39
5.0
 10
88.625481561315411
 20
103.4251937424977
 30
0.0
 11
88.569181561315403
 21
103.3588937424977
 31
0.0
  0
LINE
  5
1C1C
  8
0
 39
5.0
 10
88.677381561315414
 20
103.4971937424977
 30
0.0
 11
88.625481561315411
 21
103.4251937424977
 31
0.0
  0
LINE
  5
1C1D
  8
0
 39
5.0
 10
88.722781561315415
 20
103.5747937424977
 30
0.0
 11
88.677381561315414
 21
103.4971937424977
 31
0.0
  0
LINE
  5
1C1E
  8
0
 39
5.0
 10
88.760081561315417
 20
103.65799374249769
 30
0.0
 11
88.722781561315415
 21
103.5747937424977
 31
0.0
  0
LINE
  5
1C1F
  8
0
 39
5.0
 10
88.787281561315424
 20
103.7466937424977
 30
0.0
 11
88.760081561315417
 21
103.65799374249769
 31
0.0
  0
LINE
  5
1C20
  8
0
 39
5.0
 10
88.790781561315413
 20
107.06759374249771
 30
0.0
 11
88.790781561315413
 21
104.04619374249771
 31
0.0
  0
LINE
  5
1C21
  8
0
 39
5.0
 10
88.802481561315432
 20
107.19129374249771
 30
0.0
 11
88.790781561315413
 21
107.06759374249771
 31
0.0
  0
LINE
  5
1C22
  8
0
 39
5.0
 10
88.795081561315399
 20
107.3018937424977
 30
0.0
 11
88.802481561315432
 21
107.19129374249771
 31
0.0
  0
LINE
  5
1C23
  8
0
 39
5.0
 10
88.770881561315406
 20
107.40019374249771
 30
0.0
 11
88.795081561315399
 21
107.3018937424977
 31
0.0
  0
LINE
  5
1C24
  8
0
 39
5.0
 10
88.732481561315424
 20
107.4869937424977
 30
0.0
 11
88.770881561315406
 21
107.40019374249771
 31
0.0
  0
LINE
  5
1C25
  8
0
 39
5.0
 10
88.681781561315432
 20
107.5629937424977
 30
0.0
 11
88.732481561315424
 21
107.4869937424977
 31
0.0
  0
LINE
  5
1C26
  8
0
 39
5.0
 10
88.62148156131542
 20
107.6289937424977
 30
0.0
 11
88.681781561315432
 21
107.5629937424977
 31
0.0
  0
LINE
  5
1C27
  8
0
 39
5.0
 10
88.553581561315426
 20
107.68579374249769
 30
0.0
 11
88.62148156131542
 21
107.6289937424977
 31
0.0
  0
LINE
  5
1C28
  8
0
 39
5.0
 10
88.480781561315396
 20
107.7342937424977
 30
0.0
 11
88.553581561315426
 21
107.68579374249769
 31
0.0
  0
LINE
  5
1C29
  8
0
 39
5.0
 10
88.404981561315424
 20
107.7748937424977
 30
0.0
 11
88.480781561315396
 21
107.7342937424977
 31
0.0
  0
LINE
  5
1C2A
  8
0
 39
5.0
 10
88.328881561315427
 20
107.8087937424977
 30
0.0
 11
88.404981561315424
 21
107.7748937424977
 31
0.0
  0
LINE
  5
1C2B
  8
0
 39
5.0
 10
88.254581561315433
 20
107.8365937424977
 30
0.0
 11
88.328881561315427
 21
107.8087937424977
 31
0.0
  0
LINE
  5
1C2C
  8
0
 39
5.0
 10
88.184781561315418
 20
107.85919374249769
 30
0.0
 11
88.254581561315433
 21
107.8365937424977
 31
0.0
  0
LINE
  5
1C2D
  8
0
 39
5.0
 10
88.121281561315399
 20
107.87709374249771
 30
0.0
 11
88.184781561315418
 21
107.85919374249769
 31
0.0
  0
LINE
  5
1C2E
  8
0
 39
5.0
 10
88.066881561315427
 20
107.8913937424977
 30
0.0
 11
88.121281561315399
 21
107.87709374249771
 31
0.0
  0
LINE
  5
1C2F
  8
0
 39
5.0
 10
88.02358156131541
 20
107.9026937424977
 30
0.0
 11
88.066881561315427
 21
107.8913937424977
 31
0.0
  0
LINE
  5
1C30
  8
0
 39
5.0
 10
87.994081561315426
 20
107.9119937424977
 30
0.0
 11
88.02358156131541
 21
107.9026937424977
 31
0.0
  0
LINE
  5
1C31
  8
0
 39
5.0
 10
87.994081561315426
 20
107.9119937424977
 30
0.0
 11
87.994081561315426
 21
107.9119937424977
 31
0.0
  0
LINE
  5
1C32
  8
0
 39
5.0
 10
83.630381561315417
 20
107.9119937424977
 30
0.0
 11
87.994081561315426
 21
107.9119937424977
 31
0.0
  0
LINE
  5
1C33
  8
0
 10
89.726481561315396
 20
103.0266937424977
 30
0.0
 11
88.171081561315418
 21
103.0266937424977
 31
0.0
  0
LINE
  5
1C34
  8
0
 10
89.726481561315964
 20
112.7972937424977
 30
0.0
 11
87.99408156131534
 21
112.7972937424977
 31
0.0
  0
LINE
  5
1C35
  8
0
 10
89.726481561315964
 20
107.9119937424977
 30
0.0
 11
87.99408156131534
 21
107.9119937424977
 31
0.0
  0
POLYLINE
  5
1C36
  8
2
 66
     1
 10
0.0
 20
0.0
 30
0.0
 39
5.0
  0
VERTEX
  5
1FFC
  8
2
 10
90.194881561315427
 20
103.0266937424977
 30
0.0
  0
VERTEX
  5
1FFD
  8
2
 10
90.194881561315427
 20
77.313793742497765
 30
0.0
  0
SEQEND
  5
1FFE
  8
2
  0
LINE
  5
1C4D
  8
0
 10
76.630381561315431
 20
15.64319374249777
 30
0.0
 11
76.630381561315431
 21
13.24946525379919
 31
0.0
  0
LINE
  5
1C4E
  8
0
 10
90.630381561315431
 20
15.64319374249777
 30
0.0
 11
90.630381561315431
 21
13.24946525379919
 31
0.0
  0
LINE
  5
1C67
  8
0
 10
90.630381561315431
 20
69.143193742497786
 30
0.0
 11
83.630381561315417
 21
69.143193742497772
 31
0.0
  0
LINE
  5
1C68
  8
0
 10
78.569381561315453
 20
69.1431937424978
 30
0.0
 11
76.630381561315431
 21
69.143193742497786
 31
0.0
  0
LINE
  5
1C6E
  8
0
 10
92.480316561315377
 20
22.143193742497768
 30
0.0
 11
74.780446561302966
 21
22.143193742497768
 31
0.0
  0
LINE
  5
1C89
  8
0
 10
89.521192357854517
 20
12.54319374249777
 30
0.0
 11
77.73957076477636
 21
12.54319374249777
 31
0.0
  0
LINE
  5
1C8D
  8
0
 10
90.630381561315431
 20
13.24946525379919
 30
0.0
 11
83.630381561315417
 21
13.24946525379919
 31
0.0
  0
LINE
  5
1C90
  8
0
 10
90.630381561315431
 20
15.64319374249777
 30
0.0
 11
83.630381561315417
 21
15.64319374249777
 31
0.0
  0
LINE
  5
1C91
  8
0
 10
78.815981561315439
 20
15.64319374249777
 30
0.0
 11
76.630381561315431
 21
15.64319374249777
 31
0.0
  0
DIMENSION
  5
1C97
  8
2
  2
*D2
 10
108.7504076792054
 20
127.1431937424977
 30
0.0
 11
106.8754076792054
 21
129.64319374249769
 31
0.0
 70
     0
 13
89.793281561315425
 23
132.14319374249769
 33
0.0
 14
89.793281561315425
 24
127.1431937424977
 34
0.0
 50
90.0
  0
DIMENSION
  5
1CB1
  8
2
  2
*D3
 10
108.7504076792054
 20
69.143193742497772
 30
0.0
 11
106.8754076792053
 21
98.1431937424978
 31
0.0
 70
     0
 13
108.7504076792054
 23
127.1431937424977
 33
0.0
 14
90.630381561315431
 24
69.143193742497786
 34
0.0
 50
90.0
  0
DIMENSION
  5
1CBE
  8
2
  2
*D4
 10
108.7504076792054
 20
39.143193742497772
 30
0.0
 11
106.8754076792053
 21
54.143193742497793
 31
0.0
 70
     0
 13
108.7504076792054
 23
69.143193742497772
 33
0.0
 14
92.462481561315414
 24
39.143193742497772
 34
0.0
 50
90.0
  0
DIMENSION
  5
1CCD
  8
2
  2
*D5
 10
108.7504076792054
 20
22.143193742497768
 30
0.0
 11
106.8754076792054
 21
30.643193742497779
 31
0.0
 70
     0
 13
108.7504076792054
 23
39.143193742497751
 33
0.0
 14
92.480316561315206
 24
22.143193742497768
 34
0.0
 50
90.0
  0
DIMENSION
  5
1CDA
  8
2
  2
*D6
 10
115.8160581091804
 20
22.143193742497751
 30
0.0
 11
113.9410581091804
 21
77.143193742497786
 31
0.0
 70
     0
  1
(<>)
 13
108.7504076792054
 23
132.14319374249769
 33
0.0
 14
108.7504076792054
 24
22.143193742497751
 34
0.0
 50
90.0
  0
DIMENSION
  5
1CE8
  8
2
  2
*D7
 10
115.8160581091804
 20
22.143193742497751
 30
0.0
 11
113.9410581091804
 21
17.343193742497778
 31
0.0
 70
     0
 13
89.521192357854517
 23
12.54319374249777
 33
0.0
 14
115.8160581091804
 24
22.143193742497751
 34
0.0
 50
90.0
  0
DIMENSION
  5
1CF5
  8
2
  2
*D8
 10
123.07640068003261
 20
12.54319374249776
 30
0.0
 11
121.20140068003261
 21
72.343193742497775
 31
0.0
 70
     0
  1
(<>)
 13
115.8160581091804
 23
132.14319374249769
 33
0.0
 14
115.8160581091804
 24
12.54319374249776
 34
0.0
 50
90.0
  0
DIMENSION
  5
1D03
  8
2
  2
*D9
 10
108.7562661776378
 20
15.643193742497759
 30
0.0
 11
108.7562661776378
 21
4.834860409164448
 31
0.0
 70
   128
 13
90.146192357854517
 23
12.54319374249777
 33
0.0
 14
90.630381561315431
 24
15.64319374249777
 34
0.0
 50
90.0
  0
DIMENSION
  5
1D1E
  8
2
  2
*D10
 10
90.630381561315431
 20
1.3214295522835471
 30
0.0
 11
83.630381561315417
 21
3.1964295522835471
 31
0.0
 70
     0
  1
%%c<>
 13
76.630381561315431
 23
13.24946525379919
 33
0.0
 14
90.630381561315431
 24
13.24946525379919
 34
0.0
  0
DIMENSION
  5
1D4A
  8
2
  2
*D11
 10
63.310645619235508
 20
29.143193742497068
 30
0.0
 11
61.435645619235501
 21
34.143193742497097
 31
0.0
 70
     0
 13
78.569381561315438
 23
39.143193742497111
 33
0.0
 14
84.630381561315446
 24
29.143193742497068
 34
0.0
 50
90.0
  0
DIMENSION
  5
1D57
  8
2
  2
*D12
 10
63.310645619235522
 20
39.143193742497111
 30
0.0
 11
61.435645619235508
 21
54.143193742497459
 31
0.0
 70
     0
 13
78.569381561315438
 23
69.1431937424978
 33
0.0
 14
78.569381561315438
 24
39.143193742497111
 34
0.0
 50
90.0
  0
DIMENSION
  5
1D68
  8
2
  2
*D13
 10
32.844243724303809
 20
18.033741456134091
 30
0.0
 11
26.844243724303819
 21
19.908741456134091
 31
0.0
 70
     0
 13
20.84424372430383
 23
27.455693742497498
 33
0.0
 14
32.844243724303809
 24
24.747793742497421
 34
0.0
  0
DIMENSION
  5
1D75
  8
2
  2
*D14
 10
36.844243724303851
 20
11.219021160104679
 30
0.0
 11
28.844243724303841
 21
13.094021160104679
 31
0.0
 70
     0
 13
20.84424372430383
 23
18.033741456134091
 33
0.0
 14
36.844243724303851
 24
29.143193742497338
 34
0.0
  0
TEXT
  5
1D87
  8
1
 10
58.214751017652013
 20
141.8947403962203
 30
0.0
 40
2.5
  1
M5x0.8
  0
TEXT
  5
1D88
  8
1
 10
58.214751017652013
 20
136.01383841876159
 30
0.0
 40
2.5
  1
H12
  0
TEXT
  5
1D89
  8
1
 10
58.214751017652013
 20
124.943906028283
 30
0.0
 40
2.5
  1
M14x1
  0
TEXT
  5
1D8A
  8
1
 10
58.214751017652013
 20
114.9117795259386
 30
0.0
 40
2.5
  1
H19
  0
TEXT
  5
1D8D
  8
1
 10
58.561156876473781
 20
18.751147338332679
 30
0.0
 40
2.5
  1
M5x0.8
  0
TEXT
  5
1D8F
  8
1
 10
58.031316486218891
 20
75.176546010623198
 30
0.0
 40
2.5
  1
H17
  0
POLYLINE
  8
2
  5
2004
  66
     1
 10
0.000000
 20
0.000000
 30
0.000000
  70
     8
  0
VERTEX
  8
2
  5
2005
 10
81.1304
 20
129.301
 30
0.000000
  70
    32
  0
VERTEX
  8
2
  5
2006
 10
70.6847
 20
141.518
 30
0.000000
  70
    32
  0
VERTEX
  8
2
  5
2007
 10
56.8739
 20
141.518
 30
0.000000
  70
    32
  0
SEQEND
  8
2
  5
2008
  0
POLYLINE
  8
2
  5
2009
  66
     1
 10
0.000000
 20
0.000000
 30
0.000000
  70
     8
  0
VERTEX
  8
2
  5
200A
 10
76.6304
 20
129.643
 30
0.000000
  70
    32
  0
VERTEX
  8
2
  5
200B
 10
64.6287
 20
135.470
 30
0.000000
  70
    32
  0
VERTEX
  8
2
  5
200C
 10
57.3909
 20
135.470
 30
0.000000
  70
    32
  0
SEQEND
  8
2
  5
200D
  0
POLYLINE
  8
2
  5
200E
  66
     1
 10
0.000000
 20
0.000000
 30
0.000000
  70
     8
  0
VERTEX
  8
2
  5
200F
 10
76.6304
 20
119.970
 30
0.000000
  70
    32
  0
VERTEX
  8
2
  5
2010
 10
68.6168
 20
124.600
 30
0.000000
  70
    32
  0
VERTEX
  8
2
  5
2011
 10
56.9478
 20
124.600
 30
0.000000
  70
    32
  0
SEQEND
  8
2
  5
2012
  0
POLYLINE
  8
2
  5
2013
  66
     1
 10
0.000000
 20
0.000000
 30
0.000000
  70
     8
  0
VERTEX
  8
2
  5
2014
 10
72.6304
 20
110.355
 30
0.000000
  70
    32
  0
VERTEX
  8
2
  5
2015
 10
64.6287
 20
114.496
 30
0.000000
  70
    32
  0
VERTEX
  8
2
  5
2016
 10
57.4648
 20
114.496
 30
0.000000
  70
    32
  0
SEQEND
  8
2
  5
2017
  0
POLYLINE
  8
2
  5
2018
  66
     1
 10
0.000000
 20
0.000000
 30
0.000000
  70
     8
  0
VERTEX
  8
2
  5
2019
 10
76.7325
 20
26.6432
 30
0.000000
  70
    32
  0
VERTEX
  8
2
  5
201A
 10
71.2449
 20
17.9663
 30
0.000000
  70
    32
  0
VERTEX
  8
2
  5
201B
 10
57.1204
 20
17.9663
 30
0.000000
  70
    32
  0
SEQEND
  8
2
  5
201C
  0
POLYLINE
  8
2
  5
201D
  66
     1
 10
0.000000
 20
0.000000
 30
0.000000
  70
     8
  0
VERTEX
  8
2
  5
201E
 10
77.3165
 20
39.1432
 30
0.000000
  70
    32
  0
VERTEX
  8
2
  5
201F
 10
64.4445
 20
74.7114
 30
0.000000
  70
    32
  0
VERTEX
  8
2
  5
2020
 10
56.8433
 20
74.7114
 30
0.000000
  70
    32
  0
SEQEND
  8
2
  5
2021
  0
LINE
  5
1F72
  8
0
 10
78.081978303469398
 20
99.441179754695398
 30
0.0
 11
79.269281561315438
 21
98.895493742497735
 31
0.0
  0
LINE
  5
1F73
  8
0
 10
78.546274663001697
 20
100.3252881991752
 30
0.0
 11
79.269281561315438
 21
99.895493742497763
 31
0.0
  0
CIRCLE
  5
1F74
  8
0
 10
78.290781561315441
 20
99.895493742497763
 30
0.0
 40
0.5
  0
LINE
  5
1F7E
  8
0
 10
78.081978303469398
 20
96.441179754695412
 30
0.0
 11
79.269281561315438
 21
95.895493742497749
 31
0.0
  0
LINE
  5
1F7F
  8
0
 10
78.546274663001697
 20
97.325288199175276
 30
0.0
 11
79.269281561315438
 21
96.895493742497749
 31
0.0
  0
CIRCLE
  5
1F80
  8
0
 10
78.290781561315441
 20
96.895493742497749
 30
0.0
 40
0.5
  0
LINE
  5
1F90
  8
0
 10
78.081978303469398
 20
90.441179754695384
 30
0.0
 11
79.269281561315438
 21
89.895493742497735
 31
0.0
  0
CIRCLE
  5
1F91
  8
0
 10
78.290781561315441
 20
90.895493742497749
 30
0.0
 40
0.5
  0
LINE
  5
1F92
  8
0
 10
78.546274663001697
 20
91.325288199175276
 30
0.0
 11
79.269281561315438
 21
90.895493742497749
 31
0.0
  0
CIRCLE
  5
1F93
  8
0
 10
78.290781561315441
 20
93.895493742497735
 30
0.0
 40
0.5
  0
LINE
  5
1F94
  8
0
 10
78.546274663001697
 20
94.325288199175276
 30
0.0
 11
79.269281561315438
 21
93.895493742497735
 31
0.0
  0
LINE
  5
1F95
  8
0
 10
78.081978303469398
 20
93.441179754695398
 30
0.0
 11
79.269281561315438
 21
92.895493742497749
 31
0.0
  0
LINE
  5
1FA4
  8
0
 10
78.081978303469398
 20
84.441179754695398
 30
0.0
 11
79.269281561315438
 21
83.895493742497735
 31
0.0
  0
CIRCLE
  5
1FA5
  8
0
 10
78.290781561315441
 20
84.895493742497735
 30
0.0
 40
0.5
  0
LINE
  5
1FA6
  8
0
 10
78.546274663001697
 20
85.325288199175276
 30
0.0
 11
79.269281561315438
 21
84.895493742497735
 31
0.0
  0
CIRCLE
  5
1FA7
  8
0
 10
78.290781561315441
 20
87.895493742497749
 30
0.0
 40
0.5
  0
LINE
  5
1FA8
  8
0
 10
78.546274663001697
 20
88.325288199175276
 30
0.0
 11
79.269281561315438
 21
87.895493742497749
 31
0.0
  0
LINE
  5
1FA9
  8
0
 10
78.081978303469398
 20
87.441179754695398
 30
0.0
 11
79.269281561315438
 21
86.895493742497749
 31
0.0
  0
LINE
  5
1FB8
  8
0
 10
78.081978303469398
 20
78.441179754695398
 30
0.0
 11
79.269281561315438
 21
77.895493742497749
 31
0.0
  0
CIRCLE
  5
1FB9
  8
0
 10
78.290781561315441
 20
78.895493742497735
 30
0.0
 40
0.5
  0
LINE
  5
1FBA
  8
0
 10
78.546274663001697
 20
79.325288199175276
 30
0.0
 11
79.269281561315438
 21
78.895493742497735
 31
0.0
  0
CIRCLE
  5
1FBB
  8
0
 10
78.290781561315441
 20
81.895493742497749
 30
0.0
 40
0.5
  0
LINE
  5
1FBC
  8
0
 10
78.546274663001697
 20
82.325288199175276
 30
0.0
 11
79.269281561315438
 21
81.895493742497749
 31
0.0
  0
LINE
  5
1FBD
  8
0
 10
78.081978303469398
 20
81.441179754695384
 30
0.0
 11
79.269281561315438
 21
80.895493742497749
 31
0.0
  0
ENDSEC
  0
EOF
