  0
SECTION
  2
HEADER
  9
$ACADVER
  1
AC1009
  9
$INSBASE
 10
0.0
 20
0.0
 30
0.0
  9
$EXTMIN
 10
56.042663068799968
 20
31.27734993396631
 30
0.0
  9
$EXTMAX
 10
98.067373456895254
 20
70.879230416159444
 30
3.3452274754999989
  9
$LIMMIN
 10
0.0
 20
0.0
  9
$LIMMAX
 10
420.0
 20
297.0
  9
$ORTHOMODE
 70
     0
  9
$REGENMODE
 70
     1
  9
$FILLMODE
 70
     1
  9
$QTEXTMODE
 70
     0
  9
$MIRRTEXT
 70
     1
  9
$DRAGMODE
 70
     2
  9
$LTSCALE
 40
0.3
  9
$OSMODE
 70
    37
  9
$ATTMODE
 70
     1
  9
$TEXTSIZE
 40
2.5
  9
$TRACEWID
 40
1.0
  9
$TEXTSTYLE
  7
STANDARD
  9
$CLAYER
  8
2
  9
$CELTYPE
  6
BYLAYER
  9
$CECOLOR
 62
   256
  9
$DIMSCALE
 40
1.0
  9
$DIMASZ
 40
2.5
  9
$DIMEXO
 40
0.625
  9
$DIMDLI
 40
3.75
  9
$DIMRND
 40
0.0
  9
$DIMDLE
 40
0.0
  9
$DIMEXE
 40
1.25
  9
$DIMTP
 40
0.0
  9
$DIMTM
 40
0.0
  9
$DIMTXT
 40
2.5
  9
$DIMCEN
 40
2.5
  9
$DIMTSZ
 40
0.0
  9
$DIMTOL
 70
     0
  9
$DIMLIM
 70
     0
  9
$DIMTIH
 70
     0
  9
$DIMTOH
 70
     0
  9
$DIMSE1
 70
     0
  9
$DIMSE2
 70
     0
  9
$DIMTAD
 70
     1
  9
$DIMZIN
 70
     8
  9
$DIMBLK
  1

  9
$DIMASO
 70
     1
  9
$DIMSHO
 70
     1
  9
$DIMPOST
  1

  9
$DIMAPOST
  1

  9
$DIMALT
 70
     0
  9
$DIMALTD
 70
     3
  9
$DIMALTF
 40
0.03937007874016
  9
$DIMLFAC
 40
1.0
  9
$DIMTOFL
 70
     1
  9
$DIMTVP
 40
0.0
  9
$DIMTIX
 70
     0
  9
$DIMSOXD
 70
     0
  9
$DIMSAH
 70
     0
  9
$DIMBLK1
  1

  9
$DIMBLK2
  1

  9
$DIMSTYLE
  2
ISO-25
  9
$DIMCLRD
 70
     0
  9
$DIMCLRE
 70
     0
  9
$DIMCLRT
 70
     0
  9
$DIMTFAC
 40
1.0
  9
$DIMGAP
 40
0.625
  9
$LUNITS
 70
     2
  9
$LUPREC
 70
     4
  9
$SKETCHINC
 40
1.0
  9
$FILLETRAD
 40
10.0
  9
$AUNITS
 70
     0
  9
$AUPREC
 70
     0
  9
$MENU
  1
.
  9
$ELEVATION
 40
0.0
  9
$PELEVATION
 40
0.0
  9
$THICKNESS
 40
0.0
  9
$LIMCHECK
 70
     0
  9
$BLIPMODE
 70
     0
  9
$CHAMFERA
 40
10.0
  9
$CHAMFERB
 40
10.0
  9
$SKPOLY
 70
     0
  9
$TDCREATE
 40
2453434.5447467938
  9
$TDUPDATE
 40
2453551.897836145
  9
$TDINDWG
 40
0.0295421412
  9
$TDUSRTIMER
 40
0.0295421412
  9
$USRTIMER
 70
     1
  9
$ANGBASE
 50
0.0
  9
$ANGDIR
 70
     0
  9
$PDMODE
 70
     0
  9
$PDSIZE
 40
0.0
  9
$PLINEWID
 40
0.0
  9
$COORDS
 70
     1
  9
$SPLFRAME
 70
     0
  9
$SPLINETYPE
 70
     6
  9
$SPLINESEGS
 70
     8
  9
$ATTDIA
 70
     0
  9
$ATTREQ
 70
     1
  9
$HANDLING
 70
-16383
  9
$HANDSEED
  5
61A
  9
$SURFTAB1
 70
     6
  9
$SURFTAB2
 70
     6
  9
$SURFTYPE
 70
     6
  9
$SURFU
 70
     6
  9
$SURFV
 70
     6
  9
$UCSNAME
  2

  9
$UCSORG
 10
0.0
 20
0.0
 30
0.0
  9
$UCSXDIR
 10
1.0
 20
0.0
 30
0.0
  9
$UCSYDIR
 10
0.0
 20
1.0
 30
0.0
  9
$PUCSNAME
  2

  9
$PUCSORG
 10
0.0
 20
0.0
 30
0.0
  9
$PUCSXDIR
 10
1.0
 20
0.0
 30
0.0
  9
$PUCSYDIR
 10
0.0
 20
1.0
 30
0.0
  9
$USERI1
 70
     0
  9
$USERI2
 70
     0
  9
$USERI3
 70
     0
  9
$USERI4
 70
     0
  9
$USERI5
 70
     0
  9
$USERR1
 40
0.0
  9
$USERR2
 40
0.0
  9
$USERR3
 40
0.0
  9
$USERR4
 40
0.0
  9
$USERR5
 40
0.0
  9
$WORLDVIEW
 70
     1
  9
$SHADEDGE
 70
     3
  9
$SHADEDIF
 70
    70
  9
$TILEMODE
 70
     1
  9
$MAXACTVP
 70
    64
  9
$PLIMCHECK
 70
     0
  9
$PEXTMIN
 10
1.0000000000000000E+020
 20
1.0000000000000000E+020
 30
1.0000000000000000E+020
  9
$PEXTMAX
 10
-1.0000000000000000E+020
 20
-1.0000000000000000E+020
 30
-1.0000000000000000E+020
  9
$PLIMMIN
 10
0.0
 20
0.0
  9
$PLIMMAX
 10
420.0
 20
297.0
  9
$UNITMODE
 70
     0
  9
$VISRETAIN
 70
     1
  9
$PLINEGEN
 70
     0
  9
$PSLTSCALE
 70
     1
  0
ENDSEC
  0
SECTION
  2
TABLES
  0
TABLE
  2
VPORT
 70
     2
  0
VPORT
  2
*ACTIVE
 70
     0
 10
0.0
 20
0.0
 11
1.0
 21
1.0
 12
74.782474702757881
 22
50.568867581235089
 13
0.0
 23
0.0
 14
10.0
 24
10.0
 15
10.0
 25
10.0
 16
0.0
 26
0.0
 36
1.0
 17
0.0
 27
0.0
 37
0.0
 40
61.994234539652233
 41
2.5392405063291141
 42
50.0
 43
0.0
 44
0.0
 50
0.0
 51
0.0
 71
     0
 72
   100
 73
     1
 74
     3
 75
     0
 76
     0
 77
     0
 78
     0
  0
ENDTAB
  0
TABLE
  2
LTYPE
 70
     2
  0
LTYPE
  2
CONTINUOUS
 70
     0
  3
Solid line
 72
    65
 73
     0
 40
0.0
  0
LTYPE
  2
CENTER
 70
     0
  3
Center ____ _ ____ _ ____ _ ____ _ ____ _ ____
 72
    65
 73
     4
 40
50.799999999999997
 49
31.75
 49
-6.3499999999999988
 49
6.3499999999999988
 49
-6.3499999999999988
  0
ENDTAB
  0
TABLE
  2
LAYER
 70
     4
  0
LAYER
  2
0
 70
     0
 62
     7
  6
CONTINUOUS
  0
LAYER
  2
1
 70
     0
 62
     7
  6
CENTER
  0
LAYER
  2
DEFPOINTS
 70
     0
 62
     7
  6
CONTINUOUS
  0
LAYER
  2
2
 70
     0
 62
     7
  6
CONTINUOUS
  0
ENDTAB
  0
TABLE
  2
STYLE
 70
     3
  0
STYLE
  2
STANDARD
 70
     0
 40
0.0
 41
1.0
 50
0.0
 71
     0
 42
2.5
  3
txt
  4

  0
STYLE
  2
\U+00C9L\U+00C9R_\U+00C2S\U+00C2V\U+00C2B\U+00C2N
 70
     0
 40
1.0
 41
1.0
 50
0.0
 71
     0
 42
1.0
  3
\U+00E9l\U+00E9r \U+00E2S\U+00E2V\U+00E2b\U+00E2N
  4

  0
STYLE
  2

 70
     1
 40
0.0
 41
1.0
 50
0.0
 71
     0
 42
2.5
  3
ltypeshp.shx
  4

  0
ENDTAB
  0
TABLE
  2
VIEW
 70
     0
  0
ENDTAB
  0
TABLE
  2
UCS
 70
     0
  0
ENDTAB
  0
TABLE
  2
APPID
 70
     1
  0
APPID
  2
ACAD
 70
     0
  0
ENDTAB
  0
TABLE
  2
DIMSTYLE
 70
     2
  0
DIMSTYLE
  2
ISO-25
 70
     0
  3

  4

  5

  6

  7

 40
1.0
 41
2.5
 42
0.625
 43
3.75
 44
1.25
 45
0.0
 46
0.0
 47
0.0
 48
0.0
140
2.5
141
2.5
142
0.0
143
0.03937007874016
144
1.0
145
0.0
146
1.0
147
0.625
 71
     0
 72
     0
 73
     0
 74
     0
 75
     0
 76
     0
 77
     1
 78
     8
170
     0
171
     3
172
     1
173
     0
174
     0
175
     0
176
     0
177
     0
178
     0
  0
DIMSTYLE
  2
STANDARD
 70
     0
  3

  4

  5

  6

  7

 40
1.0
 41
0.18
 42
0.0625
 43
0.38
 44
0.18
 45
0.0
 46
0.0
 47
0.0
 48
0.0
140
0.18
141
0.09
142
0.0
143
25.399999999999999
144
1.0
145
0.0
146
1.0
147
0.09
 71
     0
 72
     0
 73
     1
 74
     1
 75
     0
 76
     0
 77
     0
 78
     0
170
     0
171
     2
172
     0
173
     0
174
     0
175
     0
176
     0
177
     0
178
     0
  0
ENDTAB
  0
ENDSEC
  0
SECTION
  2
BLOCKS
  0
BLOCK
  8
0
  2
$MODEL_SPACE
 70
     0
 10
0.0
 20
0.0
 30
0.0
  3
$MODEL_SPACE
  1

  0
ENDBLK
  5
21
  8
0
  0
BLOCK
 67
     1
  8
0
  2
$PAPER_SPACE
 70
     0
 10
0.0
 20
0.0
 30
0.0
  3
$PAPER_SPACE
  1

  0
ENDBLK
  5
1D
 67
     1
  8
0
  0
BLOCK
  8
0
  2
*D1
 70
     1
 10
0.0
 20
0.0
 30
0.0
  3
*D1
  1

  0
LINE
  5
5D3
  8
2
 62
     0
 10
72.272161177415896
 20
59.393800409267179
 30
0.0
 11
72.272161177415896
 21
65.116317284365934
 31
0.0
  0
LINE
  5
5D4
  8
2
 62
     0
 10
74.672161177415902
 20
59.393800409267179
 30
0.0
 11
74.672161177415902
 21
65.116317284365934
 31
0.0
  0
LINE
  5
5D5
  8
2
 62
     0
 10
69.772161177415896
 20
63.866317284365941
 30
0.0
 11
67.272161177415896
 21
63.866317284365941
 31
0.0
  0
LINE
  5
5D6
  8
2
 62
     0
 10
77.172161177415902
 20
63.866317284365941
 30
0.0
 11
88.422161177415916
 21
63.866317284365941
 31
0.0
  0
LINE
  5
5D7
  8
2
 62
     0
 10
72.272161177415896
 20
63.866317284365941
 30
0.0
 11
74.672161177415902
 21
63.866317284365941
 31
0.0
  0
SOLID
  5
5D8
  8
2
 62
     0
 10
69.772161177415896
 20
64.282983951032605
 30
0.0
 11
69.772161177415896
 21
63.44965061769927
 31
0.0
 12
72.272161177415896
 22
63.866317284365941
 32
0.0
 13
72.272161177415896
 23
63.866317284365941
 33
0.0
  0
SOLID
  5
5D9
  8
2
 62
     0
 10
77.172161177415902
 20
64.282983951032605
 30
0.0
 11
77.172161177415902
 21
63.44965061769927
 31
0.0
 12
74.672161177415902
 22
63.866317284365941
 32
0.0
 13
74.672161177415902
 23
63.866317284365941
 33
0.0
  0
INSERT
  5
5DA
  8
2
  2
*U7
 10
0.0
 20
0.0
 30
0.0
  0
POINT
  5
5DB
  8
DEFPOINTS
 62
     0
 10
72.272161177415896
 20
58.768800409267179
 30
0.0
  0
POINT
  5
5DC
  8
DEFPOINTS
 62
     0
 10
74.672161177415902
 20
58.768800409267179
 30
0.0
  0
POINT
  5
5DD
  8
DEFPOINTS
 62
     0
 10
74.672161177415902
 20
63.866317284365941
 30
0.0
  0
ENDBLK
  5
591
  8
0
  0
BLOCK
  8
0
  2
*D2
 70
     1
 10
0.0
 20
0.0
 30
0.0
  3
*D2
  1

  0
LINE
  5
5C9
  8
2
 62
     0
 10
69.722161177415899
 20
58.927408794632967
 30
0.0
 11
69.722161177415899
 21
69.004230416159444
 31
0.0
  0
LINE
  5
5CA
  8
2
 62
     0
 10
77.222161177415899
 20
58.927408794632967
 30
0.0
 11
77.222161177415899
 21
69.004230416159444
 31
0.0
  0
LINE
  5
5CB
  8
2
 62
     0
 10
72.222161177415899
 20
67.754230416159444
 30
0.0
 11
74.722161177415899
 21
67.754230416159444
 31
0.0
  0
LINE
  5
5CC
  8
2
 62
     0
 10
77.222161177415899
 20
67.754230416159444
 30
0.0
 11
88.472161177415899
 21
67.754230416159444
 31
0.0
  0
SOLID
  5
5CD
  8
2
 62
     0
 10
72.222161177415899
 20
68.170897082826116
 30
0.0
 11
72.222161177415899
 21
67.337563749492773
 31
0.0
 12
69.722161177415899
 22
67.754230416159444
 32
0.0
 13
69.722161177415899
 23
67.754230416159444
 33
0.0
  0
SOLID
  5
5CE
  8
2
 62
     0
 10
74.722161177415899
 20
68.170897082826116
 30
0.0
 11
74.722161177415899
 21
67.337563749492773
 31
0.0
 12
77.222161177415899
 22
67.754230416159444
 32
0.0
 13
77.222161177415899
 23
67.754230416159444
 33
0.0
  0
INSERT
  5
5CF
  8
2
  2
*U6
 10
0.0
 20
0.0
 30
0.0
  0
POINT
  5
5D0
  8
DEFPOINTS
 62
     0
 10
69.722161177415899
 20
58.302408794632967
 30
0.0
  0
POINT
  5
5D1
  8
DEFPOINTS
 62
     0
 10
77.222161177415899
 20
58.302408794632967
 30
0.0
  0
POINT
  5
5D2
  8
DEFPOINTS
 62
     0
 10
77.222161177415899
 20
67.754230416159444
 30
0.0
  0
ENDBLK
  5
59E
  8
0
  0
BLOCK
  8
0
  2
*D3
 70
     1
 10
0.0
 20
0.0
 30
0.0
  3
*D3
  1

  0
LINE
  5
5A1
  8
2
 62
     0
 10
65.359886247335069
 20
52.268800409267193
 30
0.0
 11
57.917663068799982
 21
52.268800409267193
 31
0.0
  0
LINE
  5
5A2
  8
2
 62
     0
 10
71.251323918780571
 20
53.36880040926718
 30
0.0
 11
57.917663068799982
 21
53.36880040926718
 31
0.0
  0
LINE
  5
5A3
  8
2
 62
     0
 10
59.167663068799982
 20
49.768800409267193
 30
0.0
 11
59.167663068799968
 21
47.268800409267179
 31
0.0
  0
LINE
  5
5A4
  8
2
 62
     0
 10
59.167663068799982
 20
55.86880040926718
 30
0.0
 11
59.167663068799982
 21
62.952133742600523
 31
0.0
  0
LINE
  5
5A5
  8
2
 62
     0
 10
59.167663068799982
 20
52.268800409267193
 30
0.0
 11
59.167663068799982
 21
53.36880040926718
 31
0.0
  0
SOLID
  5
5A6
  8
2
 62
     0
 10
58.75099640213331
 20
49.768800409267193
 30
0.0
 11
59.584329735466639
 21
49.768800409267193
 31
0.0
 12
59.167663068799982
 22
52.268800409267193
 32
0.0
 13
59.167663068799982
 23
52.268800409267193
 33
0.0
  0
SOLID
  5
5A7
  8
2
 62
     0
 10
58.75099640213331
 20
55.86880040926718
 30
0.0
 11
59.584329735466639
 21
55.86880040926718
 31
0.0
 12
59.167663068799982
 22
53.36880040926718
 32
0.0
 13
59.167663068799982
 23
53.36880040926718
 33
0.0
  0
TEXT
  5
5A8
  8
2
 62
     0
 10
58.542663068799968
 20
58.993800409267202
 30
0.0
 40
2.5
  1
1.1
 50
90.0
  0
POINT
  5
5A9
  8
DEFPOINTS
 62
     0
 10
65.984886247335069
 20
52.268800409267193
 30
0.0
  0
POINT
  5
5AA
  8
DEFPOINTS
 62
     0
 10
71.876323918780571
 20
53.36880040926718
 30
0.0
  0
POINT
  5
5AB
  8
DEFPOINTS
 62
     0
 10
59.167663068799982
 20
53.36880040926718
 30
0.0
  0
ENDBLK
  5
5AD
  8
0
  0
BLOCK
  8
0
  2
*D4
 70
     1
 10
0.0
 20
0.0
 30
0.0
  3
*D4
  1

  0
LINE
  5
5F1
  8
2
 62
     0
 10
81.550448596416658
 20
52.268800409267193
 30
0.0
 11
87.918668828961984
 21
52.268800409267193
 31
0.0
  0
LINE
  5
5F2
  8
2
 62
     0
 10
77.273120142620101
 20
58.768800409267179
 30
0.0
 11
87.918668828961984
 21
58.768800409267172
 31
0.0
  0
LINE
  5
5F3
  8
2
 62
     0
 10
86.668668828961984
 20
54.768800409267193
 30
0.0
 11
86.668668828961984
 21
56.268800409267172
 31
0.0
  0
SOLID
  5
5F4
  8
2
 62
     0
 10
86.252002162295312
 20
54.768800409267193
 30
0.0
 11
87.085335495628655
 21
54.768800409267193
 31
0.0
 12
86.668668828961984
 22
52.268800409267193
 32
0.0
 13
86.668668828961984
 23
52.268800409267193
 33
0.0
  0
SOLID
  5
5F5
  8
2
 62
     0
 10
86.252002162295312
 20
56.268800409267172
 30
0.0
 11
87.085335495628655
 21
56.268800409267172
 31
0.0
 12
86.668668828961984
 22
58.768800409267172
 32
0.0
 13
86.668668828961984
 23
58.768800409267172
 33
0.0
  0
TEXT
  5
5F6
  8
2
 62
     0
 10
86.04366882896197
 20
53.018800409267193
 30
0.0
 40
2.5
  1
6.5
 50
90.0
  0
POINT
  5
5F7
  8
DEFPOINTS
 62
     0
 10
80.925448596416658
 20
52.268800409267193
 30
0.0
  0
POINT
  5
5F8
  8
DEFPOINTS
 62
     0
 10
76.648120142620101
 20
58.768800409267179
 30
0.0
  0
POINT
  5
5F9
  8
DEFPOINTS
 62
     0
 10
86.668668828961984
 20
58.768800409267172
 30
0.0
  0
ENDBLK
  5
5BA
  8
0
  0
BLOCK
  8
0
  2
*D5
 70
     1
 10
0.0
 20
0.0
 30
0.0
  3
*D5
  1

  0
LINE
  5
5DE
  8
2
 62
     0
 10
65.972161177415899
 20
51.844737072900678
 30
0.0
 11
65.972161177415899
 21
44.852625064401238
 31
0.0
  0
LINE
  5
5DF
  8
2
 62
     0
 10
80.972161177415899
 20
51.844737072900678
 30
0.0
 11
80.972161177415899
 21
44.852625064401238
 31
0.0
  0
LINE
  5
5E0
  8
2
 62
     0
 10
68.472161177415899
 20
46.102625064401238
 30
0.0
 11
78.472161177415899
 21
46.102625064401238
 31
0.0
  0
SOLID
  5
5E1
  8
2
 62
     0
 10
68.472161177415899
 20
46.519291731067902
 30
0.0
 11
68.472161177415899
 21
45.685958397734566
 31
0.0
 12
65.972161177415899
 22
46.102625064401238
 32
0.0
 13
65.972161177415899
 23
46.102625064401238
 33
0.0
  0
SOLID
  5
5E2
  8
2
 62
     0
 10
78.472161177415899
 20
46.519291731067902
 30
0.0
 11
78.472161177415899
 21
45.685958397734566
 31
0.0
 12
80.972161177415899
 22
46.102625064401238
 32
0.0
 13
80.972161177415899
 23
46.102625064401238
 33
0.0
  0
INSERT
  5
5E3
  8
2
  2
*U8
 10
0.0
 20
0.0
 30
0.0
  0
POINT
  5
5E4
  8
DEFPOINTS
 62
     0
 10
65.972161177415899
 20
52.469737072900678
 30
0.0
  0
POINT
  5
5E5
  8
DEFPOINTS
 62
     0
 10
80.972161177415899
 20
52.469737072900678
 30
0.0
  0
POINT
  5
5E6
  8
DEFPOINTS
 62
     0
 10
80.972161177415899
 20
46.102625064401238
 30
0.0
  0
ENDBLK
  5
5C7
  8
0
  0
BLOCK
  8
0
  2
*U6
 70
     1
 10
0.0
 20
0.0
 30
0.0
  3
*U6
  1

  0
TEXT
  5
60C
  8
2
 62
     0
 10
80.347161177415899
 20
68.379230416159444
 30
0.0
 40
2.5
  1
\U+2205
  0
TEXT
  5
60D
  8
2
 62
     0
 10
82.847161177415899
 20
68.379230416159444
 30
0.0
 40
2.5
  1
7.5
  0
ENDBLK
  5
60F
  8
0
  0
BLOCK
  8
0
  2
*U7
 70
     1
 10
0.0
 20
0.0
 30
0.0
  3
*U7
  1

  0
TEXT
  5
611
  8
2
 62
     0
 10
80.297161177415916
 20
64.491317284365934
 30
0.0
 40
2.5
  1
\U+2205
  0
TEXT
  5
612
  8
2
 62
     0
 10
82.797161177415916
 20
64.491317284365934
 30
0.0
 40
2.5
  1
2.4
  0
ENDBLK
  5
614
  8
0
  0
BLOCK
  8
0
  2
*U8
 70
     1
 10
0.0
 20
0.0
 30
0.0
  3
*U8
  1

  0
TEXT
  5
616
  8
2
 62
     0
 10
70.555494510749227
 20
46.727625064401238
 30
0.0
 40
2.5
  1
\U+2205
  0
TEXT
  5
617
  8
2
 62
     0
 10
73.055494510749227
 20
46.727625064401238
 30
0.0
 40
2.5
  1
15
  0
ENDBLK
  5
619
  8
0
  0
ENDSEC
  0
SECTION
  2
ENTITIES
  0
TEXT
  5
10C
  8
2
 10
62.750056878985099
 20
31.519249362537749
 30
0.0
 40
2.5399440000000002
  1
No. 104.015.072._
 51
-0.0000015352344868
  7
\U+00C9L\U+00C9R_\U+00C2S\U+00C2V\U+00C2B\U+00C2N
  0
LINE
  5
1E0
  8
0
 39
3.3452274754999989
 10
71.115916752772719
 20
55.626561336980522
 30
0.0
 11
73.472161177415899
 21
55.626561336980522
 31
0.0
  0
LINE
  5
1E2
  8
0
 39
3.3452274754999989
 10
73.472161177415899
 20
56.729683549301413
 30
0.0
 11
71.115916752772719
 21
56.729683549301413
 31
0.0
  0
LINE
  5
1E3
  8
0
 39
3.3452274754999989
 10
71.115916752772719
 20
56.729683549301413
 30
0.0
 11
71.115916752772719
 21
55.626561336980522
 31
0.0
  0
LINE
  5
1E4
  8
0
 39
3.3452274754999989
 10
71.115916752772719
 20
55.626561336980522
 30
0.0
 11
71.115916752772719
 21
55.626561336980522
 31
0.0
  0
LINE
  5
1E5
  8
0
 39
3.3452274754999989
 10
72.27216117741591
 20
53.630597911448703
 30
0.0
 11
73.472094272866386
 21
53.630597911448703
 31
0.0
  0
LINE
  5
1ED
  8
0
 39
3.3452274754999989
 10
71.429465750236034
 20
53.36880040926718
 30
0.0
 11
71.353829330830266
 21
53.637087652751163
 31
0.0
  0
LINE
  5
1EE
  8
0
 39
3.3452274754999989
 10
71.353829330830266
 20
53.637087652751163
 30
0.0
 11
71.066340481585783
 21
53.637087652751163
 31
0.0
  0
LINE
  5
1EF
  8
0
 39
3.3452274754999989
 10
71.066340481585783
 20
53.637087652751163
 30
0.0
 11
71.066340481585783
 21
53.381177750875423
 31
0.0
  0
LINE
  5
1F0
  8
0
 39
3.3452274754999989
 10
71.066340481585783
 20
53.381177750875423
 30
0.0
 11
66.593165714204986
 21
52.268800409267193
 31
0.0
  0
LINE
  5
1FB
  8
0
 39
3.3452274754999989
 10
73.472161177415899
 20
58.768800409267179
 30
0.0
 11
70.296202212211696
 21
58.768800409267179
 31
0.0
  0
LINE
  5
1FC
  8
0
 39
3.3452274754999989
 10
70.296202212211696
 20
58.768800409267179
 30
0.0
 11
70.296202212211696
 21
58.768800409267179
 31
0.0
  0
LINE
  5
1FD
  8
0
 39
3.3452274754999989
 10
70.296202212211696
 20
58.768800409267179
 30
0.0
 11
70.204676788482018
 21
58.765254468143162
 31
0.0
  0
LINE
  5
1FE
  8
0
 39
3.3452274754999989
 10
70.204676788482018
 20
58.765254468143162
 30
0.0
 11
70.124056806322471
 21
58.760638054226959
 31
0.0
  0
LINE
  5
1FF
  8
0
 39
3.3452274754999989
 10
70.124056806322471
 20
58.760638054226959
 30
0.0
 11
70.053338697490403
 21
58.754616644771069
 31
0.0
  0
LINE
  5
200
  8
0
 39
3.3452274754999989
 10
70.053338697490403
 20
58.754616644771069
 30
0.0
 11
69.991987225589725
 21
58.746521194280348
 31
0.0
  0
LINE
  5
201
  8
0
 39
3.3452274754999989
 10
69.991987225589725
 20
58.746521194280348
 30
0.0
 11
69.939132631476824
 21
58.736017180007281
 31
0.0
  0
LINE
  5
202
  8
0
 39
3.3452274754999989
 10
69.939132631476824
 20
58.736017180007281
 30
0.0
 11
69.894239678755611
 21
58.722368651907253
 31
0.0
  0
LINE
  5
203
  8
0
 39
3.3452274754999989
 10
69.894239678755611
 20
58.722368651907253
 30
0.0
 11
69.856505512831973
 21
58.705174182683173
 31
0.0
  0
LINE
  5
204
  8
0
 39
3.3452274754999989
 10
69.856505512831973
 20
58.705174182683173
 30
0.0
 11
69.825261088210809
 21
58.683764726839982
 31
0.0
  0
LINE
  5
205
  8
0
 39
3.3452274754999989
 10
69.825261088210809
 20
58.683764726839982
 30
0.0
 11
69.799636645748464
 21
58.657939570729113
 31
0.0
  0
LINE
  5
206
  8
0
 39
3.3452274754999989
 10
69.799636645748464
 20
58.657939570729113
 30
0.0
 11
69.779163853598419
 21
58.626762050657462
 31
0.0
  0
LINE
  5
207
  8
0
 39
3.3452274754999989
 10
69.779163853598419
 20
58.626762050657462
 30
0.0
 11
69.762972952616991
 21
58.589964548426963
 31
0.0
  0
LINE
  5
208
  8
0
 39
3.3452274754999989
 10
69.762972952616991
 20
58.589964548426963
 30
0.0
 11
69.750394897309107
 21
58.546944923092028
 31
0.0
  0
LINE
  5
209
  8
0
 39
3.3452274754999989
 10
69.750394897309107
 20
58.546944923092028
 30
0.0
 11
69.740626833080654
 21
58.497301747355607
 31
0.0
  0
LINE
  5
20A
  8
0
 39
3.3452274754999989
 10
69.740626833080654
 20
58.497301747355607
 30
0.0
 11
69.733200428085041
 21
58.440299071173087
 31
0.0
  0
LINE
  5
20B
  8
0
 39
3.3452274754999989
 10
69.733200428085041
 20
58.440299071173087
 30
0.0
 11
69.727245923178657
 21
58.375535467247403
 31
0.0
  0
LINE
  5
20C
  8
0
 39
3.3452274754999989
 10
69.727245923178657
 20
58.375535467247403
 30
0.0
 11
69.722161177415899
 21
58.302408794632967
 31
0.0
  0
LINE
  5
20D
  8
0
 39
3.3452274754999989
 10
69.722161177415899
 20
58.302408794632967
 30
0.0
 11
69.722161177415899
 21
54.358586314667001
 31
0.0
  0
LINE
  5
20E
  8
0
 39
3.3452274754999989
 10
69.722161177415899
 20
54.358586314667001
 30
0.0
 11
69.722161177415899
 21
54.358586314667001
 31
0.0
  0
LINE
  5
20F
  8
0
 39
3.3452274754999989
 10
69.722161177415899
 20
54.358586314667001
 30
0.0
 11
69.726576877683556
 21
54.325803085407102
 31
0.0
  0
LINE
  5
210
  8
0
 39
3.3452274754999989
 10
69.726576877683556
 20
54.325803085407102
 30
0.0
 11
69.728383300520335
 21
54.290945815112401
 31
0.0
  0
LINE
  5
211
  8
0
 39
3.3452274754999989
 10
69.728383300520335
 20
54.290945815112401
 30
0.0
 11
69.72731282772817
 21
54.254616644728458
 31
0.0
  0
LINE
  5
212
  8
0
 39
3.3452274754999989
 10
69.72731282772817
 20
54.254616644728458
 30
0.0
 11
69.723365459307075
 21
54.217283906101891
 31
0.0
  0
LINE
  5
213
  8
0
 39
3.3452274754999989
 10
69.723365459307075
 20
54.217283906101891
 30
0.0
 11
69.716139767959987
 21
54.179616644727751
 31
0.0
  0
LINE
  5
214
  8
0
 39
3.3452274754999989
 10
69.716139767959987
 20
54.179616644727751
 30
0.0
 11
69.70563575368692
 21
54.142016287903139
 31
0.0
  0
LINE
  5
215
  8
0
 39
3.3452274754999989
 10
69.70563575368692
 20
54.142016287903139
 30
0.0
 11
69.691652702839335
 21
54.105018072024109
 31
0.0
  0
LINE
  5
216
  8
0
 39
3.3452274754999989
 10
69.691652702839335
 20
54.105018072024109
 30
0.0
 11
69.674190615417217
 21
54.069157233486742
 31
0.0
  0
LINE
  5
217
  8
0
 39
3.3452274754999989
 10
69.674190615417217
 20
54.069157233486742
 30
0.0
 11
69.65271425502452
 21
54.035102817786147
 31
0.0
  0
LINE
  5
218
  8
0
 39
3.3452274754999989
 10
69.65271425502452
 20
54.035102817786147
 30
0.0
 11
69.62742433530974
 21
54.003122443120361
 31
0.0
  0
LINE
  5
219
  8
0
 39
3.3452274754999989
 10
69.62742433530974
 20
54.003122443120361
 30
0.0
 11
69.597986333525327
 21
53.973952059534007
 31
0.0
  0
LINE
  5
21A
  8
0
 39
3.3452274754999989
 10
69.597986333525327
 20
53.973952059534007
 30
0.0
 11
69.564400249671323
 21
53.947926189774613
 31
0.0
  0
LINE
  5
21B
  8
0
 39
3.3452274754999989
 10
69.564400249671323
 20
53.947926189774613
 30
0.0
 11
69.526264656450621
 21
53.92584768843632
 31
0.0
  0
LINE
  5
21C
  8
0
 39
3.3452274754999989
 10
69.526264656450621
 20
53.92584768843632
 30
0.0
 11
69.48364645841275
 21
53.907917269167648
 31
0.0
  0
LINE
  5
21D
  8
0
 39
3.3452274754999989
 10
69.48364645841275
 20
53.907917269167648
 30
0.0
 11
69.436278037359671
 21
53.8949377865627
 31
0.0
  0
LINE
  5
21E
  8
0
 39
3.3452274754999989
 10
69.436278037359671
 20
53.8949377865627
 30
0.0
 11
69.34910140938365
 21
53.887176858819537
 31
0.0
  0
LINE
  5
21F
  8
0
 39
3.3452274754999989
 10
69.34910140938365
 20
53.887176858819537
 30
0.0
 11
65.972161177415899
 21
52.469737072900678
 31
0.0
  0
LINE
  5
220
  8
0
 39
3.3452274754999989
 10
65.972161177415899
 20
52.469737072900678
 30
0.0
 11
65.984886247335069
 21
52.268800409267193
 31
0.0
  0
LINE
  5
3D8
  8
1
 10
73.472161177415899
 20
59.268800409267179
 30
0.0
 11
73.472161177415899
 21
51.768800409267179
 31
0.0
  0
LINE
  5
3FB
  8
0
 10
72.272161177415896
 20
58.768800409267179
 30
0.0
 11
72.272161177415896
 21
56.729683549301413
 31
0.0
  0
LINE
  5
3FC
  8
0
 10
72.272161177415896
 20
55.626561336980522
 30
0.0
 11
72.272161177415896
 21
53.630597911448703
 31
0.0
  0
LINE
  5
3FD
  8
0
 10
72.272161177415896
 20
53.630597911448703
 30
0.0
 11
71.876323918780571
 21
53.36880040926718
 31
0.0
  0
LINE
  5
41C
  8
0
 10
66.018873758415126
 20
52.268800409267193
 30
0.0
 11
73.472161177415899
 21
52.268800409267193
 31
0.0
  0
LINE
  5
449
  8
0
 10
71.876323918780571
 20
53.36880040926718
 30
0.0
 11
71.429465750236034
 21
53.36880040926718
 31
0.0
  0
LINE
  5
53C
  8
0
 39
3.3452274754999989
 10
80.972161177415899
 20
52.469737072900678
 30
0.0
 11
80.959436107496728
 21
52.268800409267193
 31
0.0
  0
LINE
  5
53D
  8
0
 39
3.3452274754999989
 10
77.595220945448148
 20
53.887176858819537
 30
0.0
 11
80.972161177415899
 21
52.469737072900678
 31
0.0
  0
LINE
  5
53E
  8
0
 39
3.3452274754999989
 10
77.508044317472127
 20
53.8949377865627
 30
0.0
 11
77.595220945448148
 21
53.887176858819537
 31
0.0
  0
LINE
  5
53F
  8
0
 39
3.3452274754999989
 10
77.460675896419048
 20
53.907917269167648
 30
0.0
 11
77.508044317472127
 21
53.8949377865627
 31
0.0
  0
LINE
  5
540
  8
0
 39
3.3452274754999989
 10
77.418057698381176
 20
53.92584768843632
 30
0.0
 11
77.460675896419048
 21
53.907917269167648
 31
0.0
  0
LINE
  5
541
  8
0
 39
3.3452274754999989
 10
77.379922105160475
 20
53.947926189774613
 30
0.0
 11
77.418057698381176
 21
53.92584768843632
 31
0.0
  0
LINE
  5
542
  8
0
 39
3.3452274754999989
 10
77.34633602130647
 20
53.973952059534007
 30
0.0
 11
77.379922105160475
 21
53.947926189774613
 31
0.0
  0
LINE
  5
543
  8
0
 39
3.3452274754999989
 10
77.316898019522057
 20
54.003122443120361
 30
0.0
 11
77.34633602130647
 21
53.973952059534007
 31
0.0
  0
LINE
  5
544
  8
0
 39
3.3452274754999989
 10
77.291608099807277
 20
54.035102817786147
 30
0.0
 11
77.316898019522057
 21
54.003122443120361
 31
0.0
  0
LINE
  5
545
  8
0
 39
3.3452274754999989
 10
77.27013173941458
 20
54.069157233486742
 30
0.0
 11
77.291608099807277
 21
54.035102817786147
 31
0.0
  0
LINE
  5
546
  8
0
 39
3.3452274754999989
 10
77.252669651992463
 20
54.105018072024109
 30
0.0
 11
77.27013173941458
 21
54.069157233486742
 31
0.0
  0
LINE
  5
547
  8
0
 39
3.3452274754999989
 10
77.238686601144863
 20
54.142016287903139
 30
0.0
 11
77.252669651992463
 21
54.105018072024109
 31
0.0
  0
LINE
  5
548
  8
0
 39
3.3452274754999989
 10
77.22818258687181
 20
54.179616644727751
 30
0.0
 11
77.238686601144863
 21
54.142016287903139
 31
0.0
  0
LINE
  5
549
  8
0
 39
3.3452274754999989
 10
77.220956895524722
 20
54.217283906101891
 30
0.0
 11
77.22818258687181
 21
54.179616644727751
 31
0.0
  0
LINE
  5
54A
  8
0
 39
3.3452274754999989
 10
77.217009527103627
 20
54.254616644728458
 30
0.0
 11
77.220956895524722
 21
54.217283906101891
 31
0.0
  0
LINE
  5
54B
  8
0
 39
3.3452274754999989
 10
77.215939054311463
 20
54.290945815112401
 30
0.0
 11
77.217009527103627
 21
54.254616644728458
 31
0.0
  0
LINE
  5
54C
  8
0
 39
3.3452274754999989
 10
77.217745477148242
 20
54.325803085407102
 30
0.0
 11
77.215939054311463
 21
54.290945815112401
 31
0.0
  0
LINE
  5
54D
  8
0
 39
3.3452274754999989
 10
77.222161177415899
 20
54.358586314667001
 30
0.0
 11
77.217745477148242
 21
54.325803085407102
 31
0.0
  0
LINE
  5
54E
  8
0
 39
3.3452274754999989
 10
77.222161177415899
 20
54.358586314667001
 30
0.0
 11
77.222161177415899
 21
54.358586314667001
 31
0.0
  0
LINE
  5
54F
  8
0
 39
3.3452274754999989
 10
77.222161177415899
 20
58.302408794632967
 30
0.0
 11
77.222161177415899
 21
54.358586314667001
 31
0.0
  0
LINE
  5
550
  8
0
 39
3.3452274754999989
 10
77.21707643165314
 20
58.375535467247403
 30
0.0
 11
77.222161177415899
 21
58.302408794632967
 31
0.0
  0
LINE
  5
551
  8
0
 39
3.3452274754999989
 10
77.211121926746756
 20
58.440299071173087
 30
0.0
 11
77.21707643165314
 21
58.375535467247403
 31
0.0
  0
LINE
  5
552
  8
0
 39
3.3452274754999989
 10
77.203695521751143
 20
58.497301747355607
 30
0.0
 11
77.211121926746756
 21
58.440299071173087
 31
0.0
  0
LINE
  5
553
  8
0
 39
3.3452274754999989
 10
77.19392745752269
 20
58.546944923092028
 30
0.0
 11
77.203695521751143
 21
58.497301747355607
 31
0.0
  0
LINE
  5
554
  8
0
 39
3.3452274754999989
 10
77.181349402214806
 20
58.589964548426963
 30
0.0
 11
77.19392745752269
 21
58.546944923092028
 31
0.0
  0
LINE
  5
555
  8
0
 39
3.3452274754999989
 10
77.165158501233378
 20
58.626762050657462
 30
0.0
 11
77.181349402214806
 21
58.589964548426963
 31
0.0
  0
LINE
  5
556
  8
0
 39
3.3452274754999989
 10
77.144685709083333
 20
58.657939570729113
 30
0.0
 11
77.165158501233378
 21
58.626762050657462
 31
0.0
  0
LINE
  5
557
  8
0
 39
3.3452274754999989
 10
77.119061266620989
 20
58.683764726839982
 30
0.0
 11
77.144685709083333
 21
58.657939570729113
 31
0.0
  0
LINE
  5
558
  8
0
 39
3.3452274754999989
 10
77.087816841999825
 20
58.705174182683173
 30
0.0
 11
77.119061266620989
 21
58.683764726839982
 31
0.0
  0
LINE
  5
559
  8
0
 39
3.3452274754999989
 10
77.050082676076187
 20
58.722368651907253
 30
0.0
 11
77.087816841999825
 21
58.705174182683173
 31
0.0
  0
LINE
  5
55A
  8
0
 39
3.3452274754999989
 10
77.005189723354974
 20
58.736017180007281
 30
0.0
 11
77.050082676076187
 21
58.722368651907253
 31
0.0
  0
LINE
  5
55B
  8
0
 39
3.3452274754999989
 10
76.952335129242073
 20
58.746521194280348
 30
0.0
 11
77.005189723354974
 21
58.736017180007281
 31
0.0
  0
LINE
  5
55C
  8
0
 39
3.3452274754999989
 10
76.890983657341394
 20
58.754616644771069
 30
0.0
 11
76.952335129242073
 21
58.746521194280348
 31
0.0
  0
LINE
  5
55D
  8
0
 39
3.3452274754999989
 10
76.820265548509326
 20
58.760638054226959
 30
0.0
 11
76.890983657341394
 21
58.754616644771069
 31
0.0
  0
LINE
  5
55E
  8
0
 39
3.3452274754999989
 10
76.739645566349765
 20
58.765254468143162
 30
0.0
 11
76.820265548509326
 21
58.760638054226959
 31
0.0
  0
LINE
  5
55F
  8
0
 39
3.3452274754999989
 10
76.648120142620101
 20
58.768800409267179
 30
0.0
 11
76.739645566349765
 21
58.765254468143162
 31
0.0
  0
LINE
  5
560
  8
0
 39
3.3452274754999989
 10
76.648120142620101
 20
58.768800409267179
 30
0.0
 11
76.648120142620101
 21
58.768800409267179
 31
0.0
  0
LINE
  5
561
  8
0
 39
3.3452274754999989
 10
73.472161177415899
 20
58.768800409267179
 30
0.0
 11
76.648120142620101
 21
58.768800409267179
 31
0.0
  0
LINE
  5
562
  8
0
 39
3.3452274754999989
 10
75.877981873246
 20
53.381177750875423
 30
0.0
 11
80.351156640626812
 21
52.268800409267193
 31
0.0
  0
LINE
  5
563
  8
0
 39
3.3452274754999989
 10
75.877981873246
 20
53.637087652751163
 30
0.0
 11
75.877981873246
 21
53.381177750875423
 31
0.0
  0
LINE
  5
564
  8
0
 39
3.3452274754999989
 10
75.590493024001532
 20
53.637087652751163
 30
0.0
 11
75.877981873246
 21
53.637087652751163
 31
0.0
  0
LINE
  5
565
  8
0
 39
3.3452274754999989
 10
75.514856604595764
 20
53.36880040926718
 30
0.0
 11
75.590493024001532
 21
53.637087652751163
 31
0.0
  0
LINE
  5
566
  8
0
 39
3.3452274754999989
 10
74.672161177415887
 20
53.630597911448703
 30
0.0
 11
73.472228081965412
 21
53.630597911448703
 31
0.0
  0
LINE
  5
567
  8
0
 39
3.3452274754999989
 10
75.828405602059078
 20
55.626561336980522
 30
0.0
 11
75.828405602059078
 21
55.626561336980522
 31
0.0
  0
LINE
  5
568
  8
0
 39
3.3452274754999989
 10
75.828405602059078
 20
56.729683549301413
 30
0.0
 11
75.828405602059078
 21
55.626561336980522
 31
0.0
  0
LINE
  5
569
  8
0
 39
3.3452274754999989
 10
73.472161177415899
 20
56.729683549301413
 30
0.0
 11
75.828405602059078
 21
56.729683549301413
 31
0.0
  0
LINE
  5
56A
  8
0
 39
3.3452274754999989
 10
75.828405602059078
 20
55.626561336980522
 30
0.0
 11
73.472161177415899
 21
55.626561336980522
 31
0.0
  0
LINE
  5
56B
  8
0
 10
80.925448596416658
 20
52.268800409267193
 30
0.0
 11
73.472161177415899
 21
52.268800409267193
 31
0.0
  0
LINE
  5
56C
  8
0
 10
75.067998436051226
 20
53.36880040926718
 30
0.0
 11
75.514856604595764
 21
53.36880040926718
 31
0.0
  0
LINE
  5
56D
  8
0
 10
74.672161177415902
 20
53.630597911448703
 30
0.0
 11
75.067998436051226
 21
53.36880040926718
 31
0.0
  0
LINE
  5
56E
  8
0
 10
74.672161177415902
 20
55.626561336980522
 30
0.0
 11
74.672161177415902
 21
53.630597911448703
 31
0.0
  0
LINE
  5
56F
  8
0
 10
74.672161177415902
 20
58.768800409267179
 30
0.0
 11
74.672161177415902
 21
56.729683549301413
 31
0.0
  0
DIMENSION
  5
583
  8
2
  2
*D1
 10
74.672161177415902
 20
63.866317284365941
 30
0.0
 11
84.047161177415916
 21
65.741317284365934
 31
0.0
 70
     0
  1
%%c<>
 13
72.272161177415896
 23
58.768800409267179
 33
0.0
 14
74.672161177415902
 24
58.768800409267179
 34
0.0
  0
DIMENSION
  5
592
  8
2
  2
*D2
 10
77.222161177415899
 20
67.754230416159444
 30
0.0
 11
84.097161177415899
 21
69.629230416159444
 31
0.0
 70
     0
  1
%%c<>
 13
69.722161177415899
 23
58.302408794632967
 33
0.0
 14
77.222161177415899
 24
58.302408794632967
 34
0.0
  0
DIMENSION
  5
59F
  8
2
  2
*D3
 10
59.167663068799982
 20
53.36880040926718
 30
0.0
 11
57.292663068799968
 21
60.660467075933859
 31
0.0
 70
     0
 13
65.984886247335069
 23
52.268800409267193
 33
0.0
 14
71.876323918780571
 24
53.36880040926718
 34
0.0
 50
90.0
  0
DIMENSION
  5
5AE
  8
2
  2
*D4
 10
86.668668828961984
 20
58.768800409267172
 30
0.0
 11
84.79366882896197
 21
55.518800409267193
 31
0.0
 70
     0
 13
80.925448596416658
 23
52.268800409267193
 33
0.0
 14
76.648120142620101
 24
58.768800409267179
 34
0.0
 50
90.0
1001
ACAD
1000
DSTYLE
1002
{
1070
   271
1070
     6
1002
}
  0
DIMENSION
  5
5BB
  8
2
  2
*D5
 10
80.972161177415899
 20
46.102625064401238
 30
0.0
 11
73.472161177415899
 21
47.977625064401238
 31
0.0
 70
     0
  1
%%c<>
 13
65.972161177415899
 23
52.469737072900678
 33
0.0
 14
80.972161177415899
 24
52.469737072900678
 34
0.0
  0
ENDSEC
  0
EOF
