  0
SECTION
  2
HEADER
  9
$ACADVER
  1
AC1009
  9
$INSBASE
 10
0.0
 20
0.0
 30
0.0
  9
$EXTMIN
 10
59.223671829858219
 20
29.40806453711005
 30
0.0
  9
$EXTMAX
 10
98.5752407658523
 20
67.077989267189452
 30
5.0
  9
$LIMMIN
 10
0.0
 20
0.0
  9
$LIMMAX
 10
420.0
 20
297.0
  9
$ORTHOMODE
 70
     0
  9
$REGENMODE
 70
     1
  9
$FILLMODE
 70
     1
  9
$QTEXTMODE
 70
     0
  9
$MIRRTEXT
 70
     1
  9
$DRAGMODE
 70
     2
  9
$LTSCALE
 40
0.3
  9
$OSMODE
 70
    37
  9
$ATTMODE
 70
     1
  9
$TEXTSIZE
 40
2.5
  9
$TRACEWID
 40
1.0
  9
$TEXTSTYLE
  7
STANDARD
  9
$CLAYER
  8
2
  9
$CELTYPE
  6
BYLAYER
  9
$CECOLOR
 62
   256
  9
$DIMSCALE
 40
1.0
  9
$DIMASZ
 40
2.5
  9
$DIMEXO
 40
0.625
  9
$DIMDLI
 40
3.75
  9
$DIMRND
 40
0.0
  9
$DIMDLE
 40
0.0
  9
$DIMEXE
 40
1.25
  9
$DIMTP
 40
0.0
  9
$DIMTM
 40
0.0
  9
$DIMTXT
 40
2.5
  9
$DIMCEN
 40
2.5
  9
$DIMTSZ
 40
0.0
  9
$DIMTOL
 70
     0
  9
$DIMLIM
 70
     0
  9
$DIMTIH
 70
     0
  9
$DIMTOH
 70
     0
  9
$DIMSE1
 70
     0
  9
$DIMSE2
 70
     0
  9
$DIMTAD
 70
     1
  9
$DIMZIN
 70
     8
  9
$DIMBLK
  1

  9
$DIMASO
 70
     1
  9
$DIMSHO
 70
     1
  9
$DIMPOST
  1

  9
$DIMAPOST
  1

  9
$DIMALT
 70
     0
  9
$DIMALTD
 70
     3
  9
$DIMALTF
 40
0.03937007874016
  9
$DIMLFAC
 40
1.0
  9
$DIMTOFL
 70
     1
  9
$DIMTVP
 40
0.0
  9
$DIMTIX
 70
     0
  9
$DIMSOXD
 70
     0
  9
$DIMSAH
 70
     0
  9
$DIMBLK1
  1

  9
$DIMBLK2
  1

  9
$DIMSTYLE
  2
ISO-25
  9
$DIMCLRD
 70
     0
  9
$DIMCLRE
 70
     0
  9
$DIMCLRT
 70
     0
  9
$DIMTFAC
 40
1.0
  9
$DIMGAP
 40
0.625
  9
$LUNITS
 70
     2
  9
$LUPREC
 70
     4
  9
$SKETCHINC
 40
1.0
  9
$FILLETRAD
 40
10.0
  9
$AUNITS
 70
     0
  9
$AUPREC
 70
     0
  9
$MENU
  1
.
  9
$ELEVATION
 40
0.0
  9
$PELEVATION
 40
0.0
  9
$THICKNESS
 40
0.0
  9
$LIMCHECK
 70
     0
  9
$BLIPMODE
 70
     0
  9
$CHAMFERA
 40
10.0
  9
$CHAMFERB
 40
10.0
  9
$SKPOLY
 70
     0
  9
$TDCREATE
 40
2453434.925953032
  9
$TDUPDATE
 40
2453551.8994448138
  9
$TDINDWG
 40
0.0311071065
  9
$TDUSRTIMER
 40
0.0311071065
  9
$USRTIMER
 70
     1
  9
$ANGBASE
 50
0.0
  9
$ANGDIR
 70
     0
  9
$PDMODE
 70
     0
  9
$PDSIZE
 40
0.0
  9
$PLINEWID
 40
0.0
  9
$COORDS
 70
     1
  9
$SPLFRAME
 70
     0
  9
$SPLINETYPE
 70
     6
  9
$SPLINESEGS
 70
     8
  9
$ATTDIA
 70
     0
  9
$ATTREQ
 70
     1
  9
$HANDLING
 70
-16383
  9
$HANDSEED
  5
4F2
  9
$SURFTAB1
 70
     6
  9
$SURFTAB2
 70
     6
  9
$SURFTYPE
 70
     6
  9
$SURFU
 70
     6
  9
$SURFV
 70
     6
  9
$UCSNAME
  2

  9
$UCSORG
 10
0.0
 20
0.0
 30
0.0
  9
$UCSXDIR
 10
1.0
 20
0.0
 30
0.0
  9
$UCSYDIR
 10
0.0
 20
1.0
 30
0.0
  9
$PUCSNAME
  2

  9
$PUCSORG
 10
0.0
 20
0.0
 30
0.0
  9
$PUCSXDIR
 10
1.0
 20
0.0
 30
0.0
  9
$PUCSYDIR
 10
0.0
 20
1.0
 30
0.0
  9
$USERI1
 70
     0
  9
$USERI2
 70
     0
  9
$USERI3
 70
     0
  9
$USERI4
 70
     0
  9
$USERI5
 70
     0
  9
$USERR1
 40
0.0
  9
$USERR2
 40
0.0
  9
$USERR3
 40
0.0
  9
$USERR4
 40
0.0
  9
$USERR5
 40
0.0
  9
$WORLDVIEW
 70
     1
  9
$SHADEDGE
 70
     3
  9
$SHADEDIF
 70
    70
  9
$TILEMODE
 70
     1
  9
$MAXACTVP
 70
    64
  9
$PLIMCHECK
 70
     0
  9
$PEXTMIN
 10
1.0000000000000000E+020
 20
1.0000000000000000E+020
 30
1.0000000000000000E+020
  9
$PEXTMAX
 10
-1.0000000000000000E+020
 20
-1.0000000000000000E+020
 30
-1.0000000000000000E+020
  9
$PLIMMIN
 10
0.0
 20
0.0
  9
$PLIMMAX
 10
420.0
 20
297.0
  9
$UNITMODE
 70
     0
  9
$VISRETAIN
 70
     1
  9
$PLINEGEN
 70
     0
  9
$PSLTSCALE
 70
     1
  0
ENDSEC
  0
SECTION
  2
TABLES
  0
TABLE
  2
VPORT
 70
     2
  0
VPORT
  2
*ACTIVE
 70
     0
 10
0.0
 20
0.0
 11
1.0
 21
1.0
 12
91.138894079099231
 22
41.55661155509474
 13
0.0
 23
0.0
 14
10.0
 24
10.0
 15
10.0
 25
10.0
 16
0.0
 26
0.0
 36
1.0
 17
0.0
 27
0.0
 37
0.0
 40
61.352787990639342
 41
2.5392405063291141
 42
50.0
 43
0.0
 44
0.0
 50
0.0
 51
0.0
 71
     0
 72
   100
 73
     1
 74
     3
 75
     0
 76
     0
 77
     0
 78
     0
  0
ENDTAB
  0
TABLE
  2
LTYPE
 70
     2
  0
LTYPE
  2
CONTINUOUS
 70
     0
  3
Solid line
 72
    65
 73
     0
 40
0.0
  0
LTYPE
  2
CENTER
 70
     0
  3
Center ____ _ ____ _ ____ _ ____ _ ____ _ ____
 72
    65
 73
     4
 40
50.799999999999997
 49
31.75
 49
-6.3499999999999988
 49
6.3499999999999988
 49
-6.3499999999999988
  0
ENDTAB
  0
TABLE
  2
LAYER
 70
     4
  0
LAYER
  2
0
 70
     0
 62
     7
  6
CONTINUOUS
  0
LAYER
  2
1
 70
     0
 62
     7
  6
CENTER
  0
LAYER
  2
DEFPOINTS
 70
     0
 62
     7
  6
CONTINUOUS
  0
LAYER
  2
2
 70
     0
 62
     7
  6
CONTINUOUS
  0
ENDTAB
  0
TABLE
  2
STYLE
 70
     3
  0
STYLE
  2
STANDARD
 70
     0
 40
0.0
 41
1.0
 50
0.0
 71
     0
 42
2.5
  3
txt
  4

  0
STYLE
  2
\U+00C9L\U+00C9R_\U+00C2S\U+00C2V\U+00C2B\U+00C2N
 70
     0
 40
1.0
 41
1.0
 50
0.0
 71
     0
 42
1.0
  3
\U+00E9l\U+00E9r \U+00E2S\U+00E2V\U+00E2b\U+00E2N
  4

  0
STYLE
  2

 70
     1
 40
0.0
 41
1.0
 50
0.0
 71
     0
 42
2.5
  3
ltypeshp.shx
  4

  0
ENDTAB
  0
TABLE
  2
VIEW
 70
     0
  0
ENDTAB
  0
TABLE
  2
UCS
 70
     0
  0
ENDTAB
  0
TABLE
  2
APPID
 70
     1
  0
APPID
  2
ACAD
 70
     0
  0
ENDTAB
  0
TABLE
  2
DIMSTYLE
 70
     2
  0
DIMSTYLE
  2
ISO-25
 70
     0
  3

  4

  5

  6

  7

 40
1.0
 41
2.5
 42
0.625
 43
3.75
 44
1.25
 45
0.0
 46
0.0
 47
0.0
 48
0.0
140
2.5
141
2.5
142
0.0
143
0.03937007874016
144
1.0
145
0.0
146
1.0
147
0.625
 71
     0
 72
     0
 73
     0
 74
     0
 75
     0
 76
     0
 77
     1
 78
     8
170
     0
171
     3
172
     1
173
     0
174
     0
175
     0
176
     0
177
     0
178
     0
  0
DIMSTYLE
  2
STANDARD
 70
     0
  3

  4

  5

  6

  7

 40
1.0
 41
0.18
 42
0.0625
 43
0.38
 44
0.18
 45
0.0
 46
0.0
 47
0.0
 48
0.0
140
0.18
141
0.09
142
0.0
143
25.399999999999999
144
1.0
145
0.0
146
1.0
147
0.09
 71
     0
 72
     0
 73
     1
 74
     1
 75
     0
 76
     0
 77
     0
 78
     0
170
     0
171
     2
172
     0
173
     0
174
     0
175
     0
176
     0
177
     0
178
     0
  0
ENDTAB
  0
ENDSEC
  0
SECTION
  2
BLOCKS
  0
BLOCK
  8
0
  2
$MODEL_SPACE
 70
     0
 10
0.0
 20
0.0
 30
0.0
  3
$MODEL_SPACE
  1

  0
ENDBLK
  5
21
  8
0
  0
BLOCK
 67
     1
  8
0
  2
$PAPER_SPACE
 70
     0
 10
0.0
 20
0.0
 30
0.0
  3
$PAPER_SPACE
  1

  0
ENDBLK
  5
1D
 67
     1
  8
0
  0
BLOCK
  8
0
  2
*D1
 70
     1
 10
0.0
 20
0.0
 30
0.0
  3
*D1
  1

  0
LINE
  5
4A7
  8
2
 62
     0
 10
77.744341763757134
 20
55.539049710121702
 30
0.0
 11
77.744341763757134
 21
60.973690776977413
 31
0.0
  0
LINE
  5
4A8
  8
2
 62
     0
 10
80.144341763757126
 20
55.539049710121702
 30
0.0
 11
80.144341763757126
 21
60.973690776977413
 31
0.0
  0
LINE
  5
4A9
  8
2
 62
     0
 10
75.244341763757134
 20
59.723690776977413
 30
0.0
 11
72.744341763757134
 21
59.723690776977413
 31
0.0
  0
LINE
  5
4AA
  8
2
 62
     0
 10
82.644341763757126
 20
59.723690776977413
 30
0.0
 11
93.894341763757126
 21
59.723690776977413
 31
0.0
  0
LINE
  5
4AB
  8
2
 62
     0
 10
77.744341763757134
 20
59.723690776977413
 30
0.0
 11
80.144341763757126
 21
59.723690776977413
 31
0.0
  0
SOLID
  5
4AC
  8
2
 62
     0
 10
75.244341763757134
 20
60.140357443644071
 30
0.0
 11
75.244341763757134
 21
59.307024110310742
 31
0.0
 12
77.744341763757134
 22
59.723690776977413
 32
0.0
 13
77.744341763757134
 23
59.723690776977413
 33
0.0
  0
SOLID
  5
4AD
  8
2
 62
     0
 10
82.644341763757126
 20
60.140357443644071
 30
0.0
 11
82.644341763757126
 21
59.307024110310742
 31
0.0
 12
80.144341763757126
 22
59.723690776977413
 32
0.0
 13
80.144341763757126
 23
59.723690776977413
 33
0.0
  0
INSERT
  5
4AE
  8
2
  2
*U7
 10
0.0
 20
0.0
 30
0.0
  0
POINT
  5
4AF
  8
DEFPOINTS
 62
     0
 10
77.744341763757134
 20
54.914049710121702
 30
0.0
  0
POINT
  5
4B0
  8
DEFPOINTS
 62
     0
 10
80.144341763757126
 20
54.914049710121702
 30
0.0
  0
POINT
  5
4B1
  8
DEFPOINTS
 62
     0
 10
80.144341763757126
 20
59.723690776977413
 30
0.0
  0
ENDBLK
  5
465
  8
0
  0
BLOCK
  8
0
  2
*D2
 70
     1
 10
0.0
 20
0.0
 30
0.0
  3
*D2
  1

  0
LINE
  5
49D
  8
2
 62
     0
 10
75.194341763757137
 20
54.847192748096226
 30
0.0
 11
75.194341763757137
 21
65.202989267189452
 31
0.0
  0
LINE
  5
49E
  8
2
 62
     0
 10
82.694341763757137
 20
54.847192748096226
 30
0.0
 11
82.694341763757137
 21
65.202989267189452
 31
0.0
  0
LINE
  5
49F
  8
2
 62
     0
 10
77.694341763757137
 20
63.952989267189452
 30
0.0
 11
80.194341763757137
 21
63.952989267189452
 31
0.0
  0
LINE
  5
4A0
  8
2
 62
     0
 10
82.694341763757137
 20
63.952989267189452
 30
0.0
 11
93.944341763757137
 21
63.952989267189452
 31
0.0
  0
SOLID
  5
4A1
  8
2
 62
     0
 10
77.694341763757137
 20
64.369655933856123
 30
0.0
 11
77.694341763757137
 21
63.536322600522787
 31
0.0
 12
75.194341763757137
 22
63.952989267189452
 32
0.0
 13
75.194341763757137
 23
63.952989267189452
 33
0.0
  0
SOLID
  5
4A2
  8
2
 62
     0
 10
80.194341763757137
 20
64.369655933856123
 30
0.0
 11
80.194341763757137
 21
63.536322600522787
 31
0.0
 12
82.694341763757137
 22
63.952989267189452
 32
0.0
 13
82.694341763757137
 23
63.952989267189452
 33
0.0
  0
INSERT
  5
4A3
  8
2
  2
*U6
 10
0.0
 20
0.0
 30
0.0
  0
POINT
  5
4A4
  8
DEFPOINTS
 62
     0
 10
75.194341763757137
 20
54.222192748096226
 30
0.0
  0
POINT
  5
4A5
  8
DEFPOINTS
 62
     0
 10
82.694341763757137
 20
54.222192748096226
 30
0.0
  0
POINT
  5
4A6
  8
DEFPOINTS
 62
     0
 10
82.694341763757137
 20
63.952989267189452
 30
0.0
  0
ENDBLK
  5
472
  8
0
  0
BLOCK
  8
0
  2
*D3
 70
     1
 10
0.0
 20
0.0
 30
0.0
  3
*D3
  1

  0
LINE
  5
4C7
  8
2
 62
     0
 10
68.944341763757137
 20
46.989049710121698
 30
0.0
 11
68.944341763757137
 21
39.171516688079869
 31
0.0
  0
LINE
  5
4C8
  8
2
 62
     0
 10
88.944341763757137
 20
46.989049710121698
 30
0.0
 11
88.944341763757137
 21
39.171516688079869
 31
0.0
  0
LINE
  5
4C9
  8
2
 62
     0
 10
71.444341763757137
 20
40.421516688079883
 30
0.0
 11
86.444341763757137
 21
40.421516688079883
 31
0.0
  0
SOLID
  5
4CA
  8
2
 62
     0
 10
71.444341763757137
 20
40.83818335474654
 30
0.0
 11
71.444341763757137
 21
40.004850021413212
 31
0.0
 12
68.944341763757137
 22
40.421516688079883
 32
0.0
 13
68.944341763757137
 23
40.421516688079883
 33
0.0
  0
SOLID
  5
4CB
  8
2
 62
     0
 10
86.444341763757137
 20
40.83818335474654
 30
0.0
 11
86.444341763757137
 21
40.004850021413212
 31
0.0
 12
88.944341763757137
 22
40.421516688079883
 32
0.0
 13
88.944341763757137
 23
40.421516688079883
 33
0.0
  0
INSERT
  5
4CC
  8
2
  2
*U8
 10
0.0
 20
0.0
 30
0.0
  0
POINT
  5
4CD
  8
DEFPOINTS
 62
     0
 10
68.944341763757137
 20
47.614049710121698
 30
0.0
  0
POINT
  5
4CE
  8
DEFPOINTS
 62
     0
 10
88.944341763757137
 20
47.614049710121698
 30
0.0
  0
POINT
  5
4CF
  8
DEFPOINTS
 62
     0
 10
88.944341763757137
 20
40.421516688079883
 30
0.0
  0
ENDBLK
  5
47F
  8
0
  0
BLOCK
  8
0
  2
*D4
 70
     1
 10
0.0
 20
0.0
 30
0.0
  3
*D4
  1

  0
LINE
  5
482
  8
2
 62
     0
 10
68.319341763757137
 20
47.614049710121698
 30
0.0
 11
61.098671829858233
 21
47.614049710121698
 31
0.0
  0
LINE
  5
483
  8
2
 62
     0
 10
75.260441763757143
 20
49.214049710121699
 30
0.0
 11
61.09867182985824
 21
49.214049710121699
 31
0.0
  0
LINE
  5
484
  8
2
 62
     0
 10
62.348671829858233
 20
45.114049710121698
 30
0.0
 11
62.348671829858233
 21
42.614049710121698
 31
0.0
  0
LINE
  5
485
  8
2
 62
     0
 10
62.34867182985824
 20
51.714049710121699
 30
0.0
 11
62.34867182985824
 21
59.630716376788371
 31
0.0
  0
LINE
  5
486
  8
2
 62
     0
 10
62.348671829858233
 20
47.614049710121698
 30
0.0
 11
62.34867182985824
 21
49.214049710121699
 31
0.0
  0
SOLID
  5
487
  8
2
 62
     0
 10
61.932005163191569
 20
45.114049710121698
 30
0.0
 11
62.765338496524897
 21
45.114049710121698
 31
0.0
 12
62.348671829858233
 22
47.614049710121698
 32
0.0
 13
62.348671829858233
 23
47.614049710121698
 33
0.0
  0
SOLID
  5
488
  8
2
 62
     0
 10
61.932005163191583
 20
51.714049710121699
 30
0.0
 11
62.765338496524912
 21
51.714049710121699
 31
0.0
 12
62.34867182985824
 22
49.214049710121699
 32
0.0
 13
62.34867182985824
 23
49.214049710121699
 33
0.0
  0
TEXT
  5
489
  8
2
 62
     0
 10
61.723671829858233
 20
54.839049710121706
 30
0.0
 40
2.5
  1
1.6
 50
90.0
  0
POINT
  5
48A
  8
DEFPOINTS
 62
     0
 10
68.944341763757137
 20
47.614049710121698
 30
0.0
  0
POINT
  5
48B
  8
DEFPOINTS
 62
     0
 10
75.885441763757143
 20
49.214049710121699
 30
0.0
  0
POINT
  5
48C
  8
DEFPOINTS
 62
     0
 10
62.34867182985824
 20
49.214049710121699
 30
0.0
  0
ENDBLK
  5
48E
  8
0
  0
BLOCK
  8
0
  2
*D5
 70
     1
 10
0.0
 20
0.0
 30
0.0
  3
*D5
  1

  0
LINE
  5
491
  8
2
 62
     0
 10
89.569341763757137
 20
47.614049710121698
 30
0.0
 11
97.223186426357586
 21
47.614049710121698
 31
0.0
  0
LINE
  5
492
  8
2
 62
     0
 10
82.457641763757124
 20
54.914049710121702
 30
0.0
 11
97.223186426357586
 21
54.914049710121702
 31
0.0
  0
LINE
  5
493
  8
2
 62
     0
 10
95.973186426357586
 20
50.114049710121698
 30
0.0
 11
95.973186426357586
 21
52.414049710121702
 31
0.0
  0
SOLID
  5
494
  8
2
 62
     0
 10
95.556519759690914
 20
50.114049710121698
 30
0.0
 11
96.389853093024271
 21
50.114049710121698
 31
0.0
 12
95.973186426357586
 22
47.614049710121698
 32
0.0
 13
95.973186426357586
 23
47.614049710121698
 33
0.0
  0
SOLID
  5
495
  8
2
 62
     0
 10
95.556519759690914
 20
52.414049710121702
 30
0.0
 11
96.389853093024271
 21
52.414049710121702
 31
0.0
 12
95.973186426357586
 22
54.914049710121702
 32
0.0
 13
95.973186426357586
 23
54.914049710121702
 33
0.0
  0
TEXT
  5
496
  8
2
 62
     0
 10
95.348186426357572
 20
48.764049710121711
 30
0.0
 40
2.5
  1
7.3
 50
90.0
  0
POINT
  5
497
  8
DEFPOINTS
 62
     0
 10
88.944341763757137
 20
47.614049710121698
 30
0.0
  0
POINT
  5
498
  8
DEFPOINTS
 62
     0
 10
81.832641763757124
 20
54.914049710121702
 30
0.0
  0
POINT
  5
499
  8
DEFPOINTS
 62
     0
 10
95.973186426357586
 20
54.914049710121702
 30
0.0
  0
ENDBLK
  5
49B
  8
0
  0
BLOCK
  8
0
  2
*U6
 70
     1
 10
0.0
 20
0.0
 30
0.0
  3
*U6
  1

  0
TEXT
  5
4E4
  8
2
 62
     0
 10
85.819341763757137
 20
64.577989267189452
 30
0.0
 40
2.5
  1
\U+2205
  0
TEXT
  5
4E5
  8
2
 62
     0
 10
88.319341763757137
 20
64.577989267189452
 30
0.0
 40
2.5
  1
7.5
  0
ENDBLK
  5
4E7
  8
0
  0
BLOCK
  8
0
  2
*U7
 70
     1
 10
0.0
 20
0.0
 30
0.0
  3
*U7
  1

  0
TEXT
  5
4E9
  8
2
 62
     0
 10
85.769341763757126
 20
60.348690776977413
 30
0.0
 40
2.5
  1
\U+2205
  0
TEXT
  5
4EA
  8
2
 62
     0
 10
88.269341763757126
 20
60.348690776977413
 30
0.0
 40
2.5
  1
2.4
  0
ENDBLK
  5
4EC
  8
0
  0
BLOCK
  8
0
  2
*U8
 70
     1
 10
0.0
 20
0.0
 30
0.0
  3
*U8
  1

  0
TEXT
  5
4EE
  8
2
 62
     0
 10
75.819341763757137
 20
41.046516688079883
 30
0.0
 40
2.5
  1
\U+2205
  0
TEXT
  5
4EF
  8
2
 62
     0
 10
78.319341763757137
 20
41.046516688079883
 30
0.0
 40
2.5
  1
20
  0
ENDBLK
  5
4F1
  8
0
  0
ENDSEC
  0
SECTION
  2
ENTITIES
  0
TEXT
  5
108
  8
2
 10
62.774127954005003
 20
29.649963965681479
 30
0.0
 40
2.5399440000000002
  1
No. 104.020.073._
 41
0.9999999267283786
 51
-0.0000015352344868
  7
\U+00C9L\U+00C9R_\U+00C2S\U+00C2V\U+00C2B\U+00C2N
  0
LINE
  5
1E5
  8
0
 39
5.0
 10
76.671341763757141
 20
51.868549710121698
 30
0.0
 11
78.944341763757137
 21
51.868549710121698
 31
0.0
  0
LINE
  5
1E7
  8
0
 39
5.0
 10
78.944341763757137
 20
53.157949710121699
 30
0.0
 11
76.671341763757141
 21
53.157949710121699
 31
0.0
  0
LINE
  5
1E8
  8
0
 39
5.0
 10
76.671341763757141
 20
53.157949710121699
 30
0.0
 11
76.671341763757141
 21
51.868549710121698
 31
0.0
  0
LINE
  5
1E9
  8
0
 39
5.0
 10
76.671341763757141
 20
51.868549710121698
 30
0.0
 11
76.671341763757141
 21
51.868549710121698
 31
0.0
  0
LINE
  5
1F0
  8
0
 39
5.0
 10
77.744341763757134
 20
49.530493819292737
 30
0.0
 11
77.206541763757144
 21
49.214049710121699
 31
0.0
  0
LINE
  5
1F1
  8
0
 39
5.0
 10
77.206541763757144
 20
49.214049710121699
 30
0.0
 11
75.885441763757143
 21
49.214049710121699
 31
0.0
  0
LINE
  5
1F2
  8
0
 39
5.0
 10
75.885441763757143
 20
49.214049710121699
 30
0.0
 11
75.778141763757134
 21
49.5659497101217
 31
0.0
  0
LINE
  5
1F3
  8
0
 39
5.0
 10
75.778141763757134
 20
49.5659497101217
 30
0.0
 11
75.348441763757137
 21
49.5659497101217
 31
0.0
  0
LINE
  5
1F4
  8
0
 39
5.0
 10
75.348441763757137
 20
49.5659497101217
 30
0.0
 11
75.348441763757137
 21
49.2123497101217
 31
0.0
  0
LINE
  5
1FA
  8
0
 39
5.0
 10
78.944341763757137
 20
54.914049710121702
 30
0.0
 11
76.056041763757136
 21
54.914049710121702
 31
0.0
  0
LINE
  5
1FB
  8
0
 39
5.0
 10
76.056041763757136
 20
54.914049710121702
 30
0.0
 11
76.056041763757136
 21
54.914049710121702
 31
0.0
  0
LINE
  5
1FC
  8
0
 39
5.0
 10
76.056041763757136
 20
54.914049710121702
 30
0.0
 11
75.919541763757138
 21
54.9088497101217
 31
0.0
  0
LINE
  5
1FD
  8
0
 39
5.0
 10
75.919541763757138
 20
54.9088497101217
 30
0.0
 11
75.798941763757142
 21
54.902549710121697
 31
0.0
  0
LINE
  5
1FE
  8
0
 39
5.0
 10
75.798941763757142
 20
54.902549710121697
 30
0.0
 11
75.693441763757136
 21
54.894149710121702
 31
0.0
  0
LINE
  5
1FF
  8
0
 39
5.0
 10
75.693441763757136
 20
54.894149710121702
 30
0.0
 11
75.60154176375714
 21
54.883049710121689
 31
0.0
  0
LINE
  5
200
  8
0
 39
5.0
 10
75.60154176375714
 20
54.883049710121689
 30
0.0
 11
75.522641763757136
 21
54.868249710121702
 31
0.0
  0
LINE
  5
201
  8
0
 39
5.0
 10
75.522641763757136
 20
54.868249710121702
 30
0.0
 11
75.45554176375714
 21
54.849549710121707
 31
0.0
  0
LINE
  5
202
  8
0
 39
5.0
 10
75.45554176375714
 20
54.849549710121707
 30
0.0
 11
75.399141763757143
 21
54.825749710121691
 31
0.0
  0
LINE
  5
203
  8
0
 39
5.0
 10
75.399141763757143
 20
54.825749710121691
 30
0.0
 11
75.352241763757135
 21
54.79634971012171
 31
0.0
  0
LINE
  5
204
  8
0
 39
5.0
 10
75.352241763757135
 20
54.79634971012171
 30
0.0
 11
75.314141763757135
 21
54.760449710121712
 31
0.0
  0
LINE
  5
205
  8
0
 39
5.0
 10
75.314141763757135
 20
54.760449710121712
 30
0.0
 11
75.283541763757142
 21
54.717449710121699
 31
0.0
  0
LINE
  5
206
  8
0
 39
5.0
 10
75.283541763757142
 20
54.717449710121699
 30
0.0
 11
75.259341763757135
 21
54.6665497101217
 31
0.0
  0
LINE
  5
207
  8
0
 39
5.0
 10
75.259341763757135
 20
54.6665497101217
 30
0.0
 11
75.240441763757133
 21
54.607249710121707
 31
0.0
  0
LINE
  5
208
  8
0
 39
5.0
 10
75.240441763757133
 20
54.607249710121707
 30
0.0
 11
75.226141763757141
 21
54.538549710121693
 31
0.0
  0
LINE
  5
209
  8
0
 39
5.0
 10
75.226141763757141
 20
54.538549710121693
 30
0.0
 11
75.214841763757136
 21
54.459849710121702
 31
0.0
  0
LINE
  5
20A
  8
0
 39
5.0
 10
75.214841763757136
 20
54.459849710121702
 30
0.0
 11
75.205941763757139
 21
54.370349710121701
 31
0.0
  0
LINE
  5
20B
  8
0
 39
5.0
 10
75.205941763757139
 20
54.370349710121701
 30
0.0
 11
75.194341763757137
 21
54.222192748096226
 31
0.0
  0
LINE
  5
212
  8
0
 39
5.0
 10
75.194341763757137
 20
50.031387445970743
 30
0.0
 11
75.189541763757134
 21
50.007749710121701
 31
0.0
  0
LINE
  5
213
  8
0
 39
5.0
 10
75.189541763757134
 20
50.007749710121701
 30
0.0
 11
75.173841763757125
 21
49.955749710121708
 31
0.0
  0
LINE
  5
214
  8
0
 39
5.0
 10
75.173841763757125
 20
49.955749710121708
 30
0.0
 11
75.152941763757141
 21
49.904649710121703
 31
0.0
  0
LINE
  5
215
  8
0
 39
5.0
 10
75.152941763757141
 20
49.904649710121703
 30
0.0
 11
75.126541763757132
 21
49.855249710121697
 31
0.0
  0
LINE
  5
216
  8
0
 39
5.0
 10
75.126541763757132
 20
49.855249710121697
 30
0.0
 11
75.094741763757142
 21
49.807949710121697
 31
0.0
  0
LINE
  5
217
  8
0
 39
5.0
 10
75.094741763757142
 20
49.807949710121697
 30
0.0
 11
75.056941763757138
 21
49.763849710121697
 31
0.0
  0
LINE
  5
218
  8
0
 39
5.0
 10
75.056941763757138
 20
49.763849710121697
 30
0.0
 11
75.013041763757144
 21
49.723349710121703
 31
0.0
  0
LINE
  5
219
  8
0
 39
5.0
 10
75.013041763757144
 20
49.723349710121703
 30
0.0
 11
74.962541763757145
 21
49.687649710121697
 31
0.0
  0
LINE
  5
21A
  8
0
 39
5.0
 10
74.962541763757145
 20
49.687649710121697
 30
0.0
 11
74.905741763757135
 21
49.656849710121698
 31
0.0
  0
LINE
  5
21B
  8
0
 39
5.0
 10
74.905741763757135
 20
49.656849710121698
 30
0.0
 11
74.841841763757145
 21
49.632249710121698
 31
0.0
  0
LINE
  5
21C
  8
0
 39
5.0
 10
74.841841763757145
 20
49.632249710121698
 30
0.0
 11
74.77104176375714
 21
49.614349710121701
 31
0.0
  0
LINE
  5
21D
  8
0
 39
5.0
 10
74.77104176375714
 20
49.614349710121701
 30
0.0
 11
74.692741763757141
 21
49.603849710121708
 31
0.0
  0
LINE
  5
21E
  8
0
 39
5.0
 10
74.692741763757141
 20
49.603849710121708
 30
0.0
 11
68.944341763757137
 21
48.236041126817227
 31
0.0
  0
LINE
  5
265
  8
0
 10
77.206541763757144
 20
49.214049710121699
 30
0.0
 11
78.944341763757137
 21
49.214049710121699
 31
0.0
  0
LINE
  5
35C
  8
0
 10
77.744341763757134
 20
54.914049710121702
 30
0.0
 11
77.744341763757134
 21
53.157949710121699
 31
0.0
  0
LINE
  5
35D
  8
0
 10
68.944341763757137
 20
47.614049710121698
 30
0.0
 11
78.944341763757137
 21
47.614049710121698
 31
0.0
  0
LINE
  5
371
  8
0
 10
77.744341763757134
 20
51.868549710121698
 30
0.0
 11
77.744341763757134
 21
49.530493819292737
 31
0.0
  0
LINE
  5
378
  8
0
 10
78.944341763757137
 20
49.530493819292737
 30
0.0
 11
77.744341763757134
 21
49.530493819292737
 31
0.0
  0
LINE
  5
3A6
  8
0
 10
68.944341763757137
 20
48.236041126817227
 30
0.0
 11
68.944341763757137
 21
47.614049710121698
 31
0.0
  0
LINE
  5
3A8
  8
0
 10
75.348441763757137
 20
49.2123497101217
 30
0.0
 11
68.944341763757137
 21
47.614049710121698
 31
0.0
  0
LINE
  5
3F3
  8
1
 10
78.944341763757137
 20
55.414049710121702
 30
0.0
 11
78.944341763757137
 21
47.114049710121712
 31
0.0
  0
LINE
  5
3F5
  8
0
 10
75.194341763757137
 20
54.222192748096226
 30
0.0
 11
75.194341763757137
 21
50.031387445970743
 31
0.0
  0
LINE
  5
414
  8
0
 39
5.0
 10
82.694341763757137
 20
50.031387445970743
 30
0.0
 11
82.699141763757126
 21
50.007749710121701
 31
0.0
  0
LINE
  5
415
  8
0
 39
5.0
 10
82.682741763757136
 20
54.370349710121701
 30
0.0
 11
82.694341763757137
 21
54.222192748096226
 31
0.0
  0
LINE
  5
416
  8
0
 39
5.0
 10
83.195941763757133
 20
49.603849710121708
 30
0.0
 11
88.944341763757137
 21
48.236041126817227
 31
0.0
  0
LINE
  5
417
  8
0
 39
5.0
 10
83.117641763757135
 20
49.614349710121701
 30
0.0
 11
83.195941763757133
 21
49.603849710121708
 31
0.0
  0
LINE
  5
418
  8
0
 39
5.0
 10
83.046841763757129
 20
49.632249710121698
 30
0.0
 11
83.117641763757135
 21
49.614349710121701
 31
0.0
  0
LINE
  5
419
  8
0
 39
5.0
 10
82.98294176375714
 20
49.656849710121698
 30
0.0
 11
83.046841763757129
 21
49.632249710121698
 31
0.0
  0
LINE
  5
41A
  8
0
 39
5.0
 10
82.926141763757116
 20
49.687649710121697
 30
0.0
 11
82.98294176375714
 21
49.656849710121698
 31
0.0
  0
LINE
  5
41B
  8
0
 39
5.0
 10
82.87564176375713
 20
49.723349710121703
 30
0.0
 11
82.926141763757116
 21
49.687649710121697
 31
0.0
  0
LINE
  5
41C
  8
0
 39
5.0
 10
82.831741763757137
 20
49.763849710121697
 30
0.0
 11
82.87564176375713
 21
49.723349710121703
 31
0.0
  0
LINE
  5
41D
  8
0
 39
5.0
 10
82.793941763757132
 20
49.807949710121697
 30
0.0
 11
82.831741763757137
 21
49.763849710121697
 31
0.0
  0
LINE
  5
41E
  8
0
 39
5.0
 10
82.762141763757157
 20
49.855249710121697
 30
0.0
 11
82.793941763757132
 21
49.807949710121697
 31
0.0
  0
LINE
  5
41F
  8
0
 39
5.0
 10
82.735741763757133
 20
49.904649710121703
 30
0.0
 11
82.762141763757157
 21
49.855249710121697
 31
0.0
  0
LINE
  5
420
  8
0
 39
5.0
 10
82.714841763757136
 20
49.955749710121708
 30
0.0
 11
82.735741763757133
 21
49.904649710121703
 31
0.0
  0
LINE
  5
421
  8
0
 39
5.0
 10
82.699141763757126
 20
50.007749710121701
 30
0.0
 11
82.714841763757136
 21
49.955749710121708
 31
0.0
  0
LINE
  5
422
  8
0
 39
5.0
 10
82.673841763757125
 20
54.459849710121702
 30
0.0
 11
82.682741763757136
 21
54.370349710121701
 31
0.0
  0
LINE
  5
423
  8
0
 39
5.0
 10
82.662541763757133
 20
54.538549710121693
 30
0.0
 11
82.673841763757125
 21
54.459849710121702
 31
0.0
  0
LINE
  5
424
  8
0
 39
5.0
 10
82.648241763757142
 20
54.607249710121707
 30
0.0
 11
82.662541763757133
 21
54.538549710121693
 31
0.0
  0
LINE
  5
425
  8
0
 39
5.0
 10
82.629341763757125
 20
54.6665497101217
 30
0.0
 11
82.648241763757142
 21
54.607249710121707
 31
0.0
  0
LINE
  5
426
  8
0
 39
5.0
 10
82.605141763757118
 20
54.717449710121699
 30
0.0
 11
82.629341763757125
 21
54.6665497101217
 31
0.0
  0
LINE
  5
427
  8
0
 39
5.0
 10
82.574541763757139
 20
54.760449710121712
 30
0.0
 11
82.605141763757118
 21
54.717449710121699
 31
0.0
  0
LINE
  5
428
  8
0
 39
5.0
 10
82.536441763757125
 20
54.79634971012171
 30
0.0
 11
82.574541763757139
 21
54.760449710121712
 31
0.0
  0
LINE
  5
429
  8
0
 39
5.0
 10
82.489541763757131
 20
54.825749710121691
 30
0.0
 11
82.536441763757125
 21
54.79634971012171
 31
0.0
  0
LINE
  5
42A
  8
0
 39
5.0
 10
82.433141763757135
 20
54.849549710121707
 30
0.0
 11
82.489541763757131
 21
54.825749710121691
 31
0.0
  0
LINE
  5
42B
  8
0
 39
5.0
 10
82.366041763757124
 20
54.868249710121702
 30
0.0
 11
82.433141763757135
 21
54.849549710121707
 31
0.0
  0
LINE
  5
42C
  8
0
 39
5.0
 10
82.287141763757134
 20
54.883049710121689
 30
0.0
 11
82.366041763757124
 21
54.868249710121702
 31
0.0
  0
LINE
  5
42D
  8
0
 39
5.0
 10
82.195241763757124
 20
54.894149710121702
 30
0.0
 11
82.287141763757134
 21
54.883049710121689
 31
0.0
  0
LINE
  5
42E
  8
0
 39
5.0
 10
82.089741763757132
 20
54.902549710121697
 30
0.0
 11
82.195241763757124
 21
54.894149710121702
 31
0.0
  0
LINE
  5
42F
  8
0
 39
5.0
 10
81.969141763757136
 20
54.9088497101217
 30
0.0
 11
82.089741763757132
 21
54.902549710121697
 31
0.0
  0
LINE
  5
430
  8
0
 39
5.0
 10
81.832641763757124
 20
54.914049710121702
 30
0.0
 11
81.969141763757136
 21
54.9088497101217
 31
0.0
  0
LINE
  5
431
  8
0
 39
5.0
 10
81.832641763757124
 20
54.914049710121702
 30
0.0
 11
81.832641763757124
 21
54.914049710121702
 31
0.0
  0
LINE
  5
432
  8
0
 39
5.0
 10
78.944341763757137
 20
54.914049710121702
 30
0.0
 11
81.832641763757124
 21
54.914049710121702
 31
0.0
  0
LINE
  5
433
  8
0
 39
5.0
 10
82.540241763757123
 20
49.5659497101217
 30
0.0
 11
82.540241763757123
 21
49.2123497101217
 31
0.0
  0
LINE
  5
434
  8
0
 39
5.0
 10
82.110541763757141
 20
49.5659497101217
 30
0.0
 11
82.540241763757123
 21
49.5659497101217
 31
0.0
  0
LINE
  5
435
  8
0
 39
5.0
 10
82.003241763757146
 20
49.214049710121699
 30
0.0
 11
82.110541763757141
 21
49.5659497101217
 31
0.0
  0
LINE
  5
436
  8
0
 39
5.0
 10
80.68214176375713
 20
49.214049710121699
 30
0.0
 11
82.003241763757146
 21
49.214049710121699
 31
0.0
  0
LINE
  5
437
  8
0
 39
5.0
 10
80.144341763757126
 20
49.530493819292737
 30
0.0
 11
80.68214176375713
 21
49.214049710121699
 31
0.0
  0
LINE
  5
438
  8
0
 39
5.0
 10
81.217341763757133
 20
51.868549710121698
 30
0.0
 11
81.217341763757133
 21
51.868549710121698
 31
0.0
  0
LINE
  5
439
  8
0
 39
5.0
 10
81.217341763757133
 20
53.157949710121699
 30
0.0
 11
81.217341763757133
 21
51.868549710121698
 31
0.0
  0
LINE
  5
43A
  8
0
 39
5.0
 10
78.944341763757137
 20
53.157949710121699
 30
0.0
 11
81.217341763757133
 21
53.157949710121699
 31
0.0
  0
LINE
  5
43B
  8
0
 39
5.0
 10
81.217341763757133
 20
51.868549710121698
 30
0.0
 11
78.944341763757137
 21
51.868549710121698
 31
0.0
  0
LINE
  5
43C
  8
0
 10
82.540241763757123
 20
49.2123497101217
 30
0.0
 11
88.944341763757137
 21
47.614049710121698
 31
0.0
  0
LINE
  5
43D
  8
0
 10
88.944341763757137
 20
47.614049710121698
 30
0.0
 11
78.944341763757137
 21
47.614049710121698
 31
0.0
  0
LINE
  5
43E
  8
0
 10
88.944341763757137
 20
48.236041126817227
 30
0.0
 11
88.944341763757137
 21
47.614049710121698
 31
0.0
  0
LINE
  5
43F
  8
0
 10
80.144341763757126
 20
51.868549710121698
 30
0.0
 11
80.144341763757126
 21
49.530493819292737
 31
0.0
  0
LINE
  5
440
  8
0
 10
78.944341763757137
 20
49.530493819292737
 30
0.0
 11
80.144341763757126
 21
49.530493819292737
 31
0.0
  0
LINE
  5
441
  8
0
 10
80.68214176375713
 20
49.214049710121699
 30
0.0
 11
78.944341763757137
 21
49.214049710121699
 31
0.0
  0
LINE
  5
442
  8
0
 10
82.694341763757137
 20
54.222192748096226
 30
0.0
 11
82.694341763757137
 21
50.031387445970743
 31
0.0
  0
LINE
  5
443
  8
0
 10
80.144341763757126
 20
54.914049710121702
 30
0.0
 11
80.144341763757126
 21
53.157949710121699
 31
0.0
  0
DIMENSION
  5
457
  8
2
  2
*D1
 10
80.144341763757126
 20
59.723690776977413
 30
0.0
 11
89.519341763757126
 21
61.598690776977413
 31
0.0
 70
     0
  1
%%c<>
 13
77.744341763757134
 23
54.914049710121702
 33
0.0
 14
80.144341763757126
 24
54.914049710121702
 34
0.0
  0
DIMENSION
  5
466
  8
2
  2
*D2
 10
82.694341763757137
 20
63.952989267189452
 30
0.0
 11
89.569341763757137
 21
65.827989267189452
 31
0.0
 70
     0
  1
%%c<>
 13
75.194341763757137
 23
54.222192748096226
 33
0.0
 14
82.694341763757137
 24
54.222192748096226
 34
0.0
  0
DIMENSION
  5
473
  8
2
  2
*D3
 10
88.944341763757137
 20
40.421516688079883
 30
0.0
 11
78.944341763757137
 21
42.296516688079883
 31
0.0
 70
     0
  1
%%c<>
 13
68.944341763757137
 23
47.614049710121698
 33
0.0
 14
88.944341763757137
 24
47.614049710121698
 34
0.0
1001
ACAD
1000
DSTYLE
1002
{
1070
   271
1070
     6
1002
}
  0
DIMENSION
  5
480
  8
2
  2
*D4
 10
62.34867182985824
 20
49.214049710121699
 30
0.0
 11
60.473671829858233
 21
56.922383043455042
 31
0.0
 70
     0
 13
68.944341763757137
 23
47.614049710121698
 33
0.0
 14
75.885441763757143
 24
49.214049710121699
 34
0.0
 50
90.0
  0
DIMENSION
  5
48F
  8
2
  2
*D5
 10
95.973186426357586
 20
54.914049710121702
 30
0.0
 11
94.098186426357572
 21
51.264049710121711
 31
0.0
 70
     0
 13
88.944341763757137
 23
47.614049710121698
 33
0.0
 14
81.832641763757124
 24
54.914049710121702
 34
0.0
 50
90.0
  0
ENDSEC
  0
EOF
