  0
SECTION
  2
HEADER
  9
$ACADVER
  1
AC1009
  9
$INSBASE
 10
0.0
 20
0.0
 30
0.0
  9
$EXTMIN
 10
59.707750088673308
 20
18.803104630486349
 30
0.0
  9
$EXTMAX
 10
132.54405493959001
 20
99.240483137343304
 30
5.0
  9
$LIMMIN
 10
0.0
 20
0.0
  9
$LIMMAX
 10
420.0
 20
297.0
  9
$ORTHOMODE
 70
     0
  9
$REGENMODE
 70
     1
  9
$FILLMODE
 70
     1
  9
$QTEXTMODE
 70
     0
  9
$MIRRTEXT
 70
     1
  9
$DRAGMODE
 70
     2
  9
$LTSCALE
 40
0.3
  9
$OSMODE
 70
    37
  9
$ATTMODE
 70
     1
  9
$TEXTSIZE
 40
2.5
  9
$TRACEWID
 40
1.0
  9
$TEXTSTYLE
  7
STANDARD
  9
$CLAYER
  8
2
  9
$CELTYPE
  6
BYLAYER
  9
$CECOLOR
 62
   256
  9
$DIMSCALE
 40
1.0
  9
$DIMASZ
 40
2.5
  9
$DIMEXO
 40
0.625
  9
$DIMDLI
 40
3.75
  9
$DIMRND
 40
0.0
  9
$DIMDLE
 40
0.0
  9
$DIMEXE
 40
1.25
  9
$DIMTP
 40
0.0
  9
$DIMTM
 40
0.0
  9
$DIMTXT
 40
2.5
  9
$DIMCEN
 40
2.5
  9
$DIMTSZ
 40
0.0
  9
$DIMTOL
 70
     0
  9
$DIMLIM
 70
     0
  9
$DIMTIH
 70
     0
  9
$DIMTOH
 70
     0
  9
$DIMSE1
 70
     0
  9
$DIMSE2
 70
     0
  9
$DIMTAD
 70
     1
  9
$DIMZIN
 70
     8
  9
$DIMBLK
  1

  9
$DIMASO
 70
     1
  9
$DIMSHO
 70
     1
  9
$DIMPOST
  1

  9
$DIMAPOST
  1

  9
$DIMALT
 70
     0
  9
$DIMALTD
 70
     3
  9
$DIMALTF
 40
0.03937007874016
  9
$DIMLFAC
 40
1.0
  9
$DIMTOFL
 70
     1
  9
$DIMTVP
 40
0.0
  9
$DIMTIX
 70
     0
  9
$DIMSOXD
 70
     0
  9
$DIMSAH
 70
     0
  9
$DIMBLK1
  1

  9
$DIMBLK2
  1

  9
$DIMSTYLE
  2
ISO-25
  9
$DIMCLRD
 70
     0
  9
$DIMCLRE
 70
     0
  9
$DIMCLRT
 70
     0
  9
$DIMTFAC
 40
1.0
  9
$DIMGAP
 40
0.625
  9
$LUNITS
 70
     2
  9
$LUPREC
 70
     4
  9
$SKETCHINC
 40
1.0
  9
$FILLETRAD
 40
10.0
  9
$AUNITS
 70
     0
  9
$AUPREC
 70
     0
  9
$MENU
  1
.
  9
$ELEVATION
 40
0.0
  9
$PELEVATION
 40
0.0
  9
$THICKNESS
 40
0.0
  9
$LIMCHECK
 70
     0
  9
$BLIPMODE
 70
     0
  9
$CHAMFERA
 40
10.0
  9
$CHAMFERB
 40
10.0
  9
$SKPOLY
 70
     0
  9
$TDCREATE
 40
2453440.3590500918
  9
$TDUPDATE
 40
2453551.9122335762
  9
$TDINDWG
 40
0.0333646528
  9
$TDUSRTIMER
 40
0.033364537
  9
$USRTIMER
 70
     1
  9
$ANGBASE
 50
0.0
  9
$ANGDIR
 70
     0
  9
$PDMODE
 70
     0
  9
$PDSIZE
 40
0.0
  9
$PLINEWID
 40
0.0
  9
$COORDS
 70
     1
  9
$SPLFRAME
 70
     0
  9
$SPLINETYPE
 70
     6
  9
$SPLINESEGS
 70
     8
  9
$ATTDIA
 70
     0
  9
$ATTREQ
 70
     1
  9
$HANDLING
 70
-16383
  9
$HANDSEED
  5
885
  9
$SURFTAB1
 70
     6
  9
$SURFTAB2
 70
     6
  9
$SURFTYPE
 70
     6
  9
$SURFU
 70
     6
  9
$SURFV
 70
     6
  9
$UCSNAME
  2

  9
$UCSORG
 10
0.0
 20
0.0
 30
0.0
  9
$UCSXDIR
 10
1.0
 20
0.0
 30
0.0
  9
$UCSYDIR
 10
0.0
 20
1.0
 30
0.0
  9
$PUCSNAME
  2

  9
$PUCSORG
 10
0.0
 20
0.0
 30
0.0
  9
$PUCSXDIR
 10
1.0
 20
0.0
 30
0.0
  9
$PUCSYDIR
 10
0.0
 20
1.0
 30
0.0
  9
$USERI1
 70
     0
  9
$USERI2
 70
     0
  9
$USERI3
 70
     0
  9
$USERI4
 70
     0
  9
$USERI5
 70
     0
  9
$USERR1
 40
0.0
  9
$USERR2
 40
0.0
  9
$USERR3
 40
0.0
  9
$USERR4
 40
0.0
  9
$USERR5
 40
0.0
  9
$WORLDVIEW
 70
     1
  9
$SHADEDGE
 70
     3
  9
$SHADEDIF
 70
    70
  9
$TILEMODE
 70
     1
  9
$MAXACTVP
 70
    64
  9
$PLIMCHECK
 70
     0
  9
$PEXTMIN
 10
1.0000000000000000E+020
 20
1.0000000000000000E+020
 30
1.0000000000000000E+020
  9
$PEXTMAX
 10
-1.0000000000000000E+020
 20
-1.0000000000000000E+020
 30
-1.0000000000000000E+020
  9
$PLIMMIN
 10
0.0
 20
0.0
  9
$PLIMMAX
 10
420.0
 20
297.0
  9
$UNITMODE
 70
     0
  9
$VISRETAIN
 70
     1
  9
$PLINEGEN
 70
     0
  9
$PSLTSCALE
 70
     1
  0
ENDSEC
  0
SECTION
  2
TABLES
  0
TABLE
  2
VPORT
 70
     2
  0
VPORT
  2
*ACTIVE
 70
     0
 10
0.0
 20
0.0
 11
1.0
 21
1.0
 12
110.7821375141052
 22
53.633394158207992
 13
0.0
 23
0.0
 14
10.0
 24
10.0
 15
10.0
 25
10.0
 16
0.0
 26
0.0
 36
1.0
 17
0.0
 27
0.0
 37
0.0
 40
96.243546552086841
 41
2.5392405063291141
 42
50.0
 43
0.0
 44
0.0
 50
0.0
 51
0.0
 71
     0
 72
   100
 73
     1
 74
     3
 75
     0
 76
     0
 77
     0
 78
     0
  0
ENDTAB
  0
TABLE
  2
LTYPE
 70
     2
  0
LTYPE
  2
CONTINUOUS
 70
     0
  3
Solid line
 72
    65
 73
     0
 40
0.0
  0
LTYPE
  2
CENTER
 70
     0
  3
Center ____ _ ____ _ ____ _ ____ _ ____ _ ____
 72
    65
 73
     4
 40
50.799999999999997
 49
31.75
 49
-6.3499999999999988
 49
6.3499999999999988
 49
-6.3499999999999988
  0
ENDTAB
  0
TABLE
  2
LAYER
 70
     4
  0
LAYER
  2
0
 70
     0
 62
     7
  6
CONTINUOUS
  0
LAYER
  2
1
 70
     0
 62
     7
  6
CENTER
  0
LAYER
  2
2
 70
     0
 62
     7
  6
CONTINUOUS
  0
LAYER
  2
DEFPOINTS
 70
     0
 62
     7
  6
CONTINUOUS
  0
ENDTAB
  0
TABLE
  2
STYLE
 70
     3
  0
STYLE
  2
STANDARD
 70
     0
 40
0.0
 41
1.0
 50
0.0
 71
     0
 42
2.5
  3
txt
  4

  0
STYLE
  2
\U+00C9L\U+00C9R_\U+00C2S\U+00C2V\U+00C2B\U+00C2N
 70
     0
 40
1.0
 41
1.0
 50
0.0
 71
     0
 42
1.0
  3
\U+00E9l\U+00E9r \U+00E2S\U+00E2V\U+00E2b\U+00E2N
  4

  0
STYLE
  2

 70
     1
 40
0.0
 41
1.0
 50
0.0
 71
     0
 42
2.5
  3
ltypeshp.shx
  4

  0
ENDTAB
  0
TABLE
  2
VIEW
 70
     0
  0
ENDTAB
  0
TABLE
  2
UCS
 70
     0
  0
ENDTAB
  0
TABLE
  2
APPID
 70
     1
  0
APPID
  2
ACAD
 70
     0
  0
ENDTAB
  0
TABLE
  2
DIMSTYLE
 70
     2
  0
DIMSTYLE
  2
ISO-25
 70
     0
  3

  4

  5

  6

  7

 40
1.0
 41
2.5
 42
0.625
 43
3.75
 44
1.25
 45
0.0
 46
0.0
 47
0.0
 48
0.0
140
2.5
141
2.5
142
0.0
143
0.03937007874016
144
1.0
145
0.0
146
1.0
147
0.625
 71
     0
 72
     0
 73
     0
 74
     0
 75
     0
 76
     0
 77
     1
 78
     8
170
     0
171
     3
172
     1
173
     0
174
     0
175
     0
176
     0
177
     0
178
     0
  0
DIMSTYLE
  2
STANDARD
 70
     0
  3

  4

  5

  6

  7

 40
1.0
 41
0.18
 42
0.0625
 43
0.38
 44
0.18
 45
0.0
 46
0.0
 47
0.0
 48
0.0
140
0.18
141
0.09
142
0.0
143
25.399999999999999
144
1.0
145
0.0
146
1.0
147
0.09
 71
     0
 72
     0
 73
     1
 74
     1
 75
     0
 76
     0
 77
     0
 78
     0
170
     0
171
     2
172
     0
173
     0
174
     0
175
     0
176
     0
177
     0
178
     0
  0
ENDTAB
  0
ENDSEC
  0
SECTION
  2
BLOCKS
  0
BLOCK
  8
0
  2
$MODEL_SPACE
 70
     0
 10
0.0
 20
0.0
 30
0.0
  3
$MODEL_SPACE
  1

  0
ENDBLK
  5
21
  8
0
  0
BLOCK
 67
     1
  8
0
  2
$PAPER_SPACE
 70
     0
 10
0.0
 20
0.0
 30
0.0
  3
$PAPER_SPACE
  1

  0
ENDBLK
  5
1D
 67
     1
  8
0
  0
BLOCK
  8
0
  2
*D1
 70
     1
 10
0.0
 20
0.0
 30
0.0
  3
*D1
  1

  0
LINE
  5
80E
  8
2
 62
     0
 10
91.37826014468078
 20
74.612197496359855
 30
0.0
 11
91.37826014468078
 21
86.196276503971959
 31
0.0
  0
LINE
  5
80F
  8
2
 62
     0
 10
97.37826014468078
 20
74.612197496359855
 30
0.0
 11
97.37826014468078
 21
86.196276503971959
 31
0.0
  0
LINE
  5
810
  8
2
 62
     0
 10
88.87826014468078
 20
84.946276503971959
 30
0.0
 11
86.37826014468078
 21
84.946276503971959
 31
0.0
  0
LINE
  5
811
  8
2
 62
     0
 10
99.87826014468078
 20
84.946276503971959
 30
0.0
 11
102.3782601446807
 21
84.946276503971959
 31
0.0
  0
LINE
  5
812
  8
2
 62
     0
 10
91.37826014468078
 20
84.946276503971959
 30
0.0
 11
97.37826014468078
 21
84.946276503971959
 31
0.0
  0
SOLID
  5
813
  8
2
 62
     0
 10
88.87826014468078
 20
85.362943170638644
 30
0.0
 11
88.87826014468078
 21
84.529609837305301
 31
0.0
 12
91.37826014468078
 22
84.946276503971959
 32
0.0
 13
91.37826014468078
 23
84.946276503971959
 33
0.0
  0
SOLID
  5
814
  8
2
 62
     0
 10
99.87826014468078
 20
85.362943170638644
 30
0.0
 11
99.87826014468078
 21
84.529609837305301
 31
0.0
 12
97.37826014468078
 22
84.946276503971959
 32
0.0
 13
97.37826014468078
 23
84.946276503971959
 33
0.0
  0
INSERT
  5
815
  8
2
  2
*U12
 10
0.0
 20
0.0
 30
0.0
  0
POINT
  5
816
  8
DEFPOINTS
 62
     0
 10
91.37826014468078
 20
73.987197496359855
 30
0.0
  0
POINT
  5
817
  8
DEFPOINTS
 62
     0
 10
97.37826014468078
 20
73.987197496359855
 30
0.0
  0
POINT
  5
818
  8
DEFPOINTS
 62
     0
 10
97.37826014468078
 20
84.946276503971959
 30
0.0
  0
ENDBLK
  5
74C
  8
0
  0
BLOCK
  8
0
  2
*D2
 70
     1
 10
0.0
 20
0.0
 30
0.0
  3
*D2
  1

  0
LINE
  5
805
  8
2
 62
     0
 10
88.87826014468078
 20
67.111897496359873
 30
0.0
 11
88.87826014468078
 21
92.437892037745158
 31
0.0
  0
LINE
  5
806
  8
2
 62
     0
 10
99.87826014468078
 20
67.111897496359873
 30
0.0
 11
99.87826014468078
 21
92.437892037745158
 31
0.0
  0
LINE
  5
807
  8
2
 62
     0
 10
91.37826014468078
 20
91.187892037745158
 30
0.0
 11
97.37826014468078
 21
91.187892037745158
 31
0.0
  0
SOLID
  5
808
  8
2
 62
     0
 10
91.37826014468078
 20
91.604558704411843
 30
0.0
 11
91.37826014468078
 21
90.771225371078501
 31
0.0
 12
88.87826014468078
 22
91.187892037745158
 32
0.0
 13
88.87826014468078
 23
91.187892037745158
 33
0.0
  0
SOLID
  5
809
  8
2
 62
     0
 10
97.37826014468078
 20
91.604558704411843
 30
0.0
 11
97.37826014468078
 21
90.771225371078501
 31
0.0
 12
99.87826014468078
 22
91.187892037745158
 32
0.0
 13
99.87826014468078
 23
91.187892037745158
 33
0.0
  0
INSERT
  5
80A
  8
2
  2
*U11
 10
0.0
 20
0.0
 30
0.0
  0
POINT
  5
80B
  8
DEFPOINTS
 62
     0
 10
88.87826014468078
 20
66.486897496359873
 30
0.0
  0
POINT
  5
80C
  8
DEFPOINTS
 62
     0
 10
99.87826014468078
 20
66.486897496359873
 30
0.0
  0
POINT
  5
80D
  8
DEFPOINTS
 62
     0
 10
99.87826014468078
 20
91.187892037745158
 30
0.0
  0
ENDBLK
  5
759
  8
0
  0
BLOCK
  8
0
  2
*D3
 70
     1
 10
0.0
 20
0.0
 30
0.0
  3
*D3
  1

  0
LINE
  5
7FC
  8
2
 62
     0
 10
84.378260144680766
 20
72.488253662285146
 30
0.0
 11
84.378260144680766
 21
97.365483137343304
 31
0.0
  0
LINE
  5
7FD
  8
2
 62
     0
 10
104.3782601446807
 20
72.488253662285146
 30
0.0
 11
104.3782601446807
 21
97.365483137343304
 31
0.0
  0
LINE
  5
7FE
  8
2
 62
     0
 10
86.878260144680766
 20
96.115483137343304
 30
0.0
 11
101.8782601446807
 21
96.115483137343304
 31
0.0
  0
SOLID
  5
7FF
  8
2
 62
     0
 10
86.878260144680766
 20
96.532149804009961
 30
0.0
 11
86.878260144680766
 21
95.698816470676618
 31
0.0
 12
84.378260144680766
 22
96.115483137343304
 32
0.0
 13
84.378260144680766
 23
96.115483137343304
 33
0.0
  0
SOLID
  5
800
  8
2
 62
     0
 10
101.8782601446807
 20
96.532149804009961
 30
0.0
 11
101.8782601446807
 21
95.698816470676618
 31
0.0
 12
104.3782601446807
 22
96.115483137343304
 32
0.0
 13
104.3782601446807
 23
96.115483137343304
 33
0.0
  0
INSERT
  5
801
  8
2
  2
*U10
 10
0.0
 20
0.0
 30
0.0
  0
POINT
  5
802
  8
DEFPOINTS
 62
     0
 10
84.378260144680766
 20
71.863253662285146
 30
0.0
  0
POINT
  5
803
  8
DEFPOINTS
 62
     0
 10
104.3782601446807
 20
71.863253662285146
 30
0.0
  0
POINT
  5
804
  8
DEFPOINTS
 62
     0
 10
104.3782601446807
 20
96.115483137343304
 30
0.0
  0
ENDBLK
  5
766
  8
0
  0
BLOCK
  8
0
  2
*D4
 70
     1
 10
0.0
 20
0.0
 30
0.0
  3
*D4
  1

  0
LINE
  5
769
  8
2
 62
     0
 10
103.04086014468071
 20
73.987197496359855
 30
0.0
 11
125.6360439912019
 21
73.987197496359855
 31
0.0
  0
LINE
  5
76A
  8
2
 62
     0
 10
100.5032601446807
 20
66.486897496359873
 30
0.0
 11
125.6360439912019
 21
66.486897496359873
 31
0.0
  0
LINE
  5
76B
  8
2
 62
     0
 10
124.3860439912019
 20
71.487197496359855
 30
0.0
 11
124.3860439912019
 21
68.986897496359873
 31
0.0
  0
SOLID
  5
76C
  8
2
 62
     0
 10
123.9693773245352
 20
71.487197496359855
 30
0.0
 11
124.8027106578685
 21
71.487197496359855
 31
0.0
 12
124.3860439912019
 22
73.987197496359855
 32
0.0
 13
124.3860439912019
 23
73.987197496359855
 33
0.0
  0
SOLID
  5
76D
  8
2
 62
     0
 10
123.9693773245352
 20
68.986897496359873
 30
0.0
 11
124.8027106578685
 21
68.986897496359873
 31
0.0
 12
124.3860439912019
 22
66.486897496359873
 32
0.0
 13
124.3860439912019
 23
66.486897496359873
 33
0.0
  0
TEXT
  5
76E
  8
2
 62
     0
 10
123.7610439912019
 20
67.737047496359892
 30
0.0
 40
2.5
  1
7.5
 50
90.0
  0
POINT
  5
76F
  8
DEFPOINTS
 62
     0
 10
102.41586014468071
 20
73.987197496359855
 30
0.0
  0
POINT
  5
770
  8
DEFPOINTS
 62
     0
 10
99.87826014468078
 20
66.486897496359873
 30
0.0
  0
POINT
  5
771
  8
DEFPOINTS
 62
     0
 10
124.3860439912019
 20
66.486897496359873
 30
0.0
  0
ENDBLK
  5
773
  8
0
  0
BLOCK
  8
0
  2
*D5
 70
     1
 10
0.0
 20
0.0
 30
0.0
  3
*D5
  1

  0
LINE
  5
781
  8
2
 62
     0
 10
103.04086014468071
 20
73.987197496359855
 30
0.0
 11
132.54405493959001
 21
73.987197496359855
 31
0.0
  0
LINE
  5
782
  8
2
 62
     0
 10
108.5516601446807
 20
43.487197496359869
 30
0.0
 11
132.54405493959001
 21
43.487197496359862
 31
0.0
  0
LINE
  5
783
  8
2
 62
     0
 10
131.29405493959001
 20
71.487197496359855
 30
0.0
 11
131.29405493959001
 21
45.987197496359862
 31
0.0
  0
SOLID
  5
784
  8
2
 62
     0
 10
130.8773882729233
 20
71.487197496359855
 30
0.0
 11
131.71072160625661
 21
71.487197496359855
 31
0.0
 12
131.29405493959001
 22
73.987197496359855
 32
0.0
 13
131.29405493959001
 23
73.987197496359855
 33
0.0
  0
SOLID
  5
785
  8
2
 62
     0
 10
130.8773882729233
 20
45.987197496359862
 30
0.0
 11
131.71072160625661
 21
45.987197496359862
 31
0.0
 12
131.29405493959001
 22
43.487197496359862
 32
0.0
 13
131.29405493959001
 23
43.487197496359862
 33
0.0
  0
TEXT
  5
786
  8
2
 62
     0
 10
130.66905493959001
 20
55.195530829693233
 30
0.0
 40
2.5
  1
30.5
 50
90.0
  0
POINT
  5
787
  8
DEFPOINTS
 62
     0
 10
102.41586014468071
 20
73.987197496359855
 30
0.0
  0
POINT
  5
788
  8
DEFPOINTS
 62
     0
 10
107.9266601446807
 20
43.487197496359869
 30
0.0
  0
POINT
  5
789
  8
DEFPOINTS
 62
     0
 10
131.29405493959001
 20
43.487197496359862
 30
0.0
  0
ENDBLK
  5
780
  8
0
  0
BLOCK
  8
0
  2
*D6
 70
     1
 10
0.0
 20
0.0
 30
0.0
  3
*D6
  1

  0
LINE
  5
7B0
  8
2
 62
     0
 10
78.75326014468078
 20
43.487197496359869
 30
0.0
 11
61.582750088673308
 21
43.487197496359869
 31
0.0
  0
LINE
  5
7B1
  8
2
 62
     0
 10
88.25326014468078
 20
60.487197496359869
 30
0.0
 11
61.582750088673322
 21
60.487197496359883
 31
0.0
  0
LINE
  5
7B2
  8
2
 62
     0
 10
62.832750088673308
 20
45.987197496359869
 30
0.0
 11
62.832750088673322
 21
57.987197496359883
 31
0.0
  0
SOLID
  5
7B3
  8
2
 62
     0
 10
62.41608342200665
 20
45.987197496359869
 30
0.0
 11
63.249416755339979
 21
45.987197496359869
 31
0.0
 12
62.832750088673308
 22
43.487197496359869
 32
0.0
 13
62.832750088673308
 23
43.487197496359869
 33
0.0
  0
SOLID
  5
7B4
  8
2
 62
     0
 10
62.416083422006658
 20
57.987197496359883
 30
0.0
 11
63.249416755339993
 21
57.987197496359883
 31
0.0
 12
62.832750088673322
 22
60.487197496359883
 32
0.0
 13
62.832750088673322
 23
60.487197496359883
 33
0.0
  0
TEXT
  5
7B5
  8
2
 62
     0
 10
62.207750088673308
 20
50.320530829693212
 30
0.0
 40
2.5
  1
17
 50
90.0
  0
POINT
  5
7B6
  8
DEFPOINTS
 62
     0
 10
79.37826014468078
 20
43.487197496359869
 30
0.0
  0
POINT
  5
7B7
  8
DEFPOINTS
 62
     0
 10
88.87826014468078
 20
60.487197496359869
 30
0.0
  0
POINT
  5
7B8
  8
DEFPOINTS
 62
     0
 10
62.832750088673322
 20
60.487197496359883
 30
0.0
  0
ENDBLK
  5
7AF
  8
0
  0
BLOCK
  8
0
  2
*D7
 70
     1
 10
0.0
 20
0.0
 30
0.0
  3
*D7
  1

  0
LINE
  5
822
  8
2
 62
     0
 10
79.37826014468078
 20
42.862197496359869
 30
0.0
 11
79.37826014468078
 21
32.172014577553647
 31
0.0
  0
LINE
  5
823
  8
2
 62
     0
 10
109.3782601446807
 20
42.862197496359869
 30
0.0
 11
109.3782601446807
 21
32.172014577553647
 31
0.0
  0
LINE
  5
824
  8
2
 62
     0
 10
81.878260144680766
 20
33.422014577553647
 30
0.0
 11
106.8782601446807
 21
33.422014577553647
 31
0.0
  0
SOLID
  5
825
  8
2
 62
     0
 10
81.878260144680766
 20
33.838681244220311
 30
0.0
 11
81.878260144680766
 21
33.005347910886989
 31
0.0
 12
79.37826014468078
 22
33.422014577553647
 32
0.0
 13
79.37826014468078
 23
33.422014577553647
 33
0.0
  0
SOLID
  5
826
  8
2
 62
     0
 10
106.8782601446807
 20
33.838681244220311
 30
0.0
 11
106.8782601446807
 21
33.005347910886989
 31
0.0
 12
109.3782601446807
 22
33.422014577553647
 32
0.0
 13
109.3782601446807
 23
33.422014577553647
 33
0.0
  0
INSERT
  5
827
  8
2
  2
*U14
 10
0.0
 20
0.0
 30
0.0
  0
POINT
  5
828
  8
DEFPOINTS
 62
     0
 10
79.37826014468078
 20
43.487197496359869
 30
0.0
  0
POINT
  5
829
  8
DEFPOINTS
 62
     0
 10
109.3782601446807
 20
43.487197496359869
 30
0.0
  0
POINT
  5
82A
  8
DEFPOINTS
 62
     0
 10
109.3782601446807
 20
33.422014577553647
 30
0.0
  0
ENDBLK
  5
7C6
  8
0
  0
BLOCK
  8
0
  2
*D8
 70
     1
 10
0.0
 20
0.0
 30
0.0
  3
*D8
  1

  0
LINE
  5
840
  8
2
 62
     0
 10
76.37826014468078
 20
52.24922331026621
 30
0.0
 11
76.37826014468078
 21
27.497139707788929
 31
0.0
  0
LINE
  5
841
  8
2
 62
     0
 10
112.3782601446807
 20
52.24922331026621
 30
0.0
 11
112.3782601446807
 21
27.497139707788929
 31
0.0
  0
LINE
  5
842
  8
2
 62
     0
 10
78.87826014468078
 20
28.747139707788929
 30
0.0
 11
109.8782601446807
 21
28.747139707788929
 31
0.0
  0
SOLID
  5
843
  8
2
 62
     0
 10
78.87826014468078
 20
29.163806374455589
 30
0.0
 11
78.87826014468078
 21
28.330473041122261
 31
0.0
 12
76.37826014468078
 22
28.747139707788929
 32
0.0
 13
76.37826014468078
 23
28.747139707788929
 33
0.0
  0
SOLID
  5
844
  8
2
 62
     0
 10
109.8782601446807
 20
29.163806374455589
 30
0.0
 11
109.8782601446807
 21
28.330473041122261
 31
0.0
 12
112.3782601446807
 22
28.747139707788929
 32
0.0
 13
112.3782601446807
 23
28.747139707788929
 33
0.0
  0
INSERT
  5
845
  8
2
  2
*U15
 10
0.0
 20
0.0
 30
0.0
  0
POINT
  5
846
  8
DEFPOINTS
 62
     0
 10
76.37826014468078
 20
52.87422331026621
 30
0.0
  0
POINT
  5
847
  8
DEFPOINTS
 62
     0
 10
112.3782601446807
 20
52.87422331026621
 30
0.0
  0
POINT
  5
848
  8
DEFPOINTS
 62
     0
 10
112.3782601446807
 20
28.747139707788929
 30
0.0
  0
ENDBLK
  5
7DD
  8
0
  0
BLOCK
  8
0
  2
*D9
 70
     1
 10
0.0
 20
0.0
 30
0.0
  3
*D9
  1

  0
LINE
  5
819
  8
2
 62
     0
 10
85.87826014468078
 20
45.50016084477614
 30
0.0
 11
85.87826014468078
 21
36.513291101743299
 31
0.0
  0
LINE
  5
81A
  8
2
 62
     0
 10
102.8782601446807
 20
45.50016084477614
 30
0.0
 11
102.8782601446807
 21
36.513291101743299
 31
0.0
  0
LINE
  5
81B
  8
2
 62
     0
 10
88.37826014468078
 20
37.763291101743299
 30
0.0
 11
100.3782601446807
 21
37.763291101743299
 31
0.0
  0
SOLID
  5
81C
  8
2
 62
     0
 10
88.37826014468078
 20
38.17995776840997
 30
0.0
 11
88.37826014468078
 21
37.346624435076642
 31
0.0
 12
85.87826014468078
 22
37.763291101743299
 32
0.0
 13
85.87826014468078
 23
37.763291101743299
 33
0.0
  0
SOLID
  5
81D
  8
2
 62
     0
 10
100.3782601446807
 20
38.17995776840997
 30
0.0
 11
100.3782601446807
 21
37.346624435076642
 31
0.0
 12
102.8782601446807
 22
37.763291101743299
 32
0.0
 13
102.8782601446807
 23
37.763291101743299
 33
0.0
  0
INSERT
  5
81E
  8
2
  2
*U13
 10
0.0
 20
0.0
 30
0.0
  0
POINT
  5
81F
  8
DEFPOINTS
 62
     0
 10
85.87826014468078
 20
46.12516084477614
 30
0.0
  0
POINT
  5
820
  8
DEFPOINTS
 62
     0
 10
102.8782601446807
 20
46.12516084477614
 30
0.0
  0
POINT
  5
821
  8
DEFPOINTS
 62
     0
 10
102.8782601446807
 20
37.763291101743299
 30
0.0
  0
ENDBLK
  5
7F8
  8
0
  0
BLOCK
  8
0
  2
*U10
 70
     1
 10
0.0
 20
0.0
 30
0.0
  3
*U10
  1

  0
TEXT
  5
868
  8
2
 62
     0
 10
91.253260144680766
 20
96.740483137343304
 30
0.0
 40
2.5
  1
\U+2205
  0
TEXT
  5
869
  8
2
 62
     0
 10
93.753260144680766
 20
96.740483137343304
 30
0.0
 40
2.5
  1
20
  0
ENDBLK
  5
86B
  8
0
  0
BLOCK
  8
0
  2
*U11
 70
     1
 10
0.0
 20
0.0
 30
0.0
  3
*U11
  1

  0
TEXT
  5
86D
  8
2
 62
     0
 10
91.878260144680766
 20
91.812892037745158
 30
0.0
 40
2.5
  1
\U+2205
  0
TEXT
  5
86E
  8
2
 62
     0
 10
94.378260144680766
 20
91.812892037745158
 30
0.0
 40
2.5
  1
11
  0
ENDBLK
  5
870
  8
0
  0
BLOCK
  8
0
  2
*U12
 70
     1
 10
0.0
 20
0.0
 30
0.0
  3
*U12
  1

  0
TEXT
  5
872
  8
2
 62
     0
 10
92.294926811347452
 20
85.571276503971959
 30
0.0
 40
2.5
  1
\U+2205
  0
TEXT
  5
873
  8
2
 62
     0
 10
94.794926811347452
 20
85.571276503971959
 30
0.0
 40
2.5
  1
6
  0
ENDBLK
  5
875
  8
0
  0
BLOCK
  8
0
  2
*U13
 70
     1
 10
0.0
 20
0.0
 30
0.0
  3
*U13
  1

  0
TEXT
  5
877
  8
2
 62
     0
 10
91.461593478014109
 20
38.388291101743299
 30
0.0
 40
2.5
  1
\U+2205
  0
TEXT
  5
878
  8
2
 62
     0
 10
93.961593478014109
 20
38.388291101743299
 30
0.0
 40
2.5
  1
17
  0
ENDBLK
  5
87A
  8
0
  0
BLOCK
  8
0
  2
*U14
 70
     1
 10
0.0
 20
0.0
 30
0.0
  3
*U14
  1

  0
TEXT
  5
87C
  8
2
 62
     0
 10
91.253260144680766
 20
34.047014577553647
 30
0.0
 40
2.5
  1
\U+2205
  0
TEXT
  5
87D
  8
2
 62
     0
 10
93.753260144680766
 20
34.047014577553647
 30
0.0
 40
2.5
  1
30
  0
ENDBLK
  5
87F
  8
0
  0
BLOCK
  8
0
  2
*U15
 70
     1
 10
0.0
 20
0.0
 30
0.0
  3
*U15
  1

  0
TEXT
  5
881
  8
2
 62
     0
 10
91.044926811347452
 20
29.372139707788929
 30
0.0
 40
2.5
  1
\U+2205
  0
TEXT
  5
882
  8
2
 62
     0
 10
93.544926811347452
 20
29.372139707788929
 30
0.0
 40
2.5
  1
36
  0
ENDBLK
  5
884
  8
0
  0
ENDSEC
  0
SECTION
  2
ENTITIES
  0
POLYLINE
  5
1F9
  8
0
 66
     1
 10
0.0
 20
0.0
 30
0.0
 39
5.0
  0
VERTEX
  5
85B
  8
0
 10
78.740103757819469
 20
53.482997496359872
 30
0.0
  0
VERTEX
  5
85C
  8
0
 10
94.378260144680766
 20
53.482997496359872
 30
0.0
  0
SEQEND
  5
85D
  8
0
  0
POLYLINE
  5
349
  8
0
 66
     1
 10
0.0
 20
0.0
 30
0.0
 39
5.0
  0
VERTEX
  5
85E
  8
0
 10
86.188877035562697
 20
46.666297496359867
 30
0.0
  0
VERTEX
  5
85F
  8
0
 10
94.378260144680766
 20
46.666297496359867
 30
0.0
  0
SEQEND
  5
860
  8
0
  0
TEXT
  5
39C
  8
2
 10
77.088557758478032
 20
19.045004059057781
 30
0.0
 40
2.5399440000000002
  1
No. 23.030.125._
 41
0.999999951891823
 51
-0.0000015352344868
  7
\U+00C9L\U+00C9R_\U+00C2S\U+00C2V\U+00C2B\U+00C2N
  0
LINE
  5
3BB
  8
0
 39
5.0
 10
91.680960144680796
 20
60.486897496359873
 30
0.0
 11
91.680960144680796
 21
60.486897496359873
 31
0.0
  0
LINE
  5
3BC
  8
0
 39
5.0
 10
91.680960144680796
 20
60.486897496359873
 30
0.0
 11
91.703360144680801
 21
60.633497496359858
 31
0.0
  0
LINE
  5
3BD
  8
0
 39
5.0
 10
91.703360144680801
 20
60.633497496359858
 30
0.0
 11
91.723760144680796
 21
60.780397496359868
 31
0.0
  0
LINE
  5
3BE
  8
0
 39
5.0
 10
91.723760144680796
 20
60.780397496359868
 30
0.0
 11
91.742660144680784
 21
60.926497496359872
 31
0.0
  0
LINE
  5
3BF
  8
0
 39
5.0
 10
91.742660144680784
 20
60.926497496359872
 30
0.0
 11
91.761260144680804
 21
61.071397496359872
 31
0.0
  0
LINE
  5
3C0
  8
0
 39
5.0
 10
91.761260144680804
 20
61.071397496359872
 30
0.0
 11
91.780060144680789
 21
61.213997496359873
 31
0.0
  0
LINE
  5
3C1
  8
0
 39
5.0
 10
91.780060144680789
 20
61.213997496359873
 30
0.0
 11
91.800260144680792
 21
61.35389749635987
 31
0.0
  0
LINE
  5
3C2
  8
0
 39
5.0
 10
91.800260144680792
 20
61.35389749635987
 30
0.0
 11
91.822560144680779
 21
61.490097496359859
 31
0.0
  0
LINE
  5
3C3
  8
0
 39
5.0
 10
91.822560144680779
 20
61.490097496359859
 30
0.0
 11
91.847960144680798
 21
61.62229749635987
 31
0.0
  0
LINE
  5
3C4
  8
0
 39
5.0
 10
91.847960144680798
 20
61.62229749635987
 30
0.0
 11
91.876960144680794
 21
61.749197496359869
 31
0.0
  0
LINE
  5
3C5
  8
0
 39
5.0
 10
91.876960144680794
 20
61.749197496359869
 30
0.0
 11
91.910860144680782
 21
61.870397496359871
 31
0.0
  0
LINE
  5
3C6
  8
0
 39
5.0
 10
91.910860144680782
 20
61.870397496359871
 30
0.0
 11
91.950160144680794
 21
61.985197496359881
 31
0.0
  0
LINE
  5
3C7
  8
0
 39
5.0
 10
91.950160144680794
 20
61.985197496359881
 30
0.0
 11
91.9961601446808
 21
62.092897496359868
 31
0.0
  0
LINE
  5
3C8
  8
0
 39
5.0
 10
91.9961601446808
 20
62.092897496359868
 30
0.0
 11
92.049160144680798
 21
62.192497496359877
 31
0.0
  0
LINE
  5
3C9
  8
0
 39
5.0
 10
92.049160144680798
 20
62.192497496359877
 30
0.0
 11
92.11056014468079
 21
62.283597496359882
 31
0.0
  0
LINE
  5
3CA
  8
0
 39
5.0
 10
92.11056014468079
 20
62.283597496359882
 30
0.0
 11
92.180860144680793
 21
62.365297496359872
 31
0.0
  0
LINE
  5
3CB
  8
0
 39
5.0
 10
92.180860144680793
 20
62.365297496359872
 30
0.0
 11
92.26126014468079
 21
62.436997496359858
 31
0.0
  0
LINE
  5
3CF
  8
0
 39
5.0
 10
87.733036958058506
 20
60.487197496359869
 30
0.0
 11
79.4293601446808
 21
55.017797496359869
 31
0.0
  0
LINE
  5
3D0
  8
0
 39
5.0
 10
79.4293601446808
 20
55.017797496359869
 30
0.0
 11
79.4293601446808
 21
55.017797496359869
 31
0.0
  0
LINE
  5
3D1
  8
0
 39
5.0
 10
79.4293601446808
 20
55.017797496359869
 30
0.0
 11
79.259160144680791
 21
54.819197496359877
 31
0.0
  0
LINE
  5
3D2
  8
0
 39
5.0
 10
79.259160144680791
 20
54.819197496359877
 30
0.0
 11
79.111960144680779
 21
54.632897496359867
 31
0.0
  0
LINE
  5
3D3
  8
0
 39
5.0
 10
79.111960144680779
 20
54.632897496359867
 30
0.0
 11
78.987760144680792
 21
54.456497496359873
 31
0.0
  0
LINE
  5
3D4
  8
0
 39
5.0
 10
78.987760144680792
 20
54.456497496359873
 30
0.0
 11
78.887160144680792
 21
54.287797496359872
 31
0.0
  0
LINE
  5
3D5
  8
0
 39
5.0
 10
78.887160144680792
 20
54.287797496359872
 30
0.0
 11
78.80976014468078
 21
54.124297496359873
 31
0.0
  0
LINE
  5
3D6
  8
0
 39
5.0
 10
78.80976014468078
 20
54.124297496359873
 30
0.0
 11
78.756360144680798
 21
53.964097496359869
 31
0.0
  0
LINE
  5
3D7
  8
0
 39
5.0
 10
78.756360144680798
 20
53.964097496359869
 30
0.0
 11
78.726760144680782
 21
53.804797496359868
 31
0.0
  0
LINE
  5
3D8
  8
0
 39
5.0
 10
78.726760144680782
 20
53.804797496359868
 30
0.0
 11
78.72156014468078
 21
53.644297496359869
 31
0.0
  0
LINE
  5
3D9
  8
0
 39
5.0
 10
78.72156014468078
 20
53.644297496359869
 30
0.0
 11
78.740460144680782
 21
53.479897496359868
 31
0.0
  0
LINE
  5
3DA
  8
0
 39
5.0
 10
78.740460144680782
 20
53.479897496359868
 30
0.0
 11
78.784160144680783
 21
53.309797496359863
 31
0.0
  0
LINE
  5
3DB
  8
0
 39
5.0
 10
78.784160144680783
 20
53.309797496359863
 30
0.0
 11
78.85256014468078
 21
53.13149749635987
 31
0.0
  0
LINE
  5
3DC
  8
0
 39
5.0
 10
78.85256014468078
 20
53.13149749635987
 30
0.0
 11
78.946160144680789
 21
52.942997496359858
 31
0.0
  0
LINE
  5
3DD
  8
0
 39
5.0
 10
78.946160144680789
 20
52.942997496359858
 30
0.0
 11
79.06476014468079
 21
52.741697496359869
 31
0.0
  0
LINE
  5
3DE
  8
0
 39
5.0
 10
79.06476014468079
 20
52.741697496359869
 30
0.0
 11
79.208960144680788
 21
52.525697496359868
 31
0.0
  0
LINE
  5
3DF
  8
0
 39
5.0
 10
79.208960144680788
 20
52.525697496359868
 30
0.0
 11
79.378760144680797
 21
52.292597496359868
 31
0.0
  0
LINE
  5
3E0
  8
0
 39
5.0
 10
79.378760144680797
 20
52.292597496359868
 30
0.0
 11
79.574460144680785
 21
52.040297496359869
 31
0.0
  0
LINE
  5
3E1
  8
0
 39
5.0
 10
79.574460144680785
 20
52.040297496359869
 30
0.0
 11
85.688860144680788
 21
47.894297496359869
 31
0.0
  0
LINE
  5
3E2
  8
0
 39
5.0
 10
85.688860144680788
 20
47.894297496359869
 30
0.0
 11
85.688860144680788
 21
47.894297496359869
 31
0.0
  0
LINE
  5
3E3
  8
0
 39
5.0
 10
85.688860144680788
 20
47.894297496359869
 30
0.0
 11
85.802960144680782
 21
47.784597496359858
 31
0.0
  0
LINE
  5
3E4
  8
0
 39
5.0
 10
85.802960144680782
 20
47.784597496359858
 30
0.0
 11
85.87826014468078
 21
47.699109849301053
 31
0.0
  0
LINE
  5
3F0
  8
0
 39
5.0
 10
85.87826014468078
 20
46.12516084477614
 30
0.0
 11
85.869260144680794
 21
46.115297496359872
 31
0.0
  0
LINE
  5
3F1
  8
0
 39
5.0
 10
85.869260144680794
 20
46.115297496359872
 30
0.0
 11
85.735460144680786
 21
45.999397496359869
 31
0.0
  0
LINE
  5
3F2
  8
0
 39
5.0
 10
85.735460144680786
 20
45.999397496359869
 30
0.0
 11
85.577760144680781
 21
45.890297496359857
 31
0.0
  0
LINE
  5
3F3
  8
0
 39
5.0
 10
85.577760144680781
 20
45.890297496359857
 30
0.0
 11
80.829860144680794
 21
43.487197496359869
 31
0.0
  0
LINE
  5
3F7
  8
0
 10
92.26126014468079
 20
62.436997496359858
 30
0.0
 11
88.87826014468078
 21
62.436997496359858
 31
0.0
  0
LINE
  5
3FC
  8
0
 10
94.378260144680766
 20
60.486897496359873
 30
0.0
 11
91.680960144680796
 21
60.486897496359873
 31
0.0
  0
LINE
  5
408
  8
0
 39
5.0
 10
94.378260144680766
 20
73.987197496359855
 30
0.0
 11
86.340660144680783
 21
73.987197496359855
 31
0.0
  0
LINE
  5
409
  8
0
 39
5.0
 10
86.340660144680783
 20
73.987197496359855
 30
0.0
 11
84.378260144680766
 21
71.863253662285146
 31
0.0
  0
LINE
  5
40C
  8
0
 39
5.0
 10
77.619060144680773
 20
54.885297496359861
 30
0.0
 11
76.37826014468078
 21
54.894053242973541
 31
0.0
  0
LINE
  5
40E
  8
0
 39
5.0
 10
76.37826014468078
 20
52.87422331026621
 30
0.0
 11
83.78566014468079
 21
47.880497496359872
 31
0.0
  0
LINE
  5
40F
  8
0
 39
5.0
 10
83.78566014468079
 20
47.880497496359872
 30
0.0
 11
83.78566014468079
 21
47.880497496359872
 31
0.0
  0
LINE
  5
410
  8
0
 39
5.0
 10
83.78566014468079
 20
47.880497496359872
 30
0.0
 11
83.916160144680788
 21
47.711597496359857
 31
0.0
  0
LINE
  5
411
  8
0
 39
5.0
 10
83.916160144680788
 20
47.711597496359857
 30
0.0
 11
84.034960144680781
 21
47.566097496359873
 31
0.0
  0
LINE
  5
412
  8
0
 39
5.0
 10
84.034960144680781
 20
47.566097496359873
 30
0.0
 11
84.140060144680774
 21
47.440597496359871
 31
0.0
  0
LINE
  5
413
  8
0
 39
5.0
 10
84.140060144680774
 20
47.440597496359871
 30
0.0
 11
84.229960144680788
 21
47.332097496359857
 31
0.0
  0
LINE
  5
414
  8
0
 39
5.0
 10
84.229960144680788
 20
47.332097496359857
 30
0.0
 11
84.302660144680786
 21
47.237297496359872
 31
0.0
  0
LINE
  5
415
  8
0
 39
5.0
 10
84.302660144680786
 20
47.237297496359872
 30
0.0
 11
84.356960144680784
 21
47.153297496359862
 31
0.0
  0
LINE
  5
416
  8
0
 39
5.0
 10
84.356960144680784
 20
47.153297496359862
 30
0.0
 11
84.390660144680794
 21
47.076797496359873
 31
0.0
  0
LINE
  5
417
  8
0
 39
5.0
 10
84.390660144680794
 20
47.076797496359873
 30
0.0
 11
84.402360144680785
 21
47.004597496359857
 31
0.0
  0
LINE
  5
418
  8
0
 39
5.0
 10
84.402360144680785
 20
47.004597496359857
 30
0.0
 11
84.390060144680788
 21
46.93349749635987
 31
0.0
  0
LINE
  5
419
  8
0
 39
5.0
 10
84.390060144680788
 20
46.93349749635987
 30
0.0
 11
84.352360144680787
 21
46.860597496359873
 31
0.0
  0
LINE
  5
41A
  8
0
 39
5.0
 10
84.352360144680787
 20
46.860597496359873
 30
0.0
 11
84.287360144680775
 21
46.782497496359873
 31
0.0
  0
LINE
  5
41B
  8
0
 39
5.0
 10
84.287360144680775
 20
46.782497496359873
 30
0.0
 11
84.193760144680795
 21
46.696297496359868
 31
0.0
  0
LINE
  5
41C
  8
0
 39
5.0
 10
84.193760144680795
 20
46.696297496359868
 30
0.0
 11
84.069260144680783
 21
46.598497496359869
 31
0.0
  0
LINE
  5
41D
  8
0
 39
5.0
 10
84.069260144680783
 20
46.598497496359869
 30
0.0
 11
83.912560144680782
 21
46.48629749635986
 31
0.0
  0
LINE
  5
41E
  8
0
 39
5.0
 10
83.912560144680782
 20
46.48629749635986
 30
0.0
 11
83.721760144680786
 21
46.356397496359868
 31
0.0
  0
LINE
  5
41F
  8
0
 39
5.0
 10
83.721760144680786
 20
46.356397496359868
 30
0.0
 11
83.495460144680806
 21
46.205797496359857
 31
0.0
  0
LINE
  5
420
  8
0
 39
5.0
 10
83.495460144680806
 20
46.205797496359857
 30
0.0
 11
79.37826014468078
 21
43.487197496359869
 31
0.0
  0
LINE
  5
619
  8
1
 10
94.378260144680766
 20
74.487197496359869
 30
0.0
 11
94.378260144680766
 21
42.987197496359869
 31
0.0
  0
LINE
  5
61F
  8
0
 10
91.37826014468078
 20
73.987197496359855
 30
0.0
 11
91.37826014468078
 21
66.486897496359873
 31
0.0
  0
LINE
  5
621
  8
0
 10
94.378260144680766
 20
66.486897496359873
 30
0.0
 11
88.878260144680794
 21
66.486897496359873
 31
0.0
  0
LINE
  5
625
  8
0
 10
88.87826014468078
 20
60.487197496359869
 30
0.0
 11
88.87826014468078
 21
66.486897496359873
 31
0.0
  0
LINE
  5
62C
  8
0
 10
79.37826014468078
 20
43.487197496359869
 30
0.0
 11
94.378260144680766
 21
43.487197496359869
 31
0.0
  0
LINE
  5
631
  8
0
 10
84.378260144680766
 20
71.863253662285146
 30
0.0
 11
84.378260144680766
 21
61.48689749635988
 31
0.0
  0
LINE
  5
634
  8
0
 10
84.378260144680766
 20
61.48689749635988
 30
0.0
 11
77.619060144680773
 21
54.885297496359861
 31
0.0
  0
LINE
  5
63D
  8
0
 10
76.37826014468078
 20
54.894053242973548
 30
0.0
 11
76.37826014468078
 21
52.87422331026621
 31
0.0
  0
LINE
  5
63F
  8
0
 39
5.0
 10
102.41586014468071
 20
73.987197496359855
 30
0.0
 11
104.3782601446807
 21
71.863253662285146
 31
0.0
  0
LINE
  5
640
  8
0
 39
5.0
 10
101.02393879315331
 20
60.486897496359873
 30
0.0
 11
109.3271601446807
 21
55.017797496359869
 31
0.0
  0
LINE
  5
642
  8
0
 39
5.0
 10
105.2610601446807
 20
46.205797496359857
 30
0.0
 11
109.3782601446807
 21
43.487197496359869
 31
0.0
  0
LINE
  5
643
  8
0
 39
5.0
 10
105.0347601446807
 20
46.356397496359868
 30
0.0
 11
105.2610601446807
 21
46.205797496359857
 31
0.0
  0
LINE
  5
644
  8
0
 39
5.0
 10
104.84396014468069
 20
46.48629749635986
 30
0.0
 11
105.0347601446807
 21
46.356397496359868
 31
0.0
  0
LINE
  5
645
  8
0
 39
5.0
 10
104.68726014468071
 20
46.598497496359869
 30
0.0
 11
104.84396014468069
 21
46.48629749635986
 31
0.0
  0
LINE
  5
646
  8
0
 39
5.0
 10
104.56276014468069
 20
46.696297496359868
 30
0.0
 11
104.68726014468071
 21
46.598497496359869
 31
0.0
  0
LINE
  5
647
  8
0
 39
5.0
 10
104.4691601446807
 20
46.782497496359873
 30
0.0
 11
104.56276014468069
 21
46.696297496359868
 31
0.0
  0
LINE
  5
648
  8
0
 39
5.0
 10
104.4041601446807
 20
46.860597496359873
 30
0.0
 11
104.4691601446807
 21
46.782497496359873
 31
0.0
  0
LINE
  5
649
  8
0
 39
5.0
 10
104.3664601446807
 20
46.93349749635987
 30
0.0
 11
104.4041601446807
 21
46.860597496359873
 31
0.0
  0
LINE
  5
64A
  8
0
 39
5.0
 10
104.35416014468071
 20
47.004597496359857
 30
0.0
 11
104.3664601446807
 21
46.93349749635987
 31
0.0
  0
LINE
  5
64B
  8
0
 39
5.0
 10
104.3658601446807
 20
47.076797496359873
 30
0.0
 11
104.35416014468071
 21
47.004597496359857
 31
0.0
  0
LINE
  5
64C
  8
0
 39
5.0
 10
104.39956014468071
 20
47.153297496359862
 30
0.0
 11
104.3658601446807
 21
47.076797496359873
 31
0.0
  0
LINE
  5
64D
  8
0
 39
5.0
 10
104.4538601446807
 20
47.237297496359872
 30
0.0
 11
104.39956014468071
 21
47.153297496359862
 31
0.0
  0
LINE
  5
64E
  8
0
 39
5.0
 10
104.5265601446807
 20
47.332097496359857
 30
0.0
 11
104.4538601446807
 21
47.237297496359872
 31
0.0
  0
LINE
  5
64F
  8
0
 39
5.0
 10
104.6164601446807
 20
47.440597496359871
 30
0.0
 11
104.5265601446807
 21
47.332097496359857
 31
0.0
  0
LINE
  5
650
  8
0
 39
5.0
 10
104.72156014468069
 20
47.566097496359873
 30
0.0
 11
104.6164601446807
 21
47.440597496359871
 31
0.0
  0
LINE
  5
651
  8
0
 39
5.0
 10
104.8403601446807
 20
47.711597496359857
 30
0.0
 11
104.72156014468069
 21
47.566097496359873
 31
0.0
  0
LINE
  5
652
  8
0
 39
5.0
 10
104.9708601446807
 20
47.880497496359872
 30
0.0
 11
104.8403601446807
 21
47.711597496359857
 31
0.0
  0
LINE
  5
653
  8
0
 39
5.0
 10
104.9708601446807
 20
47.880497496359872
 30
0.0
 11
104.9708601446807
 21
47.880497496359872
 31
0.0
  0
LINE
  5
654
  8
0
 39
5.0
 10
112.3782601446807
 20
52.87422331026621
 30
0.0
 11
104.9708601446807
 21
47.880497496359872
 31
0.0
  0
LINE
  5
655
  8
0
 39
5.0
 10
111.1374601446807
 20
54.885297496359861
 30
0.0
 11
112.3782601446807
 21
54.894053242973541
 31
0.0
  0
LINE
  5
656
  8
0
 39
5.0
 10
94.378260144680766
 20
73.987197496359855
 30
0.0
 11
102.41586014468071
 21
73.987197496359855
 31
0.0
  0
LINE
  5
657
  8
0
 39
5.0
 10
103.17876014468069
 20
45.890297496359857
 30
0.0
 11
107.9266601446807
 21
43.487197496359869
 31
0.0
  0
LINE
  5
658
  8
0
 39
5.0
 10
103.0210601446807
 20
45.999397496359869
 30
0.0
 11
103.17876014468069
 21
45.890297496359857
 31
0.0
  0
LINE
  5
659
  8
0
 39
5.0
 10
102.8872601446807
 20
46.115297496359872
 30
0.0
 11
103.0210601446807
 21
45.999397496359869
 31
0.0
  0
LINE
  5
65A
  8
0
 39
5.0
 10
102.8782601446807
 20
46.12516084477614
 30
0.0
 11
102.8872601446807
 21
46.115297496359872
 31
0.0
  0
LINE
  5
666
  8
0
 39
5.0
 10
102.95356014468069
 20
47.784597496359858
 30
0.0
 11
102.8782601446807
 21
47.699109849301017
 31
0.0
  0
LINE
  5
667
  8
0
 39
5.0
 10
103.0676601446807
 20
47.894297496359869
 30
0.0
 11
102.95356014468069
 21
47.784597496359858
 31
0.0
  0
LINE
  5
668
  8
0
 39
5.0
 10
103.0676601446807
 20
47.894297496359869
 30
0.0
 11
103.0676601446807
 21
47.894297496359869
 31
0.0
  0
LINE
  5
669
  8
0
 39
5.0
 10
109.1820601446807
 20
52.040297496359869
 30
0.0
 11
103.0676601446807
 21
47.894297496359869
 31
0.0
  0
LINE
  5
66A
  8
0
 39
5.0
 10
109.37776014468071
 20
52.292597496359868
 30
0.0
 11
109.1820601446807
 21
52.040297496359869
 31
0.0
  0
LINE
  5
66B
  8
0
 39
5.0
 10
109.5475601446807
 20
52.525697496359868
 30
0.0
 11
109.37776014468071
 21
52.292597496359868
 31
0.0
  0
LINE
  5
66C
  8
0
 39
5.0
 10
109.6917601446807
 20
52.741697496359869
 30
0.0
 11
109.5475601446807
 21
52.525697496359868
 31
0.0
  0
LINE
  5
66D
  8
0
 39
5.0
 10
109.8103601446807
 20
52.942997496359858
 30
0.0
 11
109.6917601446807
 21
52.741697496359869
 31
0.0
  0
LINE
  5
66E
  8
0
 39
5.0
 10
109.9039601446807
 20
53.13149749635987
 30
0.0
 11
109.8103601446807
 21
52.942997496359858
 31
0.0
  0
LINE
  5
66F
  8
0
 39
5.0
 10
109.97236014468071
 20
53.309797496359863
 30
0.0
 11
109.9039601446807
 21
53.13149749635987
 31
0.0
  0
LINE
  5
670
  8
0
 39
5.0
 10
110.01606014468069
 20
53.479897496359868
 30
0.0
 11
109.97236014468071
 21
53.309797496359863
 31
0.0
  0
LINE
  5
671
  8
0
 39
5.0
 10
110.0349601446807
 20
53.644297496359869
 30
0.0
 11
110.01606014468069
 21
53.479897496359868
 31
0.0
  0
LINE
  5
672
  8
0
 39
5.0
 10
110.02976014468069
 20
53.804797496359868
 30
0.0
 11
110.0349601446807
 21
53.644297496359869
 31
0.0
  0
LINE
  5
673
  8
0
 39
5.0
 10
110.00016014468071
 20
53.964097496359869
 30
0.0
 11
110.02976014468069
 21
53.804797496359868
 31
0.0
  0
LINE
  5
674
  8
0
 39
5.0
 10
109.9467601446807
 20
54.124297496359873
 30
0.0
 11
110.00016014468071
 21
53.964097496359869
 31
0.0
  0
LINE
  5
675
  8
0
 39
5.0
 10
109.8693601446807
 20
54.287797496359872
 30
0.0
 11
109.9467601446807
 21
54.124297496359873
 31
0.0
  0
LINE
  5
676
  8
0
 39
5.0
 10
109.7687601446807
 20
54.456497496359873
 30
0.0
 11
109.8693601446807
 21
54.287797496359872
 31
0.0
  0
LINE
  5
677
  8
0
 39
5.0
 10
109.6445601446807
 20
54.632897496359867
 30
0.0
 11
109.7687601446807
 21
54.456497496359873
 31
0.0
  0
LINE
  5
678
  8
0
 39
5.0
 10
109.4973601446807
 20
54.819197496359877
 30
0.0
 11
109.6445601446807
 21
54.632897496359867
 31
0.0
  0
LINE
  5
679
  8
0
 39
5.0
 10
109.3271601446807
 20
55.017797496359869
 30
0.0
 11
109.4973601446807
 21
54.819197496359877
 31
0.0
  0
LINE
  5
67A
  8
0
 39
5.0
 10
109.3271601446807
 20
55.017797496359869
 30
0.0
 11
109.3271601446807
 21
55.017797496359869
 31
0.0
  0
LINE
  5
67B
  8
0
 39
5.0
 10
96.575660144680768
 20
62.365297496359872
 30
0.0
 11
96.495260144680785
 21
62.436997496359858
 31
0.0
  0
LINE
  5
67C
  8
0
 39
5.0
 10
96.645960144680771
 20
62.283597496359882
 30
0.0
 11
96.575660144680768
 21
62.365297496359872
 31
0.0
  0
LINE
  5
67D
  8
0
 39
5.0
 10
96.707360144680763
 20
62.192497496359877
 30
0.0
 11
96.645960144680771
 21
62.283597496359882
 31
0.0
  0
LINE
  5
67E
  8
0
 39
5.0
 10
96.76036014468076
 20
62.092897496359868
 30
0.0
 11
96.707360144680763
 21
62.192497496359877
 31
0.0
  0
LINE
  5
67F
  8
0
 39
5.0
 10
96.806360144680781
 20
61.985197496359881
 30
0.0
 11
96.76036014468076
 21
62.092897496359868
 31
0.0
  0
LINE
  5
680
  8
0
 39
5.0
 10
96.845660144680778
 20
61.870397496359871
 30
0.0
 11
96.806360144680781
 21
61.985197496359881
 31
0.0
  0
LINE
  5
681
  8
0
 39
5.0
 10
96.879560144680781
 20
61.749197496359869
 30
0.0
 11
96.845660144680778
 21
61.870397496359871
 31
0.0
  0
LINE
  5
682
  8
0
 39
5.0
 10
96.908560144680763
 20
61.62229749635987
 30
0.0
 11
96.879560144680781
 21
61.749197496359869
 31
0.0
  0
LINE
  5
683
  8
0
 39
5.0
 10
96.933960144680782
 20
61.490097496359859
 30
0.0
 11
96.908560144680763
 21
61.62229749635987
 31
0.0
  0
LINE
  5
684
  8
0
 39
5.0
 10
96.956260144680769
 20
61.35389749635987
 30
0.0
 11
96.933960144680782
 21
61.490097496359859
 31
0.0
  0
LINE
  5
685
  8
0
 39
5.0
 10
96.976460144680772
 20
61.213997496359873
 30
0.0
 11
96.956260144680769
 21
61.35389749635987
 31
0.0
  0
LINE
  5
686
  8
0
 39
5.0
 10
96.995260144680771
 20
61.071397496359872
 30
0.0
 11
96.976460144680772
 21
61.213997496359873
 31
0.0
  0
LINE
  5
687
  8
0
 39
5.0
 10
97.013860144680777
 20
60.926497496359872
 30
0.0
 11
96.995260144680771
 21
61.071397496359872
 31
0.0
  0
LINE
  5
688
  8
0
 39
5.0
 10
97.032760144680765
 20
60.780397496359868
 30
0.0
 11
97.013860144680777
 21
60.926497496359872
 31
0.0
  0
LINE
  5
689
  8
0
 39
5.0
 10
97.05316014468076
 20
60.633497496359858
 30
0.0
 11
97.032760144680765
 21
60.780397496359868
 31
0.0
  0
LINE
  5
68A
  8
0
 39
5.0
 10
97.075560144680765
 20
60.486897496359873
 30
0.0
 11
97.05316014468076
 21
60.633497496359858
 31
0.0
  0
LINE
  5
68B
  8
0
 39
5.0
 10
97.075560144680765
 20
60.486897496359873
 30
0.0
 11
97.075560144680765
 21
60.486897496359873
 31
0.0
  0
POLYLINE
  5
68D
  8
0
 66
     1
 10
0.0
 20
0.0
 30
0.0
 39
5.0
  0
VERTEX
  5
861
  8
0
 10
102.56764325379881
 20
46.666297496359867
 30
0.0
  0
VERTEX
  5
862
  8
0
 10
94.378260144680766
 20
46.666297496359867
 30
0.0
  0
SEQEND
  5
863
  8
0
  0
POLYLINE
  5
68E
  8
0
 66
     1
 10
0.0
 20
0.0
 30
0.0
 39
5.0
  0
VERTEX
  5
864
  8
0
 10
110.01641653154211
 20
53.482997496359872
 30
0.0
  0
VERTEX
  5
865
  8
0
 10
94.378260144680766
 20
53.482997496359872
 30
0.0
  0
SEQEND
  5
866
  8
0
  0
LINE
  5
68F
  8
0
 10
104.3782601446807
 20
61.48689749635988
 30
0.0
 11
111.1374601446807
 21
54.885297496359861
 31
0.0
  0
LINE
  5
690
  8
0
 10
112.3782601446807
 20
54.894053242973548
 30
0.0
 11
112.3782601446807
 21
52.87422331026621
 31
0.0
  0
LINE
  5
691
  8
0
 10
109.3782601446807
 20
43.487197496359869
 30
0.0
 11
94.378260144680766
 21
43.487197496359869
 31
0.0
  0
LINE
  5
692
  8
0
 10
104.3782601446807
 20
71.863253662285146
 30
0.0
 11
104.3782601446807
 21
61.48689749635988
 31
0.0
  0
LINE
  5
693
  8
0
 10
97.37826014468078
 20
73.987197496359855
 30
0.0
 11
97.37826014468078
 21
66.486897496359873
 31
0.0
  0
LINE
  5
694
  8
0
 10
99.87826014468078
 20
60.486897496359873
 30
0.0
 11
99.87826014468078
 21
66.486897496359873
 31
0.0
  0
LINE
  5
695
  8
0
 10
99.87826014468078
 20
60.486897496359873
 30
0.0
 11
101.02393879315331
 21
60.486897496359873
 31
0.0
  0
LINE
  5
696
  8
0
 10
94.378260144680766
 20
60.486897496359873
 30
0.0
 11
97.075560144680765
 21
60.486897496359873
 31
0.0
  0
LINE
  5
697
  8
0
 10
94.378260144680766
 20
66.486897496359873
 30
0.0
 11
99.878260144680766
 21
66.486897496359873
 31
0.0
  0
LINE
  5
698
  8
0
 10
96.495260144680785
 20
62.436997496359858
 30
0.0
 11
99.87826014468078
 21
62.436997496359858
 31
0.0
  0
DIMENSION
  5
73E
  8
2
  2
*D1
 10
97.37826014468078
 20
84.946276503971959
 30
0.0
 11
94.378260144680766
 21
86.821276503971959
 31
0.0
 70
     0
  1
%%c<>
 13
91.37826014468078
 23
73.987197496359855
 33
0.0
 14
97.37826014468078
 24
73.987197496359855
 34
0.0
  0
DIMENSION
  5
74D
  8
2
  2
*D2
 10
99.87826014468078
 20
91.187892037745158
 30
0.0
 11
94.378260144680766
 21
93.062892037745158
 31
0.0
 70
     0
  1
%%c<>
 13
88.87826014468078
 23
66.486897496359873
 33
0.0
 14
99.87826014468078
 24
66.486897496359873
 34
0.0
  0
DIMENSION
  5
75A
  8
2
  2
*D3
 10
104.3782601446807
 20
96.115483137343304
 30
0.0
 11
94.378260144680766
 21
97.990483137343304
 31
0.0
 70
     0
  1
%%c<>
 13
84.378260144680766
 23
71.863253662285146
 33
0.0
 14
104.3782601446807
 24
71.863253662285146
 34
0.0
  0
DIMENSION
  5
767
  8
2
  2
*D4
 10
124.3860439912019
 20
66.486897496359873
 30
0.0
 11
122.5110439912018
 21
70.237047496359892
 31
0.0
 70
     0
 13
102.41586014468071
 23
73.987197496359855
 33
0.0
 14
99.87826014468078
 24
66.486897496359873
 34
0.0
 50
90.0
  0
DIMENSION
  5
774
  8
2
  2
*D5
 10
131.29405493959001
 20
43.487197496359862
 30
0.0
 11
129.41905493959001
 21
58.73719749635989
 31
0.0
 70
     0
 13
102.41586014468071
 23
73.987197496359855
 33
0.0
 14
107.9266601446807
 24
43.487197496359869
 34
0.0
 50
90.0
1001
ACAD
1000
DSTYLE
1002
{
1070
   271
1070
     6
1002
}
  0
LINE
  5
7A1
  8
0
 10
88.87826014468078
 20
60.487197496359869
 30
0.0
 11
87.733036958058506
 21
60.487197496359869
 31
0.0
  0
DIMENSION
  5
7A3
  8
2
  2
*D6
 10
62.832750088673322
 20
60.487197496359883
 30
0.0
 11
60.957750088673308
 21
51.987197496359869
 31
0.0
 70
     0
 13
79.37826014468078
 23
43.487197496359869
 33
0.0
 14
88.87826014468078
 24
60.487197496359869
 34
0.0
 50
90.0
1001
ACAD
1000
DSTYLE
1002
{
1070
   271
1070
     6
1002
}
  0
DIMENSION
  5
7BA
  8
2
  2
*D7
 10
109.3782601446807
 20
33.422014577553647
 30
0.0
 11
94.378260144680766
 21
35.297014577553647
 31
0.0
 70
     0
  1
%%c<>
 13
79.37826014468078
 23
43.487197496359869
 33
0.0
 14
109.3782601446807
 24
43.487197496359869
 34
0.0
1001
ACAD
1000
DSTYLE
1002
{
1070
   271
1070
     6
1002
}
  0
DIMENSION
  5
7D1
  8
2
  2
*D8
 10
112.3782601446807
 20
28.747139707788929
 30
0.0
 11
94.378260144680766
 21
30.622139707788929
 31
0.0
 70
     0
  1
%%c<>
 13
76.37826014468078
 23
52.87422331026621
 33
0.0
 14
112.3782601446807
 24
52.87422331026621
 34
0.0
1001
ACAD
1000
DSTYLE
1002
{
1070
   271
1070
     6
1002
}
  0
LINE
  5
7E8
  8
0
 10
85.87826014468078
 20
47.699109849301053
 30
0.0
 11
85.87826014468078
 21
46.12516084477614
 31
0.0
  0
LINE
  5
7E9
  8
0
 10
102.8782601446807
 20
47.699109849301053
 30
0.0
 11
102.8782601446807
 21
46.12516084477614
 31
0.0
  0
DIMENSION
  5
7EC
  8
2
  2
*D9
 10
102.8782601446807
 20
37.763291101743299
 30
0.0
 11
94.378260144680766
 21
39.638291101743299
 31
0.0
 70
     0
  1
%%c<>
 13
85.87826014468078
 23
46.12516084477614
 33
0.0
 14
102.8782601446807
 24
46.12516084477614
 34
0.0
  0
ENDSEC
  0
EOF
