  0
SECTION
  2
HEADER
  9
$ACADVER
  1
AC1009
  9
$INSBASE
 10
0.0
 20
0.0
 30
0.0
  9
$EXTMIN
 10
57.340726207078717
 20
39.314153708115448
 30
0.0
  9
$EXTMAX
 10
77.938050751983951
 20
71.811374579924802
 30
2.536148569999999
  9
$LIMMIN
 10
0.0
 20
0.0
  9
$LIMMAX
 10
420.0
 20
297.0
  9
$ORTHOMODE
 70
     0
  9
$REGENMODE
 70
     1
  9
$FILLMODE
 70
     1
  9
$QTEXTMODE
 70
     0
  9
$MIRRTEXT
 70
     1
  9
$DRAGMODE
 70
     2
  9
$LTSCALE
 40
0.3
  9
$OSMODE
 70
    37
  9
$ATTMODE
 70
     1
  9
$TEXTSIZE
 40
2.5
  9
$TRACEWID
 40
1.0
  9
$TEXTSTYLE
  7
STANDARD
  9
$CLAYER
  8
2
  9
$CELTYPE
  6
BYLAYER
  9
$CECOLOR
 62
   256
  9
$DIMSCALE
 40
0.5
  9
$DIMASZ
 40
2.5
  9
$DIMEXO
 40
0.625
  9
$DIMDLI
 40
3.75
  9
$DIMRND
 40
0.0
  9
$DIMDLE
 40
0.0
  9
$DIMEXE
 40
1.25
  9
$DIMTP
 40
0.0
  9
$DIMTM
 40
0.0
  9
$DIMTXT
 40
2.5
  9
$DIMCEN
 40
2.5
  9
$DIMTSZ
 40
0.0
  9
$DIMTOL
 70
     0
  9
$DIMLIM
 70
     0
  9
$DIMTIH
 70
     0
  9
$DIMTOH
 70
     0
  9
$DIMSE1
 70
     0
  9
$DIMSE2
 70
     0
  9
$DIMTAD
 70
     1
  9
$DIMZIN
 70
     8
  9
$DIMBLK
  1

  9
$DIMASO
 70
     1
  9
$DIMSHO
 70
     1
  9
$DIMPOST
  1

  9
$DIMAPOST
  1

  9
$DIMALT
 70
     0
  9
$DIMALTD
 70
     3
  9
$DIMALTF
 40
0.03937007874016
  9
$DIMLFAC
 40
1.0
  9
$DIMTOFL
 70
     1
  9
$DIMTVP
 40
0.0
  9
$DIMTIX
 70
     0
  9
$DIMSOXD
 70
     0
  9
$DIMSAH
 70
     0
  9
$DIMBLK1
  1

  9
$DIMBLK2
  1

  9
$DIMSTYLE
  2
ISO-25
  9
$DIMCLRD
 70
     0
  9
$DIMCLRE
 70
     0
  9
$DIMCLRT
 70
     0
  9
$DIMTFAC
 40
1.0
  9
$DIMGAP
 40
0.625
  9
$LUNITS
 70
     2
  9
$LUPREC
 70
     4
  9
$SKETCHINC
 40
1.0
  9
$FILLETRAD
 40
10.0
  9
$AUNITS
 70
     0
  9
$AUPREC
 70
     0
  9
$MENU
  1
.
  9
$ELEVATION
 40
0.0
  9
$PELEVATION
 40
0.0
  9
$THICKNESS
 40
0.0
  9
$LIMCHECK
 70
     0
  9
$BLIPMODE
 70
     0
  9
$CHAMFERA
 40
10.0
  9
$CHAMFERB
 40
10.0
  9
$SKPOLY
 70
     0
  9
$TDCREATE
 40
2453439.435601111
  9
$TDUPDATE
 40
2453551.9091419792
  9
$TDINDWG
 40
0.0372228356
  9
$TDUSRTIMER
 40
0.0372227199
  9
$USRTIMER
 70
     1
  9
$ANGBASE
 50
0.0
  9
$ANGDIR
 70
     0
  9
$PDMODE
 70
     0
  9
$PDSIZE
 40
0.0
  9
$PLINEWID
 40
0.0
  9
$COORDS
 70
     1
  9
$SPLFRAME
 70
     0
  9
$SPLINETYPE
 70
     6
  9
$SPLINESEGS
 70
     8
  9
$ATTDIA
 70
     0
  9
$ATTREQ
 70
     1
  9
$HANDLING
 70
-16383
  9
$HANDSEED
  5
70B
  9
$SURFTAB1
 70
     6
  9
$SURFTAB2
 70
     6
  9
$SURFTYPE
 70
     6
  9
$SURFU
 70
     6
  9
$SURFV
 70
     6
  9
$UCSNAME
  2

  9
$UCSORG
 10
0.0
 20
0.0
 30
0.0
  9
$UCSXDIR
 10
1.0
 20
0.0
 30
0.0
  9
$UCSYDIR
 10
0.0
 20
1.0
 30
0.0
  9
$PUCSNAME
  2

  9
$PUCSORG
 10
0.0
 20
0.0
 30
0.0
  9
$PUCSXDIR
 10
1.0
 20
0.0
 30
0.0
  9
$PUCSYDIR
 10
0.0
 20
1.0
 30
0.0
  9
$USERI1
 70
     0
  9
$USERI2
 70
     0
  9
$USERI3
 70
     0
  9
$USERI4
 70
     0
  9
$USERI5
 70
     0
  9
$USERR1
 40
0.0
  9
$USERR2
 40
0.0
  9
$USERR3
 40
0.0
  9
$USERR4
 40
0.0
  9
$USERR5
 40
0.0
  9
$WORLDVIEW
 70
     1
  9
$SHADEDGE
 70
     3
  9
$SHADEDIF
 70
    70
  9
$TILEMODE
 70
     1
  9
$MAXACTVP
 70
    64
  9
$PLIMCHECK
 70
     0
  9
$PEXTMIN
 10
1.0000000000000000E+020
 20
1.0000000000000000E+020
 30
1.0000000000000000E+020
  9
$PEXTMAX
 10
-1.0000000000000000E+020
 20
-1.0000000000000000E+020
 30
-1.0000000000000000E+020
  9
$PLIMMIN
 10
0.0
 20
0.0
  9
$PLIMMAX
 10
420.0
 20
297.0
  9
$UNITMODE
 70
     0
  9
$VISRETAIN
 70
     1
  9
$PLINEGEN
 70
     0
  9
$PSLTSCALE
 70
     1
  0
ENDSEC
  0
SECTION
  2
TABLES
  0
TABLE
  2
VPORT
 70
     2
  0
VPORT
  2
*ACTIVE
 70
     0
 10
0.0
 20
0.0
 11
1.0
 21
1.0
 12
66.872994331722424
 22
56.208580136074453
 13
0.0
 23
0.0
 14
10.0
 24
10.0
 15
10.0
 25
10.0
 16
0.0
 26
0.0
 36
1.0
 17
0.0
 27
0.0
 37
0.0
 40
41.597640369714547
 41
2.5392405063291141
 42
50.0
 43
0.0
 44
0.0
 50
0.0
 51
0.0
 71
     0
 72
   100
 73
     1
 74
     3
 75
     0
 76
     0
 77
     0
 78
     0
  0
ENDTAB
  0
TABLE
  2
LTYPE
 70
     2
  0
LTYPE
  2
CONTINUOUS
 70
     0
  3
Solid line
 72
    65
 73
     0
 40
0.0
  0
LTYPE
  2
CENTER
 70
     0
  3
Center ____ _ ____ _ ____ _ ____ _ ____ _ ____
 72
    65
 73
     4
 40
50.799999999999997
 49
31.75
 49
-6.3499999999999988
 49
6.3499999999999988
 49
-6.3499999999999988
  0
ENDTAB
  0
TABLE
  2
LAYER
 70
     4
  0
LAYER
  2
0
 70
     0
 62
     7
  6
CONTINUOUS
  0
LAYER
  2
1
 70
     0
 62
     7
  6
CENTER
  0
LAYER
  2
2
 70
     0
 62
     7
  6
CONTINUOUS
  0
LAYER
  2
DEFPOINTS
 70
     0
 62
     7
  6
CONTINUOUS
  0
ENDTAB
  0
TABLE
  2
STYLE
 70
     3
  0
STYLE
  2
STANDARD
 70
     0
 40
0.0
 41
1.0
 50
0.0
 71
     0
 42
2.5
  3
txt
  4

  0
STYLE
  2
\U+00C9L\U+00C9R_\U+00C2S\U+00C2V\U+00C2B\U+00C2N
 70
     0
 40
1.0
 41
1.0
 50
0.0
 71
     0
 42
1.0
  3
\U+00E9l\U+00E9r \U+00E2S\U+00E2V\U+00E2b\U+00E2N
  4

  0
STYLE
  2

 70
     1
 40
0.0
 41
1.0
 50
0.0
 71
     0
 42
2.5
  3
ltypeshp.shx
  4

  0
ENDTAB
  0
TABLE
  2
VIEW
 70
     0
  0
ENDTAB
  0
TABLE
  2
UCS
 70
     0
  0
ENDTAB
  0
TABLE
  2
APPID
 70
     1
  0
APPID
  2
ACAD
 70
     0
  0
ENDTAB
  0
TABLE
  2
DIMSTYLE
 70
     2
  0
DIMSTYLE
  2
ISO-25
 70
     0
  3

  4

  5

  6

  7

 40
0.5
 41
2.5
 42
0.625
 43
3.75
 44
1.25
 45
0.0
 46
0.0
 47
0.0
 48
0.0
140
2.5
141
2.5
142
0.0
143
0.03937007874016
144
1.0
145
0.0
146
1.0
147
0.625
 71
     0
 72
     0
 73
     0
 74
     0
 75
     0
 76
     0
 77
     1
 78
     8
170
     0
171
     3
172
     1
173
     0
174
     0
175
     0
176
     0
177
     0
178
     0
  0
DIMSTYLE
  2
STANDARD
 70
     0
  3

  4

  5

  6

  7

 40
1.0
 41
0.18
 42
0.0625
 43
0.38
 44
0.18
 45
0.0
 46
0.0
 47
0.0
 48
0.0
140
0.18
141
0.09
142
0.0
143
25.399999999999999
144
1.0
145
0.0
146
1.0
147
0.09
 71
     0
 72
     0
 73
     1
 74
     1
 75
     0
 76
     0
 77
     0
 78
     0
170
     0
171
     2
172
     0
173
     0
174
     0
175
     0
176
     0
177
     0
178
     0
  0
ENDTAB
  0
ENDSEC
  0
SECTION
  2
BLOCKS
  0
BLOCK
  8
0
  2
$MODEL_SPACE
 70
     0
 10
0.0
 20
0.0
 30
0.0
  3
$MODEL_SPACE
  1

  0
ENDBLK
  5
21
  8
0
  0
BLOCK
 67
     1
  8
0
  2
$PAPER_SPACE
 70
     0
 10
0.0
 20
0.0
 30
0.0
  3
$PAPER_SPACE
  1

  0
ENDBLK
  5
1D
 67
     1
  8
0
  0
BLOCK
  8
0
  2
*D1
 70
     1
 10
0.0
 20
0.0
 30
0.0
  3
*D1
  1

  0
LINE
  5
6A1
  8
2
 62
     0
 10
62.224672193199147
 20
62.902404866853232
 30
0.0
 11
62.224672193199147
 21
66.257935544701553
 31
0.0
  0
LINE
  5
6A2
  8
2
 62
     0
 10
66.224672193199154
 20
62.902404866853232
 30
0.0
 11
66.224672193199154
 21
66.257935544701553
 31
0.0
  0
LINE
  5
6A3
  8
2
 62
     0
 10
63.474672193199147
 20
65.632935544701553
 30
0.0
 11
64.974672193199154
 21
65.632935544701553
 31
0.0
  0
SOLID
  5
6A4
  8
2
 62
     0
 10
63.474672193199147
 20
65.841268878034882
 30
0.0
 11
63.474672193199147
 21
65.424602211368224
 31
0.0
 12
62.224672193199147
 22
65.632935544701553
 32
0.0
 13
62.224672193199147
 23
65.632935544701553
 33
0.0
  0
SOLID
  5
6A5
  8
2
 62
     0
 10
64.974672193199154
 20
65.841268878034882
 30
0.0
 11
64.974672193199154
 21
65.424602211368224
 31
0.0
 12
66.224672193199154
 22
65.632935544701553
 32
0.0
 13
66.224672193199154
 23
65.632935544701553
 33
0.0
  0
INSERT
  5
6A6
  8
2
  2
*U12
 10
0.0
 20
0.0
 30
0.0
  0
POINT
  5
6A7
  8
DEFPOINTS
 62
     0
 10
62.224672193199147
 20
62.589904866853232
 30
0.0
  0
POINT
  5
6A8
  8
DEFPOINTS
 62
     0
 10
66.224672193199154
 20
62.589904866853232
 30
0.0
  0
POINT
  5
6A9
  8
DEFPOINTS
 62
     0
 10
66.224672193199154
 20
65.632935544701553
 30
0.0
  0
ENDBLK
  5
5C8
  8
0
  0
BLOCK
  8
0
  2
*D2
 70
     1
 10
0.0
 20
0.0
 30
0.0
  3
*D2
  1

  0
LINE
  5
68F
  8
2
 62
     0
 10
60.474672193199162
 20
62.64565372153249
 30
0.0
 11
60.474672193199162
 21
70.873874579924802
 31
0.0
  0
LINE
  5
690
  8
2
 62
     0
 10
67.974672193199154
 20
62.64565372153249
 30
0.0
 11
67.974672193199154
 21
70.873874579924802
 31
0.0
  0
LINE
  5
691
  8
2
 62
     0
 10
61.724672193199162
 20
70.248874579924802
 30
0.0
 11
66.724672193199154
 21
70.248874579924802
 31
0.0
  0
SOLID
  5
692
  8
2
 62
     0
 10
61.724672193199162
 20
70.457207913258131
 30
0.0
 11
61.724672193199162
 21
70.040541246591474
 31
0.0
 12
60.474672193199162
 22
70.248874579924802
 32
0.0
 13
60.474672193199162
 23
70.248874579924802
 33
0.0
  0
SOLID
  5
693
  8
2
 62
     0
 10
66.724672193199154
 20
70.457207913258131
 30
0.0
 11
66.724672193199154
 21
70.040541246591474
 31
0.0
 12
67.974672193199154
 22
70.248874579924802
 32
0.0
 13
67.974672193199154
 23
70.248874579924802
 33
0.0
  0
INSERT
  5
694
  8
2
  2
*U10
 10
0.0
 20
0.0
 30
0.0
  0
POINT
  5
695
  8
DEFPOINTS
 62
     0
 10
60.474672193199162
 20
62.33315372153249
 30
0.0
  0
POINT
  5
696
  8
DEFPOINTS
 62
     0
 10
67.974672193199154
 20
62.33315372153249
 30
0.0
  0
POINT
  5
697
  8
DEFPOINTS
 62
     0
 10
67.974672193199154
 20
70.248874579924802
 30
0.0
  0
ENDBLK
  5
5E5
  8
0
  0
BLOCK
  8
0
  2
*D3
 70
     1
 10
0.0
 20
0.0
 30
0.0
  3
*D3
  1

  0
LINE
  5
698
  8
2
 62
     0
 10
61.224672193199147
 20
60.902404866853239
 30
0.0
 11
61.224672193199147
 21
68.627499535735012
 31
0.0
  0
LINE
  5
699
  8
2
 62
     0
 10
67.224672193199154
 20
60.902404866853239
 30
0.0
 11
67.224672193199154
 21
68.627499535735012
 31
0.0
  0
LINE
  5
69A
  8
2
 62
     0
 10
62.474672193199147
 20
68.002499535735012
 30
0.0
 11
65.974672193199154
 21
68.002499535735012
 31
0.0
  0
SOLID
  5
69B
  8
2
 62
     0
 10
62.474672193199147
 20
68.210832869068341
 30
0.0
 11
62.474672193199147
 21
67.794166202401684
 31
0.0
 12
61.224672193199147
 22
68.002499535735012
 32
0.0
 13
61.224672193199147
 23
68.002499535735012
 33
0.0
  0
SOLID
  5
69C
  8
2
 62
     0
 10
65.974672193199154
 20
68.210832869068341
 30
0.0
 11
65.974672193199154
 21
67.794166202401684
 31
0.0
 12
67.224672193199154
 22
68.002499535735012
 32
0.0
 13
67.224672193199154
 23
68.002499535735012
 33
0.0
  0
INSERT
  5
69D
  8
2
  2
*U11
 10
0.0
 20
0.0
 30
0.0
  0
POINT
  5
69E
  8
DEFPOINTS
 62
     0
 10
61.224672193199147
 20
60.589904866853239
 30
0.0
  0
POINT
  5
69F
  8
DEFPOINTS
 62
     0
 10
67.224672193199154
 20
60.589904866853239
 30
0.0
  0
POINT
  5
6A0
  8
DEFPOINTS
 62
     0
 10
67.224672193199154
 20
68.002499535735012
 30
0.0
  0
ENDBLK
  5
5FC
  8
0
  0
BLOCK
  8
0
  2
*D4
 70
     1
 10
0.0
 20
0.0
 30
0.0
  3
*D4
  1

  0
LINE
  5
5FF
  8
2
 62
     0
 10
67.537172193199154
 20
62.589904866853232
 30
0.0
 11
72.668142827244523
 21
62.589904866853232
 31
0.0
  0
LINE
  5
600
  8
2
 62
     0
 10
67.537172193199154
 20
60.589904866853239
 30
0.0
 11
72.668142827244523
 21
60.589904866853239
 31
0.0
  0
LINE
  5
601
  8
2
 62
     0
 10
72.043142827244523
 20
63.839904866853232
 30
0.0
 11
72.043142827244523
 21
65.089904866853246
 31
0.0
  0
LINE
  5
602
  8
2
 62
     0
 10
72.043142827244523
 20
59.339904866853239
 30
0.0
 11
72.043142827244523
 21
58.089904866853239
 31
0.0
  0
LINE
  5
603
  8
2
 62
     0
 10
72.043142827244523
 20
62.589904866853232
 30
0.0
 11
72.043142827244523
 21
60.589904866853239
 31
0.0
  0
SOLID
  5
604
  8
2
 62
     0
 10
71.834809493911209
 20
63.839904866853232
 30
0.0
 11
72.251476160577866
 21
63.839904866853232
 31
0.0
 12
72.043142827244523
 22
62.589904866853232
 32
0.0
 13
72.043142827244523
 23
62.589904866853232
 33
0.0
  0
SOLID
  5
605
  8
2
 62
     0
 10
71.834809493911209
 20
59.339904866853239
 30
0.0
 11
72.251476160577866
 21
59.339904866853239
 31
0.0
 12
72.043142827244523
 22
60.589904866853239
 32
0.0
 13
72.043142827244523
 23
60.589904866853239
 33
0.0
  0
TEXT
  5
606
  8
2
 62
     0
 10
71.730642827244523
 20
61.173238200186582
 30
0.0
 40
1.25
  1
2
 50
90.0
  0
POINT
  5
607
  8
DEFPOINTS
 62
     0
 10
67.224672193199154
 20
62.589904866853232
 30
0.0
  0
POINT
  5
608
  8
DEFPOINTS
 62
     0
 10
67.224672193199154
 20
60.589904866853239
 30
0.0
  0
POINT
  5
609
  8
DEFPOINTS
 62
     0
 10
72.043142827244523
 20
60.589904866853239
 30
0.0
  0
ENDBLK
  5
60B
  8
0
  0
BLOCK
  8
0
  2
*D5
 70
     1
 10
0.0
 20
0.0
 30
0.0
  3
*D5
  1

  0
LINE
  5
60E
  8
2
 62
     0
 10
67.537172193199154
 20
62.589904866853232
 30
0.0
 11
75.266952907871314
 21
62.589904866853232
 31
0.0
  0
LINE
  5
60F
  8
2
 62
     0
 10
67.537172193199154
 20
58.589904866853239
 30
0.0
 11
75.266952907871314
 21
58.589904866853239
 31
0.0
  0
LINE
  5
610
  8
2
 62
     0
 10
74.641952907871314
 20
61.339904866853232
 30
0.0
 11
74.641952907871314
 21
59.839904866853239
 31
0.0
  0
SOLID
  5
611
  8
2
 62
     0
 10
74.433619574537985
 20
61.339904866853232
 30
0.0
 11
74.850286241204643
 21
61.339904866853232
 31
0.0
 12
74.641952907871314
 22
62.589904866853232
 32
0.0
 13
74.641952907871314
 23
62.589904866853232
 33
0.0
  0
SOLID
  5
612
  8
2
 62
     0
 10
74.433619574537985
 20
59.839904866853239
 30
0.0
 11
74.850286241204643
 21
59.839904866853239
 31
0.0
 12
74.641952907871314
 22
58.589904866853239
 32
0.0
 13
74.641952907871314
 23
58.589904866853239
 33
0.0
  0
TEXT
  5
613
  8
2
 62
     0
 10
74.3294529078713
 20
60.173238200186582
 30
0.0
 40
1.25
  1
4
 50
90.0
  0
POINT
  5
614
  8
DEFPOINTS
 62
     0
 10
67.224672193199154
 20
62.589904866853232
 30
0.0
  0
POINT
  5
615
  8
DEFPOINTS
 62
     0
 10
67.224672193199154
 20
58.589904866853239
 30
0.0
  0
POINT
  5
616
  8
DEFPOINTS
 62
     0
 10
74.641952907871314
 20
58.589904866853239
 30
0.0
  0
ENDBLK
  5
618
  8
0
  0
BLOCK
  8
0
  2
*D6
 70
     1
 10
0.0
 20
0.0
 30
0.0
  3
*D6
  1

  0
LINE
  5
61B
  8
2
 62
     0
 10
67.537172193199154
 20
62.589904866853232
 30
0.0
 11
77.938050751983951
 21
62.589904866853232
 31
0.0
  0
LINE
  5
61C
  8
2
 62
     0
 10
68.287172193199154
 20
52.589904866853232
 30
0.0
 11
77.938050751983951
 21
52.589904866853232
 31
0.0
  0
LINE
  5
61D
  8
2
 62
     0
 10
77.313050751983951
 20
61.339904866853232
 30
0.0
 11
77.313050751983951
 21
53.839904866853232
 31
0.0
  0
SOLID
  5
61E
  8
2
 62
     0
 10
77.104717418650623
 20
61.339904866853232
 30
0.0
 11
77.521384085317266
 21
61.339904866853232
 31
0.0
 12
77.313050751983951
 22
62.589904866853232
 32
0.0
 13
77.313050751983951
 23
62.589904866853232
 33
0.0
  0
SOLID
  5
61F
  8
2
 62
     0
 10
77.104717418650623
 20
53.839904866853232
 30
0.0
 11
77.521384085317266
 21
53.839904866853232
 31
0.0
 12
77.313050751983951
 22
52.589904866853232
 32
0.0
 13
77.313050751983951
 23
52.589904866853232
 33
0.0
  0
TEXT
  5
620
  8
2
 62
     0
 10
77.000550751983937
 20
56.860738200186582
 30
0.0
 40
1.25
  1
10
 50
90.0
  0
POINT
  5
621
  8
DEFPOINTS
 62
     0
 10
67.224672193199154
 20
62.589904866853232
 30
0.0
  0
POINT
  5
622
  8
DEFPOINTS
 62
     0
 10
67.974672193199154
 20
52.589904866853232
 30
0.0
  0
POINT
  5
623
  8
DEFPOINTS
 62
     0
 10
77.313050751983951
 20
52.589904866853232
 30
0.0
  0
ENDBLK
  5
625
  8
0
  0
BLOCK
  8
0
  2
*D7
 70
     1
 10
0.0
 20
0.0
 30
0.0
  3
*D7
  1

  0
LINE
  5
6AA
  8
2
 62
     0
 10
63.224672193199147
 20
56.991006064573853
 30
0.0
 11
63.224672193199147
 21
48.085195587651612
 31
0.0
  0
LINE
  5
6AB
  8
2
 62
     0
 10
65.224672193199154
 20
56.991006064573853
 30
0.0
 11
65.224672193199154
 21
48.085195587651612
 31
0.0
  0
LINE
  5
6AC
  8
2
 62
     0
 10
61.974672193199147
 20
48.710195587651612
 30
0.0
 11
60.724672193199147
 21
48.710195587651612
 31
0.0
  0
LINE
  5
6AD
  8
2
 62
     0
 10
66.474672193199154
 20
48.710195587651612
 30
0.0
 11
70.433005526532483
 21
48.710195587651612
 31
0.0
  0
LINE
  5
6AE
  8
2
 62
     0
 10
63.224672193199147
 20
48.710195587651612
 30
0.0
 11
65.224672193199154
 21
48.710195587651612
 31
0.0
  0
SOLID
  5
6AF
  8
2
 62
     0
 10
61.974672193199147
 20
48.91852892098494
 30
0.0
 11
61.974672193199147
 21
48.501862254318269
 31
0.0
 12
63.224672193199147
 22
48.710195587651612
 32
0.0
 13
63.224672193199147
 23
48.710195587651612
 33
0.0
  0
SOLID
  5
6B0
  8
2
 62
     0
 10
66.474672193199154
 20
48.91852892098494
 30
0.0
 11
66.474672193199154
 21
48.501862254318269
 31
0.0
 12
65.224672193199154
 22
48.710195587651612
 32
0.0
 13
65.224672193199154
 23
48.710195587651612
 33
0.0
  0
INSERT
  5
6B1
  8
2
  2
*U13
 10
0.0
 20
0.0
 30
0.0
  0
POINT
  5
6B2
  8
DEFPOINTS
 62
     0
 10
63.224672193199147
 20
57.303506064573853
 30
0.0
  0
POINT
  5
6B3
  8
DEFPOINTS
 62
     0
 10
65.224672193199154
 20
57.303506064573853
 30
0.0
  0
POINT
  5
6B4
  8
DEFPOINTS
 62
     0
 10
65.224672193199154
 20
48.710195587651612
 30
0.0
  0
ENDBLK
  5
636
  8
0
  0
BLOCK
  8
0
  2
*D8
 70
     1
 10
0.0
 20
0.0
 30
0.0
  3
*D8
  1

  0
LINE
  5
6B5
  8
2
 62
     0
 10
62.724773639141951
 20
53.340879596687039
 30
0.0
 11
62.724773639141951
 21
45.573491691062429
 31
0.0
  0
LINE
  5
6B6
  8
2
 62
     0
 10
65.724570747256365
 20
53.340879596687039
 30
0.0
 11
65.724570747256365
 21
45.573491691062429
 31
0.0
  0
LINE
  5
6B7
  8
2
 62
     0
 10
61.474773639141951
 20
46.198491691062429
 30
0.0
 11
60.224773639141951
 21
46.198491691062429
 31
0.0
  0
LINE
  5
6B8
  8
2
 62
     0
 10
66.974570747256365
 20
46.198491691062429
 30
0.0
 11
68.224570747256365
 21
46.198491691062429
 31
0.0
  0
LINE
  5
6B9
  8
2
 62
     0
 10
62.724773639141951
 20
46.198491691062429
 30
0.0
 11
65.724570747256365
 21
46.198491691062429
 31
0.0
  0
SOLID
  5
6BA
  8
2
 62
     0
 10
61.474773639141951
 20
46.406825024395772
 30
0.0
 11
61.474773639141951
 21
45.990158357729094
 31
0.0
 12
62.724773639141951
 22
46.198491691062429
 32
0.0
 13
62.724773639141951
 23
46.198491691062429
 33
0.0
  0
SOLID
  5
6BB
  8
2
 62
     0
 10
66.974570747256365
 20
46.406825024395772
 30
0.0
 11
66.974570747256365
 21
45.990158357729094
 31
0.0
 12
65.724570747256365
 22
46.198491691062429
 32
0.0
 13
65.724570747256365
 23
46.198491691062429
 33
0.0
  0
INSERT
  5
6BC
  8
2
  2
*U14
 10
0.0
 20
0.0
 30
0.0
  0
POINT
  5
6BD
  8
DEFPOINTS
 62
     0
 10
62.724773639141951
 20
53.653379596687039
 30
0.0
  0
POINT
  5
6BE
  8
DEFPOINTS
 62
     0
 10
65.724570747256365
 20
53.653379596687039
 30
0.0
  0
POINT
  5
6BF
  8
DEFPOINTS
 62
     0
 10
65.724570747256365
 20
46.198491691062429
 30
0.0
  0
ENDBLK
  5
660
  8
0
  0
BLOCK
  8
0
  2
*D9
 70
     1
 10
0.0
 20
0.0
 30
0.0
  3
*D9
  1

  0
LINE
  5
6D1
  8
2
 62
     0
 10
60.474672193199162
 20
52.277404866853232
 30
0.0
 11
60.474672193199162
 21
43.322643778132708
 31
0.0
  0
LINE
  5
6D2
  8
2
 62
     0
 10
67.974672193199154
 20
52.277404866853232
 30
0.0
 11
67.974672193199154
 21
43.322643778132708
 31
0.0
  0
LINE
  5
6D3
  8
2
 62
     0
 10
61.724672193199162
 20
43.947643778132708
 30
0.0
 11
66.724672193199154
 21
43.947643778132708
 31
0.0
  0
SOLID
  5
6D4
  8
2
 62
     0
 10
61.724672193199162
 20
44.155977111466051
 30
0.0
 11
61.724672193199162
 21
43.739310444799372
 31
0.0
 12
60.474672193199162
 22
43.947643778132708
 32
0.0
 13
60.474672193199162
 23
43.947643778132708
 33
0.0
  0
SOLID
  5
6D5
  8
2
 62
     0
 10
66.724672193199154
 20
44.155977111466051
 30
0.0
 11
66.724672193199154
 21
43.739310444799372
 31
0.0
 12
67.974672193199154
 22
43.947643778132708
 32
0.0
 13
67.974672193199154
 23
43.947643778132708
 33
0.0
  0
INSERT
  5
6D6
  8
2
  2
*U15
 10
0.0
 20
0.0
 30
0.0
  0
POINT
  5
6D7
  8
DEFPOINTS
 62
     0
 10
60.474672193199162
 20
52.589904866853232
 30
0.0
  0
POINT
  5
6D8
  8
DEFPOINTS
 62
     0
 10
67.974672193199154
 20
52.589904866853232
 30
0.0
  0
POINT
  5
6D9
  8
DEFPOINTS
 62
     0
 10
67.974672193199154
 20
43.947643778132708
 30
0.0
  0
ENDBLK
  5
683
  8
0
  0
BLOCK
  8
0
  2
*U10
 70
     1
 10
0.0
 20
0.0
 30
0.0
  3
*U10
  1

  0
TEXT
  5
6EE
  8
2
 62
     0
 10
62.485366544412038
 20
70.561374579924802
 30
0.0
 40
1.25
  1
\U+2205
  0
TEXT
  5
6EF
  8
2
 62
     0
 10
63.735366544412038
 20
70.561374579924802
 30
0.0
 40
1.25
  1
7.5
  0
ENDBLK
  5
6F1
  8
0
  0
BLOCK
  8
0
  2
*U11
 70
     1
 10
0.0
 20
0.0
 30
0.0
  3
*U11
  1

  0
TEXT
  5
6F3
  8
2
 62
     0
 10
63.18300552653249
 20
68.314999535735012
 30
0.0
 40
1.25
  1
\U+2205
  0
TEXT
  5
6F4
  8
2
 62
     0
 10
64.433005526532497
 20
68.314999535735012
 30
0.0
 40
1.25
  1
6
  0
ENDBLK
  5
6F6
  8
0
  0
BLOCK
  8
0
  2
*U12
 70
     1
 10
0.0
 20
0.0
 30
0.0
  3
*U12
  1

  0
TEXT
  5
6F8
  8
2
 62
     0
 10
63.18300552653249
 20
65.945435544701553
 30
0.0
 40
1.25
  1
\U+2205
  0
TEXT
  5
6F9
  8
2
 62
     0
 10
64.433005526532497
 20
65.945435544701553
 30
0.0
 40
1.25
  1
4
  0
ENDBLK
  5
6FB
  8
0
  0
BLOCK
  8
0
  2
*U13
 70
     1
 10
0.0
 20
0.0
 30
0.0
  3
*U13
  1

  0
TEXT
  5
6FD
  8
2
 62
     0
 10
68.037172193199154
 20
49.022695587651612
 30
0.0
 40
1.25
  1
\U+2205
  0
TEXT
  5
6FE
  8
2
 62
     0
 10
69.287172193199154
 20
49.022695587651612
 30
0.0
 40
1.25
  1
2
  0
ENDBLK
  5
700
  8
0
  0
BLOCK
  8
0
  2
*U14
 70
     1
 10
0.0
 20
0.0
 30
0.0
  3
*U14
  1

  0
TEXT
  5
702
  8
2
 62
     0
 10
63.18300552653249
 20
46.510991691062429
 30
0.0
 40
1.25
  1
\U+2205
  0
TEXT
  5
703
  8
2
 62
     0
 10
64.433005526532497
 20
46.510991691062429
 30
0.0
 40
1.25
  1
3
  0
ENDBLK
  5
705
  8
0
  0
BLOCK
  8
0
  2
*U15
 70
     1
 10
0.0
 20
0.0
 30
0.0
  3
*U15
  1

  0
TEXT
  5
707
  8
2
 62
     0
 10
62.349672193199162
 20
44.260143778132708
 30
0.0
 40
1.25
  1
\U+2205
  0
TEXT
  5
708
  8
2
 62
     0
 10
63.599672193199162
 20
44.260143778132708
 30
0.0
 40
1.25
  1
7.5
  0
ENDBLK
  5
70A
  8
0
  0
ENDSEC
  0
SECTION
  2
ENTITIES
  0
TEXT
  5
102
  8
2
 10
57.34072624110749
 20
39.435103422401163
 30
0.0
 40
1.2699720000000001
  1
No. 21.007.089._
 41
0.9999999267283786
 51
-0.0000015352344868
  7
\U+00C9L\U+00C9R_\U+00C2S\U+00C2V\U+00C2B\U+00C2N
  0
LINE
  5
1F4
  8
0
 39
2.536148569999999
 10
64.224672193199154
 20
57.303506064573853
 30
0.0
 11
63.224672193199162
 21
57.303506064573853
 31
0.0
  0
LINE
  5
1F6
  8
0
 39
2.536148569999999
 10
60.967090800976962
 20
56.176543086008643
 30
0.0
 11
60.967090800976962
 21
55.977658315149242
 31
0.0
  0
LINE
  5
1F7
  8
0
 39
2.536148569999999
 10
60.967090800976962
 20
55.977658315149242
 30
0.0
 11
62.468825525457547
 21
55.57988877343044
 31
0.0
  0
LINE
  5
1F8
  8
0
 39
2.536148569999999
 10
62.468825525457547
 20
55.57988877343044
 30
0.0
 11
62.468825525457547
 21
55.57988877343044
 31
0.0
  0
LINE
  5
1F9
  8
0
 39
2.536148569999999
 10
62.468825525457547
 20
55.57988877343044
 30
0.0
 11
62.521019463028153
 21
55.548846314933641
 31
0.0
  0
LINE
  5
1FA
  8
0
 39
2.536148569999999
 10
62.521019463028153
 20
55.548846314933641
 30
0.0
 11
62.56606146163135
 21
55.517803856436842
 31
0.0
  0
LINE
  5
1FB
  8
0
 39
2.536148569999999
 10
62.56606146163135
 20
55.517803856436842
 30
0.0
 11
62.603799352352951
 21
55.486761397940043
 31
0.0
  0
LINE
  5
1FC
  8
0
 39
2.536148569999999
 10
62.603799352352951
 20
55.486761397940043
 30
0.0
 11
62.634385304107163
 21
55.455718939443237
 31
0.0
  0
LINE
  5
1FD
  8
0
 39
2.536148569999999
 10
62.634385304107163
 20
55.455718939443237
 30
0.0
 11
62.657667147979751
 21
55.424676480946431
 31
0.0
  0
LINE
  5
1FE
  8
0
 39
2.536148569999999
 10
62.657667147979751
 20
55.424676480946431
 30
0.0
 11
62.673695606942147
 21
55.393634022449639
 31
0.0
  0
LINE
  5
1FF
  8
0
 39
2.536148569999999
 10
62.673695606942147
 20
55.393634022449639
 30
0.0
 11
62.682521403965751
 21
55.36259156395284
 31
0.0
  0
LINE
  5
200
  8
0
 39
2.536148569999999
 10
62.682521403965751
 20
55.36259156395284
 30
0.0
 11
62.68414453905055
 21
55.331498382484639
 31
0.0
  0
LINE
  5
201
  8
0
 39
2.536148569999999
 10
62.68414453905055
 20
55.331498382484639
 30
0.0
 11
62.678412843282338
 21
55.30045592398784
 31
0.0
  0
LINE
  5
202
  8
0
 39
2.536148569999999
 10
62.678412843282338
 20
55.30045592398784
 30
0.0
 11
62.665478485575349
 21
55.269413465491041
 31
0.0
  0
LINE
  5
203
  8
0
 39
2.536148569999999
 10
62.665478485575349
 20
55.269413465491041
 30
0.0
 11
62.645240019986751
 21
55.238371006994242
 31
0.0
  0
LINE
  5
204
  8
0
 39
2.536148569999999
 10
62.645240019986751
 20
55.238371006994242
 30
0.0
 11
62.617849615430742
 21
55.207176379583238
 31
0.0
  0
LINE
  5
205
  8
0
 39
2.536148569999999
 10
62.617849615430742
 20
55.207176379583238
 30
0.0
 11
62.583155102993153
 21
55.176133921086439
 31
0.0
  0
LINE
  5
206
  8
0
 39
2.536148569999999
 10
62.583155102993153
 20
55.176133921086439
 30
0.0
 11
62.54120720564535
 21
55.144990016646851
 31
0.0
  0
LINE
  5
207
  8
0
 39
2.536148569999999
 10
62.54120720564535
 20
55.144990016646851
 30
0.0
 11
62.492056646358748
 21
55.113896835178643
 31
0.0
  0
LINE
  5
208
  8
0
 39
2.536148569999999
 10
62.492056646358748
 20
55.113896835178643
 30
0.0
 11
62.435703425133347
 21
55.082702207767639
 31
0.0
  0
LINE
  5
209
  8
0
 39
2.536148569999999
 10
62.435703425133347
 20
55.082702207767639
 30
0.0
 11
60.86772450000435
 21
54.555690534921638
 31
0.0
  0
LINE
  5
20A
  8
0
 39
2.536148569999999
 10
60.86772450000435
 20
54.555690534921638
 30
0.0
 11
60.86772450000435
 21
54.356805764062237
 31
0.0
  0
LINE
  5
20B
  8
0
 39
2.536148569999999
 10
60.86772450000435
 20
54.356805764062237
 30
0.0
 11
62.571539542542553
 21
53.856271482287042
 31
0.0
  0
LINE
  5
20C
  8
0
 39
2.536148569999999
 10
62.571539542542553
 20
53.856271482287042
 30
0.0
 11
62.571539542542553
 21
53.856271482287042
 31
0.0
  0
LINE
  5
20D
  8
0
 39
2.536148569999999
 10
62.571539542542553
 20
53.856271482287042
 30
0.0
 11
62.610038277835152
 21
53.834866388356239
 31
0.0
  0
LINE
  5
20E
  8
0
 39
2.536148569999999
 10
62.610038277835152
 20
53.834866388356239
 30
0.0
 11
62.642957486273751
 21
53.812041051226238
 31
0.0
  0
LINE
  5
20F
  8
0
 39
2.536148569999999
 10
62.642957486273751
 20
53.812041051226238
 30
0.0
 11
62.670246444886949
 21
53.787947639811229
 31
0.0
  0
LINE
  5
210
  8
0
 39
2.536148569999999
 10
62.670246444886949
 20
53.787947639811229
 30
0.0
 11
62.692108045560353
 21
53.762636877082642
 31
0.0
  0
LINE
  5
211
  8
0
 39
2.536148569999999
 10
62.692108045560353
 20
53.762636877082642
 30
0.0
 11
62.70839011937975
 21
53.736463823840232
 31
0.0
  0
LINE
  5
212
  8
0
 39
2.536148569999999
 10
62.70839011937975
 20
53.736463823840232
 30
0.0
 11
62.719244835259353
 21
53.709428480084043
 31
0.0
  0
LINE
  5
213
  8
0
 39
2.536148569999999
 10
62.719244835259353
 20
53.709428480084043
 30
0.0
 11
62.724672193199147
 21
53.681733737699638
 31
0.0
  0
LINE
  5
214
  8
0
 39
2.536148569999999
 10
62.724672193199147
 20
53.681733737699638
 30
0.0
 11
62.724773639141951
 21
53.653379596687039
 31
0.0
  0
LINE
  5
215
  8
0
 39
2.536148569999999
 10
62.724773639141951
 20
53.653379596687039
 30
0.0
 11
62.719498450116347
 21
53.624771840817438
 31
0.0
  0
LINE
  5
216
  8
0
 39
2.536148569999999
 10
62.719498450116347
 20
53.624771840817438
 30
0.0
 11
62.70899879503655
 21
53.595859747119441
 31
0.0
  0
LINE
  5
217
  8
0
 39
2.536148569999999
 10
62.70899879503655
 20
53.595859747119441
 30
0.0
 11
62.693325396873952
 21
53.566896930450042
 31
0.0
  0
LINE
  5
218
  8
0
 39
2.536148569999999
 10
62.693325396873952
 20
53.566896930450042
 30
0.0
 11
62.67247825562854
 21
53.537883390809242
 31
0.0
  0
LINE
  5
219
  8
0
 39
2.536148569999999
 10
62.67247825562854
 20
53.537883390809242
 30
0.0
 11
62.64645737130035
 21
53.509123466025443
 31
0.0
  0
LINE
  5
21A
  8
0
 39
2.536148569999999
 10
62.64645737130035
 20
53.509123466025443
 30
0.0
 11
62.615465635774953
 21
53.480718602041442
 31
0.0
  0
LINE
  5
21B
  8
0
 39
2.536148569999999
 10
62.615465635774953
 20
53.480718602041442
 30
0.0
 11
62.579350880138151
 21
53.452770244800043
 31
0.0
  0
LINE
  5
21C
  8
0
 39
2.536148569999999
 10
62.579350880138151
 20
53.452770244800043
 30
0.0
 11
62.538417442218339
 21
53.425379840244041
 31
0.0
  0
LINE
  5
21D
  8
0
 39
2.536148569999999
 10
62.538417442218339
 20
53.425379840244041
 30
0.0
 11
62.538417442218339
 21
53.425379840244041
 31
0.0
  0
LINE
  5
21E
  8
0
 39
2.536148569999999
 10
62.538417442218339
 20
53.425379840244041
 30
0.0
 11
62.450869593581949
 21
53.401235705857637
 31
0.0
  0
LINE
  5
21F
  8
0
 39
2.536148569999999
 10
62.450869593581949
 20
53.401235705857637
 30
0.0
 11
62.351909076380551
 21
53.372222166216837
 31
0.0
  0
LINE
  5
220
  8
0
 39
2.536148569999999
 10
62.351909076380551
 20
53.372222166216837
 30
0.0
 11
62.243159025698951
 21
53.338643559150043
 31
0.0
  0
LINE
  5
221
  8
0
 39
2.536148569999999
 10
62.243159025698951
 20
53.338643559150043
 30
0.0
 11
62.126293299593343
 21
53.300702776542842
 31
0.0
  0
LINE
  5
222
  8
0
 39
2.536148569999999
 10
62.126293299593343
 20
53.300702776542842
 30
0.0
 11
62.002782864234348
 21
53.258754879195031
 31
0.0
  0
LINE
  5
223
  8
0
 39
2.536148569999999
 10
62.002782864234348
 20
53.258754879195031
 30
0.0
 11
61.874453746592351
 21
53.212850590078048
 31
0.0
  0
LINE
  5
224
  8
0
 39
2.536148569999999
 10
61.874453746592351
 20
53.212850590078048
 30
0.0
 11
61.742776912837947
 21
53.163446415934438
 31
0.0
  0
LINE
  5
225
  8
0
 39
2.536148569999999
 10
61.742776912837947
 20
53.163446415934438
 30
0.0
 11
61.609578389941539
 21
53.110593079735651
 31
0.0
  0
LINE
  5
226
  8
0
 39
2.536148569999999
 10
61.609578389941539
 20
53.110593079735651
 30
0.0
 11
61.476227698130948
 21
53.054747088224246
 31
0.0
  0
LINE
  5
227
  8
0
 39
2.536148569999999
 10
61.476227698130948
 20
53.054747088224246
 30
0.0
 11
61.344550864376551
 21
52.995959164371641
 31
0.0
  0
LINE
  5
228
  8
0
 39
2.536148569999999
 10
61.344550864376551
 20
52.995959164371641
 30
0.0
 11
61.216120300791751
 21
52.93463509194904
 31
0.0
  0
LINE
  5
229
  8
0
 39
2.536148569999999
 10
61.216120300791751
 20
52.93463509194904
 30
0.0
 11
61.180786679485159
 21
52.870774870956431
 31
0.0
  0
LINE
  5
22A
  8
0
 39
2.536148569999999
 10
61.180786679485159
 20
52.870774870956431
 30
0.0
 11
61.063768784465353
 21
52.804885731107838
 31
0.0
  0
LINE
  5
22B
  8
0
 39
2.536148569999999
 10
61.063768784465353
 20
52.804885731107838
 30
0.0
 11
60.954917287840964
 21
52.737069118346042
 31
0.0
  0
LINE
  5
22C
  8
0
 39
2.536148569999999
 10
60.954917287840964
 20
52.737069118346042
 30
0.0
 11
60.855906047668157
 21
52.667629370499441
 31
0.0
  0
LINE
  5
22D
  8
0
 39
2.536148569999999
 10
60.855906047668157
 20
52.667629370499441
 30
0.0
 11
60.759945752036302
 21
52.589904866853232
 31
0.0
  0
LINE
  5
231
  8
0
 39
2.536148569999999
 10
64.224672193199154
 20
62.589904866853232
 30
0.0
 11
60.872137398516159
 21
62.589904866853232
 31
0.0
  0
LINE
  5
232
  8
0
 39
2.536148569999999
 10
60.872137398516159
 20
62.589904866853232
 30
0.0
 11
60.872137398516159
 21
62.589904866853232
 31
0.0
  0
LINE
  5
233
  8
0
 39
2.536148569999999
 10
60.872137398516159
 20
62.589904866853232
 30
0.0
 11
60.851696041041961
 21
62.58899185336805
 31
0.0
  0
LINE
  5
234
  8
0
 39
2.536148569999999
 10
60.851696041041961
 20
62.58899185336805
 30
0.0
 11
60.824609974314363
 21
62.583868833256638
 31
0.0
  0
LINE
  5
235
  8
0
 39
2.536148569999999
 10
60.824609974314363
 20
62.583868833256638
 30
0.0
 11
60.791944380732758
 21
62.574637252461841
 31
0.0
  0
LINE
  5
236
  8
0
 39
2.536148569999999
 10
60.791944380732758
 20
62.574637252461841
 30
0.0
 11
60.755170226467747
 21
62.561144942069433
 31
0.0
  0
LINE
  5
237
  8
0
 39
2.536148569999999
 10
60.755170226467747
 20
62.561144942069433
 30
0.0
 11
60.715301970947358
 21
62.543594793965042
 31
0.0
  0
LINE
  5
238
  8
0
 39
2.536148569999999
 10
60.715301970947358
 20
62.543594793965042
 30
0.0
 11
60.673759857370761
 21
62.521885362205843
 31
0.0
  0
LINE
  5
239
  8
0
 39
2.536148569999999
 10
60.673759857370761
 20
62.521885362205843
 30
0.0
 11
60.631761237051549
 21
62.496067369763239
 31
0.0
  0
LINE
  5
23A
  8
0
 39
2.536148569999999
 10
60.631761237051549
 20
62.496067369763239
 30
0.0
 11
60.590624907246159
 21
62.465988647723037
 31
0.0
  0
LINE
  5
23B
  8
0
 39
2.536148569999999
 10
60.590624907246159
 20
62.465988647723037
 30
0.0
 11
60.55141605035395
 21
62.431902810942248
 31
0.0
  0
LINE
  5
23C
  8
0
 39
2.536148569999999
 10
60.55141605035395
 20
62.431902810942248
 30
0.0
 11
60.515656355516953
 21
62.393606967535241
 31
0.0
  0
LINE
  5
23D
  8
0
 39
2.536148569999999
 10
60.515656355516953
 20
62.393606967535241
 30
0.0
 11
60.484461728105963
 21
62.351202563444843
 31
0.0
  0
LINE
  5
23E
  8
0
 39
2.536148569999999
 10
60.484461728105963
 20
62.351202563444843
 30
0.0
 11
60.474672193199162
 21
62.33315372153249
 31
0.0
  0
LINE
  5
24A
  8
0
 39
2.536148569999999
 10
60.474672193199162
 20
58.124270774402511
 30
0.0
 11
60.483295099763758
 21
58.08925561453124
 31
0.0
  0
LINE
  5
24B
  8
0
 39
2.536148569999999
 10
60.483295099763758
 20
58.08925561453124
 30
0.0
 11
60.500946693810953
 21
58.035895048618443
 31
0.0
  0
LINE
  5
24C
  8
0
 39
2.536148569999999
 10
60.500946693810953
 20
58.035895048618443
 30
0.0
 11
60.522503956655953
 21
57.986440151503437
 31
0.0
  0
LINE
  5
24D
  8
0
 39
2.536148569999999
 10
60.522503956655953
 20
57.986440151503437
 30
0.0
 11
60.548017611270147
 21
57.940941646157633
 31
0.0
  0
LINE
  5
24E
  8
0
 39
2.536148569999999
 10
60.548017611270147
 20
57.940941646157633
 30
0.0
 11
60.577893441424749
 21
57.898892302867033
 31
0.0
  0
LINE
  5
24F
  8
0
 39
2.536148569999999
 10
60.577893441424749
 20
57.898892302867033
 30
0.0
 11
60.612334339005358
 21
57.860190675688841
 31
0.0
  0
LINE
  5
250
  8
0
 39
2.536148569999999
 10
60.612334339005358
 20
57.860190675688841
 30
0.0
 11
60.651695364811751
 21
57.82453242679464
 31
0.0
  0
LINE
  5
251
  8
0
 39
2.536148569999999
 10
60.651695364811751
 20
57.82453242679464
 30
0.0
 11
60.696128687758161
 21
57.791816110241641
 31
0.0
  0
LINE
  5
252
  8
0
 39
2.536148569999999
 10
60.696128687758161
 20
57.791816110241641
 30
0.0
 11
60.746090814587163
 21
57.761585219287241
 31
0.0
  0
LINE
  5
253
  8
0
 39
2.536148569999999
 10
60.746090814587163
 20
57.761585219287241
 30
0.0
 11
60.80173391421296
 21
57.73378903096004
 31
0.0
  0
LINE
  5
254
  8
0
 39
2.536148569999999
 10
60.80173391421296
 20
57.73378903096004
 30
0.0
 11
60.863362324463949
 21
57.708021761488837
 31
0.0
  0
LINE
  5
255
  8
0
 39
2.536148569999999
 10
60.863362324463949
 20
57.708021761488837
 30
0.0
 11
61.999404714909751
 21
57.213523513310243
 31
0.0
  0
LINE
  5
256
  8
0
 39
2.536148569999999
 10
61.999404714909751
 20
57.213523513310243
 30
0.0
 11
60.635261122078163
 21
56.43228830780744
 31
0.0
  0
LINE
  5
257
  8
0
 39
2.536148569999999
 10
60.635261122078163
 20
56.43228830780744
 30
0.0
 11
60.635261122078163
 21
56.43228830780744
 31
0.0
  0
LINE
  5
258
  8
0
 39
2.536148569999999
 10
60.635261122078163
 20
56.43228830780744
 30
0.0
 11
60.581139711594361
 21
56.389985349659838
 31
0.0
  0
LINE
  5
259
  8
0
 39
2.536148569999999
 10
60.581139711594361
 20
56.389985349659838
 30
0.0
 11
60.534423854934957
 21
56.347682391512237
 31
0.0
  0
LINE
  5
25A
  8
0
 39
2.536148569999999
 10
60.534423854934957
 20
56.347682391512237
 30
0.0
 11
60.494859937242957
 21
56.305379433364628
 31
0.0
  0
LINE
  5
25B
  8
0
 39
2.536148569999999
 10
60.494859937242957
 20
56.305379433364628
 30
0.0
 11
60.462600127432559
 21
56.262924306302843
 31
0.0
  0
LINE
  5
25C
  8
0
 39
2.536148569999999
 10
60.462600127432559
 20
56.262924306302843
 30
0.0
 11
60.437492256589557
 21
56.220621348155248
 31
0.0
  0
LINE
  5
25D
  8
0
 39
2.536148569999999
 10
60.437492256589557
 20
56.220621348155248
 30
0.0
 11
60.419789939570961
 21
56.178166221093427
 31
0.0
  0
LINE
  5
25E
  8
0
 39
2.536148569999999
 10
60.419789939570961
 20
56.178166221093427
 30
0.0
 11
60.409188838548353
 21
56.135863262945833
 31
0.0
  0
LINE
  5
25F
  8
0
 39
2.536148569999999
 10
60.409188838548353
 20
56.135863262945833
 30
0.0
 11
60.405942568378762
 21
56.093408135884047
 31
0.0
  0
LINE
  5
260
  8
0
 39
2.536148569999999
 10
60.405942568378762
 20
56.093408135884047
 30
0.0
 11
60.409797514205152
 21
56.051105177736439
 31
0.0
  0
LINE
  5
261
  8
0
 39
2.536148569999999
 10
60.409797514205152
 20
56.051105177736439
 30
0.0
 11
60.42100729088456
 21
56.008650050674653
 31
0.0
  0
LINE
  5
262
  8
0
 39
2.536148569999999
 10
60.42100729088456
 20
56.008650050674653
 30
0.0
 11
60.43941972950276
 21
55.966347092527037
 31
0.0
  0
LINE
  5
263
  8
0
 39
2.536148569999999
 10
60.43941972950276
 20
55.966347092527037
 30
0.0
 11
60.465136276002561
 21
55.923891965465238
 31
0.0
  0
LINE
  5
264
  8
0
 39
2.536148569999999
 10
60.465136276002561
 20
55.923891965465238
 30
0.0
 11
60.498004761469758
 21
55.881589007317643
 31
0.0
  0
LINE
  5
265
  8
0
 39
2.536148569999999
 10
60.498004761469758
 20
55.881589007317643
 30
0.0
 11
60.538177354818558
 21
55.839133880255837
 31
0.0
  0
LINE
  5
266
  8
0
 39
2.536148569999999
 10
60.538177354818558
 20
55.839133880255837
 30
0.0
 11
60.585552610106163
 21
55.796780199136848
 31
0.0
  0
LINE
  5
267
  8
0
 39
2.536148569999999
 10
60.585552610106163
 20
55.796780199136848
 30
0.0
 11
60.64028269624675
 21
55.754325072075041
 31
0.0
  0
LINE
  5
268
  8
0
 39
2.536148569999999
 10
60.64028269624675
 20
55.754325072075041
 30
0.0
 11
62.04376702512554
 21
55.322368247632639
 31
0.0
  0
LINE
  5
269
  8
0
 39
2.536148569999999
 10
62.04376702512554
 20
55.322368247632639
 30
0.0
 11
60.614819764603951
 21
54.723279232427238
 31
0.0
  0
LINE
  5
26A
  8
0
 39
2.536148569999999
 10
60.614819764603951
 20
54.723279232427238
 30
0.0
 11
60.614819764603951
 21
54.723279232427238
 31
0.0
  0
LINE
  5
26B
  8
0
 39
2.536148569999999
 10
60.614819764603951
 20
54.723279232427238
 30
0.0
 11
60.547713273441758
 21
54.679505308109043
 31
0.0
  0
LINE
  5
26C
  8
0
 39
2.536148569999999
 10
60.547713273441758
 20
54.679505308109043
 30
0.0
 11
60.495671504785363
 21
54.635021262191252
 31
0.0
  0
LINE
  5
26D
  8
0
 39
2.536148569999999
 10
60.495671504785363
 20
54.635021262191252
 30
0.0
 11
60.457426384349759
 21
54.59033432438784
 31
0.0
  0
LINE
  5
26E
  8
0
 39
2.536148569999999
 10
60.457426384349759
 20
54.59033432438784
 30
0.0
 11
60.43176056082136
 21
54.545698109555843
 31
0.0
  0
LINE
  5
26F
  8
0
 39
2.536148569999999
 10
60.43176056082136
 20
54.545698109555843
 30
0.0
 11
60.417253791000959
 21
54.501619847409231
 31
0.0
  0
LINE
  5
270
  8
0
 39
2.536148569999999
 10
60.417253791000959
 20
54.501619847409231
 30
0.0
 11
60.412790169517763
 21
54.45840387577644
 31
0.0
  0
LINE
  5
271
  8
0
 39
2.536148569999999
 10
60.412790169517763
 20
54.45840387577644
 30
0.0
 11
60.41705089911536
 21
54.41655742437144
 31
0.0
  0
LINE
  5
272
  8
0
 39
2.536148569999999
 10
60.41705089911536
 20
54.41655742437144
 30
0.0
 11
60.42886935145156
 21
54.376283385079837
 31
0.0
  0
LINE
  5
273
  8
0
 39
2.536148569999999
 10
60.42886935145156
 20
54.376283385079837
 30
0.0
 11
60.446723837384347
 21
54.338190433558431
 31
0.0
  0
LINE
  5
274
  8
0
 39
2.536148569999999
 10
60.446723837384347
 20
54.338190433558431
 30
0.0
 11
60.469650620457159
 21
54.30248146169285
 31
0.0
  0
LINE
  5
275
  8
0
 39
2.536148569999999
 10
60.469650620457159
 20
54.30248146169285
 30
0.0
 11
60.496229457470761
 21
54.269612976225652
 31
0.0
  0
LINE
  5
276
  8
0
 39
2.536148569999999
 10
60.496229457470761
 20
54.269612976225652
 30
0.0
 11
60.525242997111562
 21
54.239990760928038
 31
0.0
  0
LINE
  5
277
  8
0
 39
2.536148569999999
 10
60.525242997111562
 20
54.239990760928038
 30
0.0
 11
60.555321719151749
 21
54.214020599571242
 31
0.0
  0
LINE
  5
278
  8
0
 39
2.536148569999999
 10
60.555321719151749
 20
54.214020599571242
 30
0.0
 11
60.585451164163359
 21
54.19200682998364
 31
0.0
  0
LINE
  5
279
  8
0
 39
2.536148569999999
 10
60.585451164163359
 20
54.19200682998364
 30
0.0
 11
60.614160365975749
 21
54.174456681879228
 31
0.0
  0
LINE
  5
27A
  8
0
 39
2.536148569999999
 10
60.614160365975749
 20
54.174456681879228
 30
0.0
 11
60.64028269624675
 21
54.161623770115042
 31
0.0
  0
LINE
  5
27B
  8
0
 39
2.536148569999999
 10
60.64028269624675
 20
54.161623770115042
 30
0.0
 11
62.203392216121337
 21
53.629894860928843
 31
0.0
  0
LINE
  5
27C
  8
0
 39
2.536148569999999
 10
62.203392216121337
 20
53.629894860928843
 30
0.0
 11
62.203392216121337
 21
53.629894860928843
 31
0.0
  0
LINE
  5
27D
  8
0
 39
2.536148569999999
 10
62.203392216121337
 20
53.629894860928843
 30
0.0
 11
62.077092017335353
 21
53.579070443586041
 31
0.0
  0
LINE
  5
27E
  8
0
 39
2.536148569999999
 10
62.077092017335353
 20
53.579070443586041
 30
0.0
 11
61.954190257633151
 21
53.529514100528239
 31
0.0
  0
LINE
  5
27F
  8
0
 39
2.536148569999999
 10
61.954190257633151
 20
53.529514100528239
 30
0.0
 11
61.834128984329347
 21
53.480921493927042
 31
0.0
  0
LINE
  5
280
  8
0
 39
2.536148569999999
 10
61.834128984329347
 20
53.480921493927042
 30
0.0
 11
61.716806751481137
 21
53.432683948125643
 31
0.0
  0
LINE
  5
281
  8
0
 39
2.536148569999999
 10
61.716806751481137
 20
53.432683948125643
 30
0.0
 11
61.601665606403138
 21
53.384446402324237
 31
0.0
  0
LINE
  5
282
  8
0
 39
2.536148569999999
 10
61.601665606403138
 20
53.384446402324237
 30
0.0
 11
61.488451934238341
 21
53.335498734923242
 31
0.0
  0
LINE
  5
283
  8
0
 39
2.536148569999999
 10
61.488451934238341
 20
53.335498734923242
 30
0.0
 11
61.376861397158351
 21
53.285536608094247
 31
0.0
  0
LINE
  5
284
  8
0
 39
2.536148569999999
 10
61.376861397158351
 20
53.285536608094247
 30
0.0
 11
61.266538934363339
 21
53.233951346180447
 31
0.0
  0
LINE
  5
285
  8
0
 39
2.536148569999999
 10
61.266538934363339
 20
53.233951346180447
 30
0.0
 11
61.157028039110749
 21
53.18038788838205
 31
0.0
  0
LINE
  5
286
  8
0
 39
2.536148569999999
 10
61.157028039110749
 20
53.18038788838205
 30
0.0
 11
61.136302633567361
 21
53.124186836070841
 31
0.0
  0
LINE
  5
287
  8
0
 39
2.536148569999999
 10
61.136302633567361
 20
53.124186836070841
 30
0.0
 11
61.027603305857163
 21
53.064942405475641
 31
0.0
  0
LINE
  5
288
  8
0
 39
2.536148569999999
 10
61.027603305857163
 20
53.064942405475641
 30
0.0
 11
60.918853255175563
 21
53.002045920939644
 31
0.0
  0
LINE
  5
289
  8
0
 39
2.536148569999999
 10
60.918853255175563
 20
53.002045920939644
 30
0.0
 11
60.809595974779953
 21
52.935193044634438
 31
0.0
  0
LINE
  5
28A
  8
0
 39
2.536148569999999
 10
60.809595974779953
 20
52.935193044634438
 30
0.0
 11
60.699577849813352
 21
52.863724377931838
 31
0.0
  0
LINE
  5
28B
  8
0
 39
2.536148569999999
 10
60.699577849813352
 20
52.863724377931838
 30
0.0
 11
60.588393096504561
 21
52.787284860032038
 31
0.0
  0
LINE
  5
28C
  8
0
 39
2.536148569999999
 10
60.588393096504561
 20
52.787284860032038
 30
0.0
 11
60.474672193199162
 21
52.704401787262611
 31
0.0
  0
LINE
  5
28D
  8
0
 39
2.536148569999999
 10
60.475788099996556
 20
52.705215092306837
 30
0.0
 11
60.474672194625747
 21
52.601233000936851
 31
0.0
  0
LINE
  5
2A3
  8
0
 10
60.967090800976962
 20
56.077100700578939
 30
0.0
 11
64.224672193199154
 21
56.077100700578939
 31
0.0
  0
LINE
  5
2A4
  8
0
 10
62.683060288299401
 20
55.352268560936359
 30
0.0
 11
64.224672193199154
 21
55.352268560936359
 31
0.0
  0
LINE
  5
2A5
  8
0
 10
60.86772450000435
 20
54.456248149491941
 30
0.0
 11
64.224672193199154
 21
54.456248149491941
 31
0.0
  0
LINE
  5
2A6
  8
0
 10
62.724672193199147
 20
53.681733737699638
 30
0.0
 11
64.224672193199154
 21
53.681733737699638
 31
0.0
  0
LINE
  5
49B
  8
1
 10
64.224672193199154
 20
63.089904866853239
 30
0.0
 11
64.224672193199154
 21
52.089904866853239
 31
0.0
  0
LINE
  5
4B6
  8
0
 10
64.224672193199154
 20
60.589904866853239
 30
0.0
 11
61.224672193199147
 21
60.589904866853239
 31
0.0
  0
LINE
  5
4B8
  8
0
 10
62.224672193199147
 20
62.589904866853232
 30
0.0
 11
62.224672193199147
 21
60.589904866853239
 31
0.0
  0
LINE
  5
4B9
  8
0
 10
61.224672193199147
 20
60.589904866853239
 30
0.0
 11
61.224672193199147
 21
58.589904866853239
 31
0.0
  0
LINE
  5
4BE
  8
0
 10
61.224672193199147
 20
58.589904866853239
 30
0.0
 11
64.224672193199154
 21
58.589904866853239
 31
0.0
  0
LINE
  5
4C2
  8
0
 10
63.224672193199147
 20
58.589904866853239
 30
0.0
 11
63.224672193199147
 21
57.303506064573853
 31
0.0
  0
LINE
  5
4C4
  8
0
 10
63.224672193199147
 20
57.303506064573853
 30
0.0
 11
60.967090800976962
 21
56.176543086008643
 31
0.0
  0
LINE
  5
4C9
  8
0
 10
60.474672193199162
 20
52.589904866853232
 30
0.0
 11
64.224672193199154
 21
52.589904866853232
 31
0.0
  0
LINE
  5
4CB
  8
0
 10
60.474672193199162
 20
52.589904866853232
 30
0.0
 11
60.474672193199162
 21
52.704401787262611
 31
0.0
  0
LINE
  5
513
  8
0
 39
2.536148569999999
 10
67.809061690151552
 20
55.754325072075041
 30
0.0
 11
66.405577361272762
 21
55.322368247632639
 31
0.0
  0
LINE
  5
514
  8
0
 39
2.536148569999999
 10
67.482253585421347
 20
55.977658315149242
 30
0.0
 11
65.980518860940762
 21
55.57988877343044
 31
0.0
  0
LINE
  5
515
  8
0
 39
2.536148569999999
 10
67.973556286401745
 20
52.705215092306837
 30
0.0
 11
67.974672191772555
 21
52.601233000936851
 31
0.0
  0
LINE
  5
516
  8
0
 39
2.536148569999999
 10
67.860951289893748
 20
52.787284860032038
 30
0.0
 11
67.974672193199154
 21
52.704401787262611
 31
0.0
  0
LINE
  5
517
  8
0
 39
2.536148569999999
 10
67.749766536584957
 20
52.863724377931838
 30
0.0
 11
67.860951289893748
 21
52.787284860032038
 31
0.0
  0
LINE
  5
518
  8
0
 39
2.536148569999999
 10
67.639748411618356
 20
52.935193044634438
 30
0.0
 11
67.749766536584957
 21
52.863724377931838
 31
0.0
  0
LINE
  5
519
  8
0
 39
2.536148569999999
 10
67.530491131222746
 20
53.002045920939644
 30
0.0
 11
67.639748411618356
 21
52.935193044634438
 31
0.0
  0
LINE
  5
51A
  8
0
 39
2.536148569999999
 10
67.421741080541153
 20
53.064942405475641
 30
0.0
 11
67.530491131222746
 21
53.002045920939644
 31
0.0
  0
LINE
  5
51B
  8
0
 39
2.536148569999999
 10
67.313041752830955
 20
53.124186836070841
 30
0.0
 11
67.421741080541153
 21
53.064942405475641
 31
0.0
  0
LINE
  5
51C
  8
0
 39
2.536148569999999
 10
67.292316347287567
 20
53.18038788838205
 30
0.0
 11
67.313041752830955
 21
53.124186836070841
 31
0.0
  0
LINE
  5
51D
  8
0
 39
2.536148569999999
 10
67.182805452034955
 20
53.233951346180447
 30
0.0
 11
67.292316347287567
 21
53.18038788838205
 31
0.0
  0
LINE
  5
51E
  8
0
 39
2.536148569999999
 10
67.072482989239958
 20
53.285536608094247
 30
0.0
 11
67.182805452034955
 21
53.233951346180447
 31
0.0
  0
LINE
  5
51F
  8
0
 39
2.536148569999999
 10
66.960892452159953
 20
53.335498734923242
 30
0.0
 11
67.072482989239958
 21
53.285536608094247
 31
0.0
  0
LINE
  5
520
  8
0
 39
2.536148569999999
 10
66.847678779995164
 20
53.384446402324237
 30
0.0
 11
66.960892452159953
 21
53.335498734923242
 31
0.0
  0
LINE
  5
521
  8
0
 39
2.536148569999999
 10
66.732537634917165
 20
53.432683948125643
 30
0.0
 11
66.847678779995164
 21
53.384446402324237
 31
0.0
  0
LINE
  5
522
  8
0
 39
2.536148569999999
 10
66.615215402068955
 20
53.480921493927042
 30
0.0
 11
66.732537634917165
 21
53.432683948125643
 31
0.0
  0
LINE
  5
523
  8
0
 39
2.536148569999999
 10
66.495154128765165
 20
53.529514100528239
 30
0.0
 11
66.615215402068955
 21
53.480921493927042
 31
0.0
  0
LINE
  5
524
  8
0
 39
2.536148569999999
 10
66.372252369062963
 20
53.579070443586041
 30
0.0
 11
66.495154128765165
 21
53.529514100528239
 31
0.0
  0
LINE
  5
525
  8
0
 39
2.536148569999999
 10
66.245952170276965
 20
53.629894860928843
 30
0.0
 11
66.372252369062963
 21
53.579070443586041
 31
0.0
  0
LINE
  5
526
  8
0
 39
2.536148569999999
 10
66.245952170276965
 20
53.629894860928843
 30
0.0
 11
66.245952170276965
 21
53.629894860928843
 31
0.0
  0
LINE
  5
527
  8
0
 39
2.536148569999999
 10
67.809061690151552
 20
54.161623770115042
 30
0.0
 11
66.245952170276965
 21
53.629894860928843
 31
0.0
  0
LINE
  5
528
  8
0
 39
2.536148569999999
 10
67.83518402042256
 20
54.174456681879228
 30
0.0
 11
67.809061690151552
 21
54.161623770115042
 31
0.0
  0
LINE
  5
529
  8
0
 39
2.536148569999999
 10
67.86389322223495
 20
54.19200682998364
 30
0.0
 11
67.83518402042256
 21
54.174456681879228
 31
0.0
  0
LINE
  5
52A
  8
0
 39
2.536148569999999
 10
67.89402266724656
 20
54.214020599571242
 30
0.0
 11
67.86389322223495
 21
54.19200682998364
 31
0.0
  0
LINE
  5
52B
  8
0
 39
2.536148569999999
 10
67.924101389286747
 20
54.239990760928038
 30
0.0
 11
67.89402266724656
 21
54.214020599571242
 31
0.0
  0
LINE
  5
52C
  8
0
 39
2.536148569999999
 10
67.953114928927533
 20
54.269612976225652
 30
0.0
 11
67.924101389286747
 21
54.239990760928038
 31
0.0
  0
LINE
  5
52D
  8
0
 39
2.536148569999999
 10
67.97969376594115
 20
54.30248146169285
 30
0.0
 11
67.953114928927533
 21
54.269612976225652
 31
0.0
  0
LINE
  5
52E
  8
0
 39
2.536148569999999
 10
68.002620549013955
 20
54.338190433558431
 30
0.0
 11
67.97969376594115
 21
54.30248146169285
 31
0.0
  0
LINE
  5
52F
  8
0
 39
2.536148569999999
 10
68.020475034946742
 20
54.376283385079837
 30
0.0
 11
68.002620549013955
 21
54.338190433558431
 31
0.0
  0
LINE
  5
530
  8
0
 39
2.536148569999999
 10
68.032293487282942
 20
54.41655742437144
 30
0.0
 11
68.020475034946742
 21
54.376283385079837
 31
0.0
  0
LINE
  5
531
  8
0
 39
2.536148569999999
 10
68.036554216880546
 20
54.45840387577644
 30
0.0
 11
68.032293487282942
 21
54.41655742437144
 31
0.0
  0
LINE
  5
532
  8
0
 39
2.536148569999999
 10
68.032090595397349
 20
54.501619847409231
 30
0.0
 11
68.036554216880546
 21
54.45840387577644
 31
0.0
  0
LINE
  5
533
  8
0
 39
2.536148569999999
 10
68.017583825576949
 20
54.545698109555843
 30
0.0
 11
68.032090595397349
 21
54.501619847409231
 31
0.0
  0
LINE
  5
534
  8
0
 39
2.536148569999999
 10
67.99191800204855
 20
54.59033432438784
 30
0.0
 11
68.017583825576949
 21
54.545698109555843
 31
0.0
  0
LINE
  5
535
  8
0
 39
2.536148569999999
 10
67.953672881612945
 20
54.635021262191252
 30
0.0
 11
67.99191800204855
 21
54.59033432438784
 31
0.0
  0
LINE
  5
536
  8
0
 39
2.536148569999999
 10
67.901631112956551
 20
54.679505308109043
 30
0.0
 11
67.953672881612945
 21
54.635021262191252
 31
0.0
  0
LINE
  5
537
  8
0
 39
2.536148569999999
 10
67.834524621794344
 20
54.723279232427238
 30
0.0
 11
67.901631112956551
 21
54.679505308109043
 31
0.0
  0
LINE
  5
538
  8
0
 39
2.536148569999999
 10
67.834524621794344
 20
54.723279232427238
 30
0.0
 11
67.834524621794344
 21
54.723279232427238
 31
0.0
  0
LINE
  5
539
  8
0
 39
2.536148569999999
 10
66.405577361272762
 20
55.322368247632639
 30
0.0
 11
67.834524621794344
 21
54.723279232427238
 31
0.0
  0
LINE
  5
53A
  8
0
 39
2.536148569999999
 10
67.593438338730152
 20
52.667629370499441
 30
0.0
 11
67.689398634362007
 21
52.589904866853232
 31
0.0
  0
LINE
  5
53B
  8
0
 39
2.536148569999999
 10
67.494427098557352
 20
52.737069118346042
 30
0.0
 11
67.593438338730152
 21
52.667629370499441
 31
0.0
  0
LINE
  5
53C
  8
0
 39
2.536148569999999
 10
67.385575601932942
 20
52.804885731107838
 30
0.0
 11
67.494427098557352
 21
52.737069118346042
 31
0.0
  0
LINE
  5
53D
  8
0
 39
2.536148569999999
 10
67.268557706913157
 20
52.870774870956431
 30
0.0
 11
67.385575601932942
 21
52.804885731107838
 31
0.0
  0
LINE
  5
53E
  8
0
 39
2.536148569999999
 10
67.233224085606565
 20
52.93463509194904
 30
0.0
 11
67.268557706913157
 21
52.870774870956431
 31
0.0
  0
LINE
  5
53F
  8
0
 39
2.536148569999999
 10
67.104793522021765
 20
52.995959164371641
 30
0.0
 11
67.233224085606565
 21
52.93463509194904
 31
0.0
  0
LINE
  5
540
  8
0
 39
2.536148569999999
 10
66.973116688267368
 20
53.054747088224246
 30
0.0
 11
67.104793522021765
 21
52.995959164371641
 31
0.0
  0
LINE
  5
541
  8
0
 39
2.536148569999999
 10
66.839765996456762
 20
53.110593079735651
 30
0.0
 11
66.973116688267368
 21
53.054747088224246
 31
0.0
  0
LINE
  5
542
  8
0
 39
2.536148569999999
 10
66.706567473560355
 20
53.163446415934438
 30
0.0
 11
66.839765996456762
 21
53.110593079735651
 31
0.0
  0
LINE
  5
543
  8
0
 39
2.536148569999999
 10
66.574890639805943
 20
53.212850590078048
 30
0.0
 11
66.706567473560355
 21
53.163446415934438
 31
0.0
  0
LINE
  5
544
  8
0
 39
2.536148569999999
 10
66.446561522163961
 20
53.258754879195031
 30
0.0
 11
66.574890639805943
 21
53.212850590078048
 31
0.0
  0
LINE
  5
545
  8
0
 39
2.536148569999999
 10
66.323051086804966
 20
53.300702776542842
 30
0.0
 11
66.446561522163961
 21
53.258754879195031
 31
0.0
  0
LINE
  5
546
  8
0
 39
2.536148569999999
 10
66.206185360699351
 20
53.338643559150043
 30
0.0
 11
66.323051086804966
 21
53.300702776542842
 31
0.0
  0
LINE
  5
547
  8
0
 39
2.536148569999999
 10
66.097435310017744
 20
53.372222166216837
 30
0.0
 11
66.206185360699351
 21
53.338643559150043
 31
0.0
  0
LINE
  5
548
  8
0
 39
2.536148569999999
 10
65.998474792816353
 20
53.401235705857637
 30
0.0
 11
66.097435310017744
 21
53.372222166216837
 31
0.0
  0
LINE
  5
549
  8
0
 39
2.536148569999999
 10
65.910926944179963
 20
53.425379840244041
 30
0.0
 11
65.998474792816353
 21
53.401235705857637
 31
0.0
  0
LINE
  5
54A
  8
0
 39
2.536148569999999
 10
65.910926944179963
 20
53.425379840244041
 30
0.0
 11
65.910926944179963
 21
53.425379840244041
 31
0.0
  0
LINE
  5
54B
  8
0
 39
2.536148569999999
 10
65.869993506260144
 20
53.452770244800043
 30
0.0
 11
65.910926944179963
 21
53.425379840244041
 31
0.0
  0
LINE
  5
54C
  8
0
 39
2.536148569999999
 10
65.833878750623356
 20
53.480718602041442
 30
0.0
 11
65.869993506260144
 21
53.452770244800043
 31
0.0
  0
LINE
  5
54D
  8
0
 39
2.536148569999999
 10
65.802887015097966
 20
53.509123466025443
 30
0.0
 11
65.833878750623356
 21
53.480718602041442
 31
0.0
  0
LINE
  5
54E
  8
0
 39
2.536148569999999
 10
65.776866130769761
 20
53.537883390809242
 30
0.0
 11
65.802887015097966
 21
53.509123466025443
 31
0.0
  0
LINE
  5
54F
  8
0
 39
2.536148569999999
 10
65.756018989524364
 20
53.566896930450042
 30
0.0
 11
65.776866130769761
 21
53.537883390809242
 31
0.0
  0
LINE
  5
550
  8
0
 39
2.536148569999999
 10
65.740345591361759
 20
53.595859747119441
 30
0.0
 11
65.756018989524364
 21
53.566896930450042
 31
0.0
  0
LINE
  5
551
  8
0
 39
2.536148569999999
 10
65.729845936281961
 20
53.624771840817438
 30
0.0
 11
65.740345591361759
 21
53.595859747119441
 31
0.0
  0
LINE
  5
552
  8
0
 39
2.536148569999999
 10
65.724570747256365
 20
53.653379596687039
 30
0.0
 11
65.729845936281961
 21
53.624771840817438
 31
0.0
  0
LINE
  5
553
  8
0
 39
2.536148569999999
 10
65.724672193199154
 20
53.681733737699638
 30
0.0
 11
65.724570747256365
 21
53.653379596687039
 31
0.0
  0
LINE
  5
554
  8
0
 39
2.536148569999999
 10
65.730099551138963
 20
53.709428480084043
 30
0.0
 11
65.724672193199154
 21
53.681733737699638
 31
0.0
  0
LINE
  5
555
  8
0
 39
2.536148569999999
 10
65.740954267018566
 20
53.736463823840232
 30
0.0
 11
65.730099551138963
 21
53.709428480084043
 31
0.0
  0
LINE
  5
556
  8
0
 39
2.536148569999999
 10
65.757236340837963
 20
53.762636877082642
 30
0.0
 11
65.740954267018566
 21
53.736463823840232
 31
0.0
  0
LINE
  5
557
  8
0
 39
2.536148569999999
 10
65.779097941511367
 20
53.787947639811229
 30
0.0
 11
65.757236340837963
 21
53.762636877082642
 31
0.0
  0
LINE
  5
558
  8
0
 39
2.536148569999999
 10
65.806386900124551
 20
53.812041051226238
 30
0.0
 11
65.779097941511367
 21
53.787947639811229
 31
0.0
  0
LINE
  5
559
  8
0
 39
2.536148569999999
 10
65.839306108563164
 20
53.834866388356239
 30
0.0
 11
65.806386900124551
 21
53.812041051226238
 31
0.0
  0
LINE
  5
55A
  8
0
 39
2.536148569999999
 10
65.877804843855756
 20
53.856271482287042
 30
0.0
 11
65.839306108563164
 21
53.834866388356239
 31
0.0
  0
LINE
  5
55B
  8
0
 39
2.536148569999999
 10
65.877804843855756
 20
53.856271482287042
 30
0.0
 11
65.877804843855756
 21
53.856271482287042
 31
0.0
  0
LINE
  5
55C
  8
0
 39
2.536148569999999
 10
67.581619886393952
 20
54.356805764062237
 30
0.0
 11
65.877804843855756
 21
53.856271482287042
 31
0.0
  0
LINE
  5
55D
  8
0
 39
2.536148569999999
 10
67.581619886393952
 20
54.555690534921638
 30
0.0
 11
67.581619886393952
 21
54.356805764062237
 31
0.0
  0
LINE
  5
55E
  8
0
 39
2.536148569999999
 10
66.013640961264954
 20
55.082702207767639
 30
0.0
 11
67.581619886393952
 21
54.555690534921638
 31
0.0
  0
LINE
  5
55F
  8
0
 39
2.536148569999999
 10
65.957287740039561
 20
55.113896835178643
 30
0.0
 11
66.013640961264954
 21
55.082702207767639
 31
0.0
  0
LINE
  5
560
  8
0
 39
2.536148569999999
 10
65.908137180752945
 20
55.144990016646851
 30
0.0
 11
65.957287740039561
 21
55.113896835178643
 31
0.0
  0
LINE
  5
561
  8
0
 39
2.536148569999999
 10
65.866189283405163
 20
55.176133921086439
 30
0.0
 11
65.908137180752945
 21
55.144990016646851
 31
0.0
  0
LINE
  5
562
  8
0
 39
2.536148569999999
 10
65.831494770967566
 20
55.207176379583238
 30
0.0
 11
65.866189283405163
 21
55.176133921086439
 31
0.0
  0
LINE
  5
563
  8
0
 39
2.536148569999999
 10
65.804104366411565
 20
55.238371006994242
 30
0.0
 11
65.831494770967566
 21
55.207176379583238
 31
0.0
  0
LINE
  5
564
  8
0
 39
2.536148569999999
 10
65.783865900822946
 20
55.269413465491041
 30
0.0
 11
65.804104366411565
 21
55.238371006994242
 31
0.0
  0
LINE
  5
565
  8
0
 39
2.536148569999999
 10
65.770931543115964
 20
55.30045592398784
 30
0.0
 11
65.783865900822946
 21
55.269413465491041
 31
0.0
  0
LINE
  5
566
  8
0
 39
2.536148569999999
 10
65.765199847347759
 20
55.331498382484639
 30
0.0
 11
65.770931543115964
 21
55.30045592398784
 31
0.0
  0
LINE
  5
567
  8
0
 39
2.536148569999999
 10
65.766822982432544
 20
55.36259156395284
 30
0.0
 11
65.765199847347759
 21
55.331498382484639
 31
0.0
  0
LINE
  5
568
  8
0
 39
2.536148569999999
 10
65.775648779456162
 20
55.393634022449639
 30
0.0
 11
65.766822982432544
 21
55.36259156395284
 31
0.0
  0
LINE
  5
569
  8
0
 39
2.536148569999999
 10
65.791677238418544
 20
55.424676480946431
 30
0.0
 11
65.775648779456162
 21
55.393634022449639
 31
0.0
  0
LINE
  5
56A
  8
0
 39
2.536148569999999
 10
65.814959082291153
 20
55.455718939443237
 30
0.0
 11
65.791677238418544
 21
55.424676480946431
 31
0.0
  0
LINE
  5
56B
  8
0
 39
2.536148569999999
 10
65.845545034045358
 20
55.486761397940043
 30
0.0
 11
65.814959082291153
 21
55.455718939443237
 31
0.0
  0
LINE
  5
56C
  8
0
 39
2.536148569999999
 10
65.883282924766945
 20
55.517803856436842
 30
0.0
 11
65.845545034045358
 21
55.486761397940043
 31
0.0
  0
LINE
  5
56D
  8
0
 39
2.536148569999999
 10
65.928324923370155
 20
55.548846314933641
 30
0.0
 11
65.883282924766945
 21
55.517803856436842
 31
0.0
  0
LINE
  5
56E
  8
0
 39
2.536148569999999
 10
65.980518860940762
 20
55.57988877343044
 30
0.0
 11
65.928324923370155
 21
55.548846314933641
 31
0.0
  0
LINE
  5
56F
  8
0
 39
2.536148569999999
 10
65.980518860940762
 20
55.57988877343044
 30
0.0
 11
65.980518860940762
 21
55.57988877343044
 31
0.0
  0
LINE
  5
570
  8
0
 10
67.974672193199154
 20
52.589904866853232
 30
0.0
 11
64.224672193199154
 21
52.589904866853232
 31
0.0
  0
LINE
  5
571
  8
0
 10
67.581619886393952
 20
54.456248149491941
 30
0.0
 11
64.224672193199154
 21
54.456248149491941
 31
0.0
  0
LINE
  5
572
  8
0
 10
67.974672193199154
 20
52.589904866853232
 30
0.0
 11
67.974672193199154
 21
52.704401787262611
 31
0.0
  0
LINE
  5
573
  8
0
 10
65.724672193199154
 20
53.681733737699638
 30
0.0
 11
64.224672193199154
 21
53.681733737699638
 31
0.0
  0
LINE
  5
574
  8
0
 10
65.766284098098907
 20
55.352268560936359
 30
0.0
 11
64.224672193199154
 21
55.352268560936359
 31
0.0
  0
LINE
  5
575
  8
0
 39
2.536148569999999
 10
67.863791776292146
 20
55.796780199136848
 30
0.0
 11
67.809061690151552
 21
55.754325072075041
 31
0.0
  0
LINE
  5
576
  8
0
 39
2.536148569999999
 10
67.911167031579751
 20
55.839133880255837
 30
0.0
 11
67.863791776292146
 21
55.796780199136848
 31
0.0
  0
LINE
  5
577
  8
0
 39
2.536148569999999
 10
67.951339624928551
 20
55.881589007317643
 30
0.0
 11
67.911167031579751
 21
55.839133880255837
 31
0.0
  0
LINE
  5
578
  8
0
 39
2.536148569999999
 10
67.984208110395741
 20
55.923891965465238
 30
0.0
 11
67.951339624928551
 21
55.881589007317643
 31
0.0
  0
LINE
  5
579
  8
0
 39
2.536148569999999
 10
68.009924656895549
 20
55.966347092527037
 30
0.0
 11
67.984208110395741
 21
55.923891965465238
 31
0.0
  0
LINE
  5
57A
  8
0
 39
2.536148569999999
 10
68.028337095513749
 20
56.008650050674653
 30
0.0
 11
68.009924656895549
 21
55.966347092527037
 31
0.0
  0
LINE
  5
57B
  8
0
 39
2.536148569999999
 10
68.039546872193156
 20
56.051105177736439
 30
0.0
 11
68.028337095513749
 21
56.008650050674653
 31
0.0
  0
LINE
  5
57C
  8
0
 39
2.536148569999999
 10
68.043401818019547
 20
56.093408135884047
 30
0.0
 11
68.039546872193156
 21
56.051105177736439
 31
0.0
  0
LINE
  5
57D
  8
0
 39
2.536148569999999
 10
68.040155547849949
 20
56.135863262945833
 30
0.0
 11
68.043401818019547
 21
56.093408135884047
 31
0.0
  0
LINE
  5
57E
  8
0
 39
2.536148569999999
 10
68.029554446827333
 20
56.178166221093427
 30
0.0
 11
68.040155547849949
 21
56.135863262945833
 31
0.0
  0
LINE
  5
57F
  8
0
 39
2.536148569999999
 10
68.011852129808744
 20
56.220621348155248
 30
0.0
 11
68.029554446827333
 21
56.178166221093427
 31
0.0
  0
LINE
  5
580
  8
0
 39
2.536148569999999
 10
67.986744258965743
 20
56.262924306302843
 30
0.0
 11
68.011852129808744
 21
56.220621348155248
 31
0.0
  0
LINE
  5
581
  8
0
 39
2.536148569999999
 10
67.954484449155345
 20
56.305379433364628
 30
0.0
 11
67.986744258965743
 21
56.262924306302843
 31
0.0
  0
LINE
  5
582
  8
0
 39
2.536148569999999
 10
67.914920531463352
 20
56.347682391512237
 30
0.0
 11
67.954484449155345
 21
56.305379433364628
 31
0.0
  0
LINE
  5
583
  8
0
 39
2.536148569999999
 10
67.868204674803948
 20
56.389985349659838
 30
0.0
 11
67.914920531463352
 21
56.347682391512237
 31
0.0
  0
LINE
  5
584
  8
0
 39
2.536148569999999
 10
67.814083264320146
 20
56.43228830780744
 30
0.0
 11
67.868204674803948
 21
56.389985349659838
 31
0.0
  0
LINE
  5
585
  8
0
 39
2.536148569999999
 10
67.814083264320146
 20
56.43228830780744
 30
0.0
 11
67.814083264320146
 21
56.43228830780744
 31
0.0
  0
LINE
  5
586
  8
0
 39
2.536148569999999
 10
66.449939671488551
 20
57.213523513310243
 30
0.0
 11
67.814083264320146
 21
56.43228830780744
 31
0.0
  0
LINE
  5
587
  8
0
 39
2.536148569999999
 10
67.585982061934345
 20
57.708021761488837
 30
0.0
 11
66.449939671488551
 21
57.213523513310243
 31
0.0
  0
LINE
  5
588
  8
0
 39
2.536148569999999
 10
67.647610472185335
 20
57.73378903096004
 30
0.0
 11
67.585982061934345
 21
57.708021761488837
 31
0.0
  0
LINE
  5
589
  8
0
 39
2.536148569999999
 10
67.703253571811146
 20
57.761585219287241
 30
0.0
 11
67.647610472185335
 21
57.73378903096004
 31
0.0
  0
LINE
  5
58A
  8
0
 39
2.536148569999999
 10
67.753215698640147
 20
57.791816110241641
 30
0.0
 11
67.703253571811146
 21
57.761585219287241
 31
0.0
  0
LINE
  5
58B
  8
0
 39
2.536148569999999
 10
67.797649021586551
 20
57.82453242679464
 30
0.0
 11
67.753215698640147
 21
57.791816110241641
 31
0.0
  0
LINE
  5
58C
  8
0
 39
2.536148569999999
 10
67.837010047392951
 20
57.860190675688841
 30
0.0
 11
67.797649021586551
 21
57.82453242679464
 31
0.0
  0
LINE
  5
58D
  8
0
 39
2.536148569999999
 10
67.87145094497356
 20
57.898892302867033
 30
0.0
 11
67.837010047392951
 21
57.860190675688841
 31
0.0
  0
LINE
  5
58E
  8
0
 39
2.536148569999999
 10
67.901326775128155
 20
57.940941646157633
 30
0.0
 11
67.87145094497356
 21
57.898892302867033
 31
0.0
  0
LINE
  5
58F
  8
0
 39
2.536148569999999
 10
67.926840429742356
 20
57.986440151503437
 30
0.0
 11
67.901326775128155
 21
57.940941646157633
 31
0.0
  0
LINE
  5
590
  8
0
 39
2.536148569999999
 10
67.948397692587349
 20
58.035895048618443
 30
0.0
 11
67.926840429742356
 21
57.986440151503437
 31
0.0
  0
LINE
  5
591
  8
0
 39
2.536148569999999
 10
67.966049286634544
 20
58.08925561453124
 30
0.0
 11
67.948397692587349
 21
58.035895048618443
 31
0.0
  0
LINE
  5
592
  8
0
 39
2.536148569999999
 10
67.974672193199154
 20
58.124270774402497
 30
0.0
 11
67.966049286634544
 21
58.08925561453124
 31
0.0
  0
LINE
  5
59E
  8
0
 39
2.536148569999999
 10
67.964882658292353
 20
62.351202563444843
 30
0.0
 11
67.974672193199154
 21
62.33315372153249
 31
0.0
  0
LINE
  5
59F
  8
0
 39
2.536148569999999
 10
67.933688030881356
 20
62.393606967535241
 30
0.0
 11
67.964882658292353
 21
62.351202563444843
 31
0.0
  0
LINE
  5
5A0
  8
0
 39
2.536148569999999
 10
67.897928336044345
 20
62.431902810942248
 30
0.0
 11
67.933688030881356
 21
62.393606967535241
 31
0.0
  0
LINE
  5
5A1
  8
0
 39
2.536148569999999
 10
67.858719479152143
 20
62.465988647723037
 30
0.0
 11
67.897928336044345
 21
62.431902810942248
 31
0.0
  0
LINE
  5
5A2
  8
0
 39
2.536148569999999
 10
67.817583149346746
 20
62.496067369763239
 30
0.0
 11
67.858719479152143
 21
62.465988647723037
 31
0.0
  0
LINE
  5
5A3
  8
0
 39
2.536148569999999
 10
67.775584529027554
 20
62.521885362205843
 30
0.0
 11
67.817583149346746
 21
62.496067369763239
 31
0.0
  0
LINE
  5
5A4
  8
0
 39
2.536148569999999
 10
67.734042415450944
 20
62.543594793965042
 30
0.0
 11
67.775584529027554
 21
62.521885362205843
 31
0.0
  0
LINE
  5
5A5
  8
0
 39
2.536148569999999
 10
67.694174159930554
 20
62.561144942069433
 30
0.0
 11
67.734042415450944
 21
62.543594793965042
 31
0.0
  0
LINE
  5
5A6
  8
0
 39
2.536148569999999
 10
67.657400005665551
 20
62.574637252461841
 30
0.0
 11
67.694174159930554
 21
62.561144942069433
 31
0.0
  0
LINE
  5
5A7
  8
0
 39
2.536148569999999
 10
67.624734412083953
 20
62.583868833256638
 30
0.0
 11
67.657400005665551
 21
62.574637252461841
 31
0.0
  0
LINE
  5
5A8
  8
0
 39
2.536148569999999
 10
67.597648345356333
 20
62.58899185336805
 30
0.0
 11
67.624734412083953
 21
62.583868833256638
 31
0.0
  0
LINE
  5
5A9
  8
0
 39
2.536148569999999
 10
67.57720698788215
 20
62.589904866853232
 30
0.0
 11
67.597648345356333
 21
62.58899185336805
 31
0.0
  0
LINE
  5
5AA
  8
0
 39
2.536148569999999
 10
67.57720698788215
 20
62.589904866853232
 30
0.0
 11
67.57720698788215
 21
62.589904866853232
 31
0.0
  0
LINE
  5
5AB
  8
0
 39
2.536148569999999
 10
64.224672193199154
 20
62.589904866853232
 30
0.0
 11
67.57720698788215
 21
62.589904866853232
 31
0.0
  0
LINE
  5
5AC
  8
0
 39
2.536148569999999
 10
67.482253585421347
 20
56.176543086008643
 30
0.0
 11
67.482253585421347
 21
55.977658315149242
 31
0.0
  0
LINE
  5
5AD
  8
0
 39
2.536148569999999
 10
64.224672193199154
 20
57.303506064573853
 30
0.0
 11
65.224672193199154
 21
57.303506064573853
 31
0.0
  0
LINE
  5
5AE
  8
0
 10
65.224672193199154
 20
57.303506064573853
 30
0.0
 11
67.482253585421347
 21
56.176543086008643
 31
0.0
  0
LINE
  5
5AF
  8
0
 10
67.224672193199154
 20
58.589904866853239
 30
0.0
 11
64.224672193199154
 21
58.589904866853239
 31
0.0
  0
LINE
  5
5B0
  8
0
 10
64.224672193199154
 20
60.589904866853239
 30
0.0
 11
67.224672193199154
 21
60.589904866853239
 31
0.0
  0
LINE
  5
5B1
  8
0
 10
67.482253585421347
 20
56.077100700578939
 30
0.0
 11
64.224672193199154
 21
56.077100700578939
 31
0.0
  0
LINE
  5
5B2
  8
0
 10
66.224672193199154
 20
62.589904866853232
 30
0.0
 11
66.224672193199154
 21
60.589904866853239
 31
0.0
  0
LINE
  5
5B3
  8
0
 10
67.224672193199154
 20
60.589904866853239
 30
0.0
 11
67.224672193199154
 21
58.589904866853239
 31
0.0
  0
LINE
  5
5B4
  8
0
 10
65.224672193199154
 20
58.589904866853239
 30
0.0
 11
65.224672193199154
 21
57.303506064573853
 31
0.0
  0
DIMENSION
  5
5BC
  8
2
  2
*D1
 10
66.224672193199154
 20
65.632935544701553
 30
0.0
 11
64.224672193199154
 21
66.570435544701553
 31
0.0
 70
     0
  1
%%c<>
 13
62.224672193199147
 23
62.589904866853232
 33
0.0
 14
66.224672193199154
 24
62.589904866853232
 34
0.0
  0
LINE
  5
5D6
  8
0
 10
60.474672193199162
 20
62.33315372153249
 30
0.0
 11
60.474672193199162
 21
58.124270774402511
 31
0.0
  0
LINE
  5
5D7
  8
0
 10
67.974672193199154
 20
62.33315372153249
 30
0.0
 11
67.974672193199154
 21
58.124270774402497
 31
0.0
  0
DIMENSION
  5
5D9
  8
2
  2
*D2
 10
67.974672193199154
 20
70.248874579924802
 30
0.0
 11
64.360366544412045
 21
70.248874579924802
 31
0.0
 70
   128
  1
%%c<>
 13
60.474672193199162
 23
62.33315372153249
 33
0.0
 14
67.974672193199154
 24
62.33315372153249
 34
0.0
  0
DIMENSION
  5
5F0
  8
2
  2
*D3
 10
67.224672193199154
 20
68.002499535735012
 30
0.0
 11
64.224672193199154
 21
68.939999535735012
 31
0.0
 70
     0
  1
%%c<>
 13
61.224672193199147
 23
60.589904866853239
 33
0.0
 14
67.224672193199154
 24
60.589904866853239
 34
0.0
  0
DIMENSION
  5
5FD
  8
2
  2
*D4
 10
72.043142827244523
 20
60.589904866853239
 30
0.0
 11
71.105642827244523
 21
61.589904866853253
 31
0.0
 70
     0
 13
67.224672193199154
 23
62.589904866853232
 33
0.0
 14
67.224672193199154
 24
60.589904866853239
 34
0.0
 50
90.0
  0
DIMENSION
  5
60C
  8
2
  2
*D5
 10
74.641952907871314
 20
58.589904866853239
 30
0.0
 11
73.7044529078713
 21
60.589904866853239
 31
0.0
 70
     0
 13
67.224672193199154
 23
62.589904866853232
 33
0.0
 14
67.224672193199154
 24
58.589904866853239
 34
0.0
 50
90.0
  0
DIMENSION
  5
619
  8
2
  2
*D6
 10
77.313050751983951
 20
52.589904866853232
 30
0.0
 11
76.375550751983937
 21
57.589904866853239
 31
0.0
 70
     0
 13
67.224672193199154
 23
62.589904866853232
 33
0.0
 14
67.974672193199154
 24
52.589904866853232
 34
0.0
 50
90.0
  0
DIMENSION
  5
628
  8
2
  2
*D7
 10
65.224672193199154
 20
48.710195587651612
 30
0.0
 11
69.078838859865826
 21
49.647695587651612
 31
0.0
 70
     0
  1
%%c<>
 13
63.224672193199147
 23
57.303506064573853
 33
0.0
 14
65.224672193199154
 24
57.303506064573853
 34
0.0
  0
DIMENSION
  5
652
  8
2
  2
*D8
 10
65.724570747256365
 20
46.198491691062429
 30
0.0
 11
64.224672193199154
 21
47.135991691062429
 31
0.0
 70
     0
  1
%%c<>
 13
62.724773639141951
 23
53.653379596687039
 33
0.0
 14
65.724570747256365
 24
53.653379596687039
 34
0.0
1001
ACAD
1000
DSTYLE
1002
{
1070
   271
1070
     0
1002
}
  0
DIMENSION
  5
677
  8
2
  2
*D9
 10
67.974672193199154
 20
43.947643778132708
 30
0.0
 11
64.224672193199154
 21
44.885143778132708
 31
0.0
 70
     0
  1
%%c<>
 13
60.474672193199162
 23
52.589904866853232
 33
0.0
 14
67.974672193199154
 24
52.589904866853232
 34
0.0
1001
ACAD
1000
DSTYLE
1002
{
1070
   271
1070
     6
1002
}
  0
ENDSEC
  0
EOF
