  0
SECTION
  2
HEADER
  9
$ACADVER
  1
AC1009
  9
$INSBASE
 10
0.0
 20
0.0
 30
0.0
  9
$EXTMIN
 10
60.438011810767762
 20
31.56205066613791
 30
0.0
  9
$EXTMAX
 10
93.820133028164037
 20
83.187099665631337
 30
3.2329444225000001
  9
$LIMMIN
 10
0.0
 20
0.0
  9
$LIMMAX
 10
420.0
 20
297.0
  9
$ORTHOMODE
 70
     0
  9
$REGENMODE
 70
     1
  9
$FILLMODE
 70
     1
  9
$QTEXTMODE
 70
     0
  9
$MIRRTEXT
 70
     1
  9
$DRAGMODE
 70
     2
  9
$LTSCALE
 40
0.3
  9
$OSMODE
 70
    37
  9
$ATTMODE
 70
     1
  9
$TEXTSIZE
 40
2.5
  9
$TRACEWID
 40
1.0
  9
$TEXTSTYLE
  7
STANDARD
  9
$CLAYER
  8
2
  9
$CELTYPE
  6
BYLAYER
  9
$CECOLOR
 62
   256
  9
$DIMSCALE
 40
1.0
  9
$DIMASZ
 40
2.5
  9
$DIMEXO
 40
0.625
  9
$DIMDLI
 40
3.75
  9
$DIMRND
 40
0.0
  9
$DIMDLE
 40
0.0
  9
$DIMEXE
 40
1.25
  9
$DIMTP
 40
0.0
  9
$DIMTM
 40
0.0
  9
$DIMTXT
 40
2.5
  9
$DIMCEN
 40
2.5
  9
$DIMTSZ
 40
0.0
  9
$DIMTOL
 70
     0
  9
$DIMLIM
 70
     0
  9
$DIMTIH
 70
     0
  9
$DIMTOH
 70
     0
  9
$DIMSE1
 70
     0
  9
$DIMSE2
 70
     0
  9
$DIMTAD
 70
     1
  9
$DIMZIN
 70
     8
  9
$DIMBLK
  1

  9
$DIMASO
 70
     1
  9
$DIMSHO
 70
     1
  9
$DIMPOST
  1

  9
$DIMAPOST
  1

  9
$DIMALT
 70
     0
  9
$DIMALTD
 70
     3
  9
$DIMALTF
 40
0.03937007874016
  9
$DIMLFAC
 40
1.0
  9
$DIMTOFL
 70
     1
  9
$DIMTVP
 40
0.0
  9
$DIMTIX
 70
     0
  9
$DIMSOXD
 70
     0
  9
$DIMSAH
 70
     0
  9
$DIMBLK1
  1

  9
$DIMBLK2
  1

  9
$DIMSTYLE
  2
ISO-25
  9
$DIMCLRD
 70
     0
  9
$DIMCLRE
 70
     0
  9
$DIMCLRT
 70
     0
  9
$DIMTFAC
 40
1.0
  9
$DIMGAP
 40
0.625
  9
$LUNITS
 70
     2
  9
$LUPREC
 70
     4
  9
$SKETCHINC
 40
1.0
  9
$FILLETRAD
 40
10.0
  9
$AUNITS
 70
     0
  9
$AUPREC
 70
     0
  9
$MENU
  1
.
  9
$ELEVATION
 40
0.0
  9
$PELEVATION
 40
0.0
  9
$THICKNESS
 40
0.0
  9
$LIMCHECK
 70
     0
  9
$BLIPMODE
 70
     0
  9
$CHAMFERA
 40
10.0
  9
$CHAMFERB
 40
10.0
  9
$SKPOLY
 70
     0
  9
$TDCREATE
 40
2453439.4406341552
  9
$TDUPDATE
 40
2453551.9094383558
  9
$TDINDWG
 40
0.0256754745
  9
$TDUSRTIMER
 40
0.0256754745
  9
$USRTIMER
 70
     1
  9
$ANGBASE
 50
0.0
  9
$ANGDIR
 70
     0
  9
$PDMODE
 70
     0
  9
$PDSIZE
 40
0.0
  9
$PLINEWID
 40
0.0
  9
$COORDS
 70
     1
  9
$SPLFRAME
 70
     0
  9
$SPLINETYPE
 70
     6
  9
$SPLINESEGS
 70
     8
  9
$ATTDIA
 70
     0
  9
$ATTREQ
 70
     1
  9
$HANDLING
 70
-16383
  9
$HANDSEED
  5
48B
  9
$SURFTAB1
 70
     6
  9
$SURFTAB2
 70
     6
  9
$SURFTYPE
 70
     6
  9
$SURFU
 70
     6
  9
$SURFV
 70
     6
  9
$UCSNAME
  2

  9
$UCSORG
 10
0.0
 20
0.0
 30
0.0
  9
$UCSXDIR
 10
1.0
 20
0.0
 30
0.0
  9
$UCSYDIR
 10
0.0
 20
1.0
 30
0.0
  9
$PUCSNAME
  2

  9
$PUCSORG
 10
0.0
 20
0.0
 30
0.0
  9
$PUCSXDIR
 10
1.0
 20
0.0
 30
0.0
  9
$PUCSYDIR
 10
0.0
 20
1.0
 30
0.0
  9
$USERI1
 70
     0
  9
$USERI2
 70
     0
  9
$USERI3
 70
     0
  9
$USERI4
 70
     0
  9
$USERI5
 70
     0
  9
$USERR1
 40
0.0
  9
$USERR2
 40
0.0
  9
$USERR3
 40
0.0
  9
$USERR4
 40
0.0
  9
$USERR5
 40
0.0
  9
$WORLDVIEW
 70
     1
  9
$SHADEDGE
 70
     3
  9
$SHADEDIF
 70
    70
  9
$TILEMODE
 70
     1
  9
$MAXACTVP
 70
    64
  9
$PLIMCHECK
 70
     0
  9
$PEXTMIN
 10
1.0000000000000000E+020
 20
1.0000000000000000E+020
 30
1.0000000000000000E+020
  9
$PEXTMAX
 10
-1.0000000000000000E+020
 20
-1.0000000000000000E+020
 30
-1.0000000000000000E+020
  9
$PLIMMIN
 10
0.0
 20
0.0
  9
$PLIMMAX
 10
420.0
 20
297.0
  9
$UNITMODE
 70
     0
  9
$VISRETAIN
 70
     1
  9
$PLINEGEN
 70
     0
  9
$PSLTSCALE
 70
     1
  0
ENDSEC
  0
SECTION
  2
TABLES
  0
TABLE
  2
VPORT
 70
     2
  0
VPORT
  2
*ACTIVE
 70
     0
 10
0.0
 20
0.0
 11
1.0
 21
1.0
 12
94.890403790388405
 22
48.819640367664277
 13
0.0
 23
0.0
 14
10.0
 24
10.0
 15
10.0
 25
10.0
 16
0.0
 26
0.0
 36
1.0
 17
0.0
 27
0.0
 37
0.0
 40
73.165758221680051
 41
2.5392405063291141
 42
50.0
 43
0.0
 44
0.0
 50
0.0
 51
0.0
 71
     0
 72
   100
 73
     1
 74
     3
 75
     0
 76
     0
 77
     0
 78
     0
  0
ENDTAB
  0
TABLE
  2
LTYPE
 70
     2
  0
LTYPE
  2
CONTINUOUS
 70
     0
  3
Solid line
 72
    65
 73
     0
 40
0.0
  0
LTYPE
  2
CENTER
 70
     0
  3
Center ____ _ ____ _ ____ _ ____ _ ____ _ ____
 72
    65
 73
     4
 40
50.799999999999997
 49
31.75
 49
-6.3499999999999988
 49
6.3499999999999988
 49
-6.3499999999999988
  0
ENDTAB
  0
TABLE
  2
LAYER
 70
     4
  0
LAYER
  2
0
 70
     0
 62
     7
  6
CONTINUOUS
  0
LAYER
  2
1
 70
     0
 62
     7
  6
CENTER
  0
LAYER
  2
2
 70
     0
 62
     7
  6
CONTINUOUS
  0
LAYER
  2
DEFPOINTS
 70
     0
 62
     7
  6
CONTINUOUS
  0
ENDTAB
  0
TABLE
  2
STYLE
 70
     3
  0
STYLE
  2
STANDARD
 70
     0
 40
0.0
 41
1.0
 50
0.0
 71
     0
 42
2.5
  3
txt
  4

  0
STYLE
  2
\U+00C9L\U+00C9R_\U+00C2S\U+00C2V\U+00C2B\U+00C2N
 70
     0
 40
1.0
 41
1.0
 50
0.0
 71
     0
 42
1.0
  3
\U+00E9l\U+00E9r \U+00E2S\U+00E2V\U+00E2b\U+00E2N
  4

  0
STYLE
  2

 70
     1
 40
0.0
 41
1.0
 50
0.0
 71
     0
 42
2.5
  3
ltypeshp.shx
  4

  0
ENDTAB
  0
TABLE
  2
VIEW
 70
     0
  0
ENDTAB
  0
TABLE
  2
UCS
 70
     0
  0
ENDTAB
  0
TABLE
  2
APPID
 70
     1
  0
APPID
  2
ACAD
 70
     0
  0
ENDTAB
  0
TABLE
  2
DIMSTYLE
 70
     2
  0
DIMSTYLE
  2
ISO-25
 70
     0
  3

  4

  5

  6

  7

 40
1.0
 41
2.5
 42
0.625
 43
3.75
 44
1.25
 45
0.0
 46
0.0
 47
0.0
 48
0.0
140
2.5
141
2.5
142
0.0
143
0.03937007874016
144
1.0
145
0.0
146
1.0
147
0.625
 71
     0
 72
     0
 73
     0
 74
     0
 75
     0
 76
     0
 77
     1
 78
     8
170
     0
171
     3
172
     1
173
     0
174
     0
175
     0
176
     0
177
     0
178
     0
  0
DIMSTYLE
  2
STANDARD
 70
     0
  3

  4

  5

  6

  7

 40
1.0
 41
0.18
 42
0.0625
 43
0.38
 44
0.18
 45
0.0
 46
0.0
 47
0.0
 48
0.0
140
0.18
141
0.09
142
0.0
143
25.399999999999999
144
1.0
145
0.0
146
1.0
147
0.09
 71
     0
 72
     0
 73
     1
 74
     1
 75
     0
 76
     0
 77
     0
 78
     0
170
     0
171
     2
172
     0
173
     0
174
     0
175
     0
176
     0
177
     0
178
     0
  0
ENDTAB
  0
ENDSEC
  0
SECTION
  2
BLOCKS
  0
BLOCK
  8
0
  2
$MODEL_SPACE
 70
     0
 10
0.0
 20
0.0
 30
0.0
  3
$MODEL_SPACE
  1

  0
ENDBLK
  5
21
  8
0
  0
BLOCK
 67
     1
  8
0
  2
$PAPER_SPACE
 70
     0
 10
0.0
 20
0.0
 30
0.0
  3
$PAPER_SPACE
  1

  0
ENDBLK
  5
1D
 67
     1
  8
0
  0
BLOCK
  8
0
  2
*D1
 70
     1
 10
0.0
 20
0.0
 30
0.0
  3
*D1
  1

  0
LINE
  5
434
  8
2
 62
     0
 10
67.405349706706005
 20
69.149448342222911
 30
0.0
 11
67.405349706706005
 21
76.684483407711895
 31
0.0
  0
LINE
  5
435
  8
2
 62
     0
 10
72.405349706706005
 20
69.149448342222911
 30
0.0
 11
72.405349706706005
 21
76.684483407711895
 31
0.0
  0
LINE
  5
436
  8
2
 62
     0
 10
64.905349706706005
 20
75.434483407711895
 30
0.0
 11
62.405349706706012
 21
75.434483407711895
 31
0.0
  0
LINE
  5
437
  8
2
 62
     0
 10
74.905349706706005
 20
75.434483407711895
 30
0.0
 11
82.822016373372691
 21
75.434483407711895
 31
0.0
  0
LINE
  5
438
  8
2
 62
     0
 10
67.405349706706005
 20
75.434483407711895
 30
0.0
 11
72.405349706706005
 21
75.434483407711895
 31
0.0
  0
SOLID
  5
439
  8
2
 62
     0
 10
64.905349706706005
 20
75.851150074378566
 30
0.0
 11
64.905349706706005
 21
75.017816741045223
 31
0.0
 12
67.405349706706005
 22
75.434483407711895
 32
0.0
 13
67.405349706706005
 23
75.434483407711895
 33
0.0
  0
SOLID
  5
43A
  8
2
 62
     0
 10
74.905349706706005
 20
75.851150074378566
 30
0.0
 11
74.905349706706005
 21
75.017816741045223
 31
0.0
 12
72.405349706706005
 22
75.434483407711895
 32
0.0
 13
72.405349706706005
 23
75.434483407711895
 33
0.0
  0
INSERT
  5
43B
  8
2
  2
*U8
 10
0.0
 20
0.0
 30
0.0
  0
POINT
  5
43C
  8
DEFPOINTS
 62
     0
 10
67.405349706706005
 20
68.524448342222911
 30
0.0
  0
POINT
  5
43D
  8
DEFPOINTS
 62
     0
 10
72.405349706706005
 20
68.524448342222911
 30
0.0
  0
POINT
  5
43E
  8
DEFPOINTS
 62
     0
 10
72.405349706706005
 20
75.434483407711895
 30
0.0
  0
ENDBLK
  5
3C9
  8
0
  0
BLOCK
  8
0
  2
*D2
 70
     1
 10
0.0
 20
0.0
 30
0.0
  3
*D2
  1

  0
LINE
  5
42B
  8
2
 62
     0
 10
65.405349706139816
 20
69.149448342222911
 30
0.0
 11
65.405349706139816
 21
81.312099665631337
 31
0.0
  0
LINE
  5
42C
  8
2
 62
     0
 10
74.405349707272222
 20
69.149448342222911
 30
0.0
 11
74.405349707272222
 21
81.312099665631337
 31
0.0
  0
LINE
  5
42D
  8
2
 62
     0
 10
67.905349706139816
 20
80.062099665631337
 30
0.0
 11
71.905349707272222
 21
80.062099665631337
 31
0.0
  0
SOLID
  5
42E
  8
2
 62
     0
 10
67.905349706139816
 20
80.478766332298008
 30
0.0
 11
67.905349706139816
 21
79.645432998964665
 31
0.0
 12
65.405349706139816
 22
80.062099665631337
 32
0.0
 13
65.405349706139816
 23
80.062099665631337
 33
0.0
  0
SOLID
  5
42F
  8
2
 62
     0
 10
71.905349707272222
 20
80.478766332298008
 30
0.0
 11
71.905349707272222
 21
79.645432998964665
 31
0.0
 12
74.405349707272222
 22
80.062099665631337
 32
0.0
 13
74.405349707272222
 23
80.062099665631337
 33
0.0
  0
INSERT
  5
430
  8
2
  2
*U7
 10
0.0
 20
0.0
 30
0.0
  0
POINT
  5
431
  8
DEFPOINTS
 62
     0
 10
65.405349706139816
 20
68.524448342222911
 30
0.0
  0
POINT
  5
432
  8
DEFPOINTS
 62
     0
 10
74.405349707272222
 20
68.524448342222911
 30
0.0
  0
POINT
  5
433
  8
DEFPOINTS
 62
     0
 10
74.405349707272222
 20
80.062099665631337
 30
0.0
  0
ENDBLK
  5
3D6
  8
0
  0
BLOCK
  8
0
  2
*D3
 70
     1
 10
0.0
 20
0.0
 30
0.0
  3
*D3
  1

  0
LINE
  5
45A
  8
2
 62
     0
 10
68.005349706706014
 20
54.560319654987907
 30
0.0
 11
68.005349706706014
 21
46.095928574236147
 31
0.0
  0
LINE
  5
45B
  8
2
 62
     0
 10
71.805349706706025
 20
54.560319654987907
 30
0.0
 11
71.805349706706025
 21
46.095928574236147
 31
0.0
  0
LINE
  5
45C
  8
2
 62
     0
 10
65.505349706706014
 20
47.345928574236147
 30
0.0
 11
63.005349706706014
 21
47.345928574236147
 31
0.0
  0
LINE
  5
45D
  8
2
 62
     0
 10
74.305349706706025
 20
47.345928574236147
 30
0.0
 11
85.555349706706025
 21
47.345928574236147
 31
0.0
  0
LINE
  5
45E
  8
2
 62
     0
 10
68.005349706706014
 20
47.345928574236147
 30
0.0
 11
71.805349706706025
 21
47.345928574236147
 31
0.0
  0
SOLID
  5
45F
  8
2
 62
     0
 10
65.505349706706014
 20
47.762595240902812
 30
0.0
 11
65.505349706706014
 21
46.929261907569483
 31
0.0
 12
68.005349706706014
 22
47.345928574236147
 32
0.0
 13
68.005349706706014
 23
47.345928574236147
 33
0.0
  0
SOLID
  5
460
  8
2
 62
     0
 10
74.305349706706025
 20
47.762595240902812
 30
0.0
 11
74.305349706706025
 21
46.929261907569483
 31
0.0
 12
71.805349706706025
 22
47.345928574236147
 32
0.0
 13
71.805349706706025
 23
47.345928574236147
 33
0.0
  0
INSERT
  5
461
  8
2
  2
*U10
 10
0.0
 20
0.0
 30
0.0
  0
POINT
  5
462
  8
DEFPOINTS
 62
     0
 10
68.005349706706014
 20
55.185319654987907
 30
0.0
  0
POINT
  5
463
  8
DEFPOINTS
 62
     0
 10
71.805349706706025
 20
55.185319654987907
 30
0.0
  0
POINT
  5
464
  8
DEFPOINTS
 62
     0
 10
71.805349706706025
 20
47.345928574236147
 30
0.0
  0
ENDBLK
  5
3E5
  8
0
  0
BLOCK
  8
0
  2
*D4
 70
     1
 10
0.0
 20
0.0
 30
0.0
  3
*D4
  1

  0
LINE
  5
44A
  8
2
 62
     0
 10
65.405349706706019
 20
53.399448342222911
 30
0.0
 11
65.405349706706019
 21
41.360693284692132
 31
0.0
  0
LINE
  5
44B
  8
2
 62
     0
 10
74.405349706706019
 20
53.399448342222911
 30
0.0
 11
74.405349706706019
 21
41.360693284692132
 31
0.0
  0
LINE
  5
44C
  8
2
 62
     0
 10
67.905349706706019
 20
42.610693284692132
 30
0.0
 11
71.905349706706019
 21
42.610693284692132
 31
0.0
  0
SOLID
  5
44D
  8
2
 62
     0
 10
67.905349706706019
 20
43.02735995135879
 30
0.0
 11
67.905349706706019
 21
42.194026618025461
 31
0.0
 12
65.405349706706019
 22
42.610693284692132
 32
0.0
 13
65.405349706706019
 23
42.610693284692132
 33
0.0
  0
SOLID
  5
44E
  8
2
 62
     0
 10
71.905349706706019
 20
43.02735995135879
 30
0.0
 11
71.905349706706019
 21
42.194026618025461
 31
0.0
 12
74.405349706706019
 22
42.610693284692132
 32
0.0
 13
74.405349706706019
 23
42.610693284692132
 33
0.0
  0
INSERT
  5
44F
  8
2
  2
*U9
 10
0.0
 20
0.0
 30
0.0
  0
POINT
  5
450
  8
DEFPOINTS
 62
     0
 10
65.405349706706019
 20
54.024448342222911
 30
0.0
  0
POINT
  5
451
  8
DEFPOINTS
 62
     0
 10
74.405349706706019
 20
54.024448342222911
 30
0.0
  0
POINT
  5
452
  8
DEFPOINTS
 62
     0
 10
74.405349706706019
 20
42.610693284692132
 30
0.0
  0
ENDBLK
  5
3F2
  8
0
  0
BLOCK
  8
0
  2
*D5
 70
     1
 10
0.0
 20
0.0
 30
0.0
  3
*D5
  1

  0
LINE
  5
409
  8
2
 62
     0
 10
75.030349707272222
 20
68.524448342222911
 30
0.0
 11
82.562312127220082
 21
68.524448342222911
 31
0.0
  0
LINE
  5
40A
  8
2
 62
     0
 10
75.030349707272222
 20
60.524448342222911
 30
0.0
 11
82.562312127220082
 21
60.524448342222897
 31
0.0
  0
LINE
  5
40B
  8
2
 62
     0
 10
81.312312127220082
 20
66.024448342222911
 30
0.0
 11
81.312312127220082
 21
63.024448342222897
 31
0.0
  0
SOLID
  5
40C
  8
2
 62
     0
 10
80.895645460553396
 20
66.024448342222911
 30
0.0
 11
81.728978793886753
 21
66.024448342222911
 31
0.0
 12
81.312312127220082
 22
68.524448342222911
 32
0.0
 13
81.312312127220082
 23
68.524448342222911
 33
0.0
  0
SOLID
  5
40D
  8
2
 62
     0
 10
80.895645460553396
 20
63.024448342222897
 30
0.0
 11
81.728978793886753
 21
63.024448342222897
 31
0.0
 12
81.312312127220082
 22
60.524448342222897
 32
0.0
 13
81.312312127220082
 23
60.524448342222897
 33
0.0
  0
TEXT
  5
40E
  8
2
 62
     0
 10
80.687312127220054
 20
63.691115008889582
 30
0.0
 40
2.5
  1
8
 50
90.0
  0
POINT
  5
40F
  8
DEFPOINTS
 62
     0
 10
74.405349707272222
 20
68.524448342222911
 30
0.0
  0
POINT
  5
410
  8
DEFPOINTS
 62
     0
 10
74.405349707272222
 20
60.524448342222911
 30
0.0
  0
POINT
  5
411
  8
DEFPOINTS
 62
     0
 10
81.312312127220082
 20
60.524448342222897
 30
0.0
  0
ENDBLK
  5
413
  8
0
  0
BLOCK
  8
0
  2
*D6
 70
     1
 10
0.0
 20
0.0
 30
0.0
  3
*D6
  1

  0
LINE
  5
421
  8
2
 62
     0
 10
75.030349707272222
 20
68.524448342222911
 30
0.0
 11
87.842814535872492
 21
68.524448342222911
 31
0.0
  0
LINE
  5
422
  8
2
 62
     0
 10
75.030349706706019
 20
54.024448342222911
 30
0.0
 11
87.842814535872492
 21
54.024448342222897
 31
0.0
  0
LINE
  5
423
  8
2
 62
     0
 10
86.592814535872492
 20
66.024448342222911
 30
0.0
 11
86.592814535872492
 21
56.524448342222897
 31
0.0
  0
SOLID
  5
424
  8
2
 62
     0
 10
86.176147869205806
 20
66.024448342222911
 30
0.0
 11
87.009481202539163
 21
66.024448342222911
 31
0.0
 12
86.592814535872492
 22
68.524448342222911
 32
0.0
 13
86.592814535872492
 23
68.524448342222911
 33
0.0
  0
SOLID
  5
425
  8
2
 62
     0
 10
86.176147869205806
 20
56.524448342222897
 30
0.0
 11
87.009481202539163
 21
56.524448342222897
 31
0.0
 12
86.592814535872492
 22
54.024448342222897
 32
0.0
 13
86.592814535872492
 23
54.024448342222897
 33
0.0
  0
TEXT
  5
426
  8
2
 62
     0
 10
85.967814535872463
 20
57.941115008889582
 30
0.0
 40
2.5
  1
14.5
 50
90.0
  0
POINT
  5
427
  8
DEFPOINTS
 62
     0
 10
74.405349707272222
 20
68.524448342222911
 30
0.0
  0
POINT
  5
428
  8
DEFPOINTS
 62
     0
 10
74.405349706706019
 20
54.024448342222911
 30
0.0
  0
POINT
  5
429
  8
DEFPOINTS
 62
     0
 10
86.592814535872492
 20
54.024448342222897
 30
0.0
  0
ENDBLK
  5
420
  8
0
  0
BLOCK
  8
0
  2
*U7
 70
     1
 10
0.0
 20
0.0
 30
0.0
  3
*U7
  1

  0
TEXT
  5
478
  8
2
 62
     0
 10
67.822016373372691
 20
80.687099665631337
 30
0.0
 40
2.5
  1
\U+2205
  0
TEXT
  5
479
  8
2
 62
     0
 10
70.322016373372691
 20
80.687099665631337
 30
0.0
 40
2.5
  1
9
  0
ENDBLK
  5
47B
  8
0
  0
BLOCK
  8
0
  2
*U8
 70
     1
 10
0.0
 20
0.0
 30
0.0
  3
*U8
  1

  0
TEXT
  5
47D
  8
2
 62
     0
 10
78.030349706706005
 20
76.059483407711895
 30
0.0
 40
2.5
  1
\U+2205
  0
TEXT
  5
47E
  8
2
 62
     0
 10
80.530349706706005
 20
76.059483407711895
 30
0.0
 40
2.5
  1
5
  0
ENDBLK
  5
480
  8
0
  0
BLOCK
  8
0
  2
*U9
 70
     1
 10
0.0
 20
0.0
 30
0.0
  3
*U9
  1

  0
TEXT
  5
482
  8
2
 62
     0
 10
67.822016373372691
 20
43.235693284692132
 30
0.0
 40
2.5
  1
\U+2205
  0
TEXT
  5
483
  8
2
 62
     0
 10
70.322016373372691
 20
43.235693284692132
 30
0.0
 40
2.5
  1
9
  0
ENDBLK
  5
485
  8
0
  0
BLOCK
  8
0
  2
*U10
 70
     1
 10
0.0
 20
0.0
 30
0.0
  3
*U10
  1

  0
TEXT
  5
487
  8
2
 62
     0
 10
77.430349706706025
 20
47.970928574236147
 30
0.0
 40
2.5
  1
\U+2205
  0
TEXT
  5
488
  8
2
 62
     0
 10
79.930349706706025
 20
47.970928574236147
 30
0.0
 40
2.5
  1
3.8
  0
ENDBLK
  5
48A
  8
0
  0
ENDSEC
  0
SECTION
  2
ENTITIES
  0
TEXT
  5
E8
  8
2
 10
60.438011878825307
 20
31.80395009470935
 30
0.0
 40
2.5399440000000002
  1
No. 21.009.002._
 51
-0.0000015352344868
  7
\U+00C9L\U+00C9R_\U+00C2S\U+00C2V\U+00C2B\U+00C2N
  0
LINE
  5
192
  8
0
 39
3.2329444225000001
 10
67.405349706706005
 20
61.760740657022197
 30
0.0
 11
69.902634033391124
 21
61.760740657022197
 31
0.0
  0
LINE
  5
197
  8
0
 39
3.2329444225000001
 10
68.178634090648757
 20
61.761581222572062
 30
0.0
 11
66.375103715112914
 21
59.123886527142758
 31
0.0
  0
LINE
  5
198
  8
0
 39
3.2329444225000001
 10
66.375103715112914
 20
59.123886527142758
 30
0.0
 11
67.979549373111226
 21
57.9682382138759
 31
0.0
  0
LINE
  5
199
  8
0
 39
3.2329444225000001
 10
67.979549373111226
 20
57.9682382138759
 30
0.0
 11
66.081487702661462
 21
56.359331092574557
 31
0.0
  0
LINE
  5
1A2
  8
0
 10
69.905349706706005
 20
57.9682382138759
 30
0.0
 11
67.979549373111226
 21
57.9682382138759
 31
0.0
  0
LINE
  5
1A4
  8
0
 10
69.905349706706005
 20
55.185319654987907
 30
0.0
 11
68.005349706706014
 21
55.185319654987907
 31
0.0
  0
LINE
  5
1A5
  8
0
 10
66.375103715112914
 20
59.123886527142758
 30
0.0
 11
69.905349706706005
 21
59.123886527142758
 31
0.0
  0
LINE
  5
1A7
  8
0
 10
66.081487702661462
 20
56.359331092574557
 30
0.0
 11
69.905349706706005
 21
56.359331092574557
 31
0.0
  0
LINE
  5
1B2
  8
0
 39
3.2329444225000001
 10
69.905349706706005
 20
68.524448342222911
 30
0.0
 11
65.405349706139816
 21
68.524448342222911
 31
0.0
  0
LINE
  5
1B3
  8
0
 39
3.2329444225000001
 10
65.405349706139816
 20
68.524448342222911
 30
0.0
 11
65.405349706139816
 21
60.524448342222911
 31
0.0
  0
LINE
  5
1B5
  8
0
 39
3.2329444225000001
 10
66.249798509783375
 20
60.524448342222911
 30
0.0
 11
65.405349706139816
 21
59.041834397699702
 31
0.0
  0
LINE
  5
1B6
  8
0
 39
3.2329444225000001
 10
65.405349706139816
 20
59.041834397699702
 30
0.0
 11
67.253106761375477
 21
57.889936299962947
 31
0.0
  0
LINE
  5
1B7
  8
0
 39
3.2329444225000001
 10
67.253106761375477
 20
57.889936299962947
 30
0.0
 11
65.405349706139816
 21
56.281029178661612
 31
0.0
  0
LINE
  5
1B8
  8
0
 39
3.2329444225000001
 10
65.405349706139816
 20
56.281029178661612
 30
0.0
 11
67.378803640522278
 21
55.088719275643598
 31
0.0
  0
LINE
  5
340
  8
1
 10
69.905349706706005
 20
69.024448342222911
 30
0.0
 11
69.905349706706005
 21
53.524448342222911
 31
0.0
  0
LINE
  5
359
  8
0
 10
67.405349706706005
 20
68.524448342222911
 30
0.0
 11
67.405349706706005
 21
61.760740657022197
 31
0.0
  0
LINE
  5
35B
  8
0
 10
65.405349706706019
 20
60.524448342222911
 30
0.0
 11
66.249798509783375
 21
60.524448342222911
 31
0.0
  0
LINE
  5
35E
  8
0
 10
65.405349706706019
 20
54.024448342222911
 30
0.0
 11
69.905349706706005
 21
54.024448342222911
 31
0.0
  0
LINE
  5
38D
  8
0
 10
67.378803640522278
 20
55.088719275643598
 30
0.0
 11
65.405349706706019
 21
54.024448342222911
 31
0.0
  0
LINE
  5
391
  8
0
 10
66.081487702661462
 20
56.359331092574557
 30
0.0
 11
68.005349706706014
 21
55.185319654987907
 31
0.0
  0
LINE
  5
392
  8
0
 10
68.005349706706014
 20
55.185319654987907
 30
0.0
 11
66.209004749064874
 21
54.024448342222911
 31
0.0
  0
LINE
  5
3A3
  8
0
 10
73.729211710750576
 20
56.359331092574557
 30
0.0
 11
71.805349706706025
 21
55.185319654987907
 31
0.0
  0
LINE
  5
3A4
  8
0
 39
3.2329444225000001
 10
74.405349707272222
 20
56.281029178661612
 30
0.0
 11
72.43189577288976
 21
55.088719275643598
 31
0.0
  0
LINE
  5
3A5
  8
0
 10
71.805349706706025
 20
55.185319654987907
 30
0.0
 11
73.601694664347164
 21
54.024448342222911
 31
0.0
  0
LINE
  5
3A6
  8
0
 10
72.43189577288976
 20
55.088719275643598
 30
0.0
 11
74.405349706706019
 21
54.024448342222911
 31
0.0
  0
LINE
  5
3A7
  8
0
 10
74.405349706706019
 20
54.024448342222911
 30
0.0
 11
69.905349706706005
 21
54.024448342222911
 31
0.0
  0
LINE
  5
3A8
  8
0
 10
69.905349706706005
 20
55.185319654987907
 30
0.0
 11
71.805349706706025
 21
55.185319654987907
 31
0.0
  0
LINE
  5
3A9
  8
0
 39
3.2329444225000001
 10
74.405349707272222
 20
68.524448342222911
 30
0.0
 11
74.405349707272222
 21
60.524448342222911
 31
0.0
  0
LINE
  5
3AA
  8
0
 39
3.2329444225000001
 10
72.557592652036561
 20
57.889936299962947
 30
0.0
 11
74.405349707272222
 21
56.281029178661612
 31
0.0
  0
LINE
  5
3AB
  8
0
 39
3.2329444225000001
 10
74.405349707272222
 20
59.041834397699702
 30
0.0
 11
72.557592652036561
 21
57.889936299962947
 31
0.0
  0
LINE
  5
3AC
  8
0
 39
3.2329444225000001
 10
73.560900903628664
 20
60.524448342222911
 30
0.0
 11
74.405349707272222
 21
59.041834397699702
 31
0.0
  0
LINE
  5
3AD
  8
0
 39
3.2329444225000001
 10
69.905349706706005
 20
68.524448342222911
 30
0.0
 11
74.405349707272222
 21
68.524448342222911
 31
0.0
  0
LINE
  5
3AE
  8
0
 39
3.2329444225000001
 10
71.831150040300813
 20
57.9682382138759
 30
0.0
 11
73.729211710750576
 21
56.359331092574557
 31
0.0
  0
LINE
  5
3AF
  8
0
 39
3.2329444225000001
 10
73.435595698299124
 20
59.123886527142758
 30
0.0
 11
71.831150040300813
 21
57.9682382138759
 31
0.0
  0
LINE
  5
3B0
  8
0
 39
3.2329444225000001
 10
71.632065322763282
 20
61.761581222572062
 30
0.0
 11
73.435595698299124
 21
59.123886527142758
 31
0.0
  0
LINE
  5
3B1
  8
0
 39
3.2329444225000001
 10
72.405349706706033
 20
61.760740657022197
 30
0.0
 11
69.908065380020915
 21
61.760740657022197
 31
0.0
  0
LINE
  5
3B2
  8
0
 10
72.405349706706005
 20
68.524448342222911
 30
0.0
 11
72.405349706706005
 21
61.760740657022197
 31
0.0
  0
LINE
  5
3B3
  8
0
 10
73.729211710750576
 20
56.359331092574557
 30
0.0
 11
69.905349706706005
 21
56.359331092574557
 31
0.0
  0
LINE
  5
3B4
  8
0
 10
73.435595698299124
 20
59.123886527142758
 30
0.0
 11
69.905349706706005
 21
59.123886527142758
 31
0.0
  0
LINE
  5
3B5
  8
0
 10
74.405349706706019
 20
60.524448342222911
 30
0.0
 11
73.560900903628664
 21
60.524448342222911
 31
0.0
  0
LINE
  5
3B6
  8
0
 10
69.905349706706005
 20
57.9682382138759
 30
0.0
 11
71.831150040300813
 21
57.9682382138759
 31
0.0
  0
DIMENSION
  5
3BB
  8
2
  2
*D1
 10
72.405349706706005
 20
75.434483407711895
 30
0.0
 11
80.113683040039348
 21
77.309483407711895
 31
0.0
 70
     0
  1
%%c<>
 13
67.405349706706005
 23
68.524448342222911
 33
0.0
 14
72.405349706706005
 24
68.524448342222911
 34
0.0
  0
DIMENSION
  5
3CA
  8
2
  2
*D2
 10
74.405349707272222
 20
80.062099665631337
 30
0.0
 11
69.905349706706005
 21
81.937099665631337
 31
0.0
 70
     0
  1
%%c<>
 13
65.405349706139816
 23
68.524448342222911
 33
0.0
 14
74.405349707272222
 24
68.524448342222911
 34
0.0
  0
DIMENSION
  5
3D7
  8
2
  2
*D3
 10
71.805349706706025
 20
47.345928574236147
 30
0.0
 11
81.180349706706025
 21
49.220928574236147
 31
0.0
 70
     0
  1
%%c<>
 13
68.005349706706014
 23
55.185319654987907
 33
0.0
 14
71.805349706706025
 24
55.185319654987907
 34
0.0
1001
ACAD
1000
DSTYLE
1002
{
1070
   271
1070
     6
1002
}
  0
DIMENSION
  5
3E6
  8
2
  2
*D4
 10
74.405349706706019
 20
42.610693284692132
 30
0.0
 11
69.905349706706005
 21
44.485693284692132
 31
0.0
 70
     0
  1
%%c<>
 13
65.405349706706019
 23
54.024448342222911
 33
0.0
 14
74.405349706706019
 24
54.024448342222911
 34
0.0
1001
ACAD
1000
DSTYLE
1002
{
1070
   271
1070
     6
1002
}
  0
DIMENSION
  5
407
  8
2
  2
*D5
 10
81.312312127220082
 20
60.524448342222897
 30
0.0
 11
79.437312127220054
 21
64.524448342222925
 31
0.0
 70
     0
 13
74.405349707272222
 23
68.524448342222911
 33
0.0
 14
74.405349707272222
 24
60.524448342222911
 34
0.0
 50
90.0
  0
DIMENSION
  5
414
  8
2
  2
*D6
 10
86.592814535872492
 20
54.024448342222897
 30
0.0
 11
84.717814535872463
 21
61.274448342222911
 31
0.0
 70
     0
 13
74.405349707272222
 23
68.524448342222911
 33
0.0
 14
74.405349706706019
 24
54.024448342222911
 34
0.0
 50
90.0
1001
ACAD
1000
DSTYLE
1002
{
1070
   271
1070
     6
1002
}
  0
ENDSEC
  0
EOF
