  0
SECTION
  2
HEADER
  9
$ACADVER
  1
AC1009
  9
$INSBASE
 10
0.0
 20
0.0
 30
0.0
  9
$EXTMIN
 10
42.661036076516169
 20
32.10318632009313
 30
0.0
  9
$EXTMAX
 10
82.785796517335996
 20
93.437271822707729
 30
3.278012962
  9
$LIMMIN
 10
0.0
 20
0.0
  9
$LIMMAX
 10
420.0
 20
297.0
  9
$ORTHOMODE
 70
     0
  9
$REGENMODE
 70
     1
  9
$FILLMODE
 70
     1
  9
$QTEXTMODE
 70
     0
  9
$MIRRTEXT
 70
     1
  9
$DRAGMODE
 70
     2
  9
$LTSCALE
 40
0.3
  9
$OSMODE
 70
    37
  9
$ATTMODE
 70
     1
  9
$TEXTSIZE
 40
2.5
  9
$TRACEWID
 40
1.0
  9
$TEXTSTYLE
  7
STANDARD
  9
$CLAYER
  8
2
  9
$CELTYPE
  6
BYLAYER
  9
$CECOLOR
 62
   256
  9
$DIMSCALE
 40
1.0
  9
$DIMASZ
 40
2.5
  9
$DIMEXO
 40
0.625
  9
$DIMDLI
 40
3.75
  9
$DIMRND
 40
0.0
  9
$DIMDLE
 40
0.0
  9
$DIMEXE
 40
1.25
  9
$DIMTP
 40
0.0
  9
$DIMTM
 40
0.0
  9
$DIMTXT
 40
2.5
  9
$DIMCEN
 40
2.5
  9
$DIMTSZ
 40
0.0
  9
$DIMTOL
 70
     0
  9
$DIMLIM
 70
     0
  9
$DIMTIH
 70
     0
  9
$DIMTOH
 70
     0
  9
$DIMSE1
 70
     0
  9
$DIMSE2
 70
     0
  9
$DIMTAD
 70
     1
  9
$DIMZIN
 70
     8
  9
$DIMBLK
  1

  9
$DIMASO
 70
     1
  9
$DIMSHO
 70
     1
  9
$DIMPOST
  1

  9
$DIMAPOST
  1

  9
$DIMALT
 70
     0
  9
$DIMALTD
 70
     3
  9
$DIMALTF
 40
0.03937007874016
  9
$DIMLFAC
 40
1.0
  9
$DIMTOFL
 70
     1
  9
$DIMTVP
 40
0.0
  9
$DIMTIX
 70
     0
  9
$DIMSOXD
 70
     0
  9
$DIMSAH
 70
     0
  9
$DIMBLK1
  1

  9
$DIMBLK2
  1

  9
$DIMSTYLE
  2
ISO-25
  9
$DIMCLRD
 70
     0
  9
$DIMCLRE
 70
     0
  9
$DIMCLRT
 70
     0
  9
$DIMTFAC
 40
1.0
  9
$DIMGAP
 40
0.625
  9
$LUNITS
 70
     2
  9
$LUPREC
 70
     4
  9
$SKETCHINC
 40
1.0
  9
$FILLETRAD
 40
10.0
  9
$AUNITS
 70
     0
  9
$AUPREC
 70
     0
  9
$MENU
  1
.
  9
$ELEVATION
 40
0.0
  9
$PELEVATION
 40
0.0
  9
$THICKNESS
 40
0.0
  9
$LIMCHECK
 70
     0
  9
$BLIPMODE
 70
     0
  9
$CHAMFERA
 40
10.0
  9
$CHAMFERB
 40
10.0
  9
$SKPOLY
 70
     0
  9
$TDCREATE
 40
2453439.4563456359
  9
$TDUPDATE
 40
2453551.910191759
  9
$TDINDWG
 40
0.0200373727
  9
$TDUSRTIMER
 40
0.0200373727
  9
$USRTIMER
 70
     1
  9
$ANGBASE
 50
0.0
  9
$ANGDIR
 70
     0
  9
$PDMODE
 70
     0
  9
$PDSIZE
 40
0.0
  9
$PLINEWID
 40
0.0
  9
$COORDS
 70
     1
  9
$SPLFRAME
 70
     0
  9
$SPLINETYPE
 70
     6
  9
$SPLINESEGS
 70
     8
  9
$ATTDIA
 70
     0
  9
$ATTREQ
 70
     1
  9
$HANDLING
 70
-16383
  9
$HANDSEED
  5
5BD
  9
$SURFTAB1
 70
     6
  9
$SURFTAB2
 70
     6
  9
$SURFTYPE
 70
     6
  9
$SURFU
 70
     6
  9
$SURFV
 70
     6
  9
$UCSNAME
  2

  9
$UCSORG
 10
0.0
 20
0.0
 30
0.0
  9
$UCSXDIR
 10
1.0
 20
0.0
 30
0.0
  9
$UCSYDIR
 10
0.0
 20
1.0
 30
0.0
  9
$PUCSNAME
  2

  9
$PUCSORG
 10
0.0
 20
0.0
 30
0.0
  9
$PUCSXDIR
 10
1.0
 20
0.0
 30
0.0
  9
$PUCSYDIR
 10
0.0
 20
1.0
 30
0.0
  9
$USERI1
 70
     0
  9
$USERI2
 70
     0
  9
$USERI3
 70
     0
  9
$USERI4
 70
     0
  9
$USERI5
 70
     0
  9
$USERR1
 40
0.0
  9
$USERR2
 40
0.0
  9
$USERR3
 40
0.0
  9
$USERR4
 40
0.0
  9
$USERR5
 40
0.0
  9
$WORLDVIEW
 70
     1
  9
$SHADEDGE
 70
     3
  9
$SHADEDIF
 70
    70
  9
$TILEMODE
 70
     1
  9
$MAXACTVP
 70
    64
  9
$PLIMCHECK
 70
     0
  9
$PEXTMIN
 10
1.0000000000000000E+020
 20
1.0000000000000000E+020
 30
1.0000000000000000E+020
  9
$PEXTMAX
 10
-1.0000000000000000E+020
 20
-1.0000000000000000E+020
 30
-1.0000000000000000E+020
  9
$PLIMMIN
 10
0.0
 20
0.0
  9
$PLIMMAX
 10
420.0
 20
297.0
  9
$UNITMODE
 70
     0
  9
$VISRETAIN
 70
     1
  9
$PLINEGEN
 70
     0
  9
$PSLTSCALE
 70
     1
  0
ENDSEC
  0
SECTION
  2
TABLES
  0
TABLE
  2
VPORT
 70
     2
  0
VPORT
  2
*ACTIVE
 70
     0
 10
0.0
 20
0.0
 11
1.0
 21
1.0
 12
84.666370878371694
 22
64.284614064588652
 13
0.0
 23
0.0
 14
10.0
 24
10.0
 15
10.0
 25
10.0
 16
0.0
 26
0.0
 36
1.0
 17
0.0
 27
0.0
 37
0.0
 40
71.505239550188605
 41
2.5392405063291141
 42
50.0
 43
0.0
 44
0.0
 50
0.0
 51
0.0
 71
     0
 72
   100
 73
     1
 74
     3
 75
     0
 76
     0
 77
     0
 78
     0
  0
ENDTAB
  0
TABLE
  2
LTYPE
 70
     2
  0
LTYPE
  2
CONTINUOUS
 70
     0
  3
Solid line
 72
    65
 73
     0
 40
0.0
  0
LTYPE
  2
CENTER
 70
     0
  3
Center ____ _ ____ _ ____ _ ____ _ ____ _ ____
 72
    65
 73
     4
 40
50.799999999999997
 49
31.75
 49
-6.3499999999999988
 49
6.3499999999999988
 49
-6.3499999999999988
  0
ENDTAB
  0
TABLE
  2
LAYER
 70
     4
  0
LAYER
  2
0
 70
     0
 62
     7
  6
CONTINUOUS
  0
LAYER
  2
1
 70
     0
 62
     7
  6
CENTER
  0
LAYER
  2
2
 70
     0
 62
     7
  6
CONTINUOUS
  0
LAYER
  2
DEFPOINTS
 70
     0
 62
     7
  6
CONTINUOUS
  0
ENDTAB
  0
TABLE
  2
STYLE
 70
     3
  0
STYLE
  2
STANDARD
 70
     0
 40
0.0
 41
1.0
 50
0.0
 71
     0
 42
2.5
  3
txt
  4

  0
STYLE
  2
\U+00C9L\U+00C9R_\U+00C2S\U+00C2V\U+00C2B\U+00C2N
 70
     0
 40
1.0
 41
1.0
 50
0.0
 71
     0
 42
1.0
  3
\U+00E9l\U+00E9r \U+00E2S\U+00E2V\U+00E2b\U+00E2N
  4

  0
STYLE
  2

 70
     1
 40
0.0
 41
1.0
 50
0.0
 71
     0
 42
2.5
  3
ltypeshp.shx
  4

  0
ENDTAB
  0
TABLE
  2
VIEW
 70
     0
  0
ENDTAB
  0
TABLE
  2
UCS
 70
     0
  0
ENDTAB
  0
TABLE
  2
APPID
 70
     1
  0
APPID
  2
ACAD
 70
     0
  0
ENDTAB
  0
TABLE
  2
DIMSTYLE
 70
     2
  0
DIMSTYLE
  2
ISO-25
 70
     0
  3

  4

  5

  6

  7

 40
1.0
 41
2.5
 42
0.625
 43
3.75
 44
1.25
 45
0.0
 46
0.0
 47
0.0
 48
0.0
140
2.5
141
2.5
142
0.0
143
0.03937007874016
144
1.0
145
0.0
146
1.0
147
0.625
 71
     0
 72
     0
 73
     0
 74
     0
 75
     0
 76
     0
 77
     1
 78
     8
170
     0
171
     3
172
     1
173
     0
174
     0
175
     0
176
     0
177
     0
178
     0
  0
DIMSTYLE
  2
STANDARD
 70
     0
  3

  4

  5

  6

  7

 40
1.0
 41
0.18
 42
0.0625
 43
0.38
 44
0.18
 45
0.0
 46
0.0
 47
0.0
 48
0.0
140
0.18
141
0.09
142
0.0
143
25.399999999999999
144
1.0
145
0.0
146
1.0
147
0.09
 71
     0
 72
     0
 73
     1
 74
     1
 75
     0
 76
     0
 77
     0
 78
     0
170
     0
171
     2
172
     0
173
     0
174
     0
175
     0
176
     0
177
     0
178
     0
  0
ENDTAB
  0
ENDSEC
  0
SECTION
  2
BLOCKS
  0
BLOCK
  8
0
  2
$MODEL_SPACE
 70
     0
 10
0.0
 20
0.0
 30
0.0
  3
$MODEL_SPACE
  1

  0
ENDBLK
  5
21
  8
0
  0
BLOCK
 67
     1
  8
0
  2
$PAPER_SPACE
 70
     0
 10
0.0
 20
0.0
 30
0.0
  3
$PAPER_SPACE
  1

  0
ENDBLK
  5
1D
 67
     1
  8
0
  0
BLOCK
  8
0
  2
*D1
 70
     1
 10
0.0
 20
0.0
 30
0.0
  3
*D1
  1

  0
LINE
  5
54D
  8
2
 62
     0
 10
60.014210576895209
 20
80.142599767285304
 30
0.0
 11
60.014210576895209
 21
86.834916011507957
 31
0.0
  0
LINE
  5
54E
  8
2
 62
     0
 10
65.009902330983195
 20
80.142599767285304
 30
0.0
 11
65.009902330983195
 21
86.834916011507957
 31
0.0
  0
LINE
  5
54F
  8
2
 62
     0
 10
57.514210576895209
 20
85.584916011507957
 30
0.0
 11
55.014210576895209
 21
85.584916011507957
 31
0.0
  0
LINE
  5
550
  8
2
 62
     0
 10
67.509902330983195
 20
85.584916011507957
 30
0.0
 11
75.426568997649881
 21
85.584916011507957
 31
0.0
  0
LINE
  5
551
  8
2
 62
     0
 10
60.014210576895209
 20
85.584916011507957
 30
0.0
 11
65.009902330983195
 21
85.584916011507957
 31
0.0
  0
SOLID
  5
552
  8
2
 62
     0
 10
57.514210576895209
 20
86.001582678174614
 30
0.0
 11
57.514210576895209
 21
85.168249344841286
 31
0.0
 12
60.014210576895209
 22
85.584916011507957
 32
0.0
 13
60.014210576895209
 23
85.584916011507957
 33
0.0
  0
SOLID
  5
553
  8
2
 62
     0
 10
67.509902330983195
 20
86.001582678174614
 30
0.0
 11
67.509902330983195
 21
85.168249344841286
 31
0.0
 12
65.009902330983195
 22
85.584916011507957
 32
0.0
 13
65.009902330983195
 23
85.584916011507957
 33
0.0
  0
INSERT
  5
554
  8
2
  2
*U8
 10
0.0
 20
0.0
 30
0.0
  0
POINT
  5
555
  8
DEFPOINTS
 62
     0
 10
60.014210576895209
 20
79.51759976728529
 30
0.0
  0
POINT
  5
556
  8
DEFPOINTS
 62
     0
 10
65.009902330983195
 20
79.51759976728529
 30
0.0
  0
POINT
  5
557
  8
DEFPOINTS
 62
     0
 10
65.009902330983195
 20
85.584916011507957
 30
0.0
  0
ENDBLK
  5
4EB
  8
0
  0
BLOCK
  8
0
  2
*D2
 70
     1
 10
0.0
 20
0.0
 30
0.0
  3
*D2
  1

  0
LINE
  5
544
  8
2
 62
     0
 10
57.512056453939209
 20
80.142599767285304
 30
0.0
 11
57.512056453939209
 21
91.562271822707729
 31
0.0
  0
LINE
  5
545
  8
2
 62
     0
 10
67.512056453939209
 20
80.142599767285304
 30
0.0
 11
67.512056453939209
 21
91.562271822707729
 31
0.0
  0
LINE
  5
546
  8
2
 62
     0
 10
60.012056453939209
 20
90.312271822707729
 30
0.0
 11
65.012056453939209
 21
90.312271822707729
 31
0.0
  0
SOLID
  5
547
  8
2
 62
     0
 10
60.012056453939209
 20
90.728938489374386
 30
0.0
 11
60.012056453939209
 21
89.895605156041057
 31
0.0
 12
57.512056453939209
 22
90.312271822707729
 32
0.0
 13
57.512056453939209
 23
90.312271822707729
 33
0.0
  0
SOLID
  5
548
  8
2
 62
     0
 10
65.012056453939209
 20
90.728938489374386
 30
0.0
 11
65.012056453939209
 21
89.895605156041057
 31
0.0
 12
67.512056453939209
 22
90.312271822707729
 32
0.0
 13
67.512056453939209
 23
90.312271822707729
 33
0.0
  0
INSERT
  5
549
  8
2
  2
*U7
 10
0.0
 20
0.0
 30
0.0
  0
POINT
  5
54A
  8
DEFPOINTS
 62
     0
 10
57.512056453939209
 20
79.51759976728529
 30
0.0
  0
POINT
  5
54B
  8
DEFPOINTS
 62
     0
 10
67.512056453939209
 20
79.51759976728529
 30
0.0
  0
POINT
  5
54C
  8
DEFPOINTS
 62
     0
 10
67.512056453939209
 20
90.312271822707729
 30
0.0
  0
ENDBLK
  5
4F8
  8
0
  0
BLOCK
  8
0
  2
*D3
 70
     1
 10
0.0
 20
0.0
 30
0.0
  3
*D3
  1

  0
LINE
  5
4FB
  8
2
 62
     0
 10
68.137056453939209
 20
79.51759976728529
 30
0.0
 11
77.519066289623595
 21
79.51759976728529
 31
0.0
  0
LINE
  5
4FC
  8
2
 62
     0
 10
68.137056453939209
 20
72.01759976728529
 30
0.0
 11
77.519066289623595
 21
72.01759976728529
 31
0.0
  0
LINE
  5
4FD
  8
2
 62
     0
 10
76.269066289623595
 20
77.01759976728529
 30
0.0
 11
76.269066289623595
 21
74.51759976728529
 31
0.0
  0
SOLID
  5
4FE
  8
2
 62
     0
 10
75.852399622956924
 20
77.01759976728529
 30
0.0
 11
76.685732956290266
 21
77.01759976728529
 31
0.0
 12
76.269066289623595
 22
79.51759976728529
 32
0.0
 13
76.269066289623595
 23
79.51759976728529
 33
0.0
  0
SOLID
  5
4FF
  8
2
 62
     0
 10
75.852399622956924
 20
74.51759976728529
 30
0.0
 11
76.685732956290266
 21
74.51759976728529
 31
0.0
 12
76.269066289623595
 22
72.01759976728529
 32
0.0
 13
76.269066289623595
 23
72.01759976728529
 33
0.0
  0
TEXT
  5
500
  8
2
 62
     0
 10
75.644066289623581
 20
73.267599767285304
 30
0.0
 40
2.5
  1
7.5
 50
90.0
  0
POINT
  5
501
  8
DEFPOINTS
 62
     0
 10
67.512056453939209
 20
79.51759976728529
 30
0.0
  0
POINT
  5
502
  8
DEFPOINTS
 62
     0
 10
67.512056453939209
 20
72.01759976728529
 30
0.0
  0
POINT
  5
503
  8
DEFPOINTS
 62
     0
 10
76.269066289623595
 20
72.01759976728529
 30
0.0
  0
ENDBLK
  5
505
  8
0
  0
BLOCK
  8
0
  2
*D4
 70
     1
 10
0.0
 20
0.0
 30
0.0
  3
*D4
  1

  0
LINE
  5
508
  8
2
 62
     0
 10
68.137056453939209
 20
79.51759976728529
 30
0.0
 11
82.785796517335996
 21
79.51759976728529
 31
0.0
  0
LINE
  5
509
  8
2
 62
     0
 10
70.137056453512486
 20
57.51759976728529
 30
0.0
 11
82.785796517335996
 21
57.51759976728529
 31
0.0
  0
LINE
  5
50A
  8
2
 62
     0
 10
81.535796517335996
 20
77.01759976728529
 30
0.0
 11
81.535796517335996
 21
60.01759976728529
 31
0.0
  0
SOLID
  5
50B
  8
2
 62
     0
 10
81.119129850669324
 20
77.01759976728529
 30
0.0
 11
81.952463184002667
 21
77.01759976728529
 31
0.0
 12
81.535796517335996
 22
79.51759976728529
 32
0.0
 13
81.535796517335996
 23
79.51759976728529
 33
0.0
  0
SOLID
  5
50C
  8
2
 62
     0
 10
81.119129850669324
 20
60.01759976728529
 30
0.0
 11
81.952463184002667
 21
60.01759976728529
 31
0.0
 12
81.535796517335996
 22
57.51759976728529
 32
0.0
 13
81.535796517335996
 23
57.51759976728529
 33
0.0
  0
TEXT
  5
50D
  8
2
 62
     0
 10
80.910796517335996
 20
66.434266433951976
 30
0.0
 40
2.5
  1
22
 50
90.0
  0
POINT
  5
50E
  8
DEFPOINTS
 62
     0
 10
67.512056453939209
 20
79.51759976728529
 30
0.0
  0
POINT
  5
50F
  8
DEFPOINTS
 62
     0
 10
69.512056453512486
 20
57.51759976728529
 30
0.0
  0
POINT
  5
510
  8
DEFPOINTS
 62
     0
 10
81.535796517335996
 20
57.51759976728529
 30
0.0
  0
ENDBLK
  5
512
  8
0
  0
BLOCK
  8
0
  2
*D5
 70
     1
 10
0.0
 20
0.0
 30
0.0
  3
*D5
  1

  0
LINE
  5
572
  8
2
 62
     0
 10
60.012056453939209
 20
59.728871970611507
 30
0.0
 11
60.012056453939209
 21
48.545014118126673
 31
0.0
  0
LINE
  5
573
  8
2
 62
     0
 10
65.012056453939209
 20
59.756210598714588
 30
0.0
 11
65.012056453939209
 21
48.545014118126673
 31
0.0
  0
LINE
  5
574
  8
2
 62
     0
 10
57.512056453939209
 20
49.795014118126673
 30
0.0
 11
55.012056453939209
 21
49.795014118126673
 31
0.0
  0
LINE
  5
575
  8
2
 62
     0
 10
67.512056453939209
 20
49.795014118126673
 30
0.0
 11
75.428723120605881
 21
49.795014118126673
 31
0.0
  0
LINE
  5
576
  8
2
 62
     0
 10
60.012056453939209
 20
49.795014118126673
 30
0.0
 11
65.012056453939209
 21
49.795014118126673
 31
0.0
  0
SOLID
  5
577
  8
2
 62
     0
 10
57.512056453939209
 20
50.211680784793337
 30
0.0
 11
57.512056453939209
 21
49.378347451460009
 31
0.0
 12
60.012056453939209
 22
49.795014118126673
 32
0.0
 13
60.012056453939209
 23
49.795014118126673
 33
0.0
  0
SOLID
  5
578
  8
2
 62
     0
 10
67.512056453939209
 20
50.211680784793337
 30
0.0
 11
67.512056453939209
 21
49.378347451460009
 31
0.0
 12
65.012056453939209
 22
49.795014118126673
 32
0.0
 13
65.012056453939209
 23
49.795014118126673
 33
0.0
  0
INSERT
  5
579
  8
2
  2
*U10
 10
0.0
 20
0.0
 30
0.0
  0
POINT
  5
57A
  8
DEFPOINTS
 62
     0
 10
60.012056453939209
 20
60.353871970611507
 30
0.0
  0
POINT
  5
57B
  8
DEFPOINTS
 62
     0
 10
65.012056453939209
 20
60.381210598714588
 30
0.0
  0
POINT
  5
57C
  8
DEFPOINTS
 62
     0
 10
65.012056453939209
 20
49.795014118126673
 30
0.0
  0
ENDBLK
  5
522
  8
0
  0
BLOCK
  8
0
  2
*D6
 70
     1
 10
0.0
 20
0.0
 30
0.0
  3
*D6
  1

  0
LINE
  5
563
  8
2
 62
     0
 10
55.512056454365933
 20
56.89259976728529
 30
0.0
 11
55.512056454365933
 21
43.149878049032409
 31
0.0
  0
LINE
  5
564
  8
2
 62
     0
 10
69.512056453512486
 20
56.89259976728529
 30
0.0
 11
69.512056453512486
 21
43.149878049032409
 31
0.0
  0
LINE
  5
565
  8
2
 62
     0
 10
58.012056454365933
 20
44.399878049032409
 30
0.0
 11
67.012056453512486
 21
44.399878049032409
 31
0.0
  0
SOLID
  5
566
  8
2
 62
     0
 10
58.012056454365933
 20
44.816544715699067
 30
0.0
 11
58.012056454365933
 21
43.983211382365738
 31
0.0
 12
55.512056454365933
 22
44.399878049032409
 32
0.0
 13
55.512056454365933
 23
44.399878049032409
 33
0.0
  0
SOLID
  5
567
  8
2
 62
     0
 10
67.012056453512486
 20
44.816544715699067
 30
0.0
 11
67.012056453512486
 21
43.983211382365738
 31
0.0
 12
69.512056453512486
 22
44.399878049032409
 32
0.0
 13
69.512056453512486
 23
44.399878049032409
 33
0.0
  0
INSERT
  5
568
  8
2
  2
*U9
 10
0.0
 20
0.0
 30
0.0
  0
POINT
  5
569
  8
DEFPOINTS
 62
     0
 10
55.512056454365933
 20
57.51759976728529
 30
0.0
  0
POINT
  5
56A
  8
DEFPOINTS
 62
     0
 10
69.512056453512486
 20
57.51759976728529
 30
0.0
  0
POINT
  5
56B
  8
DEFPOINTS
 62
     0
 10
69.512056453512486
 20
44.399878049032409
 30
0.0
  0
ENDBLK
  5
53A
  8
0
  0
BLOCK
  8
0
  2
*U7
 70
     1
 10
0.0
 20
0.0
 30
0.0
  3
*U7
  1

  0
TEXT
  5
5AA
  8
2
 62
     0
 10
59.803723120605881
 20
90.937271822707729
 30
0.0
 40
2.5
  1
\U+2205
  0
TEXT
  5
5AB
  8
2
 62
     0
 10
62.303723120605881
 20
90.937271822707729
 30
0.0
 40
2.5
  1
10
  0
ENDBLK
  5
5AD
  8
0
  0
BLOCK
  8
0
  2
*U8
 70
     1
 10
0.0
 20
0.0
 30
0.0
  3
*U8
  1

  0
TEXT
  5
5AF
  8
2
 62
     0
 10
70.634902330983195
 20
86.209916011507957
 30
0.0
 40
2.5
  1
\U+2205
  0
TEXT
  5
5B0
  8
2
 62
     0
 10
73.134902330983195
 20
86.209916011507957
 30
0.0
 40
2.5
  1
5
  0
ENDBLK
  5
5B2
  8
0
  0
BLOCK
  8
0
  2
*U9
 70
     1
 10
0.0
 20
0.0
 30
0.0
  3
*U9
  1

  0
TEXT
  5
5B4
  8
2
 62
     0
 10
59.595389787272552
 20
45.024878049032409
 30
0.0
 40
2.5
  1
\U+2205
  0
TEXT
  5
5B5
  8
2
 62
     0
 10
62.095389787272552
 20
45.024878049032409
 30
0.0
 40
2.5
  1
14
  0
ENDBLK
  5
5B7
  8
0
  0
BLOCK
  8
0
  2
*U10
 70
     1
 10
0.0
 20
0.0
 30
0.0
  3
*U10
  1

  0
TEXT
  5
5B9
  8
2
 62
     0
 10
70.637056453939209
 20
50.420014118126673
 30
0.0
 40
2.5
  1
\U+2205
  0
TEXT
  5
5BA
  8
2
 62
     0
 10
73.137056453939209
 20
50.420014118126673
 30
0.0
 40
2.5
  1
5
  0
ENDBLK
  5
5BC
  8
0
  0
ENDSEC
  0
SECTION
  2
ENTITIES
  0
POLYLINE
  5
D2
  8
0
 66
     1
 10
0.0
 20
0.0
 30
0.0
 39
3.278012962
  0
VERTEX
  5
591
  8
0
 10
60.012056453939209
 20
60.381210598714588
 30
0.0
  0
VERTEX
  5
592
  8
0
 10
62.512056453939209
 20
60.381210598714588
 30
0.0
  0
SEQEND
  5
593
  8
0
  0
POLYLINE
  5
D3
  8
0
 66
     1
 10
0.0
 20
0.0
 30
0.0
 39
3.278012962
  0
VERTEX
  5
594
  8
0
 10
56.582194224502622
 20
63.312016427779547
 30
0.0
  0
VERTEX
  5
595
  8
0
 10
62.512056453939209
 20
63.312016427779547
 30
0.0
  0
SEQEND
  5
596
  8
0
  0
POLYLINE
  5
D4
  8
0
 66
     1
 10
0.0
 20
0.0
 30
0.0
 39
3.278012962
  0
VERTEX
  5
597
  8
0
 10
59.931703631593919
 20
65.993037669140108
 30
0.0
  0
VERTEX
  5
598
  8
0
 10
62.512056453939209
 20
65.993037669140108
 30
0.0
  0
SEQEND
  5
599
  8
0
  0
POLYLINE
  5
D5
  8
0
 66
     1
 10
0.0
 20
0.0
 30
0.0
 39
3.278012962
  0
VERTEX
  5
59A
  8
0
 10
56.782476820678397
 20
68.490883546184108
 30
0.0
  0
VERTEX
  5
59B
  8
0
 10
62.512056453939209
 20
68.490883546184108
 30
0.0
  0
SEQEND
  5
59C
  8
0
  0
TEXT
  5
D8
  8
2
 10
42.6610361445737
 20
32.345085748664573
 30
0.0
 40
2.5399440000000002
  1
No. 21.014.007._
 51
-0.0000015352344868
  7
\U+00C9L\U+00C9R_\U+00C2S\U+00C2V\U+00C2B\U+00C2N
  0
LINE
  5
16E
  8
0
 39
3.278012962
 10
60.014210576895209
 20
79.51759976728529
 30
0.0
 11
60.014210576895209
 21
74.067640976923329
 31
0.0
  0
LINE
  5
170
  8
0
 39
3.278012962
 10
56.886002807258613
 20
62.862469730170872
 30
0.0
 11
59.76528763815984
 21
60.72946669579747
 31
0.0
  0
LINE
  5
171
  8
0
 39
3.278012962
 10
59.76528763815984
 20
60.72946669579747
 30
0.0
 11
59.76528763815984
 21
60.72946669579747
 31
0.0
  0
LINE
  5
172
  8
0
 39
3.278012962
 10
59.76528763815984
 20
60.72946669579747
 30
0.0
 11
59.828028806252533
 21
60.680099820589739
 31
0.0
  0
LINE
  5
173
  8
0
 39
3.278012962
 10
59.828028806252533
 20
60.680099820589739
 30
0.0
 11
59.881788218829321
 21
60.631650789011381
 31
0.0
  0
LINE
  5
174
  8
0
 39
3.278012962
 10
59.881788218829321
 20
60.631650789011381
 30
0.0
 11
59.926369195112521
 21
60.584119601062383
 31
0.0
  0
LINE
  5
175
  8
0
 39
3.278012962
 10
59.926369195112521
 20
60.584119601062383
 30
0.0
 11
59.961968415879838
 21
60.537178455446551
 31
0.0
  0
LINE
  5
176
  8
0
 39
3.278012962
 10
59.961968415879838
 20
60.537178455446551
 30
0.0
 11
59.98819251957584
 21
60.490892912423099
 31
0.0
  0
LINE
  5
177
  8
0
 39
3.278012962
 10
59.98819251957584
 20
60.490892912423099
 30
0.0
 11
60.005434867755973
 21
60.444935170695871
 31
0.0
  0
LINE
  5
178
  8
0
 39
3.278012962
 10
60.005434867755973
 20
60.444935170695871
 30
0.0
 11
60.012056453939209
 21
60.406902093031782
 31
0.0
  0
LINE
  5
17A
  8
0
 39
3.278012962
 10
60.012056453939209
 20
60.353871970611507
 30
0.0
 11
60.001370131683089
 21
60.308438710958178
 31
0.0
  0
LINE
  5
17B
  8
0
 39
3.278012962
 10
60.001370131683089
 20
60.308438710958178
 30
0.0
 11
59.981308692355647
 21
60.262808770527137
 31
0.0
  0
LINE
  5
17C
  8
0
 39
3.278012962
 10
59.981308692355647
 20
60.262808770527137
 30
0.0
 11
59.95187213595689
 21
60.216982149318383
 31
0.0
  0
LINE
  5
17D
  8
0
 39
3.278012962
 10
59.95187213595689
 20
60.216982149318383
 30
0.0
 11
59.913126022746049
 21
60.170565485776457
 31
0.0
  0
LINE
  5
17E
  8
0
 39
3.278012962
 10
59.913126022746049
 20
60.170565485776457
 30
0.0
 11
59.864742551426929
 21
60.123689900419862
 31
0.0
  0
LINE
  5
17F
  8
0
 39
3.278012962
 10
59.864742551426929
 20
60.123689900419862
 30
0.0
 11
59.80698396303648
 21
60.076093152211627
 31
0.0
  0
LINE
  5
180
  8
0
 39
3.278012962
 10
59.80698396303648
 20
60.076093152211627
 30
0.0
 11
59.739588016537759
 21
60.027644120633269
 31
0.0
  0
LINE
  5
181
  8
0
 39
3.278012962
 10
59.739588016537759
 20
60.027644120633269
 30
0.0
 11
59.662751392708479
 21
59.978080564647833
 31
0.0
  0
LINE
  5
182
  8
0
 39
3.278012962
 10
59.662751392708479
 20
59.978080564647833
 30
0.0
 11
55.898277966526997
 21
57.51759976728529
 31
0.0
  0
LINE
  5
185
  8
0
 39
3.278012962
 10
62.512056453939209
 20
74.067640976923329
 30
0.0
 11
60.014210576895209
 21
74.067640976923329
 31
0.0
  0
LINE
  5
186
  8
0
 39
3.278012962
 10
60.014210576895209
 20
74.067640976923329
 30
0.0
 11
57.142408981146239
 21
69.091940002896422
 31
0.0
  0
LINE
  5
187
  8
0
 39
3.278012962
 10
57.142408981146239
 20
69.091940002896422
 30
0.0
 11
57.142408981146239
 21
69.091940002896422
 31
0.0
  0
LINE
  5
188
  8
0
 39
3.278012962
 10
57.142408981146239
 20
69.091940002896422
 30
0.0
 11
57.052525865728221
 21
69.004154815774072
 31
0.0
  0
LINE
  5
189
  8
0
 39
3.278012962
 10
57.052525865728221
 20
69.004154815774072
 30
0.0
 11
56.975295880343488
 21
68.922007810946354
 31
0.0
  0
LINE
  5
18A
  8
0
 39
3.278012962
 10
56.975295880343488
 20
68.922007810946354
 30
0.0
 11
56.910653464732853
 21
68.845105626857816
 31
0.0
  0
LINE
  5
18B
  8
0
 39
3.278012962
 10
56.910653464732853
 20
68.845105626857816
 30
0.0
 11
56.85872973941477
 21
68.772727100656866
 31
0.0
  0
LINE
  5
18C
  8
0
 39
3.278012962
 10
56.85872973941477
 20
68.772727100656866
 30
0.0
 11
56.819328023611533
 21
68.704609991306484
 31
0.0
  0
LINE
  5
18D
  8
0
 39
3.278012962
 10
56.819328023611533
 20
68.704609991306484
 30
0.0
 11
56.79257943784161
 21
68.640033135955093
 31
0.0
  0
LINE
  5
18E
  8
0
 39
3.278012962
 10
56.79257943784161
 20
68.640033135955093
 30
0.0
 11
56.778418421845771
 21
68.578472052528753
 31
0.0
  0
LINE
  5
18F
  8
0
 39
3.278012962
 10
56.778418421845771
 20
68.578472052528753
 30
0.0
 11
56.776976096142491
 21
68.519336698694275
 31
0.0
  0
LINE
  5
190
  8
0
 39
3.278012962
 10
56.776976096142491
 20
68.519336698694275
 30
0.0
 11
56.787990219694812
 21
68.462364833414711
 31
0.0
  0
LINE
  5
191
  8
0
 39
3.278012962
 10
56.787990219694812
 20
68.462364833414711
 30
0.0
 11
56.81178859379893
 21
68.406769733579196
 31
0.0
  0
LINE
  5
192
  8
0
 39
3.278012962
 10
56.81178859379893
 20
68.406769733579196
 30
0.0
 11
56.848174537677131
 21
68.352158037632265
 31
0.0
  0
LINE
  5
193
  8
0
 39
3.278012962
 10
56.848174537677131
 20
68.352158037632265
 30
0.0
 11
56.89714805132941
 21
68.297808582722311
 31
0.0
  0
LINE
  5
194
  8
0
 39
3.278012962
 10
56.89714805132941
 20
68.297808582722311
 30
0.0
 11
56.958709134755772
 21
68.243393567553113
 31
0.0
  0
LINE
  5
195
  8
0
 39
3.278012962
 10
56.958709134755772
 20
68.243393567553113
 30
0.0
 11
57.032988908474692
 21
68.188257389532254
 31
0.0
  0
LINE
  5
196
  8
0
 39
3.278012962
 10
57.032988908474692
 20
68.188257389532254
 30
0.0
 11
57.119790691708438
 21
68.131941126845106
 31
0.0
  0
LINE
  5
197
  8
0
 39
3.278012962
 10
57.119790691708438
 20
68.131941126845106
 30
0.0
 11
57.219311165234771
 21
68.07385473715847
 31
0.0
  0
LINE
  5
198
  8
0
 39
3.278012962
 10
57.219311165234771
 20
68.07385473715847
 30
0.0
 11
59.65520259729697
 21
66.377155228027277
 31
0.0
  0
LINE
  5
199
  8
0
 39
3.278012962
 10
59.65520259729697
 20
66.377155228027277
 30
0.0
 11
59.65520259729697
 21
66.377155228027277
 31
0.0
  0
LINE
  5
19A
  8
0
 39
3.278012962
 10
59.65520259729697
 20
66.377155228027277
 30
0.0
 11
59.722664104054921
 21
66.336114505743026
 31
0.0
  0
LINE
  5
19B
  8
0
 39
3.278012962
 10
59.722664104054921
 20
66.336114505743026
 30
0.0
 11
59.781209415556248
 21
66.294287060347912
 31
0.0
  0
LINE
  5
19C
  8
0
 39
3.278012962
 10
59.781209415556248
 20
66.294287060347912
 30
0.0
 11
59.83051073050472
 21
66.25193513287887
 31
0.0
  0
LINE
  5
19D
  8
0
 39
3.278012962
 10
59.83051073050472
 20
66.25193513287887
 30
0.0
 11
59.870699169418849
 21
66.208730922039706
 31
0.0
  0
LINE
  5
19E
  8
0
 39
3.278012962
 10
59.870699169418849
 20
66.208730922039706
 30
0.0
 11
59.901381370743167
 21
66.165002229126614
 31
0.0
  0
LINE
  5
19F
  8
0
 39
3.278012962
 10
59.901381370743167
 20
66.165002229126614
 30
0.0
 11
59.922819575514637
 21
66.120355692584198
 31
0.0
  0
LINE
  5
1A0
  8
0
 39
3.278012962
 10
59.922819575514637
 20
66.120355692584198
 30
0.0
 11
59.934751542696318
 21
66.074987993190106
 31
0.0
  0
LINE
  5
1A1
  8
0
 39
3.278012962
 10
59.934751542696318
 20
66.074987993190106
 30
0.0
 11
59.937242832547447
 21
66.028768010425907
 31
0.0
  0
LINE
  5
1A2
  8
0
 39
3.278012962
 10
59.937242832547447
 20
66.028768010425907
 30
0.0
 11
59.929965643771808
 21
65.981826864810074
 31
0.0
  0
LINE
  5
1A3
  8
0
 39
3.278012962
 10
59.929965643771808
 20
65.981826864810074
 30
0.0
 11
59.913051096887891
 21
65.93390231530563
 31
0.0
  0
LINE
  5
1A4
  8
0
 39
3.278012962
 10
59.913051096887891
 20
65.93390231530563
 30
0.0
 11
59.886302511117961
 21
65.885125482431064
 31
0.0
  0
LINE
  5
1A5
  8
0
 39
3.278012962
 10
59.886302511117961
 20
65.885125482431064
 30
0.0
 11
59.849851006980529
 21
65.835234125149427
 31
0.0
  0
LINE
  5
1A6
  8
0
 39
3.278012962
 10
59.849851006980529
 20
65.835234125149427
 30
0.0
 11
59.803368783179373
 21
65.784556044756911
 31
0.0
  0
LINE
  5
1A7
  8
0
 39
3.278012962
 10
59.803368783179373
 20
65.784556044756911
 30
0.0
 11
59.74698696023296
 21
65.732697879698065
 31
0.0
  0
LINE
  5
1A8
  8
0
 39
3.278012962
 10
59.74698696023296
 20
65.732697879698065
 30
0.0
 11
59.680508857363598
 21
65.679856310750623
 31
0.0
  0
LINE
  5
1A9
  8
0
 39
3.278012962
 10
59.680508857363598
 20
65.679856310750623
 30
0.0
 11
59.603934474571282
 21
65.625769096877633
 31
0.0
  0
LINE
  5
1AA
  8
0
 39
3.278012962
 10
59.603934474571282
 20
65.625769096877633
 30
0.0
 11
57.014173114072811
 21
63.662370453158097
 31
0.0
  0
LINE
  5
1AB
  8
0
 39
3.278012962
 10
57.014173114072811
 20
63.662370453158097
 30
0.0
 11
57.014173114072811
 21
63.662370453158097
 31
0.0
  0
LINE
  5
1AC
  8
0
 39
3.278012962
 10
57.014173114072811
 20
63.662370453158097
 30
0.0
 11
56.918848497137837
 21
63.609528884210668
 31
0.0
  0
LINE
  5
1AD
  8
0
 39
3.278012962
 10
56.918848497137837
 20
63.609528884210668
 30
0.0
 11
56.83506248582912
 21
63.559440846151297
 31
0.0
  0
LINE
  5
1AE
  8
0
 39
3.278012962
 10
56.83506248582912
 20
63.559440846151297
 30
0.0
 11
56.76268395962817
 21
63.511778537683817
 31
0.0
  0
LINE
  5
1AF
  8
0
 39
3.278012962
 10
56.76268395962817
 20
63.511778537683817
 30
0.0
 11
56.70197515957193
 21
63.465886356215833
 31
0.0
  0
LINE
  5
1B0
  8
0
 39
3.278012962
 10
56.70197515957193
 20
63.465886356215833
 30
0.0
 11
56.652739404882688
 21
63.421370940191863
 31
0.0
  0
LINE
  5
1B1
  8
0
 39
3.278012962
 10
56.652739404882688
 20
63.421370940191863
 30
0.0
 11
56.61517337633817
 21
63.377445566501073
 31
0.0
  0
LINE
  5
1B2
  8
0
 39
3.278012962
 10
56.61517337633817
 20
63.377445566501073
 30
0.0
 11
56.589211513679132
 21
63.333847994106463
 31
0.0
  0
LINE
  5
1B3
  8
0
 39
3.278012962
 10
56.589211513679132
 20
63.333847994106463
 30
0.0
 11
56.575050497683279
 21
63.289791499897191
 31
0.0
  0
LINE
  5
1B4
  8
0
 39
3.278012962
 10
56.575050497683279
 20
63.289791499897191
 30
0.0
 11
56.572362527054452
 21
63.245079403095502
 31
0.0
  0
LINE
  5
1B5
  8
0
 39
3.278012962
 10
56.572362527054452
 20
63.245079403095502
 30
0.0
 11
56.581606523607292
 21
63.198793860072058
 31
0.0
  0
LINE
  5
1B6
  8
0
 39
3.278012962
 10
56.581606523607292
 20
63.198793860072058
 30
0.0
 11
56.602651366823331
 21
63.150738190049147
 31
0.0
  0
LINE
  5
1B7
  8
0
 39
3.278012962
 10
56.602651366823331
 20
63.150738190049147
 30
0.0
 11
56.635497056702569
 21
63.100060109656617
 31
0.0
  0
LINE
  5
1B8
  8
0
 39
3.278012962
 10
56.635497056702569
 20
63.100060109656617
 30
0.0
 11
56.680143593245013
 21
63.046497377857548
 31
0.0
  0
LINE
  5
1B9
  8
0
 39
3.278012962
 10
56.680143593245013
 20
63.046497377857548
 30
0.0
 11
56.736853217487599
 21
62.989394392059509
 31
0.0
  0
LINE
  5
1BA
  8
0
 39
3.278012962
 10
56.736853217487599
 20
62.989394392059509
 30
0.0
 11
56.805429248652651
 21
62.928292230447823
 31
0.0
  0
LINE
  5
1BB
  8
0
 39
3.278012962
 10
56.805429248652651
 20
62.928292230447823
 30
0.0
 11
56.886002807258613
 21
62.862469730170872
 31
0.0
  0
LINE
  5
1C7
  8
0
 39
3.278012962
 10
57.512056453939209
 20
72.01759976728529
 30
0.0
 11
55.79409668961641
 21
69.233484602595581
 31
0.0
  0
LINE
  5
1C8
  8
0
 39
3.278012962
 10
55.79409668961641
 20
69.233484602595581
 30
0.0
 11
55.79409668961641
 21
69.233484602595581
 31
0.0
  0
LINE
  5
1C9
  8
0
 39
3.278012962
 10
55.79409668961641
 20
69.233484602595581
 30
0.0
 11
55.709196153900599
 21
69.134488611143183
 31
0.0
  0
LINE
  5
1CA
  8
0
 39
3.278012962
 10
55.709196153900599
 20
69.134488611143183
 30
0.0
 11
55.637276549514318
 21
69.037393867208749
 31
0.0
  0
LINE
  5
1CB
  8
0
 39
3.278012962
 10
55.637276549514318
 20
69.037393867208749
 30
0.0
 11
55.577813394383639
 21
68.942659292606933
 31
0.0
  0
LINE
  5
1CC
  8
0
 39
3.278012962
 10
55.577813394383639
 20
68.942659292606933
 30
0.0
 11
55.530741128249332
 21
68.850350447597023
 31
0.0
  0
LINE
  5
1CD
  8
0
 39
3.278012962
 10
55.530741128249332
 20
68.850350447597023
 30
0.0
 11
55.495404148518972
 21
68.760991814252918
 31
0.0
  0
LINE
  5
1CE
  8
0
 39
3.278012962
 10
55.495404148518972
 20
68.760991814252918
 30
0.0
 11
55.471671334674078
 21
68.67464895283382
 31
0.0
  0
LINE
  5
1CF
  8
0
 39
3.278012962
 10
55.471671334674078
 20
68.67464895283382
 30
0.0
 11
55.459149325159252
 21
68.591780785154469
 31
0.0
  0
LINE
  5
1D0
  8
0
 39
3.278012962
 10
55.459149325159252
 20
68.591780785154469
 30
0.0
 11
55.457510318678239
 21
68.512452871474053
 31
0.0
  0
LINE
  5
1D1
  8
0
 39
3.278012962
 10
55.457510318678239
 20
68.512452871474053
 30
0.0
 11
55.466229833157172
 21
68.437320814385032
 31
0.0
  0
LINE
  5
1D2
  8
0
 39
3.278012962
 10
55.466229833157172
 20
68.437320814385032
 30
0.0
 11
55.485242308336773
 21
68.366319053628104
 31
0.0
  0
LINE
  5
1D3
  8
0
 39
3.278012962
 10
55.485242308336773
 20
68.366319053628104
 30
0.0
 11
55.514088822402371
 21
68.299972071277224
 31
0.0
  0
LINE
  5
1D4
  8
0
 39
3.278012962
 10
55.514088822402371
 20
68.299972071277224
 30
0.0
 11
55.552441574057767
 21
68.23827986733238
 31
0.0
  0
LINE
  5
1D5
  8
0
 39
3.278012962
 10
55.552441574057767
 20
68.23827986733238
 30
0.0
 11
55.59990720174752
 21
68.181832484126744
 31
0.0
  0
LINE
  5
1D6
  8
0
 39
3.278012962
 10
55.59990720174752
 20
68.181832484126744
 30
0.0
 11
55.656223464434682
 21
68.130695481919545
 31
0.0
  0
LINE
  5
1D7
  8
0
 39
3.278012962
 10
55.656223464434682
 20
68.130695481919545
 30
0.0
 11
55.720997000563813
 21
68.085327782525468
 31
0.0
  0
LINE
  5
1D8
  8
0
 39
3.278012962
 10
55.720997000563813
 20
68.085327782525468
 30
0.0
 11
55.79409668961641
 21
68.045794946203756
 31
0.0
  0
LINE
  5
1D9
  8
0
 39
3.278012962
 10
55.79409668961641
 20
68.045794946203756
 30
0.0
 11
58.358223988752052
 21
66.349095437072549
 31
0.0
  0
LINE
  5
1DA
  8
0
 39
3.278012962
 10
58.358223988752052
 20
66.349095437072549
 30
0.0
 11
58.358223988752052
 21
66.349095437072549
 31
0.0
  0
LINE
  5
1DB
  8
0
 39
3.278012962
 10
58.358223988752052
 20
66.349095437072549
 30
0.0
 11
58.43479837154436
 21
66.299466320827861
 31
0.0
  0
LINE
  5
1DC
  8
0
 39
3.278012962
 10
58.43479837154436
 20
66.299466320827861
 30
0.0
 11
58.501407594932211
 21
66.250427246916345
 31
0.0
  0
LINE
  5
1DD
  8
0
 39
3.278012962
 10
58.501407594932211
 20
66.250427246916345
 30
0.0
 11
58.558117219174797
 21
66.202109335856463
 31
0.0
  0
LINE
  5
1DE
  8
0
 39
3.278012962
 10
58.558117219174797
 20
66.202109335856463
 30
0.0
 11
58.605320605827607
 21
66.154512587648227
 31
0.0
  0
LINE
  5
1DF
  8
0
 39
3.278012962
 10
58.605320605827607
 20
66.154512587648227
 30
0.0
 11
58.64295219463137
 21
66.107899243328589
 31
0.0
  0
LINE
  5
1E0
  8
0
 39
3.278012962
 10
58.64295219463137
 20
66.107899243328589
 30
0.0
 11
58.671339786882292
 21
66.062007061860584
 31
0.0
  0
LINE
  5
1E1
  8
0
 39
3.278012962
 10
58.671339786882292
 20
66.062007061860584
 30
0.0
 11
58.69061450309885
 21
66.017229404799664
 31
0.0
  0
LINE
  5
1E2
  8
0
 39
3.278012962
 10
58.69061450309885
 20
66.017229404799664
 30
0.0
 11
58.701104144577251
 21
65.973435151627342
 31
0.0
  0
LINE
  5
1E3
  8
0
 39
3.278012962
 10
58.701104144577251
 20
65.973435151627342
 30
0.0
 11
58.702677590799013
 21
65.930952103639825
 31
0.0
  0
LINE
  5
1E4
  8
0
 39
3.278012962
 10
58.702677590799013
 20
65.930952103639825
 30
0.0
 11
58.69585932383805
 21
65.88951801980015
 31
0.0
  0
LINE
  5
1E5
  8
0
 39
3.278012962
 10
58.69585932383805
 20
65.88951801980015
 30
0.0
 11
58.68064934369437
 21
65.849395141145266
 31
0.0
  0
LINE
  5
1E6
  8
0
 39
3.278012962
 10
58.68064934369437
 20
65.849395141145266
 30
0.0
 11
58.657375451664173
 21
65.810583467675187
 31
0.0
  0
LINE
  5
1E7
  8
0
 39
3.278012962
 10
58.657375451664173
 20
65.810583467675187
 30
0.0
 11
58.626037647747438
 21
65.773279680167633
 31
0.0
  0
LINE
  5
1E8
  8
0
 39
3.278012962
 10
58.626037647747438
 20
65.773279680167633
 30
0.0
 11
58.587029293499647
 21
65.737418218363345
 31
0.0
  0
LINE
  5
1E9
  8
0
 39
3.278012962
 10
58.587029293499647
 20
65.737418218363345
 30
0.0
 11
58.540350388920771
 21
65.703195763040071
 31
0.0
  0
LINE
  5
1EA
  8
0
 39
3.278012962
 10
58.540350388920771
 20
65.703195763040071
 30
0.0
 11
58.486394295566249
 21
65.670415633420077
 31
0.0
  0
LINE
  5
1EB
  8
0
 39
3.278012962
 10
58.486394295566249
 20
65.670415633420077
 30
0.0
 11
55.922266996430601
 21
63.828237909035309
 31
0.0
  0
LINE
  5
1EC
  8
0
 39
3.278012962
 10
55.922266996430601
 20
63.828237909035309
 30
0.0
 11
55.922266996430601
 21
63.828237909035309
 31
0.0
  0
LINE
  5
1ED
  8
0
 39
3.278012962
 10
55.922266996430601
 20
63.828237909035309
 30
0.0
 11
55.814551490499291
 21
63.755334900760431
 31
0.0
  0
LINE
  5
1EE
  8
0
 39
3.278012962
 10
55.814551490499291
 20
63.755334900760431
 30
0.0
 11
55.722242645489366
 21
63.68197297067087
 31
0.0
  0
LINE
  5
1EF
  8
0
 39
3.278012962
 10
55.722242645489366
 20
63.68197297067087
 30
0.0
 11
55.644947099845403
 21
63.608414359803589
 31
0.0
  0
LINE
  5
1F0
  8
0
 39
3.278012962
 10
55.644947099845403
 20
63.608414359803589
 30
0.0
 11
55.582468172789689
 21
63.53472462841782
 31
0.0
  0
LINE
  5
1F1
  8
0
 39
3.278012962
 10
55.582468172789689
 20
63.53472462841782
 30
0.0
 11
55.534281382248288
 21
63.461362698328273
 31
0.0
  0
LINE
  5
1F2
  8
0
 39
3.278012962
 10
55.534281382248288
 20
63.461362698328273
 30
0.0
 11
55.500321167961971
 21
63.388197449016431
 31
0.0
  0
LINE
  5
1F3
  8
0
 39
3.278012962
 10
55.500321167961971
 20
63.388197449016431
 30
0.0
 11
55.480194168375291
 21
63.315556681778503
 31
0.0
  0
LINE
  5
1F4
  8
0
 39
3.278012962
 10
55.480194168375291
 20
63.315556681778503
 30
0.0
 11
55.473572582192048
 21
63.24350595687374
 31
0.0
  0
LINE
  5
1F5
  8
0
 39
3.278012962
 10
55.473572582192048
 20
63.24350595687374
 30
0.0
 11
55.480063047856802
 21
63.172438635857581
 31
0.0
  0
LINE
  5
1F6
  8
0
 39
3.278012962
 10
55.480063047856802
 20
63.172438635857581
 30
0.0
 11
55.499534444851093
 21
63.102354718730027
 31
0.0
  0
LINE
  5
1F7
  8
0
 39
3.278012962
 10
55.499534444851093
 20
63.102354718730027
 30
0.0
 11
55.53159341161944
 21
63.033516446528033
 31
0.0
  0
LINE
  5
1F8
  8
0
 39
3.278012962
 10
55.53159341161944
 20
63.033516446528033
 30
0.0
 11
55.576043267384172
 21
62.965923819251579
 31
0.0
  0
LINE
  5
1F9
  8
0
 39
3.278012962
 10
55.576043267384172
 20
62.965923819251579
 30
0.0
 11
55.632425090330571
 21
62.90003575871539
 31
0.0
  0
LINE
  5
1FA
  8
0
 39
3.278012962
 10
55.632425090330571
 20
62.90003575871539
 30
0.0
 11
55.700673320199407
 21
62.835786704660187
 31
0.0
  0
LINE
  5
1FB
  8
0
 39
3.278012962
 10
55.700673320199407
 20
62.835786704660187
 30
0.0
 11
55.780263474916758
 21
62.773504458382192
 31
0.0
  0
LINE
  5
1FC
  8
0
 39
3.278012962
 10
55.780263474916758
 20
62.773504458382192
 30
0.0
 11
55.870998873704927
 21
62.713254580140621
 31
0.0
  0
LINE
  5
1FD
  8
0
 39
3.278012962
 10
55.870998873704927
 20
62.713254580140621
 30
0.0
 11
58.460760234203413
 21
60.725598640502312
 31
0.0
  0
LINE
  5
1FE
  8
0
 39
3.278012962
 10
58.460760234203413
 20
60.725598640502312
 30
0.0
 11
58.460760234203413
 21
60.725598640502312
 31
0.0
  0
LINE
  5
1FF
  8
0
 39
3.278012962
 10
58.460760234203413
 20
60.725598640502312
 30
0.0
 11
58.540940431253922
 21
60.664496478890619
 31
0.0
  0
LINE
  5
200
  8
0
 39
3.278012962
 10
58.540940431253922
 20
60.664496478890619
 30
0.0
 11
58.60905754060429
 21
60.607917975166501
 31
0.0
  0
LINE
  5
201
  8
0
 39
3.278012962
 10
58.60905754060429
 20
60.607917975166501
 30
0.0
 11
58.665177122513732
 21
60.555404207515259
 31
0.0
  0
LINE
  5
202
  8
0
 39
3.278012962
 10
58.665177122513732
 20
60.555404207515259
 30
0.0
 11
58.709889219315407
 21
60.506365133603751
 31
0.0
  0
LINE
  5
203
  8
0
 39
3.278012962
 10
58.709889219315407
 20
60.506365133603751
 30
0.0
 11
58.743390511787041
 21
60.460407391876508
 31
0.0
  0
LINE
  5
204
  8
0
 39
3.278012962
 10
58.743390511787041
 20
60.460407391876508
 30
0.0
 11
58.766271042261799
 21
60.416809819481898
 31
0.0
  0
LINE
  5
205
  8
0
 39
3.278012962
 10
58.766271042261799
 20
60.416809819481898
 30
0.0
 11
58.778661931258171
 21
60.375179054864503
 31
0.0
  0
LINE
  5
206
  8
0
 39
3.278012962
 10
58.778661931258171
 20
60.375179054864503
 30
0.0
 11
58.78121878136853
 21
60.334793935172669
 31
0.0
  0
LINE
  5
207
  8
0
 39
3.278012962
 10
58.78121878136853
 20
60.334793935172669
 30
0.0
 11
58.774007152852128
 21
60.295457779628663
 31
0.0
  0
LINE
  5
208
  8
0
 39
3.278012962
 10
58.774007152852128
 20
60.295457779628663
 30
0.0
 11
58.757617088042132
 21
60.25631830486239
 31
0.0
  0
LINE
  5
209
  8
0
 39
3.278012962
 10
58.757617088042132
 20
60.25631830486239
 30
0.0
 11
58.732376388234727
 21
60.217047709577628
 31
0.0
  0
LINE
  5
20A
  8
0
 39
3.278012962
 10
58.732376388234727
 20
60.217047709577628
 30
0.0
 11
58.698678414985359
 21
60.176924830922751
 31
0.0
  0
LINE
  5
20B
  8
0
 39
3.278012962
 10
58.698678414985359
 20
60.176924830922751
 30
0.0
 11
58.656785409331
 21
60.135621867601543
 31
0.0
  0
LINE
  5
20C
  8
0
 39
3.278012962
 10
58.656785409331
 20
60.135621867601543
 30
0.0
 11
58.607221853345571
 21
60.0924176567624
 31
0.0
  0
LINE
  5
20D
  8
0
 39
3.278012962
 10
58.607221853345571
 20
60.0924176567624
 30
0.0
 11
58.550249988066021
 21
60.046918836849827
 31
0.0
  0
LINE
  5
20E
  8
0
 39
3.278012962
 10
58.550249988066021
 20
60.046918836849827
 30
0.0
 11
58.486394295566249
 21
59.998469805271469
 31
0.0
  0
LINE
  5
20F
  8
0
 39
3.278012962
 10
58.486394295566249
 20
59.998469805271469
 30
0.0
 11
55.512056454365933
 21
57.598767636309731
 31
0.0
  0
LINE
  5
212
  8
0
 39
3.278012962
 10
62.512056453939209
 20
79.51759976728529
 30
0.0
 11
57.512056453939209
 21
79.51759976728529
 31
0.0
  0
LINE
  5
3C8
  8
1
 10
62.512056453939209
 20
80.01759976728529
 30
0.0
 11
62.512056453939209
 21
57.01759976728529
 31
0.0
  0
LINE
  5
3D9
  8
0
 10
57.512056453939209
 20
79.51759976728529
 30
0.0
 11
57.512056453939209
 21
72.01759976728529
 31
0.0
  0
LINE
  5
3DF
  8
0
 10
55.512056454365933
 20
57.51759976728529
 30
0.0
 11
62.512056453939209
 21
57.51759976728529
 31
0.0
  0
LINE
  5
3FE
  8
0
 10
55.512056454365933
 20
57.598767636309738
 30
0.0
 11
55.512056454365933
 21
57.51759976728529
 31
0.0
  0
LINE
  5
404
  8
0
 10
60.012056453939209
 20
60.353871970611507
 30
0.0
 11
60.012056453939209
 21
60.406902093031782
 31
0.0
  0
POLYLINE
  5
43A
  8
0
 66
     1
 10
0.0
 20
0.0
 30
0.0
 39
3.278012962
  0
VERTEX
  5
59D
  8
0
 10
65.012056453939209
 20
60.381210598714588
 30
0.0
  0
VERTEX
  5
59E
  8
0
 10
62.512056453939209
 20
60.381210598714588
 30
0.0
  0
SEQEND
  5
59F
  8
0
  0
LINE
  5
43B
  8
0
 39
3.278012962
 10
62.512056453939209
 20
79.51759976728529
 30
0.0
 11
67.512056453939209
 21
79.51759976728529
 31
0.0
  0
LINE
  5
43C
  8
0
 39
3.278012962
 10
66.537718612312176
 20
59.998469805271469
 30
0.0
 11
69.512056453512486
 21
57.598767636309731
 31
0.0
  0
LINE
  5
43D
  8
0
 39
3.278012962
 10
66.473862919812404
 20
60.046918836849827
 30
0.0
 11
66.537718612312176
 21
59.998469805271469
 31
0.0
  0
LINE
  5
43E
  8
0
 39
3.278012962
 10
66.41689105453284
 20
60.0924176567624
 30
0.0
 11
66.473862919812404
 21
60.046918836849827
 31
0.0
  0
LINE
  5
43F
  8
0
 39
3.278012962
 10
66.367327498547411
 20
60.135621867601543
 30
0.0
 11
66.41689105453284
 21
60.0924176567624
 31
0.0
  0
LINE
  5
440
  8
0
 39
3.278012962
 10
66.325434492893052
 20
60.176924830922751
 30
0.0
 11
66.367327498547411
 21
60.135621867601543
 31
0.0
  0
LINE
  5
441
  8
0
 39
3.278012962
 10
66.291736519643678
 20
60.217047709577628
 30
0.0
 11
66.325434492893052
 21
60.176924830922751
 31
0.0
  0
LINE
  5
442
  8
0
 39
3.278012962
 10
66.266495819836265
 20
60.25631830486239
 30
0.0
 11
66.291736519643678
 21
60.217047709577628
 31
0.0
  0
LINE
  5
443
  8
0
 39
3.278012962
 10
66.250105755026283
 20
60.295457779628663
 30
0.0
 11
66.266495819836265
 21
60.25631830486239
 31
0.0
  0
LINE
  5
444
  8
0
 39
3.278012962
 10
66.242894126509896
 20
60.334793935172669
 30
0.0
 11
66.250105755026283
 21
60.295457779628663
 31
0.0
  0
LINE
  5
445
  8
0
 39
3.278012962
 10
66.245450976620248
 20
60.375179054864503
 30
0.0
 11
66.242894126509896
 21
60.334793935172669
 31
0.0
  0
LINE
  5
446
  8
0
 39
3.278012962
 10
66.257841865616612
 20
60.416809819481898
 30
0.0
 11
66.245450976620248
 21
60.375179054864503
 31
0.0
  0
LINE
  5
447
  8
0
 39
3.278012962
 10
66.280722396091363
 20
60.460407391876508
 30
0.0
 11
66.257841865616612
 21
60.416809819481898
 31
0.0
  0
LINE
  5
448
  8
0
 39
3.278012962
 10
66.314223688563004
 20
60.506365133603751
 30
0.0
 11
66.280722396091363
 21
60.460407391876508
 31
0.0
  0
LINE
  5
449
  8
0
 39
3.278012962
 10
66.358935785364665
 20
60.555404207515259
 30
0.0
 11
66.314223688563004
 21
60.506365133603751
 31
0.0
  0
LINE
  5
44A
  8
0
 39
3.278012962
 10
66.415055367274135
 20
60.607917975166501
 30
0.0
 11
66.358935785364665
 21
60.555404207515259
 31
0.0
  0
LINE
  5
44B
  8
0
 39
3.278012962
 10
66.483172476624489
 20
60.664496478890619
 30
0.0
 11
66.415055367274135
 21
60.607917975166501
 31
0.0
  0
LINE
  5
44C
  8
0
 39
3.278012962
 10
66.563352673675013
 20
60.725598640502312
 30
0.0
 11
66.483172476624489
 21
60.664496478890619
 31
0.0
  0
LINE
  5
44D
  8
0
 39
3.278012962
 10
66.563352673675013
 20
60.725598640502312
 30
0.0
 11
66.563352673675013
 21
60.725598640502312
 31
0.0
  0
LINE
  5
44E
  8
0
 39
3.278012962
 10
69.153114034173484
 20
62.713254580140621
 30
0.0
 11
66.563352673675013
 21
60.725598640502312
 31
0.0
  0
LINE
  5
44F
  8
0
 39
3.278012962
 10
69.243849432961653
 20
62.773504458382192
 30
0.0
 11
69.153114034173484
 21
62.713254580140621
 31
0.0
  0
LINE
  5
450
  8
0
 39
3.278012962
 10
69.323439587679005
 20
62.835786704660187
 30
0.0
 11
69.243849432961653
 21
62.773504458382192
 31
0.0
  0
LINE
  5
451
  8
0
 39
3.278012962
 10
69.391687817547833
 20
62.90003575871539
 30
0.0
 11
69.323439587679005
 21
62.835786704660187
 31
0.0
  0
LINE
  5
452
  8
0
 39
3.278012962
 10
69.448069640494253
 20
62.965923819251579
 30
0.0
 11
69.391687817547833
 21
62.90003575871539
 31
0.0
  0
LINE
  5
453
  8
0
 39
3.278012962
 10
69.492519496258979
 20
63.033516446528033
 30
0.0
 11
69.448069640494253
 21
62.965923819251579
 31
0.0
  0
LINE
  5
454
  8
0
 39
3.278012962
 10
69.524578463027325
 20
63.102354718730027
 30
0.0
 11
69.492519496258979
 21
63.033516446528033
 31
0.0
  0
LINE
  5
455
  8
0
 39
3.278012962
 10
69.544049860021616
 20
63.172438635857581
 30
0.0
 11
69.524578463027325
 21
63.102354718730027
 31
0.0
  0
LINE
  5
456
  8
0
 39
3.278012962
 10
69.55054032568637
 20
63.24350595687374
 30
0.0
 11
69.544049860021616
 21
63.172438635857581
 31
0.0
  0
LINE
  5
457
  8
0
 39
3.278012962
 10
69.543918739503127
 20
63.315556681778503
 30
0.0
 11
69.55054032568637
 21
63.24350595687374
 31
0.0
  0
LINE
  5
458
  8
0
 39
3.278012962
 10
69.523791739916433
 20
63.388197449016431
 30
0.0
 11
69.543918739503127
 21
63.315556681778503
 31
0.0
  0
LINE
  5
459
  8
0
 39
3.278012962
 10
69.489831525630123
 20
63.461362698328273
 30
0.0
 11
69.523791739916433
 21
63.388197449016431
 31
0.0
  0
LINE
  5
45A
  8
0
 39
3.278012962
 10
69.44164473508873
 20
63.53472462841782
 30
0.0
 11
69.489831525630123
 21
63.461362698328273
 31
0.0
  0
LINE
  5
45B
  8
0
 39
3.278012962
 10
69.379165808032994
 20
63.608414359803589
 30
0.0
 11
69.44164473508873
 21
63.53472462841782
 31
0.0
  0
LINE
  5
45C
  8
0
 39
3.278012962
 10
69.301870262389045
 20
63.68197297067087
 30
0.0
 11
69.379165808032994
 21
63.608414359803589
 31
0.0
  0
LINE
  5
45D
  8
0
 39
3.278012962
 10
69.20956141737912
 20
63.755334900760431
 30
0.0
 11
69.301870262389045
 21
63.68197297067087
 31
0.0
  0
LINE
  5
45E
  8
0
 39
3.278012962
 10
69.101845911447811
 20
63.828237909035309
 30
0.0
 11
69.20956141737912
 21
63.755334900760431
 31
0.0
  0
LINE
  5
45F
  8
0
 39
3.278012962
 10
69.101845911447811
 20
63.828237909035309
 30
0.0
 11
69.101845911447811
 21
63.828237909035309
 31
0.0
  0
LINE
  5
460
  8
0
 39
3.278012962
 10
66.537718612312176
 20
65.670415633420077
 30
0.0
 11
69.101845911447811
 21
63.828237909035309
 31
0.0
  0
LINE
  5
461
  8
0
 39
3.278012962
 10
66.483762518957647
 20
65.703195763040071
 30
0.0
 11
66.537718612312176
 21
65.670415633420077
 31
0.0
  0
LINE
  5
462
  8
0
 39
3.278012962
 10
66.437083614378764
 20
65.737418218363345
 30
0.0
 11
66.483762518957647
 21
65.703195763040071
 31
0.0
  0
LINE
  5
463
  8
0
 39
3.278012962
 10
66.39807526013098
 20
65.773279680167633
 30
0.0
 11
66.437083614378764
 21
65.737418218363345
 31
0.0
  0
LINE
  5
464
  8
0
 39
3.278012962
 10
66.366737456214253
 20
65.810583467675187
 30
0.0
 11
66.39807526013098
 21
65.773279680167633
 31
0.0
  0
LINE
  5
465
  8
0
 39
3.278012962
 10
66.343463564184034
 20
65.849395141145266
 30
0.0
 11
66.366737456214253
 21
65.810583467675187
 31
0.0
  0
LINE
  5
466
  8
0
 39
3.278012962
 10
66.328253584040368
 20
65.88951801980015
 30
0.0
 11
66.343463564184034
 21
65.849395141145266
 31
0.0
  0
LINE
  5
467
  8
0
 39
3.278012962
 10
66.32143531707942
 20
65.930952103639825
 30
0.0
 11
66.328253584040368
 21
65.88951801980015
 31
0.0
  0
LINE
  5
468
  8
0
 39
3.278012962
 10
66.323008763301175
 20
65.973435151627342
 30
0.0
 11
66.32143531707942
 21
65.930952103639825
 31
0.0
  0
LINE
  5
469
  8
0
 39
3.278012962
 10
66.333498404779561
 20
66.017229404799664
 30
0.0
 11
66.323008763301175
 21
65.973435151627342
 31
0.0
  0
LINE
  5
46A
  8
0
 39
3.278012962
 10
66.352773120996119
 20
66.062007061860584
 30
0.0
 11
66.333498404779561
 21
66.017229404799664
 31
0.0
  0
LINE
  5
46B
  8
0
 39
3.278012962
 10
66.381160713247056
 20
66.107899243328589
 30
0.0
 11
66.352773120996119
 21
66.062007061860584
 31
0.0
  0
LINE
  5
46C
  8
0
 39
3.278012962
 10
66.418792302050804
 20
66.154512587648227
 30
0.0
 11
66.381160713247056
 21
66.107899243328589
 31
0.0
  0
LINE
  5
46D
  8
0
 39
3.278012962
 10
66.465995688703615
 20
66.202109335856463
 30
0.0
 11
66.418792302050804
 21
66.154512587648227
 31
0.0
  0
LINE
  5
46E
  8
0
 39
3.278012962
 10
66.522705312946215
 20
66.250427246916345
 30
0.0
 11
66.465995688703615
 21
66.202109335856463
 31
0.0
  0
LINE
  5
46F
  8
0
 39
3.278012962
 10
66.589314536334058
 20
66.299466320827861
 30
0.0
 11
66.522705312946215
 21
66.250427246916345
 31
0.0
  0
LINE
  5
470
  8
0
 39
3.278012962
 10
66.66588891912636
 20
66.349095437072549
 30
0.0
 11
66.589314536334058
 21
66.299466320827861
 31
0.0
  0
LINE
  5
471
  8
0
 39
3.278012962
 10
66.66588891912636
 20
66.349095437072549
 30
0.0
 11
66.66588891912636
 21
66.349095437072549
 31
0.0
  0
LINE
  5
472
  8
0
 39
3.278012962
 10
69.230016218262008
 20
68.045794946203756
 30
0.0
 11
66.66588891912636
 21
66.349095437072549
 31
0.0
  0
LINE
  5
473
  8
0
 39
3.278012962
 10
69.303115907314606
 20
68.085327782525468
 30
0.0
 11
69.230016218262008
 21
68.045794946203756
 31
0.0
  0
LINE
  5
474
  8
0
 39
3.278012962
 10
69.36788944344373
 20
68.130695481919545
 30
0.0
 11
69.303115907314606
 21
68.085327782525468
 31
0.0
  0
LINE
  5
475
  8
0
 39
3.278012962
 10
69.424205706130891
 20
68.181832484126744
 30
0.0
 11
69.36788944344373
 21
68.130695481919545
 31
0.0
  0
LINE
  5
476
  8
0
 39
3.278012962
 10
69.471671333820652
 20
68.23827986733238
 30
0.0
 11
69.424205706130891
 21
68.181832484126744
 31
0.0
  0
LINE
  5
477
  8
0
 39
3.278012962
 10
69.510024085476047
 20
68.299972071277224
 30
0.0
 11
69.471671333820652
 21
68.23827986733238
 31
0.0
  0
LINE
  5
478
  8
0
 39
3.278012962
 10
69.538870599541639
 20
68.366319053628104
 30
0.0
 11
69.510024085476047
 21
68.299972071277224
 31
0.0
  0
LINE
  5
479
  8
0
 39
3.278012962
 10
69.557883074721246
 20
68.437320814385032
 30
0.0
 11
69.538870599541639
 21
68.366319053628104
 31
0.0
  0
LINE
  5
47A
  8
0
 39
3.278012962
 10
69.566602589200173
 20
68.512452871474053
 30
0.0
 11
69.557883074721246
 21
68.437320814385032
 31
0.0
  0
LINE
  5
47B
  8
0
 39
3.278012962
 10
69.564963582719173
 20
68.591780785154469
 30
0.0
 11
69.566602589200173
 21
68.512452871474053
 31
0.0
  0
LINE
  5
47C
  8
0
 39
3.278012962
 10
69.552441573204334
 20
68.67464895283382
 30
0.0
 11
69.564963582719173
 21
68.591780785154469
 31
0.0
  0
LINE
  5
47D
  8
0
 39
3.278012962
 10
69.528708759359461
 20
68.760991814252918
 30
0.0
 11
69.552441573204334
 21
68.67464895283382
 31
0.0
  0
LINE
  5
47E
  8
0
 39
3.278012962
 10
69.493371779629086
 20
68.850350447597023
 30
0.0
 11
69.528708759359461
 21
68.760991814252918
 31
0.0
  0
LINE
  5
47F
  8
0
 39
3.278012962
 10
69.446299513494779
 20
68.942659292606933
 30
0.0
 11
69.493371779629086
 21
68.850350447597023
 31
0.0
  0
LINE
  5
480
  8
0
 39
3.278012962
 10
69.386836358364093
 20
69.037393867208749
 30
0.0
 11
69.446299513494779
 21
68.942659292606933
 31
0.0
  0
LINE
  5
481
  8
0
 39
3.278012962
 10
69.314916753977812
 20
69.134488611143183
 30
0.0
 11
69.386836358364093
 21
69.037393867208749
 31
0.0
  0
LINE
  5
482
  8
0
 39
3.278012962
 10
69.230016218262008
 20
69.233484602595581
 30
0.0
 11
69.314916753977812
 21
69.134488611143183
 31
0.0
  0
LINE
  5
483
  8
0
 39
3.278012962
 10
69.230016218262008
 20
69.233484602595581
 30
0.0
 11
69.230016218262008
 21
69.233484602595581
 31
0.0
  0
LINE
  5
484
  8
0
 39
3.278012962
 10
67.512056453939209
 20
72.01759976728529
 30
0.0
 11
69.230016218262008
 21
69.233484602595581
 31
0.0
  0
LINE
  5
485
  8
0
 39
3.278012962
 10
68.218683659225775
 20
62.928292230447823
 30
0.0
 11
68.138110100619812
 21
62.862469730170872
 31
0.0
  0
LINE
  5
486
  8
0
 39
3.278012962
 10
68.287259690390812
 20
62.989394392059509
 30
0.0
 11
68.218683659225775
 21
62.928292230447823
 31
0.0
  0
LINE
  5
487
  8
0
 39
3.278012962
 10
68.343969314633412
 20
63.046497377857548
 30
0.0
 11
68.287259690390812
 21
62.989394392059509
 31
0.0
  0
LINE
  5
488
  8
0
 39
3.278012962
 10
68.388615851175842
 20
63.100060109656617
 30
0.0
 11
68.343969314633412
 21
63.046497377857548
 31
0.0
  0
LINE
  5
489
  8
0
 39
3.278012962
 10
68.421461541055095
 20
63.150738190049147
 30
0.0
 11
68.388615851175842
 21
63.100060109656617
 31
0.0
  0
LINE
  5
48A
  8
0
 39
3.278012962
 10
68.442506384271127
 20
63.198793860072058
 30
0.0
 11
68.421461541055095
 21
63.150738190049147
 31
0.0
  0
LINE
  5
48B
  8
0
 39
3.278012962
 10
68.451750380823967
 20
63.245079403095502
 30
0.0
 11
68.442506384271127
 21
63.198793860072058
 31
0.0
  0
LINE
  5
48C
  8
0
 39
3.278012962
 10
68.449062410195125
 20
63.289791499897191
 30
0.0
 11
68.451750380823967
 21
63.245079403095502
 31
0.0
  0
LINE
  5
48D
  8
0
 39
3.278012962
 10
68.434901394199301
 20
63.333847994106463
 30
0.0
 11
68.449062410195125
 21
63.289791499897191
 31
0.0
  0
LINE
  5
48E
  8
0
 39
3.278012962
 10
68.408939531540256
 20
63.377445566501073
 30
0.0
 11
68.434901394199301
 21
63.333847994106463
 31
0.0
  0
LINE
  5
48F
  8
0
 39
3.278012962
 10
68.371373502995738
 20
63.421370940191863
 30
0.0
 11
68.408939531540256
 21
63.377445566501073
 31
0.0
  0
LINE
  5
490
  8
0
 39
3.278012962
 10
68.322137748306474
 20
63.465886356215833
 30
0.0
 11
68.371373502995738
 21
63.421370940191863
 31
0.0
  0
LINE
  5
491
  8
0
 39
3.278012962
 10
68.261428948250256
 20
63.511778537683817
 30
0.0
 11
68.322137748306474
 21
63.465886356215833
 31
0.0
  0
LINE
  5
492
  8
0
 39
3.278012962
 10
68.189050422049291
 20
63.559440846151297
 30
0.0
 11
68.261428948250256
 21
63.511778537683817
 31
0.0
  0
LINE
  5
493
  8
0
 39
3.278012962
 10
68.105264410740574
 20
63.609528884210668
 30
0.0
 11
68.189050422049291
 21
63.559440846151297
 31
0.0
  0
LINE
  5
494
  8
0
 39
3.278012962
 10
68.009939793805614
 20
63.662370453158097
 30
0.0
 11
68.105264410740574
 21
63.609528884210668
 31
0.0
  0
LINE
  5
495
  8
0
 39
3.278012962
 10
68.009939793805614
 20
63.662370453158097
 30
0.0
 11
68.009939793805614
 21
63.662370453158097
 31
0.0
  0
LINE
  5
496
  8
0
 39
3.278012962
 10
65.420178433307129
 20
65.625769096877633
 30
0.0
 11
68.009939793805614
 21
63.662370453158097
 31
0.0
  0
LINE
  5
497
  8
0
 39
3.278012962
 10
65.343604050514813
 20
65.679856310750623
 30
0.0
 11
65.420178433307129
 21
65.625769096877633
 31
0.0
  0
LINE
  5
498
  8
0
 39
3.278012962
 10
65.277125947645459
 20
65.732697879698065
 30
0.0
 11
65.343604050514813
 21
65.679856310750623
 31
0.0
  0
LINE
  5
499
  8
0
 39
3.278012962
 10
65.220744124699053
 20
65.784556044756911
 30
0.0
 11
65.277125947645459
 21
65.732697879698065
 31
0.0
  0
LINE
  5
49A
  8
0
 39
3.278012962
 10
65.174261900897889
 20
65.835234125149427
 30
0.0
 11
65.220744124699053
 21
65.784556044756911
 31
0.0
  0
LINE
  5
49B
  8
0
 39
3.278012962
 10
65.137810396760443
 20
65.885125482431064
 30
0.0
 11
65.174261900897889
 21
65.835234125149427
 31
0.0
  0
LINE
  5
49C
  8
0
 39
3.278012962
 10
65.11106181099052
 20
65.93390231530563
 30
0.0
 11
65.137810396760443
 21
65.885125482431064
 31
0.0
  0
LINE
  5
49D
  8
0
 39
3.278012962
 10
65.094147264106596
 20
65.981826864810074
 30
0.0
 11
65.11106181099052
 21
65.93390231530563
 31
0.0
  0
LINE
  5
49E
  8
0
 39
3.278012962
 10
65.086870075330964
 20
66.028768010425907
 30
0.0
 11
65.094147264106596
 21
65.981826864810074
 31
0.0
  0
LINE
  5
49F
  8
0
 39
3.278012962
 10
65.0893613651821
 20
66.074987993190106
 30
0.0
 11
65.086870075330964
 21
66.028768010425907
 31
0.0
  0
LINE
  5
4A0
  8
0
 39
3.278012962
 10
65.101293332363781
 20
66.120355692584198
 30
0.0
 11
65.0893613651821
 21
66.074987993190106
 31
0.0
  0
LINE
  5
4A1
  8
0
 39
3.278012962
 10
65.122731537135252
 20
66.165002229126614
 30
0.0
 11
65.101293332363781
 21
66.120355692584198
 31
0.0
  0
LINE
  5
4A2
  8
0
 39
3.278012962
 10
65.153413738459562
 20
66.208730922039706
 30
0.0
 11
65.122731537135252
 21
66.165002229126614
 31
0.0
  0
LINE
  5
4A3
  8
0
 39
3.278012962
 10
65.193602177373691
 20
66.25193513287887
 30
0.0
 11
65.153413738459562
 21
66.208730922039706
 31
0.0
  0
LINE
  5
4A4
  8
0
 39
3.278012962
 10
65.242903492322171
 20
66.294287060347912
 30
0.0
 11
65.193602177373691
 21
66.25193513287887
 31
0.0
  0
LINE
  5
4A5
  8
0
 39
3.278012962
 10
65.30144880382349
 20
66.336114505743026
 30
0.0
 11
65.242903492322171
 21
66.294287060347912
 31
0.0
  0
LINE
  5
4A6
  8
0
 39
3.278012962
 10
65.368910310581441
 20
66.377155228027277
 30
0.0
 11
65.30144880382349
 21
66.336114505743026
 31
0.0
  0
LINE
  5
4A7
  8
0
 39
3.278012962
 10
65.368910310581441
 20
66.377155228027277
 30
0.0
 11
65.368910310581441
 21
66.377155228027277
 31
0.0
  0
LINE
  5
4A8
  8
0
 39
3.278012962
 10
67.804801742643647
 20
68.07385473715847
 30
0.0
 11
65.368910310581441
 21
66.377155228027277
 31
0.0
  0
LINE
  5
4A9
  8
0
 39
3.278012962
 10
67.904322216169973
 20
68.131941126845106
 30
0.0
 11
67.804801742643647
 21
68.07385473715847
 31
0.0
  0
LINE
  5
4AA
  8
0
 39
3.278012962
 10
67.991123999403726
 20
68.188257389532254
 30
0.0
 11
67.904322216169973
 21
68.131941126845106
 31
0.0
  0
LINE
  5
4AB
  8
0
 39
3.278012962
 10
68.065403773122654
 20
68.243393567553113
 30
0.0
 11
67.991123999403726
 21
68.188257389532254
 31
0.0
  0
LINE
  5
4AC
  8
0
 39
3.278012962
 10
68.126964856549009
 20
68.297808582722311
 30
0.0
 11
68.065403773122654
 21
68.243393567553113
 31
0.0
  0
LINE
  5
4AD
  8
0
 39
3.278012962
 10
68.175938370201294
 20
68.352158037632265
 30
0.0
 11
68.126964856549009
 21
68.297808582722311
 31
0.0
  0
LINE
  5
4AE
  8
0
 39
3.278012962
 10
68.212324314079495
 20
68.406769733579196
 30
0.0
 11
68.175938370201294
 21
68.352158037632265
 31
0.0
  0
LINE
  5
4AF
  8
0
 39
3.278012962
 10
68.236122688183599
 20
68.462364833414711
 30
0.0
 11
68.212324314079495
 21
68.406769733579196
 31
0.0
  0
LINE
  5
4B0
  8
0
 39
3.278012962
 10
68.247136811735928
 20
68.519336698694275
 30
0.0
 11
68.236122688183599
 21
68.462364833414711
 31
0.0
  0
LINE
  5
4B1
  8
0
 39
3.278012962
 10
68.245694486032647
 20
68.578472052528753
 30
0.0
 11
68.247136811735928
 21
68.519336698694275
 31
0.0
  0
LINE
  5
4B2
  8
0
 39
3.278012962
 10
68.231533470036808
 20
68.640033135955093
 30
0.0
 11
68.245694486032647
 21
68.578472052528753
 31
0.0
  0
LINE
  5
4B3
  8
0
 39
3.278012962
 10
68.204784884266886
 20
68.704609991306484
 30
0.0
 11
68.231533470036808
 21
68.640033135955093
 31
0.0
  0
LINE
  5
4B4
  8
0
 39
3.278012962
 10
68.165383168463649
 20
68.772727100656866
 30
0.0
 11
68.204784884266886
 21
68.704609991306484
 31
0.0
  0
LINE
  5
4B5
  8
0
 39
3.278012962
 10
68.113459443145558
 20
68.845105626857816
 30
0.0
 11
68.165383168463649
 21
68.772727100656866
 31
0.0
  0
LINE
  5
4B6
  8
0
 39
3.278012962
 10
68.048817027534938
 20
68.922007810946354
 30
0.0
 11
68.113459443145558
 21
68.845105626857816
 31
0.0
  0
LINE
  5
4B7
  8
0
 39
3.278012962
 10
67.971587042150205
 20
69.004154815774072
 30
0.0
 11
68.048817027534938
 21
68.922007810946354
 31
0.0
  0
LINE
  5
4B8
  8
0
 39
3.278012962
 10
67.881703926732172
 20
69.091940002896422
 30
0.0
 11
67.971587042150205
 21
69.004154815774072
 31
0.0
  0
LINE
  5
4B9
  8
0
 39
3.278012962
 10
67.881703926732172
 20
69.091940002896422
 30
0.0
 11
67.881703926732172
 21
69.091940002896422
 31
0.0
  0
LINE
  5
4BA
  8
0
 39
3.278012962
 10
65.009902330983195
 20
74.067640976923329
 30
0.0
 11
67.881703926732172
 21
69.091940002896422
 31
0.0
  0
LINE
  5
4BB
  8
0
 39
3.278012962
 10
62.512056453939209
 20
74.067640976923329
 30
0.0
 11
65.009902330983195
 21
74.067640976923329
 31
0.0
  0
LINE
  5
4BC
  8
0
 39
3.278012962
 10
65.361361515169932
 20
59.978080564647833
 30
0.0
 11
69.125834941351414
 21
57.51759976728529
 31
0.0
  0
LINE
  5
4BD
  8
0
 39
3.278012962
 10
65.284524891340652
 20
60.027644120633269
 30
0.0
 11
65.361361515169932
 21
59.978080564647833
 31
0.0
  0
LINE
  5
4BE
  8
0
 39
3.278012962
 10
65.217128944841932
 20
60.076093152211627
 30
0.0
 11
65.284524891340652
 21
60.027644120633269
 31
0.0
  0
LINE
  5
4BF
  8
0
 39
3.278012962
 10
65.15937035645149
 20
60.123689900419862
 30
0.0
 11
65.217128944841932
 21
60.076093152211627
 31
0.0
  0
LINE
  5
4C0
  8
0
 39
3.278012962
 10
65.110986885132377
 20
60.170565485776457
 30
0.0
 11
65.15937035645149
 21
60.123689900419862
 31
0.0
  0
LINE
  5
4C1
  8
0
 39
3.278012962
 10
65.072240771921528
 20
60.216982149318383
 30
0.0
 11
65.110986885132377
 21
60.170565485776457
 31
0.0
  0
LINE
  5
4C2
  8
0
 39
3.278012962
 10
65.042804215522779
 20
60.262808770527137
 30
0.0
 11
65.072240771921528
 21
60.216982149318383
 31
0.0
  0
LINE
  5
4C3
  8
0
 39
3.278012962
 10
65.022742776195329
 20
60.308438710958178
 30
0.0
 11
65.042804215522779
 21
60.262808770527137
 31
0.0
  0
LINE
  5
4C4
  8
0
 39
3.278012962
 10
65.012056453939209
 20
60.353871970611507
 30
0.0
 11
65.022742776195329
 21
60.308438710958178
 31
0.0
  0
LINE
  5
4C5
  8
0
 39
3.278012962
 10
65.018678040122452
 20
60.444935170695871
 30
0.0
 11
65.012056453939209
 21
60.406902093031782
 31
0.0
  0
LINE
  5
4C6
  8
0
 39
3.278012962
 10
65.035920388302571
 20
60.490892912423099
 30
0.0
 11
65.018678040122452
 21
60.444935170695871
 31
0.0
  0
LINE
  5
4C7
  8
0
 39
3.278012962
 10
65.062144491998566
 20
60.537178455446551
 30
0.0
 11
65.035920388302571
 21
60.490892912423099
 31
0.0
  0
LINE
  5
4C8
  8
0
 39
3.278012962
 10
65.09774371276589
 20
60.584119601062383
 30
0.0
 11
65.062144491998566
 21
60.537178455446551
 31
0.0
  0
LINE
  5
4C9
  8
0
 39
3.278012962
 10
65.14232468904909
 20
60.631650789011381
 30
0.0
 11
65.09774371276589
 21
60.584119601062383
 31
0.0
  0
LINE
  5
4CA
  8
0
 39
3.278012962
 10
65.196084101625885
 20
60.680099820589739
 30
0.0
 11
65.14232468904909
 21
60.631650789011381
 31
0.0
  0
LINE
  5
4CB
  8
0
 39
3.278012962
 10
65.258825269718571
 20
60.72946669579747
 30
0.0
 11
65.196084101625885
 21
60.680099820589739
 31
0.0
  0
LINE
  5
4CC
  8
0
 39
3.278012962
 10
65.258825269718571
 20
60.72946669579747
 30
0.0
 11
65.258825269718571
 21
60.72946669579747
 31
0.0
  0
LINE
  5
4CD
  8
0
 39
3.278012962
 10
68.138110100619812
 20
62.862469730170872
 30
0.0
 11
65.258825269718571
 21
60.72946669579747
 31
0.0
  0
LINE
  5
4CF
  8
0
 39
3.278012962
 10
65.009902330983195
 20
79.51759976728529
 30
0.0
 11
65.009902330983195
 21
74.067640976923329
 31
0.0
  0
POLYLINE
  5
4D0
  8
0
 66
     1
 10
0.0
 20
0.0
 30
0.0
 39
3.278012962
  0
VERTEX
  5
5A0
  8
0
 10
68.241636087200021
 20
68.490883546184108
 30
0.0
  0
VERTEX
  5
5A1
  8
0
 10
62.512056453939209
 20
68.490883546184108
 30
0.0
  0
SEQEND
  5
5A2
  8
0
  0
POLYLINE
  5
4D1
  8
0
 66
     1
 10
0.0
 20
0.0
 30
0.0
 39
3.278012962
  0
VERTEX
  5
5A3
  8
0
 10
65.092409276284499
 20
65.993037669140108
 30
0.0
  0
VERTEX
  5
5A4
  8
0
 10
62.512056453939209
 20
65.993037669140108
 30
0.0
  0
SEQEND
  5
5A5
  8
0
  0
POLYLINE
  5
4D2
  8
0
 66
     1
 10
0.0
 20
0.0
 30
0.0
 39
3.278012962
  0
VERTEX
  5
5A6
  8
0
 10
68.441918683375803
 20
63.312016427779547
 30
0.0
  0
VERTEX
  5
5A7
  8
0
 10
62.512056453939209
 20
63.312016427779547
 30
0.0
  0
SEQEND
  5
5A8
  8
0
  0
LINE
  5
4D3
  8
0
 10
67.512056453939209
 20
79.51759976728529
 30
0.0
 11
67.512056453939209
 21
72.01759976728529
 31
0.0
  0
LINE
  5
4D4
  8
0
 10
69.512056453512486
 20
57.51759976728529
 30
0.0
 11
62.512056453939209
 21
57.51759976728529
 31
0.0
  0
LINE
  5
4D5
  8
0
 10
69.512056453512486
 20
57.598767636309738
 30
0.0
 11
69.512056453512486
 21
57.51759976728529
 31
0.0
  0
LINE
  5
4D6
  8
0
 10
65.012056453939209
 20
60.353871970611507
 30
0.0
 11
65.012056453939209
 21
60.406902093031782
 31
0.0
  0
DIMENSION
  5
4DD
  8
2
  2
*D1
 10
65.009902330983195
 20
85.584916011507957
 30
0.0
 11
72.718235664316524
 21
87.459916011507957
 31
0.0
 70
     0
  1
%%c<>
 13
60.014210576895209
 23
79.51759976728529
 33
0.0
 14
65.009902330983195
 24
79.51759976728529
 34
0.0
  0
DIMENSION
  5
4EC
  8
2
  2
*D2
 10
67.512056453939209
 20
90.312271822707729
 30
0.0
 11
62.512056453939209
 21
92.187271822707729
 31
0.0
 70
     0
  1
%%c<>
 13
57.512056453939209
 23
79.51759976728529
 33
0.0
 14
67.512056453939209
 24
79.51759976728529
 34
0.0
  0
DIMENSION
  5
4F9
  8
2
  2
*D3
 10
76.269066289623595
 20
72.01759976728529
 30
0.0
 11
74.394066289623581
 21
75.767599767285304
 31
0.0
 70
     0
 13
67.512056453939209
 23
79.51759976728529
 33
0.0
 14
67.512056453939209
 24
72.01759976728529
 34
0.0
 50
90.0
  0
DIMENSION
  5
506
  8
2
  2
*D4
 10
81.535796517335996
 20
57.51759976728529
 30
0.0
 11
79.660796517335982
 21
68.517599767285304
 31
0.0
 70
     0
 13
67.512056453939209
 23
79.51759976728529
 33
0.0
 14
69.512056453512486
 24
57.51759976728529
 34
0.0
 50
90.0
  0
DIMENSION
  5
514
  8
2
  2
*D5
 10
65.012056453939209
 20
49.795014118126673
 30
0.0
 11
72.720389787272538
 21
51.670014118126673
 31
0.0
 70
     0
  1
%%c<>
 13
60.012056453939209
 23
60.353871970611507
 33
0.0
 14
65.012056453939209
 24
60.381210598714588
 34
0.0
1001
ACAD
1000
DSTYLE
1002
{
1070
   271
1070
     6
1002
}
  0
DIMENSION
  5
52E
  8
2
  2
*D6
 10
69.512056453512486
 20
44.399878049032409
 30
0.0
 11
62.512056453939209
 21
46.274878049032409
 31
0.0
 70
     0
  1
%%c<>
 13
55.512056454365933
 23
57.51759976728529
 33
0.0
 14
69.512056453512486
 24
57.51759976728529
 34
0.0
1001
ACAD
1000
DSTYLE
1002
{
1070
   271
1070
     6
1002
}
  0
ENDSEC
  0
EOF
