  0
SECTION
  2
HEADER
  9
$ACADVER
  1
AC1009
  9
$INSBASE
 10
0.0
 20
0.0
 30
0.0
  9
$EXTMIN
 10
52.143471590202033
 20
21.123311782461741
 30
0.0
  9
$EXTMAX
 10
90.951155460941095
 20
80.065098948812306
 30
4.2236864335000002
  9
$LIMMIN
 10
0.0
 20
0.0
  9
$LIMMAX
 10
420.0
 20
297.0
  9
$ORTHOMODE
 70
     0
  9
$REGENMODE
 70
     1
  9
$FILLMODE
 70
     1
  9
$QTEXTMODE
 70
     0
  9
$MIRRTEXT
 70
     1
  9
$DRAGMODE
 70
     2
  9
$LTSCALE
 40
0.3
  9
$OSMODE
 70
    37
  9
$ATTMODE
 70
     1
  9
$TEXTSIZE
 40
2.5
  9
$TRACEWID
 40
1.0
  9
$TEXTSTYLE
  7
STANDARD
  9
$CLAYER
  8
2
  9
$CELTYPE
  6
BYLAYER
  9
$CECOLOR
 62
   256
  9
$DIMSCALE
 40
1.0
  9
$DIMASZ
 40
2.5
  9
$DIMEXO
 40
0.625
  9
$DIMDLI
 40
3.75
  9
$DIMRND
 40
0.0
  9
$DIMDLE
 40
0.0
  9
$DIMEXE
 40
1.25
  9
$DIMTP
 40
0.0
  9
$DIMTM
 40
0.0
  9
$DIMTXT
 40
2.5
  9
$DIMCEN
 40
2.5
  9
$DIMTSZ
 40
0.0
  9
$DIMTOL
 70
     0
  9
$DIMLIM
 70
     0
  9
$DIMTIH
 70
     0
  9
$DIMTOH
 70
     0
  9
$DIMSE1
 70
     0
  9
$DIMSE2
 70
     0
  9
$DIMTAD
 70
     1
  9
$DIMZIN
 70
     8
  9
$DIMBLK
  1

  9
$DIMASO
 70
     1
  9
$DIMSHO
 70
     1
  9
$DIMPOST
  1

  9
$DIMAPOST
  1

  9
$DIMALT
 70
     0
  9
$DIMALTD
 70
     3
  9
$DIMALTF
 40
0.03937007874016
  9
$DIMLFAC
 40
1.0
  9
$DIMTOFL
 70
     1
  9
$DIMTVP
 40
0.0
  9
$DIMTIX
 70
     0
  9
$DIMSOXD
 70
     0
  9
$DIMSAH
 70
     0
  9
$DIMBLK1
  1

  9
$DIMBLK2
  1

  9
$DIMSTYLE
  2
ISO-25
  9
$DIMCLRD
 70
     0
  9
$DIMCLRE
 70
     0
  9
$DIMCLRT
 70
     0
  9
$DIMTFAC
 40
1.0
  9
$DIMGAP
 40
0.625
  9
$LUNITS
 70
     2
  9
$LUPREC
 70
     4
  9
$SKETCHINC
 40
1.0
  9
$FILLETRAD
 40
10.0
  9
$AUNITS
 70
     0
  9
$AUPREC
 70
     0
  9
$MENU
  1
.
  9
$ELEVATION
 40
0.0
  9
$PELEVATION
 40
0.0
  9
$THICKNESS
 40
0.0
  9
$LIMCHECK
 70
     0
  9
$BLIPMODE
 70
     0
  9
$CHAMFERA
 40
10.0
  9
$CHAMFERB
 40
10.0
  9
$SKPOLY
 70
     0
  9
$TDCREATE
 40
2453439.538052245
  9
$TDUPDATE
 40
2453551.9110803008
  9
$TDINDWG
 40
0.0208567477
  9
$TDUSRTIMER
 40
0.0208567477
  9
$USRTIMER
 70
     1
  9
$ANGBASE
 50
0.0
  9
$ANGDIR
 70
     0
  9
$PDMODE
 70
     0
  9
$PDSIZE
 40
0.0
  9
$PLINEWID
 40
0.0
  9
$COORDS
 70
     1
  9
$SPLFRAME
 70
     0
  9
$SPLINETYPE
 70
     6
  9
$SPLINESEGS
 70
     8
  9
$ATTDIA
 70
     0
  9
$ATTREQ
 70
     1
  9
$HANDLING
 70
-16383
  9
$HANDSEED
  5
5B3
  9
$SURFTAB1
 70
     6
  9
$SURFTAB2
 70
     6
  9
$SURFTYPE
 70
     6
  9
$SURFU
 70
     6
  9
$SURFV
 70
     6
  9
$UCSNAME
  2

  9
$UCSORG
 10
0.0
 20
0.0
 30
0.0
  9
$UCSXDIR
 10
1.0
 20
0.0
 30
0.0
  9
$UCSYDIR
 10
0.0
 20
1.0
 30
0.0
  9
$PUCSNAME
  2

  9
$PUCSORG
 10
0.0
 20
0.0
 30
0.0
  9
$PUCSXDIR
 10
1.0
 20
0.0
 30
0.0
  9
$PUCSYDIR
 10
0.0
 20
1.0
 30
0.0
  9
$USERI1
 70
     0
  9
$USERI2
 70
     0
  9
$USERI3
 70
     0
  9
$USERI4
 70
     0
  9
$USERI5
 70
     0
  9
$USERR1
 40
0.0
  9
$USERR2
 40
0.0
  9
$USERR3
 40
0.0
  9
$USERR4
 40
0.0
  9
$USERR5
 40
0.0
  9
$WORLDVIEW
 70
     1
  9
$SHADEDGE
 70
     3
  9
$SHADEDIF
 70
    70
  9
$TILEMODE
 70
     1
  9
$MAXACTVP
 70
    64
  9
$PLIMCHECK
 70
     0
  9
$PEXTMIN
 10
1.0000000000000000E+020
 20
1.0000000000000000E+020
 30
1.0000000000000000E+020
  9
$PEXTMAX
 10
-1.0000000000000000E+020
 20
-1.0000000000000000E+020
 30
-1.0000000000000000E+020
  9
$PLIMMIN
 10
0.0
 20
0.0
  9
$PLIMMAX
 10
420.0
 20
297.0
  9
$UNITMODE
 70
     0
  9
$VISRETAIN
 70
     1
  9
$PLINEGEN
 70
     0
  9
$PSLTSCALE
 70
     1
  0
ENDSEC
  0
SECTION
  2
TABLES
  0
TABLE
  2
VPORT
 70
     2
  0
VPORT
  2
*ACTIVE
 70
     0
 10
0.0
 20
0.0
 11
1.0
 21
1.0
 12
117.8727787700825
 22
48.598751645894282
 13
0.0
 23
0.0
 14
10.0
 24
10.0
 15
10.0
 25
10.0
 16
0.0
 26
0.0
 36
1.0
 17
0.0
 27
0.0
 37
0.0
 40
82.203792629080183
 41
2.5392405063291141
 42
50.0
 43
0.0
 44
0.0
 50
0.0
 51
0.0
 71
     0
 72
   100
 73
     1
 74
     3
 75
     0
 76
     0
 77
     0
 78
     0
  0
ENDTAB
  0
TABLE
  2
LTYPE
 70
     2
  0
LTYPE
  2
CONTINUOUS
 70
     0
  3
Solid line
 72
    65
 73
     0
 40
0.0
  0
LTYPE
  2
CENTER
 70
     0
  3
Center ____ _ ____ _ ____ _ ____ _ ____ _ ____
 72
    65
 73
     4
 40
50.799999999999997
 49
31.75
 49
-6.3499999999999988
 49
6.3499999999999988
 49
-6.3499999999999988
  0
ENDTAB
  0
TABLE
  2
LAYER
 70
     4
  0
LAYER
  2
0
 70
     0
 62
     7
  6
CONTINUOUS
  0
LAYER
  2
1
 70
     0
 62
     7
  6
CENTER
  0
LAYER
  2
2
 70
     0
 62
     7
  6
CONTINUOUS
  0
LAYER
  2
DEFPOINTS
 70
     0
 62
     7
  6
CONTINUOUS
  0
ENDTAB
  0
TABLE
  2
STYLE
 70
     3
  0
STYLE
  2
STANDARD
 70
     0
 40
0.0
 41
1.0
 50
0.0
 71
     0
 42
2.5
  3
txt
  4

  0
STYLE
  2
\U+00C9L\U+00C9R_\U+00C2S\U+00C2V\U+00C2B\U+00C2N
 70
     0
 40
1.0
 41
1.0
 50
0.0
 71
     0
 42
1.0
  3
\U+00E9l\U+00E9r \U+00E2S\U+00E2V\U+00E2b\U+00E2N
  4

  0
STYLE
  2

 70
     1
 40
0.0
 41
1.0
 50
0.0
 71
     0
 42
2.5
  3
ltypeshp.shx
  4

  0
ENDTAB
  0
TABLE
  2
VIEW
 70
     0
  0
ENDTAB
  0
TABLE
  2
UCS
 70
     0
  0
ENDTAB
  0
TABLE
  2
APPID
 70
     1
  0
APPID
  2
ACAD
 70
     0
  0
ENDTAB
  0
TABLE
  2
DIMSTYLE
 70
     2
  0
DIMSTYLE
  2
ISO-25
 70
     0
  3

  4

  5

  6

  7

 40
1.0
 41
2.5
 42
0.625
 43
3.75
 44
1.25
 45
0.0
 46
0.0
 47
0.0
 48
0.0
140
2.5
141
2.5
142
0.0
143
0.03937007874016
144
1.0
145
0.0
146
1.0
147
0.625
 71
     0
 72
     0
 73
     0
 74
     0
 75
     0
 76
     0
 77
     1
 78
     8
170
     0
171
     3
172
     1
173
     0
174
     0
175
     0
176
     0
177
     0
178
     0
  0
DIMSTYLE
  2
STANDARD
 70
     0
  3

  4

  5

  6

  7

 40
1.0
 41
0.18
 42
0.0625
 43
0.38
 44
0.18
 45
0.0
 46
0.0
 47
0.0
 48
0.0
140
0.18
141
0.09
142
0.0
143
25.399999999999999
144
1.0
145
0.0
146
1.0
147
0.09
 71
     0
 72
     0
 73
     1
 74
     1
 75
     0
 76
     0
 77
     0
 78
     0
170
     0
171
     2
172
     0
173
     0
174
     0
175
     0
176
     0
177
     0
178
     0
  0
ENDTAB
  0
ENDSEC
  0
SECTION
  2
BLOCKS
  0
BLOCK
  8
0
  2
$MODEL_SPACE
 70
     0
 10
0.0
 20
0.0
 30
0.0
  3
$MODEL_SPACE
  1

  0
ENDBLK
  5
21
  8
0
  0
BLOCK
 67
     1
  8
0
  2
$PAPER_SPACE
 70
     0
 10
0.0
 20
0.0
 30
0.0
  3
$PAPER_SPACE
  1

  0
ENDBLK
  5
1D
 67
     1
  8
0
  0
BLOCK
  8
0
  2
*D1
 70
     1
 10
0.0
 20
0.0
 30
0.0
  3
*D1
  1

  0
LINE
  5
546
  8
2
 62
     0
 10
66.27571421880458
 20
64.952645562821544
 30
0.0
 11
66.27571421880458
 21
73.207455710937154
 31
0.0
  0
LINE
  5
547
  8
2
 62
     0
 10
71.27571421880458
 20
64.952645562821544
 30
0.0
 11
71.27571421880458
 21
73.207455710937154
 31
0.0
  0
LINE
  5
548
  8
2
 62
     0
 10
63.77571421880458
 20
71.957455710937154
 30
0.0
 11
61.27571421880458
 21
71.957455710937154
 31
0.0
  0
LINE
  5
549
  8
2
 62
     0
 10
73.77571421880458
 20
71.957455710937154
 30
0.0
 11
81.692380885471252
 21
71.957455710937154
 31
0.0
  0
LINE
  5
54A
  8
2
 62
     0
 10
66.27571421880458
 20
71.957455710937154
 30
0.0
 11
71.27571421880458
 21
71.957455710937154
 31
0.0
  0
SOLID
  5
54B
  8
2
 62
     0
 10
63.77571421880458
 20
72.374122377603825
 30
0.0
 11
63.77571421880458
 21
71.540789044270483
 31
0.0
 12
66.27571421880458
 22
71.957455710937154
 32
0.0
 13
66.27571421880458
 23
71.957455710937154
 33
0.0
  0
SOLID
  5
54C
  8
2
 62
     0
 10
73.77571421880458
 20
72.374122377603825
 30
0.0
 11
73.77571421880458
 21
71.540789044270483
 31
0.0
 12
71.27571421880458
 22
71.957455710937154
 32
0.0
 13
71.27571421880458
 23
71.957455710937154
 33
0.0
  0
INSERT
  5
54D
  8
2
  2
*U8
 10
0.0
 20
0.0
 30
0.0
  0
POINT
  5
54E
  8
DEFPOINTS
 62
     0
 10
66.27571421880458
 20
64.327645562821544
 30
0.0
  0
POINT
  5
54F
  8
DEFPOINTS
 62
     0
 10
71.27571421880458
 20
64.327645562821544
 30
0.0
  0
POINT
  5
550
  8
DEFPOINTS
 62
     0
 10
71.27571421880458
 20
71.957455710937154
 30
0.0
  0
ENDBLK
  5
4FA
  8
0
  0
BLOCK
  8
0
  2
*D2
 70
     1
 10
0.0
 20
0.0
 30
0.0
  3
*D2
  1

  0
LINE
  5
53D
  8
2
 62
     0
 10
64.02571421880458
 20
64.952645562821544
 30
0.0
 11
64.02571421880458
 21
78.190098948812306
 31
0.0
  0
LINE
  5
53E
  8
2
 62
     0
 10
73.52571421880458
 20
64.952645562821544
 30
0.0
 11
73.52571421880458
 21
78.190098948812306
 31
0.0
  0
LINE
  5
53F
  8
2
 62
     0
 10
66.52571421880458
 20
76.940098948812306
 30
0.0
 11
71.02571421880458
 21
76.940098948812306
 31
0.0
  0
SOLID
  5
540
  8
2
 62
     0
 10
66.52571421880458
 20
77.356765615478963
 30
0.0
 11
66.52571421880458
 21
76.523432282145635
 31
0.0
 12
64.02571421880458
 22
76.940098948812306
 32
0.0
 13
64.02571421880458
 23
76.940098948812306
 33
0.0
  0
SOLID
  5
541
  8
2
 62
     0
 10
71.02571421880458
 20
77.356765615478963
 30
0.0
 11
71.02571421880458
 21
76.523432282145635
 31
0.0
 12
73.52571421880458
 22
76.940098948812306
 32
0.0
 13
73.52571421880458
 23
76.940098948812306
 33
0.0
  0
INSERT
  5
542
  8
2
  2
*U7
 10
0.0
 20
0.0
 30
0.0
  0
POINT
  5
543
  8
DEFPOINTS
 62
     0
 10
64.02571421880458
 20
64.327645562821544
 30
0.0
  0
POINT
  5
544
  8
DEFPOINTS
 62
     0
 10
73.52571421880458
 20
64.327645562821544
 30
0.0
  0
POINT
  5
545
  8
DEFPOINTS
 62
     0
 10
73.52571421880458
 20
76.940098948812306
 30
0.0
  0
ENDBLK
  5
507
  8
0
  0
BLOCK
  8
0
  2
*D3
 70
     1
 10
0.0
 20
0.0
 30
0.0
  3
*D3
  1

  0
LINE
  5
50A
  8
2
 62
     0
 10
74.081994840509964
 20
64.327645562821544
 30
0.0
 11
85.550351916052819
 21
64.327645562821544
 31
0.0
  0
LINE
  5
50B
  8
2
 62
     0
 10
74.15071421880458
 20
56.827645562821537
 30
0.0
 11
85.550351916052819
 21
56.82764556282153
 31
0.0
  0
LINE
  5
50C
  8
2
 62
     0
 10
84.300351916052819
 20
61.827645562821537
 30
0.0
 11
84.300351916052819
 21
59.32764556282153
 31
0.0
  0
SOLID
  5
50D
  8
2
 62
     0
 10
83.883685249386147
 20
61.827645562821537
 30
0.0
 11
84.717018582719476
 21
61.827645562821537
 31
0.0
 12
84.300351916052819
 22
64.327645562821544
 32
0.0
 13
84.300351916052819
 23
64.327645562821544
 33
0.0
  0
SOLID
  5
50E
  8
2
 62
     0
 10
83.883685249386147
 20
59.32764556282153
 30
0.0
 11
84.717018582719476
 21
59.32764556282153
 31
0.0
 12
84.300351916052819
 22
56.82764556282153
 32
0.0
 13
84.300351916052819
 23
56.82764556282153
 33
0.0
  0
TEXT
  5
50F
  8
2
 62
     0
 10
83.675351916052804
 20
58.077645562821552
 30
0.0
 40
2.5
  1
7.5
 50
90.0
  0
POINT
  5
510
  8
DEFPOINTS
 62
     0
 10
73.456994840509964
 20
64.327645562821544
 30
0.0
  0
POINT
  5
511
  8
DEFPOINTS
 62
     0
 10
73.52571421880458
 20
56.827645562821537
 30
0.0
  0
POINT
  5
512
  8
DEFPOINTS
 62
     0
 10
84.300351916052819
 20
56.82764556282153
 30
0.0
  0
ENDBLK
  5
514
  8
0
  0
BLOCK
  8
0
  2
*D4
 70
     1
 10
0.0
 20
0.0
 30
0.0
  3
*D4
  1

  0
LINE
  5
517
  8
2
 62
     0
 10
74.081994840509964
 20
64.327645562821544
 30
0.0
 11
90.951155460941095
 21
64.327645562821544
 31
0.0
  0
LINE
  5
518
  8
2
 62
     0
 10
78.40071421876371
 20
41.327645562821537
 30
0.0
 11
90.951155460941095
 21
41.32764556282153
 31
0.0
  0
LINE
  5
519
  8
2
 62
     0
 10
89.701155460941095
 20
61.827645562821537
 30
0.0
 11
89.701155460941095
 21
43.82764556282153
 31
0.0
  0
SOLID
  5
51A
  8
2
 62
     0
 10
89.284488794274424
 20
61.827645562821537
 30
0.0
 11
90.117822127607766
 21
61.827645562821537
 31
0.0
 12
89.701155460941095
 22
64.327645562821544
 32
0.0
 13
89.701155460941095
 23
64.327645562821544
 33
0.0
  0
SOLID
  5
51B
  8
2
 62
     0
 10
89.284488794274424
 20
43.82764556282153
 30
0.0
 11
90.117822127607766
 21
43.82764556282153
 31
0.0
 12
89.701155460941095
 22
41.32764556282153
 32
0.0
 13
89.701155460941095
 23
41.32764556282153
 33
0.0
  0
TEXT
  5
51C
  8
2
 62
     0
 10
89.076155460941081
 20
50.744312229488209
 30
0.0
 40
2.5
  1
23
 50
90.0
  0
POINT
  5
51D
  8
DEFPOINTS
 62
     0
 10
73.456994840509964
 20
64.327645562821544
 30
0.0
  0
POINT
  5
51E
  8
DEFPOINTS
 62
     0
 10
77.77571421876371
 20
41.327645562821537
 30
0.0
  0
POINT
  5
51F
  8
DEFPOINTS
 62
     0
 10
89.701155460941095
 20
41.32764556282153
 30
0.0
  0
ENDBLK
  5
521
  8
0
  0
BLOCK
  8
0
  2
*D5
 70
     1
 10
0.0
 20
0.0
 30
0.0
  3
*D5
  1

  0
LINE
  5
56E
  8
2
 62
     0
 10
65.025714218804595
 20
44.250177517195127
 30
0.0
 11
65.025714218804595
 21
33.391237740991102
 31
0.0
  0
LINE
  5
56F
  8
2
 62
     0
 10
72.525714218804566
 20
44.250177517195127
 30
0.0
 11
72.525714218804566
 21
33.391237740991102
 31
0.0
  0
LINE
  5
570
  8
2
 62
     0
 10
67.525714218804595
 20
34.641237740991102
 30
0.0
 11
70.025714218804566
 21
34.641237740991102
 31
0.0
  0
LINE
  5
571
  8
2
 62
     0
 10
72.525714218804566
 20
34.641237740991102
 30
0.0
 11
88.150714218804566
 21
34.641237740991102
 31
0.0
  0
SOLID
  5
572
  8
2
 62
     0
 10
67.525714218804595
 20
35.057904407657759
 30
0.0
 11
67.525714218804595
 21
34.22457107432443
 31
0.0
 12
65.025714218804595
 22
34.641237740991102
 32
0.0
 13
65.025714218804595
 23
34.641237740991102
 33
0.0
  0
SOLID
  5
573
  8
2
 62
     0
 10
70.025714218804566
 20
35.057904407657759
 30
0.0
 11
70.025714218804566
 21
34.22457107432443
 31
0.0
 12
72.525714218804566
 22
34.641237740991102
 32
0.0
 13
72.525714218804566
 23
34.641237740991102
 33
0.0
  0
INSERT
  5
574
  8
2
  2
*U9
 10
0.0
 20
0.0
 30
0.0
  0
POINT
  5
575
  8
DEFPOINTS
 62
     0
 10
65.025714218804595
 20
44.875177517195127
 30
0.0
  0
POINT
  5
576
  8
DEFPOINTS
 62
     0
 10
72.525714218804566
 20
44.875177517195127
 30
0.0
  0
POINT
  5
577
  8
DEFPOINTS
 62
     0
 10
72.525714218804566
 20
34.641237740991102
 30
0.0
  0
ENDBLK
  5
52E
  8
0
  0
BLOCK
  8
0
  2
*D6
 70
     1
 10
0.0
 20
0.0
 30
0.0
  3
*D6
  1

  0
LINE
  5
582
  8
2
 62
     0
 10
59.775714218845437
 20
40.702645562821537
 30
0.0
 11
59.775714218845437
 21
28.231894198030538
 31
0.0
  0
LINE
  5
583
  8
2
 62
     0
 10
77.77571421876371
 20
40.702645562821537
 30
0.0
 11
77.77571421876371
 21
28.231894198030538
 31
0.0
  0
LINE
  5
584
  8
2
 62
     0
 10
62.275714218845437
 20
29.481894198030538
 30
0.0
 11
75.27571421876371
 21
29.481894198030538
 31
0.0
  0
SOLID
  5
585
  8
2
 62
     0
 10
62.275714218845437
 20
29.89856086469721
 30
0.0
 11
62.275714218845437
 21
29.06522753136387
 31
0.0
 12
59.775714218845437
 22
29.481894198030538
 32
0.0
 13
59.775714218845437
 23
29.481894198030538
 33
0.0
  0
SOLID
  5
586
  8
2
 62
     0
 10
75.27571421876371
 20
29.89856086469721
 30
0.0
 11
75.27571421876371
 21
29.06522753136387
 31
0.0
 12
77.77571421876371
 22
29.481894198030538
 32
0.0
 13
77.77571421876371
 23
29.481894198030538
 33
0.0
  0
INSERT
  5
587
  8
2
  2
*U10
 10
0.0
 20
0.0
 30
0.0
  0
POINT
  5
588
  8
DEFPOINTS
 62
     0
 10
59.775714218845437
 20
41.327645562821537
 30
0.0
  0
POINT
  5
589
  8
DEFPOINTS
 62
     0
 10
77.77571421876371
 20
41.327645562821537
 30
0.0
  0
POINT
  5
58A
  8
DEFPOINTS
 62
     0
 10
77.77571421876371
 20
29.481894198030538
 30
0.0
  0
ENDBLK
  5
53B
  8
0
  0
BLOCK
  8
0
  2
*U7
 70
     1
 10
0.0
 20
0.0
 30
0.0
  3
*U7
  1

  0
TEXT
  5
5A0
  8
2
 62
     0
 10
65.02571421880458
 20
77.565098948812306
 30
0.0
 40
2.5
  1
\U+2205
  0
TEXT
  5
5A1
  8
2
 62
     0
 10
67.52571421880458
 20
77.565098948812306
 30
0.0
 40
2.5
  1
9.5
  0
ENDBLK
  5
5A3
  8
0
  0
BLOCK
  8
0
  2
*U8
 70
     1
 10
0.0
 20
0.0
 30
0.0
  3
*U8
  1

  0
TEXT
  5
5A5
  8
2
 62
     0
 10
76.90071421880458
 20
72.582455710937154
 30
0.0
 40
2.5
  1
\U+2205
  0
TEXT
  5
5A6
  8
2
 62
     0
 10
79.40071421880458
 20
72.582455710937154
 30
0.0
 40
2.5
  1
5
  0
ENDBLK
  5
5A8
  8
0
  0
BLOCK
  8
0
  2
*U9
 70
     1
 10
0.0
 20
0.0
 30
0.0
  3
*U9
  1

  0
TEXT
  5
5AA
  8
2
 62
     0
 10
80.025714218804566
 20
35.266237740991102
 30
0.0
 40
2.5
  1
\U+2205
  0
TEXT
  5
5AB
  8
2
 62
     0
 10
82.525714218804566
 20
35.266237740991102
 30
0.0
 40
2.5
  1
7.5
  0
ENDBLK
  5
5AD
  8
0
  0
BLOCK
  8
0
  2
*U10
 70
     1
 10
0.0
 20
0.0
 30
0.0
  3
*U10
  1

  0
TEXT
  5
5AF
  8
2
 62
     0
 10
65.859047552137909
 20
30.106894198030538
 30
0.0
 40
2.5
  1
\U+2205
  0
TEXT
  5
5B0
  8
2
 62
     0
 10
68.359047552137909
 20
30.106894198030538
 30
0.0
 40
2.5
  1
18
  0
ENDBLK
  5
5B2
  8
0
  0
ENDSEC
  0
SECTION
  2
ENTITIES
  0
TEXT
  5
15B
  8
2
 10
52.143471658259557
 20
21.36521121103317
 30
0.0
 40
2.5399440000000002
  1
No. 21.018.013._
 51
-0.0000015352344868
  7
\U+00C9L\U+00C9R_\U+00C2S\U+00C2V\U+00C2B\U+00C2N
  0
LINE
  5
16C
  8
0
 39
4.2236864335000002
 10
66.265323950189511
 20
56.844515187251929
 30
0.0
 11
61.900228494895941
 21
54.175819517490787
 31
0.0
  0
LINE
  5
16D
  8
0
 39
4.2236864335000002
 10
61.900228494895941
 20
54.175819517490787
 30
0.0
 11
61.900228494895941
 21
54.175819517490787
 31
0.0
  0
LINE
  5
16E
  8
0
 39
4.2236864335000002
 10
61.900228494895941
 20
54.175819517490787
 30
0.0
 11
61.802407917096083
 21
54.13087949383835
 31
0.0
  0
LINE
  5
16F
  8
0
 39
4.2236864335000002
 10
61.802407917096083
 20
54.13087949383835
 30
0.0
 11
61.718187609612087
 21
54.080364204093691
 31
0.0
  0
LINE
  5
170
  8
0
 39
4.2236864335000002
 10
61.718187609612087
 20
54.080364204093691
 30
0.0
 11
61.647567572443968
 21
54.024949438086168
 31
0.0
  0
LINE
  5
171
  8
0
 39
4.2236864335000002
 10
61.647567572443968
 20
54.024949438086168
 30
0.0
 11
61.590294384405723
 21
53.9654799331025
 31
0.0
  0
LINE
  5
172
  8
0
 39
4.2236864335000002
 10
61.590294384405723
 20
53.9654799331025
 30
0.0
 11
61.54645251922598
 21
53.902547005243349
 31
0.0
  0
LINE
  5
173
  8
0
 39
4.2236864335000002
 10
61.54645251922598
 20
53.902547005243349
 30
0.0
 11
61.515704081990108
 21
53.837248812981422
 31
0.0
  0
LINE
  5
174
  8
0
 39
4.2236864335000002
 10
61.515704081990108
 20
53.837248812981422
 30
0.0
 11
61.498049072698073
 21
53.770007724960102
 31
0.0
  0
LINE
  5
175
  8
0
 39
4.2236864335000002
 10
61.498049072698073
 20
53.770007724960102
 30
0.0
 11
61.493065122706547
 21
53.701921899652092
 31
0.0
  0
LINE
  5
176
  8
0
 39
4.2236864335000002
 10
61.493065122706547
 20
53.701921899652092
 30
0.0
 11
61.501090126930187
 21
53.633244758243379
 31
0.0
  0
LINE
  5
177
  8
0
 39
4.2236864335000002
 10
61.501090126930187
 20
53.633244758243379
 30
0.0
 11
61.52153276926834
 21
53.565158932935361
 31
0.0
  0
LINE
  5
178
  8
0
 39
4.2236864335000002
 10
61.52153276926834
 20
53.565158932935361
 30
0.0
 11
61.554477523449627
 21
53.498340213557391
 31
0.0
  0
LINE
  5
179
  8
0
 39
4.2236864335000002
 10
61.554477523449627
 20
53.498340213557391
 30
0.0
 11
61.599586494559411
 21
53.433548863667511
 31
0.0
  0
LINE
  5
17A
  8
0
 39
4.2236864335000002
 10
61.599586494559411
 20
53.433548863667511
 30
0.0
 11
61.656944156326347
 21
53.371376199366388
 31
0.0
  0
LINE
  5
17B
  8
0
 39
4.2236864335000002
 10
61.656944156326347
 20
53.371376199366388
 30
0.0
 11
61.726212613835749
 21
53.312920379126751
 31
0.0
  0
LINE
  5
17C
  8
0
 39
4.2236864335000002
 10
61.726212613835749
 20
53.312920379126751
 30
0.0
 11
61.807476340816287
 21
53.258603771591929
 31
0.0
  0
LINE
  5
17D
  8
0
 39
4.2236864335000002
 10
61.807476340816287
 20
53.258603771591929
 30
0.0
 11
61.900228494895941
 21
53.209524535234657
 31
0.0
  0
LINE
  5
17E
  8
0
 39
4.2236864335000002
 10
61.900228494895941
 20
53.209524535234657
 30
0.0
 11
64.63485427624849
 21
51.276934570722403
 31
0.0
  0
LINE
  5
17F
  8
0
 39
4.2236864335000002
 10
64.63485427624849
 20
51.276934570722403
 30
0.0
 11
64.63485427624849
 21
51.276934570722403
 31
0.0
  0
LINE
  5
180
  8
0
 39
4.2236864335000002
 10
64.63485427624849
 20
51.276934570722403
 30
0.0
 11
64.715611160857009
 21
51.220759541156859
 31
0.0
  0
LINE
  5
181
  8
0
 39
4.2236864335000002
 10
64.715611160857009
 20
51.220759541156859
 30
0.0
 11
64.784879618366404
 21
51.164246616676621
 31
0.0
  0
LINE
  5
182
  8
0
 39
4.2236864335000002
 10
64.784879618366404
 20
51.164246616676621
 30
0.0
 11
64.842997543691354
 21
51.107142376095702
 31
0.0
  0
LINE
  5
183
  8
0
 39
4.2236864335000002
 10
64.842997543691354
 20
51.107142376095702
 30
0.0
 11
64.89004941056055
 21
51.049615766871433
 31
0.0
  0
LINE
  5
184
  8
0
 39
4.2236864335000002
 10
64.89004941056055
 20
51.049615766871433
 30
0.0
 11
64.926373113888644
 21
50.991582315275139
 31
0.0
  0
LINE
  5
185
  8
0
 39
4.2236864335000002
 10
64.926373113888644
 20
50.991582315275139
 30
0.0
 11
64.951968653675664
 21
50.933210968764172
 31
0.0
  0
LINE
  5
186
  8
0
 39
4.2236864335000002
 10
64.951968653675664
 20
50.933210968764172
 30
0.0
 11
64.967258398564937
 21
50.874417253609849
 31
0.0
  0
LINE
  5
187
  8
0
 39
4.2236864335000002
 10
64.967258398564937
 20
50.874417253609849
 30
0.0
 11
64.972242348556463
 21
50.815454590998201
 31
0.0
  0
LINE
  5
188
  8
0
 39
4.2236864335000002
 10
64.972242348556463
 20
50.815454590998201
 30
0.0
 11
64.967342872293614
 21
50.755985086014512
 31
0.0
  0
LINE
  5
189
  8
0
 39
4.2236864335000002
 10
64.967342872293614
 20
50.755985086014512
 30
0.0
 11
64.952475496047683
 21
50.696346633573491
 31
0.0
  0
LINE
  5
18A
  8
0
 39
4.2236864335000002
 10
64.952475496047683
 20
50.696346633573491
 30
0.0
 11
64.928147062190732
 21
50.636454759946467
 31
0.0
  0
LINE
  5
18B
  8
0
 39
4.2236864335000002
 10
64.928147062190732
 20
50.636454759946467
 30
0.0
 11
64.894104149536716
 21
50.576562886319422
 31
0.0
  0
LINE
  5
18C
  8
0
 39
4.2236864335000002
 10
64.894104149536716
 20
50.576562886319422
 30
0.0
 11
64.851022547915008
 21
50.516333117777727
 31
0.0
  0
LINE
  5
18D
  8
0
 39
4.2236864335000002
 10
64.851022547915008
 20
50.516333117777727
 30
0.0
 11
64.798817783596959
 21
50.45610334923601
 31
0.0
  0
LINE
  5
18E
  8
0
 39
4.2236864335000002
 10
64.798817783596959
 20
50.45610334923601
 30
0.0
 11
64.737743277768544
 21
50.39578910696563
 31
0.0
  0
LINE
  5
18F
  8
0
 39
4.2236864335000002
 10
64.737743277768544
 20
50.39578910696563
 30
0.0
 11
64.667799030429791
 21
50.335474864695257
 31
0.0
  0
LINE
  5
190
  8
0
 39
4.2236864335000002
 10
64.667799030429791
 20
50.335474864695257
 30
0.0
 11
61.86736821444331
 21
48.328548018953398
 31
0.0
  0
LINE
  5
191
  8
0
 39
4.2236864335000002
 10
61.86736821444331
 20
48.328548018953398
 30
0.0
 11
61.86736821444331
 21
48.328548018953398
 31
0.0
  0
LINE
  5
192
  8
0
 39
4.2236864335000002
 10
61.86736821444331
 20
48.328548018953398
 30
0.0
 11
61.750963416336049
 21
48.284621680044992
 31
0.0
  0
LINE
  5
193
  8
0
 39
4.2236864335000002
 10
61.750963416336049
 20
48.284621680044992
 30
0.0
 11
61.648496783459343
 21
48.237147444532461
 31
0.0
  0
LINE
  5
194
  8
0
 39
4.2236864335000002
 10
61.648496783459343
 20
48.237147444532461
 30
0.0
 11
61.560137263270533
 21
48.186294259873108
 31
0.0
  0
LINE
  5
195
  8
0
 39
4.2236864335000002
 10
61.560137263270533
 20
48.186294259873108
 30
0.0
 11
61.485884855769598
 21
48.132568968438989
 31
0.0
  0
LINE
  5
196
  8
0
 39
4.2236864335000002
 10
61.485884855769598
 20
48.132568968438989
 30
0.0
 11
61.426077455871237
 21
48.076056043958772
 31
0.0
  0
LINE
  5
197
  8
0
 39
4.2236864335000002
 10
61.426077455871237
 20
48.076056043958772
 30
0.0
 11
61.380377168660758
 21
48.017431276261782
 31
0.0
  0
LINE
  5
198
  8
0
 39
4.2236864335000002
 10
61.380377168660758
 20
48.017431276261782
 30
0.0
 11
61.3492908365102
 21
47.9568636128054
 31
0.0
  0
LINE
  5
199
  8
0
 39
4.2236864335000002
 10
61.3492908365102
 20
47.9568636128054
 30
0.0
 11
61.332649511962209
 21
47.894859895961609
 31
0.0
  0
LINE
  5
19A
  8
0
 39
4.2236864335000002
 10
61.332649511962209
 20
47.894859895961609
 30
0.0
 11
61.330875563660143
 21
47.831504599459102
 31
0.0
  0
LINE
  5
19B
  8
0
 39
4.2236864335000002
 10
61.330875563660143
 20
47.831504599459102
 30
0.0
 11
61.343631096689322
 21
47.767473513127243
 31
0.0
  0
LINE
  5
19C
  8
0
 39
4.2236864335000002
 10
61.343631096689322
 20
47.767473513127243
 30
0.0
 11
61.371338479693073
 21
47.702935584423379
 31
0.0
  0
LINE
  5
19D
  8
0
 39
4.2236864335000002
 10
61.371338479693073
 20
47.702935584423379
 30
0.0
 11
61.413828765214078
 21
47.638566603176827
 31
0.0
  0
LINE
  5
19E
  8
0
 39
4.2236864335000002
 10
61.413828765214078
 20
47.638566603176827
 30
0.0
 11
61.47160879562437
 21
47.574197621930303
 31
0.0
  0
LINE
  5
19F
  8
0
 39
4.2236864335000002
 10
61.47160879562437
 20
47.574197621930303
 30
0.0
 11
61.544340676009242
 21
47.510673377970448
 31
0.0
  0
LINE
  5
1A0
  8
0
 39
4.2236864335000002
 10
61.544340676009242
 20
47.510673377970448
 30
0.0
 11
61.632446775012042
 21
47.448078345025984
 31
0.0
  0
LINE
  5
1A1
  8
0
 39
4.2236864335000002
 10
61.632446775012042
 20
47.448078345025984
 30
0.0
 11
61.735673671446783
 21
47.387003839197568
 31
0.0
  0
LINE
  5
1A2
  8
0
 39
4.2236864335000002
 10
61.735673671446783
 20
47.387003839197568
 30
0.0
 11
64.733604065063716
 21
45.305740112226097
 31
0.0
  0
LINE
  5
1A3
  8
0
 39
4.2236864335000002
 10
64.733604065063716
 20
45.305740112226097
 30
0.0
 11
64.733604065063716
 21
45.305740112226097
 31
0.0
  0
LINE
  5
1A4
  8
0
 39
4.2236864335000002
 10
64.733604065063716
 20
45.305740112226097
 30
0.0
 11
64.808194367479331
 21
45.250494293675942
 31
0.0
  0
LINE
  5
1A5
  8
0
 39
4.2236864335000002
 10
64.808194367479331
 20
45.250494293675942
 30
0.0
 11
64.871296242795822
 21
45.19617768614112
 31
0.0
  0
LINE
  5
1A6
  8
0
 39
4.2236864335000002
 10
64.871296242795822
 20
45.19617768614112
 30
0.0
 11
64.923416533385193
 21
45.142452394706993
 31
0.0
  0
LINE
  5
1A7
  8
0
 39
4.2236864335000002
 10
64.923416533385193
 20
45.142452394706993
 30
0.0
 11
64.964555239247488
 21
45.089233945644899
 31
0.0
  0
LINE
  5
1A8
  8
0
 39
4.2236864335000002
 10
64.964555239247488
 20
45.089233945644899
 30
0.0
 11
64.995219202754683
 21
45.036015496582799
 31
0.0
  0
LINE
  5
1A9
  8
0
 39
4.2236864335000002
 10
64.995219202754683
 20
45.036015496582799
 30
0.0
 11
65.015492897635497
 21
44.982881521249382
 31
0.0
  0
LINE
  5
1AA
  8
0
 39
4.2236864335000002
 10
65.015492897635497
 20
44.982881521249382
 30
0.0
 11
65.025629745075904
 21
44.929240703543918
 31
0.0
  0
LINE
  5
1AB
  8
0
 39
4.2236864335000002
 10
65.025629745075904
 20
44.929240703543918
 30
0.0
 11
65.02571421880458
 21
44.875177517195127
 31
0.0
  0
LINE
  5
1AC
  8
0
 39
4.2236864335000002
 10
65.02571421880458
 20
44.875177517195127
 30
0.0
 11
65.016422108650886
 21
44.820016172373613
 31
0.0
  0
LINE
  5
1AD
  8
0
 39
4.2236864335000002
 10
65.016422108650886
 20
44.820016172373613
 30
0.0
 11
64.997584467157466
 21
44.763841142808047
 31
0.0
  0
LINE
  5
1AE
  8
0
 39
4.2236864335000002
 10
64.997584467157466
 20
44.763841142808047
 30
0.0
 11
64.969708136696369
 21
44.706230059855123
 31
0.0
  0
LINE
  5
1AF
  8
0
 39
4.2236864335000002
 10
64.969708136696369
 20
44.706230059855123
 30
0.0
 11
64.932708643538902
 21
44.647098449786121
 31
0.0
  0
LINE
  5
1B0
  8
0
 39
4.2236864335000002
 10
64.932708643538902
 20
44.647098449786121
 30
0.0
 11
64.887177303785776
 21
44.586023943957713
 31
0.0
  0
LINE
  5
1B1
  8
0
 39
4.2236864335000002
 10
64.887177303785776
 20
44.586023943957713
 30
0.0
 11
64.833114117436963
 21
44.522837594912552
 31
0.0
  0
LINE
  5
1B2
  8
0
 39
4.2236864335000002
 10
64.833114117436963
 20
44.522837594912552
 30
0.0
 11
64.770941453135848
 21
44.457201507735952
 31
0.0
  0
LINE
  5
1B3
  8
0
 39
4.2236864335000002
 10
64.770941453135848
 20
44.457201507735952
 30
0.0
 11
64.700659310882415
 21
44.389031208699272
 31
0.0
  0
LINE
  5
1B4
  8
0
 39
4.2236864335000002
 10
64.700659310882415
 20
44.389031208699272
 30
0.0
 11
61.135604612719561
 21
41.327645562821537
 31
0.0
  0
LINE
  5
1BD
  8
0
 10
66.265323950189511
 20
56.844515187251929
 30
0.0
 11
68.77571421880458
 21
56.844515187251929
 31
0.0
  0
LINE
  5
1C0
  8
0
 10
68.77571421880458
 20
53.633244758243379
 30
0.0
 11
61.501090126930187
 21
53.633244758243379
 31
0.0
  0
LINE
  5
1C3
  8
0
 10
68.77571421880458
 20
44.875177517195127
 30
0.0
 11
65.025714218804595
 21
44.875177517195127
 31
0.0
  0
LINE
  5
1C4
  8
0
 10
68.77571421880458
 20
47.894859895961609
 30
0.0
 11
61.332649511962209
 21
47.894859895961609
 31
0.0
  0
LINE
  5
1C6
  8
0
 10
64.967342872293614
 20
50.755985086014512
 30
0.0
 11
68.77571421880458
 21
50.755985086014512
 31
0.0
  0
LINE
  5
1D2
  8
0
 39
4.2236864335000002
 10
68.77571421880458
 20
64.327645562821544
 30
0.0
 11
64.094433597099197
 21
64.327645562821544
 31
0.0
  0
LINE
  5
1D4
  8
0
 39
4.2236864335000002
 10
64.02571421880458
 20
56.827645562821552
 30
0.0
 11
60.20433391811703
 21
54.320691962159842
 31
0.0
  0
LINE
  5
1D5
  8
0
 39
4.2236864335000002
 10
60.20433391811703
 20
54.320691962159842
 30
0.0
 11
60.20433391811703
 21
54.320691962159842
 31
0.0
  0
LINE
  5
1D6
  8
0
 39
4.2236864335000002
 10
60.20433391811703
 20
54.320691962159842
 30
0.0
 11
60.100431231852923
 21
54.23292375807172
 31
0.0
  0
LINE
  5
1D7
  8
0
 39
4.2236864335000002
 10
60.100431231852923
 20
54.23292375807172
 30
0.0
 11
60.011226974377401
 21
54.14633818618497
 31
0.0
  0
LINE
  5
1D8
  8
0
 39
4.2236864335000002
 10
60.011226974377401
 20
54.14633818618497
 30
0.0
 11
59.93655219823313
 21
54.060935246499596
 31
0.0
  0
LINE
  5
1D9
  8
0
 39
4.2236864335000002
 10
59.93655219823313
 20
54.060935246499596
 30
0.0
 11
59.876322429691413
 21
53.976799412744271
 31
0.0
  0
LINE
  5
1DA
  8
0
 39
4.2236864335000002
 10
59.876322429691413
 20
53.976799412744271
 30
0.0
 11
59.830706616209618
 21
53.89367726373299
 31
0.0
  0
LINE
  5
1DB
  8
0
 39
4.2236864335000002
 10
59.830706616209618
 20
53.89367726373299
 30
0.0
 11
59.799366862873043
 21
53.81182222065177
 31
0.0
  0
LINE
  5
1DC
  8
0
 39
4.2236864335000002
 10
59.799366862873043
 20
53.81182222065177
 30
0.0
 11
59.782556590867713
 21
53.731149809771921
 31
0.0
  0
LINE
  5
1DD
  8
0
 39
4.2236864335000002
 10
59.782556590867713
 20
53.731149809771921
 30
0.0
 11
59.779937905278949
 21
53.651660031093442
 31
0.0
  0
LINE
  5
1DE
  8
0
 39
4.2236864335000002
 10
59.779937905278949
 20
53.651660031093442
 30
0.0
 11
59.791848701021408
 21
53.573183937159008
 31
0.0
  0
LINE
  5
1DF
  8
0
 39
4.2236864335000002
 10
59.791848701021408
 20
53.573183937159008
 30
0.0
 11
59.817866609451777
 21
53.495974949154643
 31
0.0
  0
LINE
  5
1E0
  8
0
 39
4.2236864335000002
 10
59.817866609451777
 20
53.495974949154643
 30
0.0
 11
59.858160578027359
 21
53.41986411962295
 31
0.0
  0
LINE
  5
1E1
  8
0
 39
4.2236864335000002
 10
59.858160578027359
 20
53.41986411962295
 30
0.0
 11
59.912392711833498
 21
53.34502039602134
 31
0.0
  0
LINE
  5
1E2
  8
0
 39
4.2236864335000002
 10
59.912392711833498
 20
53.34502039602134
 30
0.0
 11
59.980900905784871
 21
53.271190357163768
 31
0.0
  0
LINE
  5
1E3
  8
0
 39
4.2236864335000002
 10
59.980900905784871
 20
53.271190357163768
 30
0.0
 11
60.063347264966787
 21
53.198711897964898
 31
0.0
  0
LINE
  5
1E4
  8
0
 39
4.2236864335000002
 10
60.063347264966787
 20
53.198711897964898
 30
0.0
 11
60.159900736836597
 21
53.127247123510088
 31
0.0
  0
LINE
  5
1E5
  8
0
 39
4.2236864335000002
 10
60.159900736836597
 20
53.127247123510088
 30
0.0
 11
60.270223426479618
 21
53.057133928713988
 31
0.0
  0
LINE
  5
1E6
  8
0
 39
4.2236864335000002
 10
60.270223426479618
 20
53.057133928713988
 30
0.0
 11
63.174979297373547
 21
51.14929476670202
 31
0.0
  0
LINE
  5
1E7
  8
0
 39
4.2236864335000002
 10
63.174979297373547
 20
51.14929476670202
 30
0.0
 11
63.174979297373547
 21
51.14929476670202
 31
0.0
  0
LINE
  5
1E8
  8
0
 39
4.2236864335000002
 10
63.174979297373547
 20
51.14929476670202
 30
0.0
 11
63.267815925181871
 21
51.107649218467721
 31
0.0
  0
LINE
  5
1E9
  8
0
 39
4.2236864335000002
 10
63.267815925181871
 20
51.107649218467721
 30
0.0
 11
63.348065967418378
 21
51.066510512605419
 31
0.0
  0
LINE
  5
1EA
  8
0
 39
4.2236864335000002
 10
63.348065967418378
 20
51.066510512605419
 30
0.0
 11
63.415982845269063
 21
51.025456280471808
 31
0.0
  0
LINE
  5
1EB
  8
0
 39
4.2236864335000002
 10
63.415982845269063
 20
51.025456280471808
 30
0.0
 11
63.471228663819232
 21
50.984655469524213
 31
0.0
  0
LINE
  5
1EC
  8
0
 39
4.2236864335000002
 10
63.471228663819232
 20
50.984655469524213
 30
0.0
 11
63.514056844254917
 21
50.943516763661911
 31
0.0
  0
LINE
  5
1ED
  8
0
 39
4.2236864335000002
 10
63.514056844254917
 20
50.943516763661911
 30
0.0
 11
63.544213965390107
 21
50.902209110342291
 31
0.0
  0
LINE
  5
1EE
  8
0
 39
4.2236864335000002
 10
63.544213965390107
 20
50.902209110342291
 30
0.0
 11
63.561700027224802
 21
50.86031014092196
 31
0.0
  0
LINE
  5
1EF
  8
0
 39
4.2236864335000002
 10
63.561700027224802
 20
50.86031014092196
 30
0.0
 11
63.566515029759003
 21
50.817819855400963
 31
0.0
  0
LINE
  5
1F0
  8
0
 39
4.2236864335000002
 10
63.566515029759003
 20
50.817819855400963
 30
0.0
 11
63.558658972992689
 21
50.774315885135898
 31
0.0
  0
LINE
  5
1F1
  8
0
 39
4.2236864335000002
 10
63.558658972992689
 20
50.774315885135898
 30
0.0
 11
63.537962909468533
 21
50.72988270385548
 31
0.0
  0
LINE
  5
1F2
  8
0
 39
4.2236864335000002
 10
63.537962909468533
 20
50.72988270385548
 30
0.0
 11
63.50442683918655
 21
50.684097942916353
 31
0.0
  0
LINE
  5
1F3
  8
0
 39
4.2236864335000002
 10
63.50442683918655
 20
50.684097942916353
 30
0.0
 11
63.457881814689372
 21
50.637046076047163
 31
0.0
  0
LINE
  5
1F4
  8
0
 39
4.2236864335000002
 10
63.457881814689372
 20
50.637046076047163
 30
0.0
 11
63.398496783434368
 21
50.5882202608759
 31
0.0
  0
LINE
  5
1F5
  8
0
 39
4.2236864335000002
 10
63.398496783434368
 20
50.5882202608759
 30
0.0
 11
63.326102797964168
 21
50.537789444859897
 31
0.0
  0
LINE
  5
1F6
  8
0
 39
4.2236864335000002
 10
63.326102797964168
 20
50.537789444859897
 30
0.0
 11
63.240699858278802
 21
50.485331259355839
 31
0.0
  0
LINE
  5
1F7
  8
0
 39
4.2236864335000002
 10
63.240699858278802
 20
50.485331259355839
 30
0.0
 11
63.142034543192239
 21
50.430761230634999
 31
0.0
  0
LINE
  5
1F8
  8
0
 39
4.2236864335000002
 10
63.142034543192239
 20
50.430761230634999
 30
0.0
 11
60.336197408570897
 21
48.423834384893141
 31
0.0
  0
LINE
  5
1F9
  8
0
 39
4.2236864335000002
 10
60.336197408570897
 20
48.423834384893141
 30
0.0
 11
60.336197408570897
 21
48.423834384893141
 31
0.0
  0
LINE
  5
1FA
  8
0
 39
4.2236864335000002
 10
60.336197408570897
 20
48.423834384893141
 30
0.0
 11
60.220468400292987
 21
48.345865133330747
 31
0.0
  0
LINE
  5
1FB
  8
0
 39
4.2236864335000002
 10
60.220468400292987
 20
48.345865133330747
 30
0.0
 11
60.119944663175687
 21
48.270007724985078
 31
0.0
  0
LINE
  5
1FC
  8
0
 39
4.2236864335000002
 10
60.119944663175687
 20
48.270007724985078
 30
0.0
 11
60.034879618405007
 21
48.195755317484164
 31
0.0
  0
LINE
  5
1FD
  8
0
 39
4.2236864335000002
 10
60.034879618405007
 20
48.195755317484164
 30
0.0
 11
59.964935371066247
 21
48.122938963370601
 31
0.0
  0
LINE
  5
1FE
  8
0
 39
4.2236864335000002
 10
59.964935371066247
 20
48.122938963370601
 30
0.0
 11
59.910449816074092
 21
48.050967346543771
 31
0.0
  0
LINE
  5
1FF
  8
0
 39
4.2236864335000002
 10
59.910449816074092
 20
48.050967346543771
 30
0.0
 11
59.871000584785207
 21
47.979840467003633
 31
0.0
  0
LINE
  5
200
  8
0
 39
4.2236864335000002
 10
59.871000584785207
 20
47.979840467003633
 30
0.0
 11
59.846841098385589
 21
47.909051482378167
 31
0.0
  0
LINE
  5
201
  8
0
 39
4.2236864335000002
 10
59.846841098385589
 20
47.909051482378167
 30
0.0
 11
59.837633461960557
 21
47.838431445210048
 31
0.0
  0
LINE
  5
202
  8
0
 39
4.2236864335000002
 10
59.837633461960557
 20
47.838431445210048
 30
0.0
 11
59.843715570424791
 21
47.76730456566991
 31
0.0
  0
LINE
  5
203
  8
0
 39
4.2236864335000002
 10
59.843715570424791
 20
47.76730456566991
 30
0.0
 11
59.864665055134957
 21
47.695670843757753
 31
0.0
  0
LINE
  5
204
  8
0
 39
4.2236864335000002
 10
59.864665055134957
 20
47.695670843757753
 30
0.0
 11
59.900735337277048
 21
47.623023437101558
 31
0.0
  0
LINE
  5
205
  8
0
 39
4.2236864335000002
 10
59.900735337277048
 20
47.623023437101558
 30
0.0
 11
59.951504048207717
 21
47.549193398243979
 31
0.0
  0
LINE
  5
206
  8
0
 39
4.2236864335000002
 10
59.951504048207717
 20
47.549193398243979
 30
0.0
 11
60.017393556570319
 21
47.473673884813003
 31
0.0
  0
LINE
  5
207
  8
0
 39
4.2236864335000002
 10
60.017393556570319
 20
47.473673884813003
 30
0.0
 11
60.097897019992821
 21
47.396380423079947
 31
0.0
  0
LINE
  5
208
  8
0
 39
4.2236864335000002
 10
60.097897019992821
 20
47.396380423079947
 30
0.0
 11
60.193267859661248
 21
47.316721696944128
 31
0.0
  0
LINE
  5
209
  8
0
 39
4.2236864335000002
 10
60.193267859661248
 20
47.316721696944128
 30
0.0
 11
60.303252654389603
 21
47.234528758948223
 31
0.0
  0
LINE
  5
20A
  8
0
 39
4.2236864335000002
 10
60.303252654389603
 20
47.234528758948223
 30
0.0
 11
63.339872015737377
 21
45.153349505705428
 31
0.0
  0
LINE
  5
20B
  8
0
 39
4.2236864335000002
 10
63.339872015737377
 20
45.153349505705428
 30
0.0
 11
63.339872015737377
 21
45.153349505705428
 31
0.0
  0
LINE
  5
20C
  8
0
 39
4.2236864335000002
 10
63.339872015737377
 20
45.153349505705428
 30
0.0
 11
63.415307055439698
 21
45.111703957471107
 31
0.0
  0
LINE
  5
20D
  8
0
 39
4.2236864335000002
 10
63.415307055439698
 20
45.111703957471107
 30
0.0
 11
63.480351826515587
 21
45.070311830422817
 31
0.0
  0
LINE
  5
20E
  8
0
 39
4.2236864335000002
 10
63.480351826515587
 20
45.070311830422817
 30
0.0
 11
63.535006328965082
 21
45.02875075591718
 31
0.0
  0
LINE
  5
20F
  8
0
 39
4.2236864335000002
 10
63.535006328965082
 20
45.02875075591718
 30
0.0
 11
63.578932667873488
 21
44.986767312768187
 31
0.0
  0
LINE
  5
210
  8
0
 39
4.2236864335000002
 10
63.578932667873488
 20
44.986767312768187
 30
0.0
 11
63.612215316969468
 21
44.94377018487517
 31
0.0
  0
LINE
  5
211
  8
0
 39
4.2236864335000002
 10
63.612215316969468
 20
44.94377018487517
 30
0.0
 11
63.634347433881011
 21
44.899759372238087
 31
0.0
  0
LINE
  5
212
  8
0
 39
4.2236864335000002
 10
63.634347433881011
 20
44.899759372238087
 30
0.0
 11
63.645329018608102
 21
44.854059085027608
 31
0.0
  0
LINE
  5
213
  8
0
 39
4.2236864335000002
 10
63.645329018608102
 20
44.854059085027608
 30
0.0
 11
63.644822176236083
 21
44.806415902057743
 31
0.0
  0
LINE
  5
214
  8
0
 39
4.2236864335000002
 10
63.644822176236083
 20
44.806415902057743
 30
0.0
 11
63.632911380493617
 21
44.756322980956433
 31
0.0
  0
LINE
  5
215
  8
0
 39
4.2236864335000002
 10
63.632911380493617
 20
44.756322980956433
 30
0.0
 11
63.609174262737341
 21
44.703611374266337
 31
0.0
  0
LINE
  5
216
  8
0
 39
4.2236864335000002
 10
63.609174262737341
 20
44.703611374266337
 30
0.0
 11
63.573441875509928
 21
44.64777423961548
 31
0.0
  0
LINE
  5
217
  8
0
 39
4.2236864335000002
 10
63.573441875509928
 20
44.64777423961548
 30
0.0
 11
63.525376323896708
 21
44.588727103275147
 31
0.0
  0
LINE
  5
218
  8
0
 39
4.2236864335000002
 10
63.525376323896708
 20
44.588727103275147
 30
0.0
 11
63.465146555354998
 21
44.525709701687333
 31
0.0
  0
LINE
  5
219
  8
0
 39
4.2236864335000002
 10
63.465146555354998
 20
44.525709701687333
 30
0.0
 11
63.392245727512787
 21
44.458722034852023
 31
0.0
  0
LINE
  5
21A
  8
0
 39
4.2236864335000002
 10
63.392245727512787
 20
44.458722034852023
 30
0.0
 11
63.306589366641397
 21
44.387172786668529
 31
0.0
  0
LINE
  5
21B
  8
0
 39
4.2236864335000002
 10
63.306589366641397
 20
44.387172786668529
 30
0.0
 11
63.207924051554848
 21
44.310893009679518
 31
0.0
  0
LINE
  5
21C
  8
0
 39
4.2236864335000002
 10
63.207924051554848
 20
44.310893009679518
 30
0.0
 11
59.775714218845437
 21
41.327645562821537
 31
0.0
  0
LINE
  5
21D
  8
0
 39
4.2236864335000002
 10
59.775714218845437
 20
41.327645562821537
 30
0.0
 11
68.77571421880458
 21
41.327645562821537
 31
0.0
  0
LINE
  5
3EE
  8
1
 10
68.77571421880458
 20
64.827645562821544
 30
0.0
 11
68.77571421880458
 21
40.827645562821537
 31
0.0
  0
LINE
  5
3F0
  8
0
 10
66.27571421880458
 20
64.327645562821544
 30
0.0
 11
66.27571421880458
 21
56.844515187251929
 31
0.0
  0
LINE
  5
3F1
  8
0
 10
64.02571421880458
 20
64.327645562821544
 30
0.0
 11
64.02571421880458
 21
56.827645562821537
 31
0.0
  0
LINE
  5
44D
  8
0
 39
4.2236864335000002
 10
77.77571421876371
 20
41.327645562821537
 30
0.0
 11
68.77571421880458
 21
41.327645562821537
 31
0.0
  0
LINE
  5
44E
  8
0
 39
4.2236864335000002
 10
74.34350438605432
 20
44.310893009679518
 30
0.0
 11
77.77571421876371
 21
41.327645562821537
 31
0.0
  0
LINE
  5
44F
  8
0
 39
4.2236864335000002
 10
74.244839070967757
 20
44.387172786668529
 30
0.0
 11
74.34350438605432
 21
44.310893009679518
 31
0.0
  0
LINE
  5
450
  8
0
 39
4.2236864335000002
 10
74.159182710096374
 20
44.458722034852023
 30
0.0
 11
74.244839070967757
 21
44.387172786668529
 31
0.0
  0
LINE
  5
451
  8
0
 39
4.2236864335000002
 10
74.086281882254156
 20
44.525709701687333
 30
0.0
 11
74.159182710096374
 21
44.458722034852023
 31
0.0
  0
LINE
  5
452
  8
0
 39
4.2236864335000002
 10
74.026052113712453
 20
44.588727103275147
 30
0.0
 11
74.086281882254156
 21
44.525709701687333
 31
0.0
  0
LINE
  5
453
  8
0
 39
4.2236864335000002
 10
73.977986562099233
 20
44.64777423961548
 30
0.0
 11
74.026052113712453
 21
44.588727103275147
 31
0.0
  0
LINE
  5
454
  8
0
 39
4.2236864335000002
 10
73.94225417487182
 20
44.703611374266337
 30
0.0
 11
73.977986562099233
 21
44.64777423961548
 31
0.0
  0
LINE
  5
455
  8
0
 39
4.2236864335000002
 10
73.918517057115537
 20
44.756322980956433
 30
0.0
 11
73.94225417487182
 21
44.703611374266337
 31
0.0
  0
LINE
  5
456
  8
0
 39
4.2236864335000002
 10
73.906606261373071
 20
44.806415902057743
 30
0.0
 11
73.918517057115537
 21
44.756322980956433
 31
0.0
  0
LINE
  5
457
  8
0
 39
4.2236864335000002
 10
73.906099419001066
 20
44.854059085027608
 30
0.0
 11
73.906606261373071
 21
44.806415902057743
 31
0.0
  0
LINE
  5
458
  8
0
 39
4.2236864335000002
 10
73.917081003728157
 20
44.899759372238087
 30
0.0
 11
73.906099419001066
 21
44.854059085027608
 31
0.0
  0
LINE
  5
459
  8
0
 39
4.2236864335000002
 10
73.939213120639693
 20
44.94377018487517
 30
0.0
 11
73.917081003728157
 21
44.899759372238087
 31
0.0
  0
LINE
  5
45A
  8
0
 39
4.2236864335000002
 10
73.972495769735673
 20
44.986767312768187
 30
0.0
 11
73.939213120639693
 21
44.94377018487517
 31
0.0
  0
LINE
  5
45B
  8
0
 39
4.2236864335000002
 10
74.016422108644065
 20
45.02875075591718
 30
0.0
 11
73.972495769735673
 21
44.986767312768187
 31
0.0
  0
LINE
  5
45C
  8
0
 39
4.2236864335000002
 10
74.071076611093559
 20
45.070311830422817
 30
0.0
 11
74.016422108644065
 21
45.02875075591718
 31
0.0
  0
LINE
  5
45D
  8
0
 39
4.2236864335000002
 10
74.136121382169463
 20
45.111703957471107
 30
0.0
 11
74.071076611093559
 21
45.070311830422817
 31
0.0
  0
LINE
  5
45E
  8
0
 39
4.2236864335000002
 10
74.211556421871776
 20
45.153349505705428
 30
0.0
 11
74.136121382169463
 21
45.111703957471107
 31
0.0
  0
LINE
  5
45F
  8
0
 39
4.2236864335000002
 10
74.211556421871776
 20
45.153349505705428
 30
0.0
 11
74.211556421871776
 21
45.153349505705428
 31
0.0
  0
LINE
  5
460
  8
0
 39
4.2236864335000002
 10
77.248175783219565
 20
47.234528758948223
 30
0.0
 11
74.211556421871776
 21
45.153349505705428
 31
0.0
  0
LINE
  5
461
  8
0
 39
4.2236864335000002
 10
77.358160577947899
 20
47.316721696944128
 30
0.0
 11
77.248175783219565
 21
47.234528758948223
 31
0.0
  0
LINE
  5
462
  8
0
 39
4.2236864335000002
 10
77.453531417616347
 20
47.396380423079947
 30
0.0
 11
77.358160577947899
 21
47.316721696944128
 31
0.0
  0
LINE
  5
463
  8
0
 39
4.2236864335000002
 10
77.534034881038835
 20
47.473673884813003
 30
0.0
 11
77.453531417616347
 21
47.396380423079947
 31
0.0
  0
LINE
  5
464
  8
0
 39
4.2236864335000002
 10
77.599924389401451
 20
47.549193398243979
 30
0.0
 11
77.534034881038835
 21
47.473673884813003
 31
0.0
  0
LINE
  5
465
  8
0
 39
4.2236864335000002
 10
77.650693100332106
 20
47.623023437101558
 30
0.0
 11
77.599924389401451
 21
47.549193398243979
 31
0.0
  0
LINE
  5
466
  8
0
 39
4.2236864335000002
 10
77.686763382474197
 20
47.695670843757753
 30
0.0
 11
77.650693100332106
 21
47.623023437101558
 31
0.0
  0
LINE
  5
467
  8
0
 39
4.2236864335000002
 10
77.70771286718437
 20
47.76730456566991
 30
0.0
 11
77.686763382474197
 21
47.695670843757753
 31
0.0
  0
LINE
  5
468
  8
0
 39
4.2236864335000002
 10
77.713794975648597
 20
47.838431445210048
 30
0.0
 11
77.70771286718437
 21
47.76730456566991
 31
0.0
  0
LINE
  5
469
  8
0
 39
4.2236864335000002
 10
77.704587339223565
 20
47.909051482378167
 30
0.0
 11
77.713794975648597
 21
47.838431445210048
 31
0.0
  0
LINE
  5
46A
  8
0
 39
4.2236864335000002
 10
77.680427852823954
 20
47.979840467003633
 30
0.0
 11
77.704587339223565
 21
47.909051482378167
 31
0.0
  0
LINE
  5
46B
  8
0
 39
4.2236864335000002
 10
77.640978621535069
 20
48.050967346543771
 30
0.0
 11
77.680427852823954
 21
47.979840467003633
 31
0.0
  0
LINE
  5
46C
  8
0
 39
4.2236864335000002
 10
77.586493066542914
 20
48.122938963370601
 30
0.0
 11
77.640978621535069
 21
48.050967346543771
 31
0.0
  0
LINE
  5
46D
  8
0
 39
4.2236864335000002
 10
77.516548819204161
 20
48.195755317484164
 30
0.0
 11
77.586493066542914
 21
48.122938963370601
 31
0.0
  0
LINE
  5
46E
  8
0
 39
4.2236864335000002
 10
77.431483774433474
 20
48.270007724985078
 30
0.0
 11
77.516548819204161
 21
48.195755317484164
 31
0.0
  0
LINE
  5
46F
  8
0
 39
4.2236864335000002
 10
77.330960037316174
 20
48.345865133330747
 30
0.0
 11
77.431483774433474
 21
48.270007724985078
 31
0.0
  0
LINE
  5
470
  8
0
 39
4.2236864335000002
 10
77.215231029038264
 20
48.423834384893141
 30
0.0
 11
77.330960037316174
 21
48.345865133330747
 31
0.0
  0
LINE
  5
471
  8
0
 39
4.2236864335000002
 10
77.215231029038264
 20
48.423834384893141
 30
0.0
 11
77.215231029038264
 21
48.423834384893141
 31
0.0
  0
LINE
  5
472
  8
0
 39
4.2236864335000002
 10
74.409393894416922
 20
50.430761230634999
 30
0.0
 11
77.215231029038264
 21
48.423834384893141
 31
0.0
  0
LINE
  5
473
  8
0
 39
4.2236864335000002
 10
74.310728579330359
 20
50.485331259355839
 30
0.0
 11
74.409393894416922
 21
50.430761230634999
 31
0.0
  0
LINE
  5
474
  8
0
 39
4.2236864335000002
 10
74.225325639644979
 20
50.537789444859897
 30
0.0
 11
74.310728579330359
 21
50.485331259355839
 31
0.0
  0
LINE
  5
475
  8
0
 39
4.2236864335000002
 10
74.152931654174793
 20
50.5882202608759
 30
0.0
 11
74.225325639644979
 21
50.537789444859897
 31
0.0
  0
LINE
  5
476
  8
0
 39
4.2236864335000002
 10
74.093546622919789
 20
50.637046076047163
 30
0.0
 11
74.152931654174793
 21
50.5882202608759
 31
0.0
  0
LINE
  5
477
  8
0
 39
4.2236864335000002
 10
74.047001598422611
 20
50.684097942916353
 30
0.0
 11
74.093546622919789
 21
50.637046076047163
 31
0.0
  0
LINE
  5
478
  8
0
 39
4.2236864335000002
 10
74.013465528140628
 20
50.72988270385548
 30
0.0
 11
74.047001598422611
 21
50.684097942916353
 31
0.0
  0
LINE
  5
479
  8
0
 39
4.2236864335000002
 10
73.992769464616472
 20
50.774315885135898
 30
0.0
 11
74.013465528140628
 21
50.72988270385548
 31
0.0
  0
LINE
  5
47A
  8
0
 39
4.2236864335000002
 10
73.984913407850172
 20
50.817819855400963
 30
0.0
 11
73.992769464616472
 21
50.774315885135898
 31
0.0
  0
LINE
  5
47B
  8
0
 39
4.2236864335000002
 10
73.989728410384345
 20
50.86031014092196
 30
0.0
 11
73.984913407850172
 21
50.817819855400963
 31
0.0
  0
LINE
  5
47C
  8
0
 39
4.2236864335000002
 10
74.007214472219033
 20
50.902209110342291
 30
0.0
 11
73.989728410384345
 21
50.86031014092196
 31
0.0
  0
LINE
  5
47D
  8
0
 39
4.2236864335000002
 10
74.037371593354237
 20
50.943516763661911
 30
0.0
 11
74.007214472219033
 21
50.902209110342291
 31
0.0
  0
LINE
  5
47E
  8
0
 39
4.2236864335000002
 10
74.080199773789928
 20
50.984655469524213
 30
0.0
 11
74.037371593354237
 21
50.943516763661911
 31
0.0
  0
LINE
  5
47F
  8
0
 39
4.2236864335000002
 10
74.135445592340105
 20
51.025456280471808
 30
0.0
 11
74.080199773789928
 21
50.984655469524213
 31
0.0
  0
LINE
  5
480
  8
0
 39
4.2236864335000002
 10
74.203362470190783
 20
51.066510512605419
 30
0.0
 11
74.135445592340105
 21
51.025456280471808
 31
0.0
  0
LINE
  5
481
  8
0
 39
4.2236864335000002
 10
74.283612512427283
 20
51.107649218467721
 30
0.0
 11
74.203362470190783
 21
51.066510512605419
 31
0.0
  0
LINE
  5
482
  8
0
 39
4.2236864335000002
 10
74.376449140235621
 20
51.14929476670202
 30
0.0
 11
74.283612512427283
 21
51.107649218467721
 31
0.0
  0
LINE
  5
483
  8
0
 39
4.2236864335000002
 10
74.376449140235621
 20
51.14929476670202
 30
0.0
 11
74.376449140235621
 21
51.14929476670202
 31
0.0
  0
LINE
  5
484
  8
0
 39
4.2236864335000002
 10
77.281205011129543
 20
53.057133928713988
 30
0.0
 11
74.376449140235621
 21
51.14929476670202
 31
0.0
  0
LINE
  5
485
  8
0
 39
4.2236864335000002
 10
77.391527700772556
 20
53.127247123510088
 30
0.0
 11
77.281205011129543
 21
53.057133928713988
 31
0.0
  0
LINE
  5
486
  8
0
 39
4.2236864335000002
 10
77.488081172642353
 20
53.198711897964898
 30
0.0
 11
77.391527700772556
 21
53.127247123510088
 31
0.0
  0
LINE
  5
487
  8
0
 39
4.2236864335000002
 10
77.570527531824297
 20
53.271190357163768
 30
0.0
 11
77.488081172642353
 21
53.198711897964898
 31
0.0
  0
LINE
  5
488
  8
0
 39
4.2236864335000002
 10
77.639035725775656
 20
53.34502039602134
 30
0.0
 11
77.570527531824297
 21
53.271190357163768
 31
0.0
  0
LINE
  5
489
  8
0
 39
4.2236864335000002
 10
77.693267859581795
 20
53.41986411962295
 30
0.0
 11
77.639035725775656
 21
53.34502039602134
 31
0.0
  0
LINE
  5
48A
  8
0
 39
4.2236864335000002
 10
77.733561828157377
 20
53.495974949154643
 30
0.0
 11
77.693267859581795
 21
53.41986411962295
 31
0.0
  0
LINE
  5
48B
  8
0
 39
4.2236864335000002
 10
77.759579736587739
 20
53.573183937159008
 30
0.0
 11
77.733561828157377
 21
53.495974949154643
 31
0.0
  0
LINE
  5
48C
  8
0
 39
4.2236864335000002
 10
77.771490532330205
 20
53.651660031093442
 30
0.0
 11
77.759579736587739
 21
53.573183937159008
 31
0.0
  0
LINE
  5
48D
  8
0
 39
4.2236864335000002
 10
77.768871846741433
 20
53.731149809771921
 30
0.0
 11
77.771490532330205
 21
53.651660031093442
 31
0.0
  0
LINE
  5
48E
  8
0
 39
4.2236864335000002
 10
77.752061574736103
 20
53.81182222065177
 30
0.0
 11
77.768871846741433
 21
53.731149809771921
 31
0.0
  0
LINE
  5
48F
  8
0
 39
4.2236864335000002
 10
77.720721821399536
 20
53.89367726373299
 30
0.0
 11
77.752061574736103
 21
53.81182222065177
 31
0.0
  0
LINE
  5
490
  8
0
 39
4.2236864335000002
 10
77.675106007917748
 20
53.976799412744271
 30
0.0
 11
77.720721821399536
 21
53.89367726373299
 31
0.0
  0
LINE
  5
491
  8
0
 39
4.2236864335000002
 10
77.614876239376031
 20
54.060935246499596
 30
0.0
 11
77.675106007917748
 21
53.976799412744271
 31
0.0
  0
LINE
  5
492
  8
0
 39
4.2236864335000002
 10
77.540201463231753
 20
54.14633818618497
 30
0.0
 11
77.614876239376031
 21
54.060935246499596
 31
0.0
  0
LINE
  5
493
  8
0
 39
4.2236864335000002
 10
77.450997205756224
 20
54.23292375807172
 30
0.0
 11
77.540201463231753
 21
54.14633818618497
 31
0.0
  0
LINE
  5
494
  8
0
 39
4.2236864335000002
 10
77.347094519492131
 20
54.320691962159842
 30
0.0
 11
77.450997205756224
 21
54.23292375807172
 31
0.0
  0
LINE
  5
495
  8
0
 39
4.2236864335000002
 10
77.347094519492131
 20
54.320691962159842
 30
0.0
 11
77.347094519492131
 21
54.320691962159842
 31
0.0
  0
LINE
  5
496
  8
0
 39
4.2236864335000002
 10
73.52571421880458
 20
56.827645562821552
 30
0.0
 11
77.347094519492131
 21
54.320691962159842
 31
0.0
  0
LINE
  5
497
  8
0
 39
4.2236864335000002
 10
68.77571421880458
 20
64.327645562821544
 30
0.0
 11
73.456994840509964
 21
64.327645562821544
 31
0.0
  0
LINE
  5
498
  8
0
 39
4.2236864335000002
 10
72.850769126726746
 20
44.389031208699272
 30
0.0
 11
76.4158238248896
 21
41.327645562821537
 31
0.0
  0
LINE
  5
499
  8
0
 39
4.2236864335000002
 10
72.780486984473313
 20
44.457201507735952
 30
0.0
 11
72.850769126726746
 21
44.389031208699272
 31
0.0
  0
LINE
  5
49A
  8
0
 39
4.2236864335000002
 10
72.718314320172183
 20
44.522837594912552
 30
0.0
 11
72.780486984473313
 21
44.457201507735952
 31
0.0
  0
LINE
  5
49B
  8
0
 39
4.2236864335000002
 10
72.664251133823385
 20
44.586023943957713
 30
0.0
 11
72.718314320172183
 21
44.522837594912552
 31
0.0
  0
LINE
  5
49C
  8
0
 39
4.2236864335000002
 10
72.618719794070245
 20
44.647098449786121
 30
0.0
 11
72.664251133823385
 21
44.586023943957713
 31
0.0
  0
LINE
  5
49D
  8
0
 39
4.2236864335000002
 10
72.581720300912792
 20
44.706230059855123
 30
0.0
 11
72.618719794070245
 21
44.647098449786121
 31
0.0
  0
LINE
  5
49E
  8
0
 39
4.2236864335000002
 10
72.553843970451695
 20
44.763841142808047
 30
0.0
 11
72.581720300912792
 21
44.706230059855123
 31
0.0
  0
LINE
  5
49F
  8
0
 39
4.2236864335000002
 10
72.535006328958275
 20
44.820016172373613
 30
0.0
 11
72.553843970451695
 21
44.763841142808047
 31
0.0
  0
LINE
  5
4A0
  8
0
 39
4.2236864335000002
 10
72.52571421880458
 20
44.875177517195127
 30
0.0
 11
72.535006328958275
 21
44.820016172373613
 31
0.0
  0
LINE
  5
4A1
  8
0
 39
4.2236864335000002
 10
72.525798692533257
 20
44.929240703543918
 30
0.0
 11
72.52571421880458
 21
44.875177517195127
 31
0.0
  0
LINE
  5
4A2
  8
0
 39
4.2236864335000002
 10
72.535935539973664
 20
44.982881521249382
 30
0.0
 11
72.525798692533257
 21
44.929240703543918
 31
0.0
  0
LINE
  5
4A3
  8
0
 39
4.2236864335000002
 10
72.556209234854464
 20
45.036015496582799
 30
0.0
 11
72.535935539973664
 21
44.982881521249382
 31
0.0
  0
LINE
  5
4A4
  8
0
 39
4.2236864335000002
 10
72.586873198361673
 20
45.089233945644899
 30
0.0
 11
72.556209234854464
 21
45.036015496582799
 31
0.0
  0
LINE
  5
4A5
  8
0
 39
4.2236864335000002
 10
72.628011904223953
 20
45.142452394706993
 30
0.0
 11
72.586873198361673
 21
45.089233945644899
 31
0.0
  0
LINE
  5
4A6
  8
0
 39
4.2236864335000002
 10
72.680132194813339
 20
45.19617768614112
 30
0.0
 11
72.628011904223953
 21
45.142452394706993
 31
0.0
  0
LINE
  5
4A7
  8
0
 39
4.2236864335000002
 10
72.74323407012983
 20
45.250494293675942
 30
0.0
 11
72.680132194813339
 21
45.19617768614112
 31
0.0
  0
LINE
  5
4A8
  8
0
 39
4.2236864335000002
 10
72.817824372545445
 20
45.305740112226097
 30
0.0
 11
72.74323407012983
 21
45.250494293675942
 31
0.0
  0
LINE
  5
4A9
  8
0
 39
4.2236864335000002
 10
72.817824372545445
 20
45.305740112226097
 30
0.0
 11
72.817824372545445
 21
45.305740112226097
 31
0.0
  0
LINE
  5
4AA
  8
0
 39
4.2236864335000002
 10
75.815754766162371
 20
47.387003839197568
 30
0.0
 11
72.817824372545445
 21
45.305740112226097
 31
0.0
  0
LINE
  5
4AB
  8
0
 39
4.2236864335000002
 10
75.918981662597119
 20
47.448078345025984
 30
0.0
 11
75.815754766162371
 21
47.387003839197568
 31
0.0
  0
LINE
  5
4AC
  8
0
 39
4.2236864335000002
 10
76.007087761599934
 20
47.510673377970448
 30
0.0
 11
75.918981662597119
 21
47.448078345025984
 31
0.0
  0
LINE
  5
4AD
  8
0
 39
4.2236864335000002
 10
76.079819641984784
 20
47.574197621930303
 30
0.0
 11
76.007087761599934
 21
47.510673377970448
 31
0.0
  0
LINE
  5
4AE
  8
0
 39
4.2236864335000002
 10
76.137599672395083
 20
47.638566603176827
 30
0.0
 11
76.079819641984784
 21
47.574197621930303
 31
0.0
  0
LINE
  5
4AF
  8
0
 39
4.2236864335000002
 10
76.180089957916095
 20
47.702935584423379
 30
0.0
 11
76.137599672395083
 21
47.638566603176827
 31
0.0
  0
LINE
  5
4B0
  8
0
 39
4.2236864335000002
 10
76.207797340919839
 20
47.767473513127243
 30
0.0
 11
76.180089957916095
 21
47.702935584423379
 31
0.0
  0
LINE
  5
4B1
  8
0
 39
4.2236864335000002
 10
76.220552873949018
 20
47.831504599459102
 30
0.0
 11
76.207797340919839
 21
47.767473513127243
 31
0.0
  0
LINE
  5
4B2
  8
0
 39
4.2236864335000002
 10
76.218778925646944
 20
47.894859895961609
 30
0.0
 11
76.220552873949018
 21
47.831504599459102
 31
0.0
  0
LINE
  5
4B3
  8
0
 39
4.2236864335000002
 10
76.202137601098954
 20
47.9568636128054
 30
0.0
 11
76.218778925646944
 21
47.894859895961609
 31
0.0
  0
LINE
  5
4B4
  8
0
 39
4.2236864335000002
 10
76.171051268948389
 20
48.017431276261782
 30
0.0
 11
76.202137601098954
 21
47.9568636128054
 31
0.0
  0
LINE
  5
4B5
  8
0
 39
4.2236864335000002
 10
76.125350981737924
 20
48.076056043958772
 30
0.0
 11
76.171051268948389
 21
48.017431276261782
 31
0.0
  0
LINE
  5
4B6
  8
0
 39
4.2236864335000002
 10
76.065543581839563
 20
48.132568968438989
 30
0.0
 11
76.125350981737924
 21
48.076056043958772
 31
0.0
  0
LINE
  5
4B7
  8
0
 39
4.2236864335000002
 10
75.991291174338642
 20
48.186294259873108
 30
0.0
 11
76.065543581839563
 21
48.132568968438989
 31
0.0
  0
LINE
  5
4B8
  8
0
 39
4.2236864335000002
 10
75.902931654149825
 20
48.237147444532461
 30
0.0
 11
75.991291174338642
 21
48.186294259873108
 31
0.0
  0
LINE
  5
4B9
  8
0
 39
4.2236864335000002
 10
75.800465021273112
 20
48.284621680044992
 30
0.0
 11
75.902931654149825
 21
48.237147444532461
 31
0.0
  0
LINE
  5
4BA
  8
0
 39
4.2236864335000002
 10
75.684060223165844
 20
48.328548018953398
 30
0.0
 11
75.800465021273112
 21
48.284621680044992
 31
0.0
  0
LINE
  5
4BB
  8
0
 39
4.2236864335000002
 10
75.684060223165844
 20
48.328548018953398
 30
0.0
 11
75.684060223165844
 21
48.328548018953398
 31
0.0
  0
LINE
  5
4BC
  8
0
 39
4.2236864335000002
 10
72.88362940717937
 20
50.335474864695257
 30
0.0
 11
75.684060223165844
 21
48.328548018953398
 31
0.0
  0
LINE
  5
4BD
  8
0
 39
4.2236864335000002
 10
72.813685159840617
 20
50.39578910696563
 30
0.0
 11
72.88362940717937
 21
50.335474864695257
 31
0.0
  0
LINE
  5
4BE
  8
0
 39
4.2236864335000002
 10
72.752610654012202
 20
50.45610334923601
 30
0.0
 11
72.813685159840617
 21
50.39578910696563
 31
0.0
  0
LINE
  5
4BF
  8
0
 39
4.2236864335000002
 10
72.700405889694153
 20
50.516333117777727
 30
0.0
 11
72.752610654012202
 21
50.45610334923601
 31
0.0
  0
LINE
  5
4C0
  8
0
 39
4.2236864335000002
 10
72.657324288072445
 20
50.576562886319422
 30
0.0
 11
72.700405889694153
 21
50.516333117777727
 31
0.0
  0
LINE
  5
4C1
  8
0
 39
4.2236864335000002
 10
72.623281375418415
 20
50.636454759946467
 30
0.0
 11
72.657324288072445
 21
50.576562886319422
 31
0.0
  0
LINE
  5
4C2
  8
0
 39
4.2236864335000002
 10
72.598952941561478
 20
50.696346633573491
 30
0.0
 11
72.623281375418415
 21
50.636454759946467
 31
0.0
  0
LINE
  5
4C3
  8
0
 39
4.2236864335000002
 10
72.584085565315547
 20
50.755985086014512
 30
0.0
 11
72.598952941561478
 21
50.696346633573491
 31
0.0
  0
LINE
  5
4C4
  8
0
 39
4.2236864335000002
 10
72.579186089052698
 20
50.815454590998201
 30
0.0
 11
72.584085565315547
 21
50.755985086014512
 31
0.0
  0
LINE
  5
4C5
  8
0
 39
4.2236864335000002
 10
72.584170039044224
 20
50.874417253609849
 30
0.0
 11
72.579186089052698
 21
50.815454590998201
 31
0.0
  0
LINE
  5
4C6
  8
0
 39
4.2236864335000002
 10
72.599459783933497
 20
50.933210968764172
 30
0.0
 11
72.584170039044224
 21
50.874417253609849
 31
0.0
  0
LINE
  5
4C7
  8
0
 39
4.2236864335000002
 10
72.625055323720517
 20
50.991582315275139
 30
0.0
 11
72.599459783933497
 21
50.933210968764172
 31
0.0
  0
LINE
  5
4C8
  8
0
 39
4.2236864335000002
 10
72.661379027048611
 20
51.049615766871433
 30
0.0
 11
72.625055323720517
 21
50.991582315275139
 31
0.0
  0
LINE
  5
4C9
  8
0
 39
4.2236864335000002
 10
72.708430893917793
 20
51.107142376095702
 30
0.0
 11
72.661379027048611
 21
51.049615766871433
 31
0.0
  0
LINE
  5
4CA
  8
0
 39
4.2236864335000002
 10
72.766548819242757
 20
51.164246616676621
 30
0.0
 11
72.708430893917793
 21
51.107142376095702
 31
0.0
  0
LINE
  5
4CB
  8
0
 39
4.2236864335000002
 10
72.835817276752152
 20
51.220759541156859
 30
0.0
 11
72.766548819242757
 21
51.164246616676621
 31
0.0
  0
LINE
  5
4CC
  8
0
 39
4.2236864335000002
 10
72.916574161360671
 20
51.276934570722403
 30
0.0
 11
72.835817276752152
 21
51.220759541156859
 31
0.0
  0
LINE
  5
4CD
  8
0
 39
4.2236864335000002
 10
72.916574161360671
 20
51.276934570722403
 30
0.0
 11
72.916574161360671
 21
51.276934570722403
 31
0.0
  0
LINE
  5
4CE
  8
0
 39
4.2236864335000002
 10
75.65119994271322
 20
53.209524535234657
 30
0.0
 11
72.916574161360671
 21
51.276934570722403
 31
0.0
  0
LINE
  5
4CF
  8
0
 39
4.2236864335000002
 10
75.743952096792867
 20
53.258603771591929
 30
0.0
 11
75.65119994271322
 21
53.209524535234657
 31
0.0
  0
LINE
  5
4D0
  8
0
 39
4.2236864335000002
 10
75.825215823773419
 20
53.312920379126751
 30
0.0
 11
75.743952096792867
 21
53.258603771591929
 31
0.0
  0
LINE
  5
4D1
  8
0
 39
4.2236864335000002
 10
75.894484281282814
 20
53.371376199366388
 30
0.0
 11
75.825215823773419
 21
53.312920379126751
 31
0.0
  0
LINE
  5
4D2
  8
0
 39
4.2236864335000002
 10
75.951841943049743
 20
53.433548863667511
 30
0.0
 11
75.894484281282814
 21
53.371376199366388
 31
0.0
  0
LINE
  5
4D3
  8
0
 39
4.2236864335000002
 10
75.996950914159527
 20
53.498340213557391
 30
0.0
 11
75.951841943049743
 21
53.433548863667511
 31
0.0
  0
LINE
  5
4D4
  8
0
 39
4.2236864335000002
 10
76.029895668340814
 20
53.565158932935361
 30
0.0
 11
75.996950914159527
 21
53.498340213557391
 31
0.0
  0
LINE
  5
4D5
  8
0
 39
4.2236864335000002
 10
76.050338310678967
 20
53.633244758243379
 30
0.0
 11
76.029895668340814
 21
53.565158932935361
 31
0.0
  0
LINE
  5
4D6
  8
0
 39
4.2236864335000002
 10
76.058363314902607
 20
53.701921899652092
 30
0.0
 11
76.050338310678967
 21
53.633244758243379
 31
0.0
  0
LINE
  5
4D7
  8
0
 39
4.2236864335000002
 10
76.053379364911081
 20
53.770007724960102
 30
0.0
 11
76.058363314902607
 21
53.701921899652092
 31
0.0
  0
LINE
  5
4D8
  8
0
 39
4.2236864335000002
 10
76.035724355619053
 20
53.837248812981422
 30
0.0
 11
76.053379364911081
 21
53.770007724960102
 31
0.0
  0
LINE
  5
4D9
  8
0
 39
4.2236864335000002
 10
76.004975918383167
 20
53.902547005243349
 30
0.0
 11
76.035724355619053
 21
53.837248812981422
 31
0.0
  0
LINE
  5
4DA
  8
0
 39
4.2236864335000002
 10
75.961134053203438
 20
53.9654799331025
 30
0.0
 11
76.004975918383167
 21
53.902547005243349
 31
0.0
  0
LINE
  5
4DB
  8
0
 39
4.2236864335000002
 10
75.903860865165186
 20
54.024949438086168
 30
0.0
 11
75.961134053203438
 21
53.9654799331025
 31
0.0
  0
LINE
  5
4DC
  8
0
 39
4.2236864335000002
 10
75.833240827997045
 20
54.080364204093691
 30
0.0
 11
75.903860865165186
 21
54.024949438086168
 31
0.0
  0
LINE
  5
4DD
  8
0
 39
4.2236864335000002
 10
75.749020520513085
 20
54.13087949383835
 30
0.0
 11
75.833240827997045
 21
54.080364204093691
 31
0.0
  0
LINE
  5
4DE
  8
0
 39
4.2236864335000002
 10
75.65119994271322
 20
54.175819517490787
 30
0.0
 11
75.749020520513085
 21
54.13087949383835
 31
0.0
  0
LINE
  5
4DF
  8
0
 39
4.2236864335000002
 10
75.65119994271322
 20
54.175819517490787
 30
0.0
 11
75.65119994271322
 21
54.175819517490787
 31
0.0
  0
LINE
  5
4E0
  8
0
 39
4.2236864335000002
 10
71.286104487419649
 20
56.844515187251929
 30
0.0
 11
75.65119994271322
 21
54.175819517490787
 31
0.0
  0
LINE
  5
4E1
  8
0
 10
68.77571421880458
 20
47.894859895961609
 30
0.0
 11
76.218778925646944
 21
47.894859895961609
 31
0.0
  0
LINE
  5
4E2
  8
0
 10
68.77571421880458
 20
53.633244758243379
 30
0.0
 11
76.050338310678967
 21
53.633244758243379
 31
0.0
  0
LINE
  5
4E3
  8
0
 10
68.77571421880458
 20
44.875177517195127
 30
0.0
 11
72.525714218804566
 21
44.875177517195127
 31
0.0
  0
LINE
  5
4E4
  8
0
 10
72.584085565315547
 20
50.755985086014512
 30
0.0
 11
68.77571421880458
 21
50.755985086014512
 31
0.0
  0
LINE
  5
4E5
  8
0
 10
73.52571421880458
 20
64.327645562821544
 30
0.0
 11
73.52571421880458
 21
56.827645562821537
 31
0.0
  0
LINE
  5
4E6
  8
0
 10
71.27571421880458
 20
64.327645562821544
 30
0.0
 11
71.27571421880458
 21
56.844515187251929
 31
0.0
  0
LINE
  5
4E7
  8
0
 10
71.286104487419649
 20
56.844515187251929
 30
0.0
 11
68.77571421880458
 21
56.844515187251929
 31
0.0
  0
DIMENSION
  5
4EC
  8
2
  2
*D1
 10
71.27571421880458
 20
71.957455710937154
 30
0.0
 11
78.984047552137909
 21
73.832455710937154
 31
0.0
 70
     0
  1
%%c<>
 13
66.27571421880458
 23
64.327645562821544
 33
0.0
 14
71.27571421880458
 24
64.327645562821544
 34
0.0
  0
DIMENSION
  5
4FB
  8
2
  2
*D2
 10
73.52571421880458
 20
76.940098948812306
 30
0.0
 11
68.77571421880458
 21
78.815098948812306
 31
0.0
 70
     0
  1
%%c<>
 13
64.02571421880458
 23
64.327645562821544
 33
0.0
 14
73.52571421880458
 24
64.327645562821544
 34
0.0
  0
DIMENSION
  5
508
  8
2
  2
*D3
 10
84.300351916052819
 20
56.82764556282153
 30
0.0
 11
82.425351916052804
 21
60.577645562821552
 31
0.0
 70
     0
 13
73.456994840509964
 23
64.327645562821544
 33
0.0
 14
73.52571421880458
 24
56.827645562821537
 34
0.0
 50
90.0
  0
DIMENSION
  5
515
  8
2
  2
*D4
 10
89.701155460941095
 20
41.32764556282153
 30
0.0
 11
87.826155460941081
 21
52.827645562821552
 31
0.0
 70
     0
 13
73.456994840509964
 23
64.327645562821544
 33
0.0
 14
77.77571421876371
 24
41.327645562821537
 34
0.0
 50
90.0
  0
DIMENSION
  5
522
  8
2
  2
*D5
 10
72.525714218804566
 20
34.641237740991102
 30
0.0
 11
83.775714218804566
 21
34.641237740991102
 31
0.0
 70
   128
  1
%%c<>
 13
65.025714218804595
 23
44.875177517195127
 33
0.0
 14
72.525714218804566
 24
44.875177517195127
 34
0.0
  0
DIMENSION
  5
52F
  8
2
  2
*D6
 10
77.77571421876371
 20
29.481894198030538
 30
0.0
 11
68.77571421880458
 21
31.356894198030538
 31
0.0
 70
     0
  1
%%c<>
 13
59.775714218845437
 23
41.327645562821537
 33
0.0
 14
77.77571421876371
 24
41.327645562821537
 34
0.0
1001
ACAD
1000
DSTYLE
1002
{
1070
   271
1070
     6
1002
}
  0
ENDSEC
  0
EOF
