  0
SECTION
  2
HEADER
  9
$ACADVER
  1
AC1009
  9
$INSBASE
 10
0.0
 20
0.0
 30
0.0
  9
$EXTMIN
 10
62.781458022864243
 20
33.18766641836379
 30
0.0
  9
$EXTMAX
 10
103.6167102276127
 20
98.363300832846477
 30
5.0
  9
$LIMMIN
 10
0.0
 20
0.0
  9
$LIMMAX
 10
420.0
 20
297.0
  9
$ORTHOMODE
 70
     0
  9
$REGENMODE
 70
     1
  9
$FILLMODE
 70
     1
  9
$QTEXTMODE
 70
     0
  9
$MIRRTEXT
 70
     1
  9
$DRAGMODE
 70
     2
  9
$LTSCALE
 40
0.3
  9
$OSMODE
 70
    37
  9
$ATTMODE
 70
     1
  9
$TEXTSIZE
 40
2.5
  9
$TRACEWID
 40
1.0
  9
$TEXTSTYLE
  7
STANDARD
  9
$CLAYER
  8
2
  9
$CELTYPE
  6
BYLAYER
  9
$CECOLOR
 62
   256
  9
$DIMSCALE
 40
1.0
  9
$DIMASZ
 40
2.5
  9
$DIMEXO
 40
0.625
  9
$DIMDLI
 40
3.75
  9
$DIMRND
 40
0.0
  9
$DIMDLE
 40
0.0
  9
$DIMEXE
 40
1.25
  9
$DIMTP
 40
0.0
  9
$DIMTM
 40
0.0
  9
$DIMTXT
 40
2.5
  9
$DIMCEN
 40
2.5
  9
$DIMTSZ
 40
0.0
  9
$DIMTOL
 70
     0
  9
$DIMLIM
 70
     0
  9
$DIMTIH
 70
     0
  9
$DIMTOH
 70
     0
  9
$DIMSE1
 70
     0
  9
$DIMSE2
 70
     0
  9
$DIMTAD
 70
     1
  9
$DIMZIN
 70
     8
  9
$DIMBLK
  1

  9
$DIMASO
 70
     1
  9
$DIMSHO
 70
     1
  9
$DIMPOST
  1

  9
$DIMAPOST
  1

  9
$DIMALT
 70
     0
  9
$DIMALTD
 70
     3
  9
$DIMALTF
 40
0.03937007874016
  9
$DIMLFAC
 40
1.0
  9
$DIMTOFL
 70
     1
  9
$DIMTVP
 40
0.0
  9
$DIMTIX
 70
     0
  9
$DIMSOXD
 70
     0
  9
$DIMSAH
 70
     0
  9
$DIMBLK1
  1

  9
$DIMBLK2
  1

  9
$DIMSTYLE
  2
ISO-25
  9
$DIMCLRD
 70
     0
  9
$DIMCLRE
 70
     0
  9
$DIMCLRT
 70
     0
  9
$DIMTFAC
 40
1.0
  9
$DIMGAP
 40
0.625
  9
$LUNITS
 70
     2
  9
$LUPREC
 70
     4
  9
$SKETCHINC
 40
1.0
  9
$FILLETRAD
 40
10.0
  9
$AUNITS
 70
     0
  9
$AUPREC
 70
     0
  9
$MENU
  1
.
  9
$ELEVATION
 40
0.0
  9
$PELEVATION
 40
0.0
  9
$THICKNESS
 40
0.0
  9
$LIMCHECK
 70
     0
  9
$BLIPMODE
 70
     0
  9
$CHAMFERA
 40
10.0
  9
$CHAMFERB
 40
10.0
  9
$SKPOLY
 70
     0
  9
$TDCREATE
 40
2453439.5564213651
  9
$TDUPDATE
 40
2453551.9116302771
  9
$TDINDWG
 40
0.0318748843
  9
$TDUSRTIMER
 40
0.0318747685
  9
$USRTIMER
 70
     1
  9
$ANGBASE
 50
0.0
  9
$ANGDIR
 70
     0
  9
$PDMODE
 70
     0
  9
$PDSIZE
 40
0.0
  9
$PLINEWID
 40
0.0
  9
$COORDS
 70
     1
  9
$SPLFRAME
 70
     0
  9
$SPLINETYPE
 70
     6
  9
$SPLINESEGS
 70
     8
  9
$ATTDIA
 70
     0
  9
$ATTREQ
 70
     1
  9
$HANDLING
 70
-16383
  9
$HANDSEED
  5
524
  9
$SURFTAB1
 70
     6
  9
$SURFTAB2
 70
     6
  9
$SURFTYPE
 70
     6
  9
$SURFU
 70
     6
  9
$SURFV
 70
     6
  9
$UCSNAME
  2

  9
$UCSORG
 10
0.0
 20
0.0
 30
0.0
  9
$UCSXDIR
 10
1.0
 20
0.0
 30
0.0
  9
$UCSYDIR
 10
0.0
 20
1.0
 30
0.0
  9
$PUCSNAME
  2

  9
$PUCSORG
 10
0.0
 20
0.0
 30
0.0
  9
$PUCSXDIR
 10
1.0
 20
0.0
 30
0.0
  9
$PUCSYDIR
 10
0.0
 20
1.0
 30
0.0
  9
$USERI1
 70
     0
  9
$USERI2
 70
     0
  9
$USERI3
 70
     0
  9
$USERI4
 70
     0
  9
$USERI5
 70
     0
  9
$USERR1
 40
0.0
  9
$USERR2
 40
0.0
  9
$USERR3
 40
0.0
  9
$USERR4
 40
0.0
  9
$USERR5
 40
0.0
  9
$WORLDVIEW
 70
     1
  9
$SHADEDGE
 70
     3
  9
$SHADEDIF
 70
    70
  9
$TILEMODE
 70
     1
  9
$MAXACTVP
 70
    64
  9
$PLIMCHECK
 70
     0
  9
$PEXTMIN
 10
1.0000000000000000E+020
 20
1.0000000000000000E+020
 30
1.0000000000000000E+020
  9
$PEXTMAX
 10
-1.0000000000000000E+020
 20
-1.0000000000000000E+020
 30
-1.0000000000000000E+020
  9
$PLIMMIN
 10
0.0
 20
0.0
  9
$PLIMMAX
 10
420.0
 20
297.0
  9
$UNITMODE
 70
     0
  9
$VISRETAIN
 70
     1
  9
$PLINEGEN
 70
     0
  9
$PSLTSCALE
 70
     1
  0
ENDSEC
  0
SECTION
  2
TABLES
  0
TABLE
  2
VPORT
 70
     2
  0
VPORT
  2
*ACTIVE
 70
     0
 10
0.0
 20
0.0
 11
1.0
 21
1.0
 12
95.014445955176996
 22
66.14408147782197
 13
0.0
 23
0.0
 14
10.0
 24
10.0
 15
10.0
 25
10.0
 16
0.0
 26
0.0
 36
1.0
 17
0.0
 27
0.0
 37
0.0
 40
81.414444339992315
 41
2.5392405063291141
 42
50.0
 43
0.0
 44
0.0
 50
0.0
 51
0.0
 71
     0
 72
   100
 73
     1
 74
     3
 75
     0
 76
     0
 77
     0
 78
     0
  0
ENDTAB
  0
TABLE
  2
LTYPE
 70
     2
  0
LTYPE
  2
CONTINUOUS
 70
     0
  3
Solid line
 72
    65
 73
     0
 40
0.0
  0
LTYPE
  2
CENTER
 70
     0
  3
Center ____ _ ____ _ ____ _ ____ _ ____ _ ____
 72
    65
 73
     4
 40
50.799999999999997
 49
31.75
 49
-6.3499999999999988
 49
6.3499999999999988
 49
-6.3499999999999988
  0
ENDTAB
  0
TABLE
  2
LAYER
 70
     4
  0
LAYER
  2
0
 70
     0
 62
     7
  6
CONTINUOUS
  0
LAYER
  2
1
 70
     0
 62
     7
  6
CENTER
  0
LAYER
  2
2
 70
     0
 62
     7
  6
CONTINUOUS
  0
LAYER
  2
DEFPOINTS
 70
     0
 62
     7
  6
CONTINUOUS
  0
ENDTAB
  0
TABLE
  2
STYLE
 70
     3
  0
STYLE
  2
STANDARD
 70
     0
 40
0.0
 41
1.0
 50
0.0
 71
     0
 42
2.5
  3
txt
  4

  0
STYLE
  2
\U+00C9L\U+00C9R_\U+00C2S\U+00C2V\U+00C2B\U+00C2N
 70
     0
 40
1.0
 41
1.0
 50
0.0
 71
     0
 42
1.0
  3
\U+00E9l\U+00E9r \U+00E2S\U+00E2V\U+00E2b\U+00E2N
  4

  0
STYLE
  2

 70
     1
 40
0.0
 41
1.0
 50
0.0
 71
     0
 42
2.5
  3
ltypeshp.shx
  4

  0
ENDTAB
  0
TABLE
  2
VIEW
 70
     0
  0
ENDTAB
  0
TABLE
  2
UCS
 70
     0
  0
ENDTAB
  0
TABLE
  2
APPID
 70
     1
  0
APPID
  2
ACAD
 70
     0
  0
ENDTAB
  0
TABLE
  2
DIMSTYLE
 70
     2
  0
DIMSTYLE
  2
ISO-25
 70
     0
  3

  4

  5

  6

  7

 40
1.0
 41
2.5
 42
0.625
 43
3.75
 44
1.25
 45
0.0
 46
0.0
 47
0.0
 48
0.0
140
2.5
141
2.5
142
0.0
143
0.03937007874016
144
1.0
145
0.0
146
1.0
147
0.625
 71
     0
 72
     0
 73
     0
 74
     0
 75
     0
 76
     0
 77
     1
 78
     8
170
     0
171
     3
172
     1
173
     0
174
     0
175
     0
176
     0
177
     0
178
     0
  0
DIMSTYLE
  2
STANDARD
 70
     0
  3

  4

  5

  6

  7

 40
1.0
 41
0.18
 42
0.0625
 43
0.38
 44
0.18
 45
0.0
 46
0.0
 47
0.0
 48
0.0
140
0.18
141
0.09
142
0.0
143
25.399999999999999
144
1.0
145
0.0
146
1.0
147
0.09
 71
     0
 72
     0
 73
     1
 74
     1
 75
     0
 76
     0
 77
     0
 78
     0
170
     0
171
     2
172
     0
173
     0
174
     0
175
     0
176
     0
177
     0
178
     0
  0
ENDTAB
  0
ENDSEC
  0
SECTION
  2
BLOCKS
  0
BLOCK
  8
0
  2
$MODEL_SPACE
 70
     0
 10
0.0
 20
0.0
 30
0.0
  3
$MODEL_SPACE
  1

  0
ENDBLK
  5
21
  8
0
  0
BLOCK
 67
     1
  8
0
  2
$PAPER_SPACE
 70
     0
 10
0.0
 20
0.0
 30
0.0
  3
$PAPER_SPACE
  1

  0
ENDBLK
  5
1D
 67
     1
  8
0
  0
BLOCK
  8
0
  2
*D1
 70
     1
 10
0.0
 20
0.0
 30
0.0
  3
*D1
  1

  0
LINE
  5
4CF
  8
2
 62
     0
 10
72.870790863119765
 20
82.512903310637242
 30
0.0
 11
72.870790863119765
 21
92.025362553334347
 31
0.0
  0
LINE
  5
4D0
  8
2
 62
     0
 10
77.370790863119765
 20
82.512903310637242
 30
0.0
 11
77.370790863119765
 21
92.025362553334347
 31
0.0
  0
LINE
  5
4D1
  8
2
 62
     0
 10
70.370790863119765
 20
90.775362553334347
 30
0.0
 11
67.870790863119765
 21
90.775362553334347
 31
0.0
  0
LINE
  5
4D2
  8
2
 62
     0
 10
79.870790863119765
 20
90.775362553334347
 30
0.0
 11
91.120790863119765
 21
90.775362553334347
 31
0.0
  0
LINE
  5
4D3
  8
2
 62
     0
 10
72.870790863119765
 20
90.775362553334347
 30
0.0
 11
77.370790863119765
 21
90.775362553334347
 31
0.0
  0
SOLID
  5
4D4
  8
2
 62
     0
 10
70.370790863119765
 20
91.192029220001018
 30
0.0
 11
70.370790863119765
 21
90.358695886667675
 31
0.0
 12
72.870790863119765
 22
90.775362553334347
 32
0.0
 13
72.870790863119765
 23
90.775362553334347
 33
0.0
  0
SOLID
  5
4D5
  8
2
 62
     0
 10
79.870790863119765
 20
91.192029220001018
 30
0.0
 11
79.870790863119765
 21
90.358695886667675
 31
0.0
 12
77.370790863119765
 22
90.775362553334347
 32
0.0
 13
77.370790863119765
 23
90.775362553334347
 33
0.0
  0
INSERT
  5
4D6
  8
2
  2
*U8
 10
0.0
 20
0.0
 30
0.0
  0
POINT
  5
4D7
  8
DEFPOINTS
 62
     0
 10
72.870790863119765
 20
81.887903310637242
 30
0.0
  0
POINT
  5
4D8
  8
DEFPOINTS
 62
     0
 10
77.370790863119765
 20
81.887903310637242
 30
0.0
  0
POINT
  5
4D9
  8
DEFPOINTS
 62
     0
 10
77.370790863119765
 20
90.775362553334347
 30
0.0
  0
ENDBLK
  5
472
  8
0
  0
BLOCK
  8
0
  2
*D2
 70
     1
 10
0.0
 20
0.0
 30
0.0
  3
*D2
  1

  0
LINE
  5
4C6
  8
2
 62
     0
 10
70.120790863119765
 20
82.512903310637242
 30
0.0
 11
70.120790863119765
 21
96.488300832846463
 31
0.0
  0
LINE
  5
4C7
  8
2
 62
     0
 10
80.120790863119765
 20
82.512903310637242
 30
0.0
 11
80.120790863119765
 21
96.488300832846463
 31
0.0
  0
LINE
  5
4C8
  8
2
 62
     0
 10
72.620790863119765
 20
95.238300832846463
 30
0.0
 11
77.620790863119765
 21
95.238300832846463
 31
0.0
  0
SOLID
  5
4C9
  8
2
 62
     0
 10
72.620790863119765
 20
95.654967499513134
 30
0.0
 11
72.620790863119765
 21
94.821634166179791
 31
0.0
 12
70.120790863119765
 22
95.238300832846463
 32
0.0
 13
70.120790863119765
 23
95.238300832846463
 33
0.0
  0
SOLID
  5
4CA
  8
2
 62
     0
 10
77.620790863119765
 20
95.654967499513134
 30
0.0
 11
77.620790863119765
 21
94.821634166179791
 31
0.0
 12
80.120790863119765
 22
95.238300832846463
 32
0.0
 13
80.120790863119765
 23
95.238300832846463
 33
0.0
  0
INSERT
  5
4CB
  8
2
  2
*U7
 10
0.0
 20
0.0
 30
0.0
  0
POINT
  5
4CC
  8
DEFPOINTS
 62
     0
 10
70.120790863119765
 20
81.887903310637242
 30
0.0
  0
POINT
  5
4CD
  8
DEFPOINTS
 62
     0
 10
80.120790863119765
 20
81.887903310637242
 30
0.0
  0
POINT
  5
4CE
  8
DEFPOINTS
 62
     0
 10
80.120790863119765
 20
95.238300832846463
 30
0.0
  0
ENDBLK
  5
47F
  8
0
  0
BLOCK
  8
0
  2
*D3
 70
     1
 10
0.0
 20
0.0
 30
0.0
  3
*D3
  1

  0
LINE
  5
482
  8
2
 62
     0
 10
80.745790863119765
 20
81.887903310637242
 30
0.0
 11
97.87084221005081
 21
81.887903310637228
 31
0.0
  0
LINE
  5
483
  8
2
 62
     0
 10
80.745790863119765
 20
72.887903310637242
 30
0.0
 11
97.87084221005081
 21
72.887903310637213
 31
0.0
  0
LINE
  5
484
  8
2
 62
     0
 10
96.62084221005081
 20
79.387903310637228
 30
0.0
 11
96.62084221005081
 21
75.387903310637213
 31
0.0
  0
SOLID
  5
485
  8
2
 62
     0
 10
96.204175543384125
 20
79.387903310637228
 30
0.0
 11
97.037508876717467
 21
79.387903310637228
 31
0.0
 12
96.62084221005081
 22
81.887903310637228
 32
0.0
 13
96.62084221005081
 23
81.887903310637228
 33
0.0
  0
SOLID
  5
486
  8
2
 62
     0
 10
96.204175543384125
 20
75.387903310637213
 30
0.0
 11
97.037508876717467
 21
75.387903310637213
 31
0.0
 12
96.62084221005081
 22
72.887903310637213
 32
0.0
 13
96.62084221005081
 23
72.887903310637213
 33
0.0
  0
TEXT
  5
487
  8
2
 62
     0
 10
95.995842210050796
 20
76.554569977303927
 30
0.0
 40
2.5
  1
9
 50
90.0
  0
POINT
  5
488
  8
DEFPOINTS
 62
     0
 10
80.120790863119765
 20
81.887903310637242
 30
0.0
  0
POINT
  5
489
  8
DEFPOINTS
 62
     0
 10
80.120790863119765
 20
72.887903310637242
 30
0.0
  0
POINT
  5
48A
  8
DEFPOINTS
 62
     0
 10
96.62084221005081
 20
72.887903310637213
 30
0.0
  0
ENDBLK
  5
48C
  8
0
  0
BLOCK
  8
0
  2
*D4
 70
     1
 10
0.0
 20
0.0
 30
0.0
  3
*D4
  1

  0
LINE
  5
4BD
  8
2
 62
     0
 10
80.745790863119765
 20
81.887903310637242
 30
0.0
 11
103.6167102276127
 21
81.887903310637228
 31
0.0
  0
LINE
  5
4BE
  8
2
 62
     0
 10
85.745790863119765
 20
58.887903310637242
 30
0.0
 11
103.6167102276127
 21
58.887903310637242
 31
0.0
  0
LINE
  5
4BF
  8
2
 62
     0
 10
102.3667102276127
 20
79.387903310637228
 30
0.0
 11
102.3667102276127
 21
61.387903310637242
 31
0.0
  0
SOLID
  5
4C0
  8
2
 62
     0
 10
101.950043560946
 20
79.387903310637228
 30
0.0
 11
102.7833768942793
 21
79.387903310637228
 31
0.0
 12
102.3667102276127
 22
81.887903310637228
 32
0.0
 13
102.3667102276127
 23
81.887903310637228
 33
0.0
  0
SOLID
  5
4C1
  8
2
 62
     0
 10
101.950043560946
 20
61.387903310637242
 30
0.0
 11
102.7833768942793
 21
61.387903310637242
 31
0.0
 12
102.3667102276127
 22
58.887903310637242
 32
0.0
 13
102.3667102276127
 23
58.887903310637242
 33
0.0
  0
TEXT
  5
4C2
  8
2
 62
     0
 10
101.7417102276126
 20
68.304569977303927
 30
0.0
 40
2.5
  1
23
 50
90.0
  0
POINT
  5
4C3
  8
DEFPOINTS
 62
     0
 10
80.120790863119765
 20
81.887903310637242
 30
0.0
  0
POINT
  5
4C4
  8
DEFPOINTS
 62
     0
 10
85.120790863119765
 20
58.887903310637242
 30
0.0
  0
POINT
  5
4C5
  8
DEFPOINTS
 62
     0
 10
102.3667102276127
 20
58.887903310637242
 30
0.0
  0
ENDBLK
  5
499
  8
0
  0
BLOCK
  8
0
  2
*D5
 70
     1
 10
0.0
 20
0.0
 30
0.0
  3
*D5
  1

  0
LINE
  5
4F5
  8
2
 62
     0
 10
70.370790863119765
 20
59.783644510425169
 30
0.0
 11
70.370790863119765
 21
48.933875972108197
 31
0.0
  0
LINE
  5
4F6
  8
2
 62
     0
 10
79.870790863119765
 20
59.783644510425169
 30
0.0
 11
79.870790863119765
 21
48.933875972108197
 31
0.0
  0
LINE
  5
4F7
  8
2
 62
     0
 10
72.870790863119765
 20
50.183875972108197
 30
0.0
 11
77.370790863119765
 21
50.183875972108197
 31
0.0
  0
SOLID
  5
4F8
  8
2
 62
     0
 10
72.870790863119765
 20
50.600542638774861
 30
0.0
 11
72.870790863119765
 21
49.767209305441533
 31
0.0
 12
70.370790863119765
 22
50.183875972108197
 32
0.0
 13
70.370790863119765
 23
50.183875972108197
 33
0.0
  0
SOLID
  5
4F9
  8
2
 62
     0
 10
77.370790863119765
 20
50.600542638774861
 30
0.0
 11
77.370790863119765
 21
49.767209305441533
 31
0.0
 12
79.870790863119765
 22
50.183875972108197
 32
0.0
 13
79.870790863119765
 23
50.183875972108197
 33
0.0
  0
INSERT
  5
4FA
  8
2
  2
*U10
 10
0.0
 20
0.0
 30
0.0
  0
POINT
  5
4FB
  8
DEFPOINTS
 62
     0
 10
70.370790863119765
 20
60.408644510425169
 30
0.0
  0
POINT
  5
4FC
  8
DEFPOINTS
 62
     0
 10
79.870790863119765
 20
60.408644510425169
 30
0.0
  0
POINT
  5
4FD
  8
DEFPOINTS
 62
     0
 10
79.870790863119765
 20
50.183875972108197
 30
0.0
  0
ENDBLK
  5
4A6
  8
0
  0
BLOCK
  8
0
  2
*D6
 70
     1
 10
0.0
 20
0.0
 30
0.0
  3
*D6
  1

  0
LINE
  5
4E3
  8
2
 62
     0
 10
65.120790863119765
 20
58.262903310637242
 30
0.0
 11
65.120790863119765
 21
44.548987255627232
 31
0.0
  0
LINE
  5
4E4
  8
2
 62
     0
 10
85.120790863119765
 20
58.262903310637242
 30
0.0
 11
85.120790863119765
 21
44.548987255627232
 31
0.0
  0
LINE
  5
4E5
  8
2
 62
     0
 10
67.620790863119765
 20
45.798987255627232
 30
0.0
 11
82.620790863119765
 21
45.798987255627232
 31
0.0
  0
SOLID
  5
4E6
  8
2
 62
     0
 10
67.620790863119765
 20
46.215653922293903
 30
0.0
 11
67.620790863119765
 21
45.382320588960567
 31
0.0
 12
65.120790863119765
 22
45.798987255627232
 32
0.0
 13
65.120790863119765
 23
45.798987255627232
 33
0.0
  0
SOLID
  5
4E7
  8
2
 62
     0
 10
82.620790863119765
 20
46.215653922293903
 30
0.0
 11
82.620790863119765
 21
45.382320588960567
 31
0.0
 12
85.120790863119765
 22
45.798987255627232
 32
0.0
 13
85.120790863119765
 23
45.798987255627232
 33
0.0
  0
INSERT
  5
4E8
  8
2
  2
*U9
 10
0.0
 20
0.0
 30
0.0
  0
POINT
  5
4E9
  8
DEFPOINTS
 62
     0
 10
65.120790863119765
 20
58.887903310637242
 30
0.0
  0
POINT
  5
4EA
  8
DEFPOINTS
 62
     0
 10
85.120790863119765
 20
58.887903310637242
 30
0.0
  0
POINT
  5
4EB
  8
DEFPOINTS
 62
     0
 10
85.120790863119765
 20
45.798987255627232
 30
0.0
  0
ENDBLK
  5
4B3
  8
0
  0
BLOCK
  8
0
  2
*U7
 70
     1
 10
0.0
 20
0.0
 30
0.0
  3
*U7
  1

  0
TEXT
  5
511
  8
2
 62
     0
 10
72.412457529786437
 20
95.863300832846463
 30
0.0
 40
2.5
  1
\U+2205
  0
TEXT
  5
512
  8
2
 62
     0
 10
74.912457529786437
 20
95.863300832846463
 30
0.0
 40
2.5
  1
10
  0
ENDBLK
  5
514
  8
0
  0
BLOCK
  8
0
  2
*U8
 70
     1
 10
0.0
 20
0.0
 30
0.0
  3
*U8
  1

  0
TEXT
  5
516
  8
2
 62
     0
 10
82.995790863119765
 20
91.400362553334347
 30
0.0
 40
2.5
  1
\U+2205
  0
TEXT
  5
517
  8
2
 62
     0
 10
85.495790863119765
 20
91.400362553334347
 30
0.0
 40
2.5
  1
4.5
  0
ENDBLK
  5
519
  8
0
  0
BLOCK
  8
0
  2
*U9
 70
     1
 10
0.0
 20
0.0
 30
0.0
  3
*U9
  1

  0
TEXT
  5
51B
  8
2
 62
     0
 10
71.995790863119765
 20
46.423987255627232
 30
0.0
 40
2.5
  1
\U+2205
  0
TEXT
  5
51C
  8
2
 62
     0
 10
74.495790863119765
 20
46.423987255627232
 30
0.0
 40
2.5
  1
20
  0
ENDBLK
  5
51E
  8
0
  0
BLOCK
  8
0
  2
*U10
 70
     1
 10
0.0
 20
0.0
 30
0.0
  3
*U10
  1

  0
TEXT
  5
520
  8
2
 62
     0
 10
71.370790863119765
 20
50.808875972108197
 30
0.0
 40
2.5
  1
\U+2205
  0
TEXT
  5
521
  8
2
 62
     0
 10
73.870790863119765
 20
50.808875972108197
 30
0.0
 40
2.5
  1
9.5
  0
ENDBLK
  5
523
  8
0
  0
ENDSEC
  0
SECTION
  2
ENTITIES
  0
TEXT
  5
12B
  8
2
 10
62.781458090921767
 20
33.42956584693524
 30
0.0
 40
2.5399440000000002
  1
No. 21.020.016._
 51
-0.0000015352344868
  7
\U+00C9L\U+00C9R_\U+00C2S\U+00C2V\U+00C2B\U+00C2N
  0
LINE
  5
16E
  8
0
 39
5.0
 10
68.074990863119766
 20
70.201903310637249
 30
0.0
 11
68.074990863119766
 21
70.201903310637249
 31
0.0
  0
LINE
  5
16F
  8
0
 39
5.0
 10
68.074990863119766
 20
70.201903310637249
 30
0.0
 11
67.966190863119763
 21
70.157003310637251
 31
0.0
  0
LINE
  5
170
  8
0
 39
5.0
 10
67.966190863119763
 20
70.157003310637251
 30
0.0
 11
67.872590863119754
 21
70.106703310637243
 31
0.0
  0
LINE
  5
171
  8
0
 39
5.0
 10
67.872590863119754
 20
70.106703310637243
 30
0.0
 11
67.794090863119763
 21
70.051603310637233
 31
0.0
  0
LINE
  5
172
  8
0
 39
5.0
 10
67.794090863119763
 20
70.051603310637233
 30
0.0
 11
67.730490863119769
 21
69.992403310637243
 31
0.0
  0
LINE
  5
173
  8
0
 39
5.0
 10
67.730490863119769
 20
69.992403310637243
 30
0.0
 11
67.681790863119772
 21
69.929703310637251
 31
0.0
  0
LINE
  5
174
  8
0
 39
5.0
 10
67.681790863119772
 20
69.929703310637251
 30
0.0
 11
67.647590863119774
 21
69.864603310637236
 31
0.0
  0
LINE
  5
175
  8
0
 39
5.0
 10
67.647590863119774
 20
69.864603310637236
 30
0.0
 11
67.627890863119774
 21
69.797603310637257
 31
0.0
  0
LINE
  5
176
  8
0
 39
5.0
 10
67.627890863119774
 20
69.797603310637257
 30
0.0
 11
67.622390863119762
 21
69.729703310637234
 31
0.0
  0
LINE
  5
177
  8
0
 39
5.0
 10
67.622390863119762
 20
69.729703310637234
 30
0.0
 11
67.631290863119773
 21
69.661303310637251
 31
0.0
  0
LINE
  5
178
  8
0
 39
5.0
 10
67.631290863119773
 20
69.661303310637251
 30
0.0
 11
67.653990863119759
 21
69.593603310637249
 31
0.0
  0
LINE
  5
179
  8
0
 39
5.0
 10
67.653990863119759
 20
69.593603310637249
 30
0.0
 11
67.690590863119766
 21
69.526903310637252
 31
0.0
  0
LINE
  5
17A
  8
0
 39
5.0
 10
67.690590863119766
 20
69.526903310637252
 30
0.0
 11
67.740690863119767
 21
69.462403310637242
 31
0.0
  0
LINE
  5
17B
  8
0
 39
5.0
 10
67.740690863119767
 20
69.462403310637242
 30
0.0
 11
67.804490863119767
 21
69.400503310637248
 31
0.0
  0
LINE
  5
17C
  8
0
 39
5.0
 10
67.804490863119767
 20
69.400503310637248
 30
0.0
 11
67.881490863119765
 21
69.342203310637245
 31
0.0
  0
LINE
  5
17D
  8
0
 39
5.0
 10
67.881490863119765
 20
69.342203310637245
 30
0.0
 11
67.971790863119764
 21
69.288103310637254
 31
0.0
  0
LINE
  5
17E
  8
0
 39
5.0
 10
67.971790863119764
 20
69.288103310637254
 30
0.0
 11
68.074990863119766
 21
69.239203310637251
 31
0.0
  0
LINE
  5
17F
  8
0
 39
5.0
 10
68.074990863119766
 20
69.239203310637251
 30
0.0
 11
70.35777603511724
 21
66.957366188340004
 31
0.0
  0
LINE
  5
187
  8
0
 39
5.0
 10
70.357776035117254
 20
66.957366188339975
 30
0.0
 11
70.370790863119765
 21
66.912503310637248
 31
0.0
  0
LINE
  5
18A
  8
0
 39
5.0
 10
70.370890863119769
 20
66.794503310637239
 30
0.0
 11
70.354390863119761
 21
66.735103310637243
 31
0.0
  0
LINE
  5
18B
  8
0
 39
5.0
 10
70.354390863119761
 20
66.735103310637243
 30
0.0
 11
70.327290863119771
 21
66.675503310637239
 31
0.0
  0
LINE
  5
18C
  8
0
 39
5.0
 10
70.327290863119771
 20
66.675503310637239
 30
0.0
 11
70.309214420691475
 21
66.646954008706828
 31
0.0
  0
LINE
  5
191
  8
0
 39
5.0
 10
70.309214420691504
 20
66.646954008706871
 30
0.0
 11
67.479946734293975
 21
63.817403310637239
 31
0.0
  0
LINE
  5
1B5
  8
0
 39
5.0
 10
70.370790863119765
 20
60.408644510425169
 30
0.0
 11
66.11379086311976
 21
58.888003310637231
 31
0.0
  0
LINE
  5
1C4
  8
0
 39
5.0
 10
70.120790863119765
 20
81.887903310637242
 30
0.0
 11
70.120790863119765
 21
72.887903310637242
 31
0.0
  0
LINE
  5
1C5
  8
0
 39
5.0
 10
70.120790863119765
 20
72.887903310637242
 30
0.0
 11
66.206190863119744
 21
70.320603310637253
 31
0.0
  0
LINE
  5
1C6
  8
0
 39
5.0
 10
66.206190863119744
 20
70.320603310637253
 30
0.0
 11
66.206190863119744
 21
70.320603310637253
 31
0.0
  0
LINE
  5
1C7
  8
0
 39
5.0
 10
66.206190863119744
 20
70.320603310637253
 30
0.0
 11
66.090990863119771
 21
70.233003310637244
 31
0.0
  0
LINE
  5
1C8
  8
0
 39
5.0
 10
66.090990863119771
 20
70.233003310637244
 30
0.0
 11
65.991890863119764
 21
70.146903310637256
 31
0.0
  0
LINE
  5
1C9
  8
0
 39
5.0
 10
65.991890863119764
 20
70.146903310637256
 30
0.0
 11
65.909090863119758
 21
70.061703310637242
 31
0.0
  0
LINE
  5
1CA
  8
0
 39
5.0
 10
65.909090863119758
 20
70.061703310637242
 30
0.0
 11
65.842190863119768
 21
69.978003310637249
 31
0.0
  0
LINE
  5
1CB
  8
0
 39
5.0
 10
65.842190863119768
 20
69.978003310637249
 30
0.0
 11
65.791590863119765
 21
69.895203310637257
 31
0.0
  0
LINE
  5
1CC
  8
0
 39
5.0
 10
65.791590863119765
 20
69.895203310637257
 30
0.0
 11
65.756890863119764
 21
69.813603310637248
 31
0.0
  0
LINE
  5
1CD
  8
0
 39
5.0
 10
65.756890863119764
 20
69.813603310637248
 30
0.0
 11
65.738190863119769
 21
69.733203310637251
 31
0.0
  0
LINE
  5
1CE
  8
0
 39
5.0
 10
65.738190863119769
 20
69.733203310637251
 30
0.0
 11
65.735290863119744
 21
69.65400331063725
 31
0.0
  0
LINE
  5
1CF
  8
0
 39
5.0
 10
65.735290863119744
 20
69.65400331063725
 30
0.0
 11
65.74849086311977
 21
69.575703310637252
 31
0.0
  0
LINE
  5
1D0
  8
0
 39
5.0
 10
65.74849086311977
 20
69.575703310637252
 30
0.0
 11
65.777390863119763
 21
69.498803310637257
 31
0.0
  0
LINE
  5
1D1
  8
0
 39
5.0
 10
65.777390863119763
 20
69.498803310637257
 30
0.0
 11
65.822090863119755
 21
69.422903310637253
 31
0.0
  0
LINE
  5
1D2
  8
0
 39
5.0
 10
65.822090863119755
 20
69.422903310637253
 30
0.0
 11
65.882290863119763
 21
69.348403310637252
 31
0.0
  0
LINE
  5
1D3
  8
0
 39
5.0
 10
65.882290863119763
 20
69.348403310637252
 30
0.0
 11
65.958290863119771
 21
69.274903310637242
 31
0.0
  0
LINE
  5
1D4
  8
0
 39
5.0
 10
65.958290863119771
 20
69.274903310637242
 30
0.0
 11
66.049790863119767
 21
69.202603310637244
 31
0.0
  0
LINE
  5
1D5
  8
0
 39
5.0
 10
66.049790863119767
 20
69.202603310637244
 30
0.0
 11
66.15689086311977
 21
69.131503310637257
 31
0.0
  0
LINE
  5
1D6
  8
0
 39
5.0
 10
66.15689086311977
 20
69.131503310637257
 30
0.0
 11
66.279390863119772
 21
69.061603310637224
 31
0.0
  0
LINE
  5
1D7
  8
0
 39
5.0
 10
66.279390863119772
 20
69.061603310637224
 30
0.0
 11
68.745873227325262
 21
66.838705374870983
 31
0.0
  0
LINE
  5
1E9
  8
0
 39
5.0
 10
68.745873227325276
 20
66.838705374870983
 30
0.0
 11
65.804318682611111
 21
63.897003708292999
 31
0.0
  0
LINE
  5
1F2
  8
0
 39
5.0
 10
65.804318682611111
 20
63.897003708292999
 30
0.0
 11
65.799290863119765
 21
63.862203310637248
 31
0.0
  0
LINE
  5
1F3
  8
0
 39
5.0
 10
65.799290863119765
 20
63.862203310637248
 30
0.0
 11
65.805990863119774
 21
63.79160331063725
 31
0.0
  0
LINE
  5
1F4
  8
0
 39
5.0
 10
65.805990863119774
 20
63.79160331063725
 30
0.0
 11
65.819812082287456
 21
63.749190556538892
 31
0.0
  0
LINE
  5
1FB
  8
0
 39
5.0
 10
65.819812082287456
 20
63.749190556538927
 30
0.0
 11
68.910140798894133
 21
60.70489821540469
 31
0.0
  0
LINE
  5
204
  8
0
 39
5.0
 10
68.910140798894133
 20
60.704898215404668
 30
0.0
 11
68.909990863119759
 21
60.693003310637252
 31
0.0
  0
LINE
  5
205
  8
0
 39
5.0
 10
68.909990863119759
 20
60.693003310637252
 30
0.0
 11
68.896790863119776
 21
60.643303310637251
 31
0.0
  0
LINE
  5
206
  8
0
 39
5.0
 10
68.896790863119776
 20
60.643303310637251
 30
0.0
 11
68.870390863119766
 21
60.590803310637249
 31
0.0
  0
LINE
  5
207
  8
0
 39
5.0
 10
68.870390863119766
 20
60.590803310637249
 30
0.0
 11
68.830790863119773
 21
60.535303310637261
 31
0.0
  0
LINE
  5
208
  8
0
 39
5.0
 10
68.830790863119773
 20
60.535303310637261
 30
0.0
 11
68.777490863119766
 21
60.476303310637249
 31
0.0
  0
LINE
  5
209
  8
0
 39
5.0
 10
68.777490863119766
 20
60.476303310637249
 30
0.0
 11
68.710590863119762
 21
60.413703310637253
 31
0.0
  0
LINE
  5
20A
  8
0
 39
5.0
 10
68.710590863119762
 20
60.413703310637253
 30
0.0
 11
68.629690863119777
 21
60.346803310637249
 31
0.0
  0
LINE
  5
20B
  8
0
 39
5.0
 10
68.629690863119777
 20
60.346803310637249
 30
0.0
 11
68.534690863119778
 21
60.275503310637248
 31
0.0
  0
LINE
  5
20C
  8
0
 39
5.0
 10
68.534690863119778
 20
60.275503310637248
 30
0.0
 11
68.425190863119767
 21
60.199203310637252
 31
0.0
  0
LINE
  5
20E
  8
0
 39
5.0
 10
65.133090863119776
 20
58.887903310637242
 30
0.0
 11
75.120790863119765
 21
58.887903310637242
 31
0.0
  0
LINE
  5
3C0
  8
1
 10
75.120790863119765
 20
58.387903310637242
 30
0.0
 11
75.120790863119765
 21
82.387903310637228
 31
0.0
  0
LINE
  5
3C2
  8
0
 10
72.870790863119765
 20
81.887903310637242
 30
0.0
 11
72.870790863119765
 21
72.684653553694773
 31
0.0
  0
LINE
  5
3C5
  8
0
 10
65.120790863119765
 20
58.887903310637242
 30
0.0
 11
75.120790863119765
 21
58.887903310637242
 31
0.0
  0
LINE
  5
3C6
  8
0
 10
70.120790863119765
 20
81.887903310637242
 30
0.0
 11
75.120790863119765
 21
81.887903310637242
 31
0.0
  0
LINE
  5
3CE
  8
0
 10
68.425190863119767
 20
60.199203310637252
 30
0.0
 11
65.120790863119765
 21
58.887903310637242
 31
0.0
  0
LINE
  5
3E8
  8
0
 10
75.120790863119765
 20
69.593603310637249
 30
0.0
 11
67.653990863119759
 21
69.593603310637249
 31
0.0
  0
LINE
  5
3E9
  8
0
 10
75.120790863119765
 20
66.912503310637248
 30
0.0
 11
68.79932611491833
 21
66.912503310637248
 31
0.0
  0
LINE
  5
3EA
  8
0
 10
75.120790863119765
 20
63.817403310637239
 30
0.0
 11
67.479946734293989
 21
63.817403310637253
 31
0.0
  0
LINE
  5
3EF
  8
0
 10
70.370790863119765
 20
60.61930331063725
 30
0.0
 11
75.120790863119765
 21
60.61930331063725
 31
0.0
  0
LINE
  5
3FF
  8
0
 10
75.120790863119765
 20
72.684653553694773
 30
0.0
 11
72.870790863119765
 21
72.684653553694773
 31
0.0
  0
LINE
  5
400
  8
0
 10
68.074990863119766
 20
70.201903310637249
 30
0.0
 11
72.870790863119765
 21
72.684653553694773
 31
0.0
  0
LINE
  5
409
  8
0
 10
70.370790863119765
 20
66.794143310637224
 30
0.0
 11
70.370790863119765
 21
66.912503310637248
 31
0.0
  0
LINE
  5
40B
  8
0
 10
70.37079086311978
 20
60.408644510425191
 30
0.0
 11
70.370790863119751
 21
60.955952055510842
 31
0.0
  0
LINE
  5
414
  8
0
 10
67.479946734293975
 20
63.817403310637239
 30
0.0
 11
70.370790863119765
 21
60.955952055510828
 31
0.0
  0
LINE
  5
418
  8
0
 39
5.0
 10
85.108490863119755
 20
58.887903310637242
 30
0.0
 11
75.120790863119765
 21
58.887903310637242
 31
0.0
  0
LINE
  5
419
  8
0
 39
5.0
 10
81.706890863119753
 20
60.275503310637248
 30
0.0
 11
81.816390863119764
 21
60.199203310637252
 31
0.0
  0
LINE
  5
41A
  8
0
 39
5.0
 10
81.611890863119754
 20
60.346803310637249
 30
0.0
 11
81.706890863119753
 21
60.275503310637248
 31
0.0
  0
LINE
  5
41B
  8
0
 39
5.0
 10
81.530990863119769
 20
60.413703310637253
 30
0.0
 11
81.611890863119754
 21
60.346803310637249
 31
0.0
  0
LINE
  5
41C
  8
0
 39
5.0
 10
81.464090863119765
 20
60.476303310637249
 30
0.0
 11
81.530990863119769
 21
60.413703310637253
 31
0.0
  0
LINE
  5
41D
  8
0
 39
5.0
 10
81.410790863119743
 20
60.535303310637261
 30
0.0
 11
81.464090863119765
 21
60.476303310637249
 31
0.0
  0
LINE
  5
41E
  8
0
 39
5.0
 10
81.371190863119764
 20
60.590803310637249
 30
0.0
 11
81.410790863119743
 21
60.535303310637261
 31
0.0
  0
LINE
  5
41F
  8
0
 39
5.0
 10
81.344790863119755
 20
60.643303310637251
 30
0.0
 11
81.371190863119764
 21
60.590803310637249
 31
0.0
  0
LINE
  5
420
  8
0
 39
5.0
 10
81.331590863119771
 20
60.693003310637252
 30
0.0
 11
81.344790863119755
 21
60.643303310637251
 31
0.0
  0
LINE
  5
421
  8
0
 39
5.0
 10
81.331440927345383
 20
60.704898215404668
 30
0.0
 11
81.331590863119771
 21
60.693003310637252
 31
0.0
  0
LINE
  5
422
  8
0
 39
5.0
 10
84.421769643952075
 20
63.749190556538927
 30
0.0
 11
81.331440927345383
 21
60.70489821540469
 31
0.0
  0
LINE
  5
423
  8
0
 39
5.0
 10
84.435590863119756
 20
63.79160331063725
 30
0.0
 11
84.421769643952075
 21
63.749190556538892
 31
0.0
  0
LINE
  5
424
  8
0
 39
5.0
 10
84.442290863119766
 20
63.862203310637248
 30
0.0
 11
84.435590863119756
 21
63.79160331063725
 31
0.0
  0
LINE
  5
425
  8
0
 39
5.0
 10
84.43726304362842
 20
63.897003708292999
 30
0.0
 11
84.442290863119766
 21
63.862203310637248
 31
0.0
  0
LINE
  5
426
  8
0
 39
5.0
 10
81.495708498914254
 20
66.838705374870983
 30
0.0
 11
84.43726304362842
 21
63.897003708292999
 31
0.0
  0
LINE
  5
427
  8
0
 39
5.0
 10
83.962190863119758
 20
69.061603310637224
 30
0.0
 11
81.495708498914269
 21
66.838705374870983
 31
0.0
  0
LINE
  5
428
  8
0
 39
5.0
 10
84.084690863119761
 20
69.131503310637257
 30
0.0
 11
83.962190863119758
 21
69.061603310637224
 31
0.0
  0
LINE
  5
429
  8
0
 39
5.0
 10
84.191790863119749
 20
69.202603310637244
 30
0.0
 11
84.084690863119761
 21
69.131503310637257
 31
0.0
  0
LINE
  5
42A
  8
0
 39
5.0
 10
84.283290863119745
 20
69.274903310637242
 30
0.0
 11
84.191790863119749
 21
69.202603310637244
 31
0.0
  0
LINE
  5
42B
  8
0
 39
5.0
 10
84.359290863119767
 20
69.348403310637252
 30
0.0
 11
84.283290863119745
 21
69.274903310637242
 31
0.0
  0
LINE
  5
42C
  8
0
 39
5.0
 10
84.419490863119776
 20
69.422903310637253
 30
0.0
 11
84.359290863119767
 21
69.348403310637252
 31
0.0
  0
LINE
  5
42D
  8
0
 39
5.0
 10
84.464190863119754
 20
69.498803310637257
 30
0.0
 11
84.419490863119776
 21
69.422903310637253
 31
0.0
  0
LINE
  5
42E
  8
0
 39
5.0
 10
84.493090863119747
 20
69.575703310637252
 30
0.0
 11
84.464190863119754
 21
69.498803310637257
 31
0.0
  0
LINE
  5
42F
  8
0
 39
5.0
 10
84.506290863119773
 20
69.65400331063725
 30
0.0
 11
84.493090863119747
 21
69.575703310637252
 31
0.0
  0
LINE
  5
430
  8
0
 39
5.0
 10
84.503390863119748
 20
69.733203310637251
 30
0.0
 11
84.506290863119773
 21
69.65400331063725
 31
0.0
  0
LINE
  5
431
  8
0
 39
5.0
 10
84.484690863119766
 20
69.813603310637248
 30
0.0
 11
84.503390863119748
 21
69.733203310637251
 31
0.0
  0
LINE
  5
432
  8
0
 39
5.0
 10
84.449990863119766
 20
69.895203310637257
 30
0.0
 11
84.484690863119766
 21
69.813603310637248
 31
0.0
  0
LINE
  5
433
  8
0
 39
5.0
 10
84.399390863119763
 20
69.978003310637249
 30
0.0
 11
84.449990863119766
 21
69.895203310637257
 31
0.0
  0
LINE
  5
434
  8
0
 39
5.0
 10
84.332490863119773
 20
70.061703310637242
 30
0.0
 11
84.399390863119763
 21
69.978003310637249
 31
0.0
  0
LINE
  5
435
  8
0
 39
5.0
 10
84.249690863119767
 20
70.146903310637256
 30
0.0
 11
84.332490863119773
 21
70.061703310637242
 31
0.0
  0
LINE
  5
436
  8
0
 39
5.0
 10
84.150590863119746
 20
70.233003310637244
 30
0.0
 11
84.249690863119767
 21
70.146903310637256
 31
0.0
  0
LINE
  5
437
  8
0
 39
5.0
 10
84.035390863119787
 20
70.320603310637253
 30
0.0
 11
84.150590863119746
 21
70.233003310637244
 31
0.0
  0
LINE
  5
438
  8
0
 39
5.0
 10
84.035390863119787
 20
70.320603310637253
 30
0.0
 11
84.035390863119787
 21
70.320603310637253
 31
0.0
  0
LINE
  5
439
  8
0
 39
5.0
 10
80.120790863119765
 20
72.887903310637242
 30
0.0
 11
84.035390863119787
 21
70.320603310637253
 31
0.0
  0
LINE
  5
43A
  8
0
 39
5.0
 10
80.120790863119765
 20
81.887903310637242
 30
0.0
 11
80.120790863119765
 21
72.887903310637242
 31
0.0
  0
LINE
  5
43B
  8
0
 39
5.0
 10
79.870790863119765
 20
60.408644510425169
 30
0.0
 11
84.127790863119756
 21
58.888003310637231
 31
0.0
  0
LINE
  5
43C
  8
0
 39
5.0
 10
79.932367305548027
 20
66.646954008706871
 30
0.0
 11
82.761634991945556
 21
63.817403310637239
 31
0.0
  0
LINE
  5
43D
  8
0
 39
5.0
 10
79.91429086311976
 20
66.675503310637239
 30
0.0
 11
79.932367305548055
 21
66.646954008706828
 31
0.0
  0
LINE
  5
43E
  8
0
 39
5.0
 10
79.88719086311977
 20
66.735103310637243
 30
0.0
 11
79.91429086311976
 21
66.675503310637239
 31
0.0
  0
LINE
  5
43F
  8
0
 39
5.0
 10
79.870690863119762
 20
66.794503310637239
 30
0.0
 11
79.88719086311977
 21
66.735103310637243
 31
0.0
  0
LINE
  5
440
  8
0
 39
5.0
 10
79.883805691122276
 20
66.957366188339975
 30
0.0
 11
79.870790863119765
 21
66.912503310637248
 31
0.0
  0
LINE
  5
441
  8
0
 39
5.0
 10
82.166590863119765
 20
69.239203310637251
 30
0.0
 11
79.883805691122291
 21
66.957366188340004
 31
0.0
  0
LINE
  5
442
  8
0
 39
5.0
 10
82.269790863119766
 20
69.288103310637254
 30
0.0
 11
82.166590863119765
 21
69.239203310637251
 31
0.0
  0
LINE
  5
443
  8
0
 39
5.0
 10
82.360090863119765
 20
69.342203310637245
 30
0.0
 11
82.269790863119766
 21
69.288103310637254
 31
0.0
  0
LINE
  5
444
  8
0
 39
5.0
 10
82.437090863119764
 20
69.400503310637248
 30
0.0
 11
82.360090863119765
 21
69.342203310637245
 31
0.0
  0
LINE
  5
445
  8
0
 39
5.0
 10
82.500890863119764
 20
69.462403310637242
 30
0.0
 11
82.437090863119764
 21
69.400503310637248
 31
0.0
  0
LINE
  5
446
  8
0
 39
5.0
 10
82.550990863119765
 20
69.526903310637252
 30
0.0
 11
82.500890863119764
 21
69.462403310637242
 31
0.0
  0
LINE
  5
447
  8
0
 39
5.0
 10
82.587590863119772
 20
69.593603310637249
 30
0.0
 11
82.550990863119765
 21
69.526903310637252
 31
0.0
  0
LINE
  5
448
  8
0
 39
5.0
 10
82.610290863119758
 20
69.661303310637251
 30
0.0
 11
82.587590863119772
 21
69.593603310637249
 31
0.0
  0
LINE
  5
449
  8
0
 39
5.0
 10
82.619190863119755
 20
69.729703310637234
 30
0.0
 11
82.610290863119758
 21
69.661303310637251
 31
0.0
  0
LINE
  5
44A
  8
0
 39
5.0
 10
82.613690863119757
 20
69.797603310637257
 30
0.0
 11
82.619190863119755
 21
69.729703310637234
 31
0.0
  0
LINE
  5
44B
  8
0
 39
5.0
 10
82.593990863119757
 20
69.864603310637236
 30
0.0
 11
82.613690863119757
 21
69.797603310637257
 31
0.0
  0
LINE
  5
44C
  8
0
 39
5.0
 10
82.559790863119758
 20
69.929703310637251
 30
0.0
 11
82.593990863119757
 21
69.864603310637236
 31
0.0
  0
LINE
  5
44D
  8
0
 39
5.0
 10
82.511090863119747
 20
69.992403310637243
 30
0.0
 11
82.559790863119758
 21
69.929703310637251
 31
0.0
  0
LINE
  5
44E
  8
0
 39
5.0
 10
82.447490863119754
 20
70.051603310637233
 30
0.0
 11
82.511090863119747
 21
69.992403310637243
 31
0.0
  0
LINE
  5
44F
  8
0
 39
5.0
 10
82.368990863119777
 20
70.106703310637243
 30
0.0
 11
82.447490863119754
 21
70.051603310637233
 31
0.0
  0
LINE
  5
450
  8
0
 39
5.0
 10
82.275390863119753
 20
70.157003310637251
 30
0.0
 11
82.368990863119777
 21
70.106703310637243
 31
0.0
  0
LINE
  5
451
  8
0
 39
5.0
 10
82.166590863119765
 20
70.201903310637249
 30
0.0
 11
82.275390863119753
 21
70.157003310637251
 31
0.0
  0
LINE
  5
452
  8
0
 39
5.0
 10
82.166590863119765
 20
70.201903310637249
 30
0.0
 11
82.166590863119765
 21
70.201903310637249
 31
0.0
  0
LINE
  5
453
  8
0
 10
77.370790863119765
 20
81.887903310637242
 30
0.0
 11
77.370790863119765
 21
72.684653553694773
 31
0.0
  0
LINE
  5
454
  8
0
 10
82.761634991945556
 20
63.817403310637239
 30
0.0
 11
79.870790863119765
 21
60.955952055510828
 31
0.0
  0
LINE
  5
455
  8
0
 10
75.120790863119765
 20
63.817403310637239
 30
0.0
 11
82.761634991945542
 21
63.817403310637253
 31
0.0
  0
LINE
  5
456
  8
0
 10
81.816390863119764
 20
60.199203310637252
 30
0.0
 11
85.120790863119765
 21
58.887903310637242
 31
0.0
  0
LINE
  5
457
  8
0
 10
85.120790863119765
 20
58.887903310637242
 30
0.0
 11
75.120790863119765
 21
58.887903310637242
 31
0.0
  0
LINE
  5
458
  8
0
 10
79.870790863119765
 20
60.61930331063725
 30
0.0
 11
75.120790863119765
 21
60.61930331063725
 31
0.0
  0
LINE
  5
459
  8
0
 10
79.870790863119751
 20
60.408644510425191
 30
0.0
 11
79.87079086311978
 21
60.955952055510842
 31
0.0
  0
LINE
  5
45A
  8
0
 10
75.120790863119765
 20
66.912503310637248
 30
0.0
 11
81.442255611321201
 21
66.912503310637248
 31
0.0
  0
LINE
  5
45B
  8
0
 10
79.870790863119765
 20
66.794143310637224
 30
0.0
 11
79.870790863119765
 21
66.912503310637248
 31
0.0
  0
LINE
  5
45C
  8
0
 10
75.120790863119765
 20
69.593603310637249
 30
0.0
 11
82.587590863119772
 21
69.593603310637249
 31
0.0
  0
LINE
  5
45D
  8
0
 10
82.166590863119765
 20
70.201903310637249
 30
0.0
 11
77.370790863119765
 21
72.684653553694773
 31
0.0
  0
LINE
  5
45E
  8
0
 10
75.120790863119765
 20
72.684653553694773
 30
0.0
 11
77.370790863119765
 21
72.684653553694773
 31
0.0
  0
LINE
  5
45F
  8
0
 10
80.120790863119765
 20
81.887903310637242
 30
0.0
 11
75.120790863119765
 21
81.887903310637242
 31
0.0
  0
DIMENSION
  5
464
  8
2
  2
*D1
 10
77.370790863119765
 20
90.775362553334347
 30
0.0
 11
86.745790863119765
 21
92.650362553334347
 31
0.0
 70
     0
  1
%%c<>
 13
72.870790863119765
 23
81.887903310637242
 33
0.0
 14
77.370790863119765
 24
81.887903310637242
 34
0.0
  0
DIMENSION
  5
473
  8
2
  2
*D2
 10
80.120790863119765
 20
95.238300832846463
 30
0.0
 11
75.120790863119765
 21
97.113300832846463
 31
0.0
 70
     0
  1
%%c<>
 13
70.120790863119765
 23
81.887903310637242
 33
0.0
 14
80.120790863119765
 24
81.887903310637242
 34
0.0
  0
DIMENSION
  5
480
  8
2
  2
*D3
 10
96.62084221005081
 20
72.887903310637213
 30
0.0
 11
94.745842210050796
 21
77.387903310637256
 31
0.0
 70
     0
 13
80.120790863119765
 23
81.887903310637242
 33
0.0
 14
80.120790863119765
 24
72.887903310637242
 34
0.0
 50
90.0
  0
DIMENSION
  5
48D
  8
2
  2
*D4
 10
102.3667102276127
 20
58.887903310637242
 30
0.0
 11
100.4917102276126
 21
70.387903310637256
 31
0.0
 70
     0
 13
80.120790863119765
 23
81.887903310637242
 33
0.0
 14
85.120790863119765
 24
58.887903310637242
 34
0.0
 50
90.0
1001
ACAD
1000
DSTYLE
1002
{
1070
   271
1070
     6
1002
}
  0
DIMENSION
  5
49A
  8
2
  2
*D5
 10
79.870790863119765
 20
50.183875972108197
 30
0.0
 11
75.120790863119765
 21
52.058875972108197
 31
0.0
 70
     0
  1
%%c<>
 13
70.370790863119765
 23
60.408644510425169
 33
0.0
 14
79.870790863119765
 24
60.408644510425169
 34
0.0
1001
ACAD
1000
DSTYLE
1002
{
1070
   271
1070
     6
1002
}
  0
DIMENSION
  5
4A7
  8
2
  2
*D6
 10
85.120790863119765
 20
45.798987255627232
 30
0.0
 11
75.120790863119765
 21
47.673987255627232
 31
0.0
 70
     0
  1
%%c<>
 13
65.120790863119765
 23
58.887903310637242
 33
0.0
 14
85.120790863119765
 24
58.887903310637242
 34
0.0
1001
ACAD
1000
DSTYLE
1002
{
1070
   271
1070
     6
1002
}
  0
ENDSEC
  0
EOF
