  0
SECTION
  2
HEADER
  9
$ACADVER
  1
AC1009
  9
$INSBASE
 10
0.0
 20
0.0
 30
0.0
  9
$EXTMIN
 10
72.907703749944062
 20
12.69493319562522
 30
0.0
  9
$EXTMAX
 10
164.05456829365559
 20
123.8032670351589
 30
6.9181999999999988
  9
$LIMMIN
 10
0.0
 20
0.0
  9
$LIMMAX
 10
420.0
 20
297.0
  9
$ORTHOMODE
 70
     0
  9
$REGENMODE
 70
     1
  9
$FILLMODE
 70
     1
  9
$QTEXTMODE
 70
     0
  9
$MIRRTEXT
 70
     1
  9
$DRAGMODE
 70
     2
  9
$LTSCALE
 40
0.3
  9
$OSMODE
 70
    37
  9
$ATTMODE
 70
     1
  9
$TEXTSIZE
 40
2.5
  9
$TRACEWID
 40
1.0
  9
$TEXTSTYLE
  7
STANDARD
  9
$CLAYER
  8
2
  9
$CELTYPE
  6
BYLAYER
  9
$CECOLOR
 62
   256
  9
$DIMSCALE
 40
1.0
  9
$DIMASZ
 40
2.5
  9
$DIMEXO
 40
0.625
  9
$DIMDLI
 40
3.75
  9
$DIMRND
 40
0.0
  9
$DIMDLE
 40
0.0
  9
$DIMEXE
 40
1.25
  9
$DIMTP
 40
0.0
  9
$DIMTM
 40
0.0
  9
$DIMTXT
 40
2.5
  9
$DIMCEN
 40
2.5
  9
$DIMTSZ
 40
0.0
  9
$DIMTOL
 70
     0
  9
$DIMLIM
 70
     0
  9
$DIMTIH
 70
     0
  9
$DIMTOH
 70
     0
  9
$DIMSE1
 70
     0
  9
$DIMSE2
 70
     0
  9
$DIMTAD
 70
     1
  9
$DIMZIN
 70
     8
  9
$DIMBLK
  1

  9
$DIMASO
 70
     1
  9
$DIMSHO
 70
     1
  9
$DIMPOST
  1

  9
$DIMAPOST
  1

  9
$DIMALT
 70
     0
  9
$DIMALTD
 70
     3
  9
$DIMALTF
 40
0.03937007874016
  9
$DIMLFAC
 40
1.0
  9
$DIMTOFL
 70
     1
  9
$DIMTVP
 40
0.0
  9
$DIMTIX
 70
     0
  9
$DIMSOXD
 70
     0
  9
$DIMSAH
 70
     0
  9
$DIMBLK1
  1

  9
$DIMBLK2
  1

  9
$DIMSTYLE
  2
ISO-25
  9
$DIMCLRD
 70
     0
  9
$DIMCLRE
 70
     0
  9
$DIMCLRT
 70
     0
  9
$DIMTFAC
 40
1.0
  9
$DIMGAP
 40
0.625
  9
$LUNITS
 70
     2
  9
$LUPREC
 70
     4
  9
$SKETCHINC
 40
1.0
  9
$FILLETRAD
 40
10.0
  9
$AUNITS
 70
     0
  9
$AUPREC
 70
     0
  9
$MENU
  1
.
  9
$ELEVATION
 40
0.0
  9
$PELEVATION
 40
0.0
  9
$THICKNESS
 40
0.0
  9
$LIMCHECK
 70
     0
  9
$BLIPMODE
 70
     0
  9
$CHAMFERA
 40
10.0
  9
$CHAMFERB
 40
10.0
  9
$SKPOLY
 70
     0
  9
$TDCREATE
 40
2453441.4251308101
  9
$TDUPDATE
 40
2453551.9131407868
  9
$TDINDWG
 40
0.0265185648
  9
$TDUSRTIMER
 40
0.0265185648
  9
$USRTIMER
 70
     1
  9
$ANGBASE
 50
0.0
  9
$ANGDIR
 70
     0
  9
$PDMODE
 70
     0
  9
$PDSIZE
 40
0.0
  9
$PLINEWID
 40
0.0
  9
$COORDS
 70
     1
  9
$SPLFRAME
 70
     0
  9
$SPLINETYPE
 70
     6
  9
$SPLINESEGS
 70
     8
  9
$ATTDIA
 70
     0
  9
$ATTREQ
 70
     1
  9
$HANDLING
 70
-16383
  9
$HANDSEED
  5
63F
  9
$SURFTAB1
 70
     6
  9
$SURFTAB2
 70
     6
  9
$SURFTYPE
 70
     6
  9
$SURFU
 70
     6
  9
$SURFV
 70
     6
  9
$UCSNAME
  2

  9
$UCSORG
 10
0.0
 20
0.0
 30
0.0
  9
$UCSXDIR
 10
1.0
 20
0.0
 30
0.0
  9
$UCSYDIR
 10
0.0
 20
1.0
 30
0.0
  9
$PUCSNAME
  2

  9
$PUCSORG
 10
0.0
 20
0.0
 30
0.0
  9
$PUCSXDIR
 10
1.0
 20
0.0
 30
0.0
  9
$PUCSYDIR
 10
0.0
 20
1.0
 30
0.0
  9
$USERI1
 70
     0
  9
$USERI2
 70
     0
  9
$USERI3
 70
     0
  9
$USERI4
 70
     0
  9
$USERI5
 70
     0
  9
$USERR1
 40
0.0
  9
$USERR2
 40
0.0
  9
$USERR3
 40
0.0
  9
$USERR4
 40
0.0
  9
$USERR5
 40
0.0
  9
$WORLDVIEW
 70
     1
  9
$SHADEDGE
 70
     3
  9
$SHADEDIF
 70
    70
  9
$TILEMODE
 70
     1
  9
$MAXACTVP
 70
    64
  9
$PLIMCHECK
 70
     0
  9
$PEXTMIN
 10
1.0000000000000000E+020
 20
1.0000000000000000E+020
 30
1.0000000000000000E+020
  9
$PEXTMAX
 10
-1.0000000000000000E+020
 20
-1.0000000000000000E+020
 30
-1.0000000000000000E+020
  9
$PLIMMIN
 10
0.0
 20
0.0
  9
$PLIMMAX
 10
420.0
 20
297.0
  9
$UNITMODE
 70
     0
  9
$VISRETAIN
 70
     1
  9
$PLINEGEN
 70
     0
  9
$PSLTSCALE
 70
     1
  0
ENDSEC
  0
SECTION
  2
TABLES
  0
TABLE
  2
VPORT
 70
     2
  0
VPORT
  2
*ACTIVE
 70
     0
 10
0.0
 20
0.0
 11
1.0
 21
1.0
 12
143.24339432602639
 22
62.95293872439732
 13
0.0
 23
0.0
 14
10.0
 24
10.0
 15
10.0
 25
10.0
 16
0.0
 26
0.0
 36
1.0
 17
0.0
 27
0.0
 37
0.0
 40
138.94512479642569
 41
2.5392405063291141
 42
50.0
 43
0.0
 44
0.0
 50
0.0
 51
0.0
 71
     0
 72
   100
 73
     1
 74
     3
 75
     0
 76
     0
 77
     0
 78
     0
  0
ENDTAB
  0
TABLE
  2
LTYPE
 70
     3
  0
LTYPE
  2
CONTINUOUS
 70
     0
  3
Solid line
 72
    65
 73
     0
 40
0.0
  0
LTYPE
  2
CENTER
 70
     0
  3
Center ____ _ ____ _ ____ _ ____ _ ____ _ ____
 72
    65
 73
     4
 40
50.799999999999997
 49
31.75
 49
-6.3499999999999988
 49
6.3499999999999988
 49
-6.3499999999999988
  0
LTYPE
  2
DASHED2
 70
     0
  3
Dashed (.5x) _ _ _ _ _ _ _ _ _ _ _ _ _ _ _ _ _
 72
    65
 73
     2
 40
9.5249999999999986
 49
6.3499999999999988
 49
-3.1749999999999989
  0
ENDTAB
  0
TABLE
  2
LAYER
 70
     5
  0
LAYER
  2
0
 70
     0
 62
     7
  6
CONTINUOUS
  0
LAYER
  2
1
 70
     0
 62
     7
  6
CENTER
  0
LAYER
  2
2
 70
     0
 62
     7
  6
CONTINUOUS
  0
LAYER
  2
3
 70
     0
 62
     7
  6
DASHED2
  0
LAYER
  2
DEFPOINTS
 70
     0
 62
     7
  6
CONTINUOUS
  0
ENDTAB
  0
TABLE
  2
STYLE
 70
     3
  0
STYLE
  2
STANDARD
 70
     0
 40
0.0
 41
1.0
 50
0.0
 71
     0
 42
2.5
  3
txt
  4

  0
STYLE
  2
\U+00C9L\U+00C9R_\U+00C2S\U+00C2V\U+00C2B\U+00C2N
 70
     0
 40
1.0
 41
1.0
 50
0.0
 71
     0
 42
1.0
  3
\U+00E9l\U+00E9r \U+00E2S\U+00E2V\U+00E2b\U+00E2N
  4

  0
STYLE
  2

 70
     1
 40
0.0
 41
1.0
 50
0.0
 71
     0
 42
2.5
  3
ltypeshp.shx
  4

  0
ENDTAB
  0
TABLE
  2
VIEW
 70
     0
  0
ENDTAB
  0
TABLE
  2
UCS
 70
     0
  0
ENDTAB
  0
TABLE
  2
APPID
 70
     1
  0
APPID
  2
ACAD
 70
     0
  0
ENDTAB
  0
TABLE
  2
DIMSTYLE
 70
     2
  0
DIMSTYLE
  2
ISO-25
 70
     0
  3

  4

  5

  6

  7

 40
1.0
 41
2.5
 42
0.625
 43
3.75
 44
1.25
 45
0.0
 46
0.0
 47
0.0
 48
0.0
140
2.5
141
2.5
142
0.0
143
0.03937007874016
144
1.0
145
0.0
146
1.0
147
0.625
 71
     0
 72
     0
 73
     0
 74
     0
 75
     0
 76
     0
 77
     1
 78
     8
170
     0
171
     3
172
     1
173
     0
174
     0
175
     0
176
     0
177
     0
178
     0
  0
DIMSTYLE
  2
STANDARD
 70
     0
  3

  4

  5

  6

  7

 40
1.0
 41
0.18
 42
0.0625
 43
0.38
 44
0.18
 45
0.0
 46
0.0
 47
0.0
 48
0.0
140
0.18
141
0.09
142
0.0
143
25.399999999999999
144
1.0
145
0.0
146
1.0
147
0.09
 71
     0
 72
     0
 73
     1
 74
     1
 75
     0
 76
     0
 77
     0
 78
     0
170
     0
171
     2
172
     0
173
     0
174
     0
175
     0
176
     0
177
     0
178
     0
  0
ENDTAB
  0
ENDSEC
  0
SECTION
  2
BLOCKS
  0
BLOCK
  8
0
  2
$MODEL_SPACE
 70
     0
 10
0.0
 20
0.0
 30
0.0
  3
$MODEL_SPACE
  1

  0
ENDBLK
  5
21
  8
0
  0
BLOCK
 67
     1
  8
0
  2
$PAPER_SPACE
 70
     0
 10
0.0
 20
0.0
 30
0.0
  3
$PAPER_SPACE
  1

  0
ENDBLK
  5
1D
 67
     1
  8
0
  0
BLOCK
  8
0
  2
*D1
 70
     1
 10
0.0
 20
0.0
 30
0.0
  3
*D1
  1

  0
LINE
  5
571
  8
2
 62
     0
 10
99.907703749944062
 20
100.6595697293187
 30
0.0
 11
99.907703749944062
 21
111.3560257818409
 31
0.0
  0
LINE
  5
572
  8
2
 62
     0
 10
107.90770374994401
 20
100.6595697293187
 30
0.0
 11
107.90770374994401
 21
111.3560257818409
 31
0.0
  0
LINE
  5
573
  8
2
 62
     0
 10
102.40770374994401
 20
110.1060257818409
 30
0.0
 11
105.40770374994401
 21
110.1060257818409
 31
0.0
  0
SOLID
  5
574
  8
2
 62
     0
 10
102.40770374994401
 20
110.5226924485076
 30
0.0
 11
102.40770374994401
 21
109.6893591151743
 31
0.0
 12
99.907703749944062
 22
110.1060257818409
 32
0.0
 13
99.907703749944062
 23
110.1060257818409
 33
0.0
  0
SOLID
  5
575
  8
2
 62
     0
 10
105.40770374994401
 20
110.5226924485076
 30
0.0
 11
105.40770374994401
 21
109.6893591151743
 31
0.0
 12
107.90770374994401
 22
110.1060257818409
 32
0.0
 13
107.90770374994401
 23
110.1060257818409
 33
0.0
  0
INSERT
  5
576
  8
2
  2
*U11
 10
0.0
 20
0.0
 30
0.0
  0
POINT
  5
577
  8
DEFPOINTS
 62
     0
 10
99.907703749944062
 20
100.0345697293187
 30
0.0
  0
POINT
  5
578
  8
DEFPOINTS
 62
     0
 10
107.90770374994401
 20
100.0345697293187
 30
0.0
  0
POINT
  5
579
  8
DEFPOINTS
 62
     0
 10
107.90770374994401
 20
110.1060257818409
 30
0.0
  0
ENDBLK
  5
4E3
  8
0
  0
BLOCK
  8
0
  2
*D2
 70
     1
 10
0.0
 20
0.0
 30
0.0
  3
*D2
  1

  0
LINE
  5
568
  8
2
 62
     0
 10
96.407703749944062
 20
87.659569729318704
 30
0.0
 11
96.407703749944062
 21
116.1689704682187
 31
0.0
  0
LINE
  5
569
  8
2
 62
     0
 10
111.40770374994401
 20
87.659569729318704
 30
0.0
 11
111.40770374994401
 21
116.1689704682187
 31
0.0
  0
LINE
  5
56A
  8
2
 62
     0
 10
98.907703749944062
 20
114.9189704682187
 30
0.0
 11
108.90770374994401
 21
114.9189704682187
 31
0.0
  0
SOLID
  5
56B
  8
2
 62
     0
 10
98.907703749944062
 20
115.3356371348854
 30
0.0
 11
98.907703749944062
 21
114.502303801552
 31
0.0
 12
96.407703749944062
 22
114.9189704682187
 32
0.0
 13
96.407703749944062
 23
114.9189704682187
 33
0.0
  0
SOLID
  5
56C
  8
2
 62
     0
 10
108.90770374994401
 20
115.3356371348854
 30
0.0
 11
108.90770374994401
 21
114.502303801552
 31
0.0
 12
111.40770374994401
 22
114.9189704682187
 32
0.0
 13
111.40770374994401
 23
114.9189704682187
 33
0.0
  0
INSERT
  5
56D
  8
2
  2
*U10
 10
0.0
 20
0.0
 30
0.0
  0
POINT
  5
56E
  8
DEFPOINTS
 62
     0
 10
96.407703749944062
 20
87.034569729318704
 30
0.0
  0
POINT
  5
56F
  8
DEFPOINTS
 62
     0
 10
111.40770374994401
 20
87.034569729318704
 30
0.0
  0
POINT
  5
570
  8
DEFPOINTS
 62
     0
 10
111.40770374994401
 20
114.9189704682187
 30
0.0
  0
ENDBLK
  5
4F0
  8
0
  0
BLOCK
  8
0
  2
*D3
 70
     1
 10
0.0
 20
0.0
 30
0.0
  3
*D3
  1

  0
LINE
  5
4F3
  8
2
 62
     0
 10
112.03270374994401
 20
100.0345697293187
 30
0.0
 11
151.86500757542899
 21
100.0345697293187
 31
0.0
  0
LINE
  5
4F4
  8
2
 62
     0
 10
112.03270374994401
 20
87.034569729318704
 30
0.0
 11
151.86500757542899
 21
87.034569729318704
 31
0.0
  0
LINE
  5
4F5
  8
2
 62
     0
 10
150.6150075754289
 20
97.534569729318704
 30
0.0
 11
150.6150075754289
 21
89.534569729318704
 31
0.0
  0
SOLID
  5
4F6
  8
2
 62
     0
 10
150.1983409087623
 20
97.534569729318704
 30
0.0
 11
151.03167424209559
 21
97.534569729318704
 31
0.0
 12
150.6150075754289
 22
100.0345697293187
 32
0.0
 13
150.6150075754289
 23
100.0345697293187
 33
0.0
  0
SOLID
  5
4F7
  8
2
 62
     0
 10
150.1983409087623
 20
89.534569729318704
 30
0.0
 11
151.03167424209559
 21
89.534569729318704
 31
0.0
 12
150.6150075754289
 22
87.034569729318704
 32
0.0
 13
150.6150075754289
 23
87.034569729318704
 33
0.0
  0
TEXT
  5
4F8
  8
2
 62
     0
 10
149.9900075754289
 20
91.867903062652047
 30
0.0
 40
2.5
  1
13
 50
90.0
  0
POINT
  5
4F9
  8
DEFPOINTS
 62
     0
 10
111.40770374994401
 20
100.0345697293187
 30
0.0
  0
POINT
  5
4FA
  8
DEFPOINTS
 62
     0
 10
111.40770374994401
 20
87.034569729318704
 30
0.0
  0
POINT
  5
4FB
  8
DEFPOINTS
 62
     0
 10
150.6150075754289
 20
87.034569729318704
 30
0.0
  0
ENDBLK
  5
4FD
  8
0
  0
BLOCK
  8
0
  2
*D4
 70
     1
 10
0.0
 20
0.0
 30
0.0
  3
*D4
  1

  0
LINE
  5
500
  8
2
 62
     0
 10
112.03270374994401
 20
100.0345697293187
 30
0.0
 11
157.85648622073151
 21
100.0345697293187
 31
0.0
  0
LINE
  5
501
  8
2
 62
     0
 10
115.4615013416785
 20
82.034569729318704
 30
0.0
 11
157.85648622073151
 21
82.034569729318704
 31
0.0
  0
LINE
  5
502
  8
2
 62
     0
 10
156.60648622073151
 20
97.534569729318704
 30
0.0
 11
156.60648622073151
 21
84.534569729318704
 31
0.0
  0
SOLID
  5
503
  8
2
 62
     0
 10
156.1898195540648
 20
97.534569729318704
 30
0.0
 11
157.0231528873982
 21
97.534569729318704
 31
0.0
 12
156.60648622073151
 22
100.0345697293187
 32
0.0
 13
156.60648622073151
 23
100.0345697293187
 33
0.0
  0
SOLID
  5
504
  8
2
 62
     0
 10
156.1898195540648
 20
84.534569729318704
 30
0.0
 11
157.0231528873982
 21
84.534569729318704
 31
0.0
 12
156.60648622073151
 22
82.034569729318704
 32
0.0
 13
156.60648622073151
 23
82.034569729318704
 33
0.0
  0
TEXT
  5
505
  8
2
 62
     0
 10
155.98148622073151
 20
89.367903062652047
 30
0.0
 40
2.5
  1
18
 50
90.0
  0
POINT
  5
506
  8
DEFPOINTS
 62
     0
 10
111.40770374994401
 20
100.0345697293187
 30
0.0
  0
POINT
  5
507
  8
DEFPOINTS
 62
     0
 10
114.8365013416785
 20
82.034569729318704
 30
0.0
  0
POINT
  5
508
  8
DEFPOINTS
 62
     0
 10
156.60648622073151
 20
82.034569729318704
 30
0.0
  0
ENDBLK
  5
50A
  8
0
  0
BLOCK
  8
0
  2
*D5
 70
     1
 10
0.0
 20
0.0
 30
0.0
  3
*D5
  1

  0
LINE
  5
50D
  8
2
 62
     0
 10
112.03270374994401
 20
100.0345697293187
 30
0.0
 11
164.05456829365559
 21
100.0345697293187
 31
0.0
  0
LINE
  5
50E
  8
2
 62
     0
 10
135.53270374994401
 20
45.034569729318697
 30
0.0
 11
164.05456829365559
 21
45.034569729318697
 31
0.0
  0
LINE
  5
50F
  8
2
 62
     0
 10
162.80456829365559
 20
97.534569729318704
 30
0.0
 11
162.80456829365559
 21
47.534569729318697
 31
0.0
  0
SOLID
  5
510
  8
2
 62
     0
 10
162.38790162698891
 20
97.534569729318704
 30
0.0
 11
163.22123496032219
 21
97.534569729318704
 31
0.0
 12
162.80456829365559
 22
100.0345697293187
 32
0.0
 13
162.80456829365559
 23
100.0345697293187
 33
0.0
  0
SOLID
  5
511
  8
2
 62
     0
 10
162.38790162698891
 20
47.534569729318697
 30
0.0
 11
163.22123496032219
 21
47.534569729318697
 31
0.0
 12
162.80456829365559
 22
45.034569729318697
 32
0.0
 13
162.80456829365559
 23
45.034569729318697
 33
0.0
  0
TEXT
  5
512
  8
2
 62
     0
 10
162.17956829365559
 20
70.45123639598539
 30
0.0
 40
2.5
  1
55
 50
90.0
  0
POINT
  5
513
  8
DEFPOINTS
 62
     0
 10
111.40770374994401
 20
100.0345697293187
 30
0.0
  0
POINT
  5
514
  8
DEFPOINTS
 62
     0
 10
134.90770374994401
 20
45.034569729318697
 30
0.0
  0
POINT
  5
515
  8
DEFPOINTS
 62
     0
 10
162.80456829365559
 20
45.034569729318697
 30
0.0
  0
ENDBLK
  5
517
  8
0
  0
BLOCK
  8
0
  2
*D6
 70
     1
 10
0.0
 20
0.0
 30
0.0
  3
*D6
  1

  0
LINE
  5
57A
  8
2
 62
     0
 10
89.007703749944056
 20
53.948284885334637
 30
0.0
 11
89.007703749944056
 21
33.502143247644419
 31
0.0
  0
LINE
  5
57B
  8
2
 62
     0
 10
118.807703749944
 20
53.948284885334637
 30
0.0
 11
118.807703749944
 21
33.502143247644419
 31
0.0
  0
LINE
  5
57C
  8
2
 62
     0
 10
91.507703749944056
 20
34.752143247644419
 30
0.0
 11
116.307703749944
 21
34.752143247644419
 31
0.0
  0
SOLID
  5
57D
  8
2
 62
     0
 10
91.507703749944056
 20
35.16880991431109
 30
0.0
 11
91.507703749944056
 21
34.335476580977762
 31
0.0
 12
89.007703749944056
 22
34.752143247644419
 32
0.0
 13
89.007703749944056
 23
34.752143247644419
 33
0.0
  0
SOLID
  5
57E
  8
2
 62
     0
 10
116.307703749944
 20
35.16880991431109
 30
0.0
 11
116.307703749944
 21
34.335476580977762
 31
0.0
 12
118.807703749944
 22
34.752143247644419
 32
0.0
 13
118.807703749944
 23
34.752143247644419
 33
0.0
  0
INSERT
  5
57F
  8
2
  2
*U12
 10
0.0
 20
0.0
 30
0.0
  0
POINT
  5
580
  8
DEFPOINTS
 62
     0
 10
89.007703749944056
 20
54.573284885334637
 30
0.0
  0
POINT
  5
581
  8
DEFPOINTS
 62
     0
 10
118.807703749944
 20
54.573284885334637
 30
0.0
  0
POINT
  5
582
  8
DEFPOINTS
 62
     0
 10
118.807703749944
 20
34.752143247644419
 30
0.0
  0
ENDBLK
  5
524
  8
0
  0
BLOCK
  8
0
  2
*D7
 70
     1
 10
0.0
 20
0.0
 30
0.0
  3
*D7
  1

  0
LINE
  5
5E5
  8
2
 62
     0
 10
72.907703749944062
 20
46.021266873318687
 30
0.0
 11
72.907703749944062
 21
27.399338495129079
 31
0.0
  0
LINE
  5
5E6
  8
2
 62
     0
 10
134.90770374994401
 20
46.021266873318687
 30
0.0
 11
134.90770374994401
 21
27.399338495129079
 31
0.0
  0
LINE
  5
5E7
  8
2
 62
     0
 10
75.407703749944062
 20
28.649338495129079
 30
0.0
 11
132.40770374994401
 21
28.649338495129079
 31
0.0
  0
SOLID
  5
5E8
  8
2
 62
     0
 10
75.407703749944062
 20
29.066005161795751
 30
0.0
 11
75.407703749944062
 21
28.232671828462419
 31
0.0
 12
72.907703749944062
 22
28.649338495129079
 32
0.0
 13
72.907703749944062
 23
28.649338495129079
 33
0.0
  0
SOLID
  5
5E9
  8
2
 62
     0
 10
132.40770374994401
 20
29.066005161795751
 30
0.0
 11
132.40770374994401
 21
28.232671828462419
 31
0.0
 12
134.90770374994401
 22
28.649338495129079
 32
0.0
 13
134.90770374994401
 23
28.649338495129079
 33
0.0
  0
INSERT
  5
5EA
  8
2
  2
*U13
 10
0.0
 20
0.0
 30
0.0
  0
POINT
  5
5EB
  8
DEFPOINTS
 62
     0
 10
72.907703749944062
 20
46.646266873318687
 30
0.0
  0
POINT
  5
5EC
  8
DEFPOINTS
 62
     0
 10
134.90770374994401
 20
46.646266873318687
 30
0.0
  0
POINT
  5
5ED
  8
DEFPOINTS
 62
     0
 10
134.90770374994401
 20
28.649338495129079
 30
0.0
  0
ENDBLK
  5
53A
  8
0
  0
BLOCK
  8
0
  2
*D8
 70
     1
 10
0.0
 20
0.0
 30
0.0
  3
*D8
  1

  0
LINE
  5
556
  8
2
 62
     0
 10
93.407703749944062
 20
99.021969231945903
 30
0.0
 11
93.407703749944062
 21
121.9282670351589
 31
0.0
  0
LINE
  5
557
  8
2
 62
     0
 10
114.40770374994401
 20
99.021969231945903
 30
0.0
 11
114.40770374994401
 21
121.9282670351589
 31
0.0
  0
LINE
  5
558
  8
2
 62
     0
 10
95.907703749944062
 20
120.6782670351589
 30
0.0
 11
111.90770374994401
 21
120.6782670351589
 31
0.0
  0
SOLID
  5
559
  8
2
 62
     0
 10
95.907703749944062
 20
121.0949337018256
 30
0.0
 11
95.907703749944062
 21
120.2616003684922
 31
0.0
 12
93.407703749944062
 22
120.6782670351589
 32
0.0
 13
93.407703749944062
 23
120.6782670351589
 33
0.0
  0
SOLID
  5
55A
  8
2
 62
     0
 10
111.90770374994401
 20
121.0949337018256
 30
0.0
 11
111.90770374994401
 21
120.2616003684922
 31
0.0
 12
114.40770374994401
 22
120.6782670351589
 32
0.0
 13
114.40770374994401
 23
120.6782670351589
 33
0.0
  0
INSERT
  5
55B
  8
2
  2
*U9
 10
0.0
 20
0.0
 30
0.0
  0
POINT
  5
55C
  8
DEFPOINTS
 62
     0
 10
93.407703749944062
 20
98.396969231945903
 30
0.0
  0
POINT
  5
55D
  8
DEFPOINTS
 62
     0
 10
114.40770374994401
 20
98.396969231945903
 30
0.0
  0
POINT
  5
55E
  8
DEFPOINTS
 62
     0
 10
114.40770374994401
 20
120.6782670351589
 30
0.0
  0
ENDBLK
  5
554
  8
0
  0
BLOCK
  8
0
  2
*U9
 70
     1
 10
0.0
 20
0.0
 30
0.0
  3
*U9
  1

  0
TEXT
  5
627
  8
2
 62
     0
 10
100.99103708327731
 20
121.3032670351589
 30
0.0
 40
2.5
  1
\U+2205
  0
TEXT
  5
628
  8
2
 62
     0
 10
103.49103708327731
 20
121.3032670351589
 30
0.0
 40
2.5
  1
21
  0
ENDBLK
  5
62A
  8
0
  0
BLOCK
  8
0
  2
*U10
 70
     1
 10
0.0
 20
0.0
 30
0.0
  3
*U10
  1

  0
TEXT
  5
62C
  8
2
 62
     0
 10
100.99103708327731
 20
115.5439704682187
 30
0.0
 40
2.5
  1
\U+2205
  0
TEXT
  5
62D
  8
2
 62
     0
 10
103.49103708327731
 20
115.5439704682187
 30
0.0
 40
2.5
  1
15
  0
ENDBLK
  5
62F
  8
0
  0
BLOCK
  8
0
  2
*U11
 70
     1
 10
0.0
 20
0.0
 30
0.0
  3
*U11
  1

  0
TEXT
  5
631
  8
2
 62
     0
 10
101.82437041661071
 20
110.7310257818409
 30
0.0
 40
2.5
  1
\U+2205
  0
TEXT
  5
632
  8
2
 62
     0
 10
104.32437041661071
 20
110.7310257818409
 30
0.0
 40
2.5
  1
8
  0
ENDBLK
  5
634
  8
0
  0
BLOCK
  8
0
  2
*U12
 70
     1
 10
0.0
 20
0.0
 30
0.0
  3
*U12
  1

  0
TEXT
  5
636
  8
2
 62
     0
 10
98.907703749944062
 20
35.377143247644419
 30
0.0
 40
2.5
  1
\U+2205
  0
TEXT
  5
637
  8
2
 62
     0
 10
101.40770374994401
 20
35.377143247644419
 30
0.0
 40
2.5
  1
29.8
  0
ENDBLK
  5
639
  8
0
  0
BLOCK
  8
0
  2
*U13
 70
     1
 10
0.0
 20
0.0
 30
0.0
  3
*U13
  1

  0
TEXT
  5
63B
  8
2
 62
     0
 10
100.57437041661071
 20
29.274338495129079
 30
0.0
 40
2.5
  1
\U+2205
  0
TEXT
  5
63C
  8
2
 62
     0
 10
103.07437041661071
 20
29.274338495129079
 30
0.0
 40
2.5
  1
62
  0
ENDBLK
  5
63E
  8
0
  0
ENDSEC
  0
SECTION
  2
ENTITIES
  0
TEXT
  5
EF
  8
2
 10
86.419930149882731
 20
12.69493319562522
 30
0.0
 40
2.5399440000000002
  1
No. 21.062.092.5
 41
0.9999999267283786
 51
-0.0000015352344868
  7
\U+00C9L\U+00C9R_\U+00C2S\U+00C2V\U+00C2B\U+00C2N
  0
POLYLINE
  5
F3
  8
0
 66
     1
 10
0.0
 20
0.0
 30
0.0
 39
6.9181999999999988
  0
VERTEX
  5
602
  8
0
 10
89.464028221944076
 20
53.239311473318637
 30
0.0
  0
VERTEX
  5
603
  8
0
 10
103.90770374994401
 20
53.239311473318701
 30
0.0
  0
SEQEND
  5
604
  8
0
  0
POLYLINE
  5
F4
  8
0
 66
     1
 10
0.0
 20
0.0
 30
0.0
 39
6.9181999999999988
  0
VERTEX
  5
605
  8
0
 10
89.303249253944074
 20
56.777140589318627
 30
0.0
  0
VERTEX
  5
606
  8
0
 10
103.908533933944
 20
56.777140589318691
 30
0.0
  0
SEQEND
  5
607
  8
0
  0
POLYLINE
  5
F5
  8
0
 66
     1
 10
0.0
 20
0.0
 30
0.0
 39
6.9181999999999988
  0
VERTEX
  5
608
  8
0
 10
76.606311833944076
 20
63.048627253318699
 30
0.0
  0
VERTEX
  5
609
  8
0
 10
103.90770374994401
 20
63.048627253318699
 30
0.0
  0
SEQEND
  5
60A
  8
0
  0
POLYLINE
  5
F6
  8
0
 66
     1
 10
0.0
 20
0.0
 30
0.0
 39
6.9181999999999988
  0
VERTEX
  5
60B
  8
0
 10
76.927869769944053
 20
66.264898433318706
 30
0.0
  0
VERTEX
  5
60C
  8
0
 10
103.90770374994401
 20
66.264898433318706
 30
0.0
  0
SEQEND
  5
60D
  8
0
  0
POLYLINE
  5
F7
  8
0
 66
     1
 10
0.0
 20
0.0
 30
0.0
 39
6.9181999999999988
  0
VERTEX
  5
60E
  8
0
 10
88.988506193944048
 20
72.214688797318701
 30
0.0
  0
VERTEX
  5
60F
  8
0
 10
103.911301213944
 20
72.214688797318701
 30
0.0
  0
SEQEND
  5
610
  8
0
  0
POLYLINE
  5
F8
  8
0
 66
     1
 10
0.0
 20
0.0
 30
0.0
 39
6.9181999999999988
  0
VERTEX
  5
611
  8
0
 10
88.827727225944059
 20
77.521363289318714
 30
0.0
  0
VERTEX
  5
612
  8
0
 10
103.92223196994399
 20
77.521363289318714
 30
0.0
  0
SEQEND
  5
613
  8
0
  0
LINE
  5
1C7
  8
0
 39
6.9181999999999988
 10
92.978906158209597
 20
82.034569729318704
 30
0.0
 11
92.957062441944061
 21
82.227676385318702
 31
0.0
  0
LINE
  5
1C8
  8
0
 39
6.9181999999999988
 10
92.957062441944061
 20
82.227676385318702
 30
0.0
 11
92.919012341944054
 21
82.482542873318707
 31
0.0
  0
LINE
  5
1C9
  8
0
 39
6.9181999999999988
 10
92.919012341944054
 20
82.482542873318707
 30
0.0
 11
92.869893121944074
 21
82.730906253318693
 31
0.0
  0
LINE
  5
1CA
  8
0
 39
6.9181999999999988
 10
92.869893121944074
 20
82.730906253318693
 30
0.0
 11
92.808597869944066
 21
82.971106157318701
 31
0.0
  0
LINE
  5
1CB
  8
0
 39
6.9181999999999988
 10
92.808597869944066
 20
82.971106157318701
 30
0.0
 11
92.732497669944095
 21
83.202589129318696
 31
0.0
  0
LINE
  5
1CC
  8
0
 39
6.9181999999999988
 10
92.732497669944095
 20
83.202589129318696
 30
0.0
 11
92.640070517944054
 21
83.423694801318689
 31
0.0
  0
LINE
  5
1CD
  8
0
 39
6.9181999999999988
 10
92.640070517944054
 20
83.423694801318689
 30
0.0
 11
92.529102589944074
 21
83.633592989318686
 31
0.0
  0
LINE
  5
1CE
  8
0
 39
6.9181999999999988
 10
92.529102589944074
 20
83.633592989318686
 30
0.0
 11
92.398348609944065
 21
83.830484961318675
 31
0.0
  0
LINE
  5
1CF
  8
0
 39
6.9181999999999988
 10
92.398348609944065
 20
83.830484961318675
 30
0.0
 11
92.245318025944044
 21
84.013817261318692
 31
0.0
  0
LINE
  5
1D0
  8
0
 39
6.9181999999999988
 10
92.245318025944044
 20
84.013817261318692
 30
0.0
 11
92.068488833944045
 21
84.182067885318673
 31
0.0
  0
LINE
  5
1D1
  8
0
 39
6.9181999999999988
 10
92.068488833944045
 20
84.182067885318673
 30
0.0
 11
91.865508845944063
 21
84.334268285318686
 31
0.0
  0
LINE
  5
1D2
  8
0
 39
6.9181999999999988
 10
91.865508845944063
 20
84.334268285318686
 30
0.0
 11
91.634994421944043
 21
84.469034821318715
 31
0.0
  0
LINE
  5
1D3
  8
0
 39
6.9181999999999988
 10
91.634994421944043
 20
84.469034821318715
 30
0.0
 11
91.374731737944074
 21
84.585398945318687
 31
0.0
  0
LINE
  5
1D4
  8
0
 39
6.9181999999999988
 10
91.374731737944074
 20
84.585398945318687
 30
0.0
 11
91.08292206194406
 21
84.681977017318687
 31
0.0
  0
LINE
  5
1D5
  8
0
 39
6.9181999999999988
 10
91.08292206194406
 20
84.681977017318687
 30
0.0
 11
90.757489933944072
 21
84.757800489318697
 31
0.0
  0
LINE
  5
1D6
  8
0
 39
6.9181999999999988
 10
90.757489933944072
 20
84.757800489318697
 30
0.0
 11
86.388923361944066
 21
84.757800489318697
 31
0.0
  0
LINE
  5
1D7
  8
0
 39
6.9181999999999988
 10
86.388923361944066
 20
84.757800489318697
 30
0.0
 11
86.388923361944066
 21
84.757800489318697
 31
0.0
  0
LINE
  5
1D8
  8
0
 39
6.9181999999999988
 10
86.388923361944066
 20
84.757800489318697
 30
0.0
 11
86.364571297944053
 21
84.302721293318697
 31
0.0
  0
LINE
  5
1D9
  8
0
 39
6.9181999999999988
 10
86.364571297944053
 20
84.302721293318697
 30
0.0
 11
86.275326517944066
 21
83.903541153318713
 31
0.0
  0
LINE
  5
1DA
  8
0
 39
6.9181999999999988
 10
86.275326517944066
 20
83.903541153318713
 30
0.0
 11
86.130459409944066
 21
83.560951889318702
 31
0.0
  0
LINE
  5
1DB
  8
0
 39
6.9181999999999988
 10
86.130459409944066
 20
83.560951889318702
 30
0.0
 11
85.938271813944056
 21
83.276475505318686
 31
0.0
  0
LINE
  5
1DC
  8
0
 39
6.9181999999999988
 10
85.938271813944056
 20
83.276475505318686
 30
0.0
 11
85.708172481944047
 21
83.050527093318706
 31
0.0
  0
LINE
  5
1DD
  8
0
 39
6.9181999999999988
 10
85.708172481944047
 20
83.050527093318706
 30
0.0
 11
85.448601617944064
 21
82.884767021318709
 31
0.0
  0
LINE
  5
1DE
  8
0
 39
6.9181999999999988
 10
85.448601617944064
 20
82.884767021318709
 30
0.0
 11
85.168691245944075
 21
82.780025473318688
 31
0.0
  0
LINE
  5
1DF
  8
0
 39
6.9181999999999988
 10
85.168691245944075
 20
82.780025473318688
 30
0.0
 11
84.876743205944067
 21
82.737547725318692
 31
0.0
  0
LINE
  5
1E0
  8
0
 39
6.9181999999999988
 10
84.876743205944067
 20
82.737547725318692
 30
0.0
 11
84.582442977944055
 21
82.757748869318704
 31
0.0
  0
LINE
  5
1E1
  8
0
 39
6.9181999999999988
 10
84.582442977944055
 20
82.757748869318704
 30
0.0
 11
84.293815673944053
 21
82.842427637318693
 31
0.0
  0
LINE
  5
1E2
  8
0
 39
6.9181999999999988
 10
84.293815673944053
 20
82.842427637318693
 30
0.0
 11
84.020131681944065
 21
82.992137485318693
 31
0.0
  0
LINE
  5
1E3
  8
0
 39
6.9181999999999988
 10
84.020131681944065
 20
82.992137485318693
 30
0.0
 11
83.770107933944047
 21
83.208538781318694
 31
0.0
  0
LINE
  5
1E4
  8
0
 39
6.9181999999999988
 10
83.770107933944047
 20
83.208538781318694
 30
0.0
 11
83.552738089944071
 21
83.492046617318692
 31
0.0
  0
LINE
  5
1E5
  8
0
 39
6.9181999999999988
 10
83.552738089944071
 20
83.492046617318692
 30
0.0
 11
83.376462353944063
 21
83.844044633318703
 31
0.0
  0
LINE
  5
1E6
  8
0
 39
6.9181999999999988
 10
83.376462353944063
 20
83.844044633318703
 30
0.0
 11
83.25055111394407
 21
84.265501377318714
 31
0.0
  0
LINE
  5
1E7
  8
0
 39
6.9181999999999988
 10
83.25055111394407
 20
84.265501377318714
 30
0.0
 11
83.183306209944064
 21
84.757800489318697
 31
0.0
  0
LINE
  5
1E8
  8
0
 39
6.9181999999999988
 10
83.183306209944064
 20
84.757800489318697
 30
0.0
 11
78.533168897944051
 21
84.757800489318697
 31
0.0
  0
LINE
  5
1E9
  8
0
 39
6.9181999999999988
 10
78.533168897944051
 20
84.757800489318697
 30
0.0
 11
78.533168897944051
 21
84.757800489318697
 31
0.0
  0
LINE
  5
1EA
  8
0
 39
6.9181999999999988
 10
78.533168897944051
 20
84.757800489318697
 30
0.0
 11
78.289233165944069
 21
84.674228633318691
 31
0.0
  0
LINE
  5
1EB
  8
0
 39
6.9181999999999988
 10
78.289233165944069
 20
84.674228633318691
 30
0.0
 11
78.079334977944043
 21
84.566166349318706
 31
0.0
  0
LINE
  5
1EC
  8
0
 39
6.9181999999999988
 10
78.079334977944043
 20
84.566166349318706
 30
0.0
 11
77.903335969944067
 21
84.436104189318712
 31
0.0
  0
LINE
  5
1ED
  8
0
 39
6.9181999999999988
 10
77.903335969944067
 20
84.436104189318712
 30
0.0
 11
77.760682685944062
 21
84.286532705318692
 31
0.0
  0
LINE
  5
1EE
  8
0
 39
6.9181999999999988
 10
77.760682685944062
 20
84.286532705318692
 30
0.0
 11
77.651513489944051
 21
84.119527357318717
 31
0.0
  0
LINE
  5
1EF
  8
0
 39
6.9181999999999988
 10
77.651513489944051
 20
84.119527357318717
 30
0.0
 11
77.574721469944052
 21
83.938270517318699
 31
0.0
  0
LINE
  5
1F0
  8
0
 39
6.9181999999999988
 10
77.574721469944052
 20
83.938270517318699
 30
0.0
 11
77.530583353944067
 21
83.744699281318717
 31
0.0
  0
LINE
  5
1F1
  8
0
 39
6.9181999999999988
 10
77.530583353944067
 20
83.744699281318717
 30
0.0
 11
77.518268957944073
 21
83.541580929318698
 31
0.0
  0
LINE
  5
1F2
  8
0
 39
6.9181999999999988
 10
77.518268957944073
 20
83.541580929318698
 30
0.0
 11
77.537916645944051
 21
83.330990921318687
 31
0.0
  0
LINE
  5
1F3
  8
0
 39
6.9181999999999988
 10
77.537916645944051
 20
83.330990921318687
 30
0.0
 11
77.588834597944057
 21
83.115696537318698
 31
0.0
  0
LINE
  5
1F4
  8
0
 39
6.9181999999999988
 10
77.588834597944057
 20
83.115696537318698
 30
0.0
 11
77.670884449944054
 21
82.898049965318677
 31
0.0
  0
LINE
  5
1F5
  8
0
 39
6.9181999999999988
 10
77.670884449944054
 20
82.898049965318677
 30
0.0
 11
77.783374381944071
 21
82.680956849318704
 31
0.0
  0
LINE
  5
1F6
  8
0
 39
6.9181999999999988
 10
77.783374381944071
 20
82.680956849318704
 30
0.0
 11
77.926442757944045
 21
82.466215921318692
 31
0.0
  0
LINE
  5
1F7
  8
0
 39
6.9181999999999988
 10
77.926442757944045
 20
82.466215921318692
 30
0.0
 11
78.099121029944058
 21
82.256732825318693
 31
0.0
  0
LINE
  5
1F8
  8
0
 39
6.9181999999999988
 10
78.099121029944058
 20
82.256732825318693
 30
0.0
 11
78.301547561944062
 21
82.054859749318695
 31
0.0
  0
LINE
  5
1F9
  8
0
 39
6.9181999999999988
 10
78.301547561944062
 20
82.054859749318695
 30
0.0
 11
78.533168897944051
 21
81.863225609318675
 31
0.0
  0
LINE
  5
1FA
  8
0
 39
6.9181999999999988
 10
78.533168897944051
 20
81.863225609318675
 30
0.0
 11
88.023694021944081
 21
77.5213632893187
 31
0.0
  0
LINE
  5
1FB
  8
0
 39
6.9181999999999988
 10
88.023694021944081
 20
77.5213632893187
 30
0.0
 11
88.023694021944081
 21
77.5213632893187
 31
0.0
  0
LINE
  5
1FC
  8
0
 39
6.9181999999999988
 10
88.023694021944081
 20
77.5213632893187
 30
0.0
 11
88.347189053944064
 21
77.352835937318702
 31
0.0
  0
LINE
  5
1FD
  8
0
 39
6.9181999999999988
 10
88.347189053944064
 20
77.352835937318702
 30
0.0
 11
88.624055417944064
 21
77.124673701318684
 31
0.0
  0
LINE
  5
1FE
  8
0
 39
6.9181999999999988
 10
88.624055417944064
 20
77.124673701318684
 30
0.0
 11
88.855400025944064
 21
76.844901693318704
 31
0.0
  0
LINE
  5
1FF
  8
0
 39
6.9181999999999988
 10
88.855400025944064
 20
76.844901693318704
 30
0.0
 11
89.041499605944068
 21
76.52182175331869
 31
0.0
  0
LINE
  5
200
  8
0
 39
6.9181999999999988
 10
89.041499605944068
 20
76.52182175331869
 30
0.0
 11
89.183599433944053
 21
76.16318226531871
 31
0.0
  0
LINE
  5
201
  8
0
 39
6.9181999999999988
 10
89.183599433944053
 20
76.16318226531871
 30
0.0
 11
89.281837873944056
 21
75.777561797318697
 31
0.0
  0
LINE
  5
202
  8
0
 39
6.9181999999999988
 10
89.281837873944056
 20
75.777561797318697
 30
0.0
 11
89.337460201944083
 21
75.372708733318689
 31
0.0
  0
LINE
  5
203
  8
0
 39
6.9181999999999988
 10
89.337460201944083
 20
75.372708733318689
 30
0.0
 11
89.350466417944077
 21
74.957201641318704
 31
0.0
  0
LINE
  5
204
  8
0
 39
6.9181999999999988
 10
89.350466417944077
 20
74.957201641318704
 30
0.0
 11
89.322378525944075
 21
74.538512177318694
 31
0.0
  0
LINE
  5
205
  8
0
 39
6.9181999999999988
 10
89.322378525944075
 20
74.538512177318694
 30
0.0
 11
89.253473253944065
 21
74.12521890931869
 31
0.0
  0
LINE
  5
206
  8
0
 39
6.9181999999999988
 10
89.253473253944065
 20
74.12521890931869
 30
0.0
 11
89.144580785944072
 21
73.725346949318691
 31
0.0
  0
LINE
  5
207
  8
0
 39
6.9181999999999988
 10
89.144580785944072
 20
73.725346949318691
 30
0.0
 11
88.996254577944072
 21
73.347198137318699
 31
0.0
  0
LINE
  5
208
  8
0
 39
6.9181999999999988
 10
88.996254577944072
 20
73.347198137318699
 30
0.0
 11
88.809463177944053
 21
72.998382493318701
 31
0.0
  0
LINE
  5
209
  8
0
 39
6.9181999999999988
 10
88.809463177944053
 20
72.998382493318701
 30
0.0
 11
88.584483313944034
 21
72.687755313318675
 31
0.0
  0
LINE
  5
20A
  8
0
 39
6.9181999999999988
 10
88.584483313944034
 20
72.687755313318675
 30
0.0
 11
88.322421897944054
 21
72.422926617318694
 31
0.0
  0
LINE
  5
20B
  8
0
 39
6.9181999999999988
 10
88.322421897944054
 20
72.422926617318694
 30
0.0
 11
88.023694021944081
 21
72.212336609318683
 31
0.0
  0
LINE
  5
20C
  8
0
 39
6.9181999999999988
 10
88.023694021944081
 20
72.212336609318683
 30
0.0
 11
82.234544261944066
 21
69.641810217318664
 31
0.0
  0
LINE
  5
20D
  8
0
 39
6.9181999999999988
 10
82.234544261944066
 20
69.641810217318664
 30
0.0
 11
82.234544261944066
 21
69.641810217318664
 31
0.0
  0
LINE
  5
20E
  8
0
 39
6.9181999999999988
 10
82.234544261944066
 20
69.641810217318664
 30
0.0
 11
82.252531581944069
 21
69.262001037318683
 31
0.0
  0
LINE
  5
20F
  8
0
 39
6.9181999999999988
 10
82.252531581944069
 20
69.262001037318683
 30
0.0
 11
82.219185857944069
 21
68.926191609318693
 31
0.0
  0
LINE
  5
210
  8
0
 39
6.9181999999999988
 10
82.219185857944069
 20
68.926191609318693
 30
0.0
 11
82.139903285944044
 21
68.63272156531869
 31
0.0
  0
LINE
  5
211
  8
0
 39
6.9181999999999988
 10
82.139903285944044
 20
68.63272156531869
 30
0.0
 11
82.019941697944077
 21
68.380345629318697
 31
0.0
  0
LINE
  5
212
  8
0
 39
6.9181999999999988
 10
82.019941697944077
 20
68.380345629318697
 30
0.0
 11
81.864835653944084
 21
68.167265069318674
 31
0.0
  0
LINE
  5
213
  8
0
 39
6.9181999999999988
 10
81.864835653944084
 20
68.167265069318674
 30
0.0
 11
81.679289529944057
 21
67.992649701318683
 31
0.0
  0
LINE
  5
214
  8
0
 39
6.9181999999999988
 10
81.679289529944057
 20
67.992649701318683
 30
0.0
 11
81.469252977944052
 21
67.85456242931869
 31
0.0
  0
LINE
  5
215
  8
0
 39
6.9181999999999988
 10
81.469252977944052
 20
67.85456242931869
 30
0.0
 11
81.239707101944035
 21
67.752173069318701
 31
0.0
  0
LINE
  5
216
  8
0
 39
6.9181999999999988
 10
81.239707101944035
 20
67.752173069318701
 30
0.0
 11
80.996186461944049
 21
67.683406161318686
 31
0.0
  0
LINE
  5
217
  8
0
 39
6.9181999999999988
 10
80.996186461944049
 20
67.683406161318686
 30
0.0
 11
80.743672161944062
 21
67.647154793318691
 31
0.0
  0
LINE
  5
218
  8
0
 39
6.9181999999999988
 10
80.743672161944062
 20
67.647154793318691
 30
0.0
 11
80.487837125944054
 21
67.642035325318702
 31
0.0
  0
LINE
  5
219
  8
0
 39
6.9181999999999988
 10
80.487837125944054
 20
67.642035325318702
 30
0.0
 11
80.233524093944069
 21
67.666664117318703
 31
0.0
  0
LINE
  5
21A
  8
0
 39
6.9181999999999988
 10
80.233524093944069
 20
67.666664117318703
 30
0.0
 11
79.986544353944055
 21
67.719519165318701
 31
0.0
  0
LINE
  5
21B
  8
0
 39
6.9181999999999988
 10
79.986544353944055
 20
67.719519165318701
 30
0.0
 11
79.751602281944059
 21
67.799216829318695
 31
0.0
  0
LINE
  5
21C
  8
0
 39
6.9181999999999988
 10
79.751602281944059
 20
67.799216829318695
 30
0.0
 11
79.534370801944064
 21
67.904373469318699
 31
0.0
  0
LINE
  5
21D
  8
0
 39
6.9181999999999988
 10
79.534370801944064
 20
67.904373469318699
 30
0.0
 11
79.340107745944067
 21
68.033743809318693
 31
0.0
  0
LINE
  5
21E
  8
0
 39
6.9181999999999988
 10
79.340107745944067
 20
68.033743809318693
 30
0.0
 11
76.445532865944045
 21
66.586456369318697
 31
0.0
  0
LINE
  5
21F
  8
0
 39
6.9181999999999988
 10
76.445532865944045
 20
66.586456369318697
 30
0.0
 11
76.445532865944045
 21
66.586456369318697
 31
0.0
  0
LINE
  5
220
  8
0
 39
6.9181999999999988
 10
76.445532865944045
 20
66.586456369318697
 30
0.0
 11
76.234666129944046
 21
66.379878917318706
 31
0.0
  0
LINE
  5
221
  8
0
 39
6.9181999999999988
 10
76.234666129944046
 20
66.379878917318706
 30
0.0
 11
76.053270925944062
 21
66.1636159853187
 31
0.0
  0
LINE
  5
222
  8
0
 39
6.9181999999999988
 10
76.053270925944062
 20
66.1636159853187
 30
0.0
 11
75.901347253944067
 21
65.938774485318689
 31
0.0
  0
LINE
  5
223
  8
0
 39
6.9181999999999988
 10
75.901347253944067
 20
65.938774485318689
 30
0.0
 11
75.778480021944063
 21
65.707014785318705
 31
0.0
  0
LINE
  5
224
  8
0
 39
6.9181999999999988
 10
75.778480021944063
 20
65.707014785318705
 30
0.0
 11
75.684530865944069
 21
65.469305433318695
 31
0.0
  0
LINE
  5
225
  8
0
 39
6.9181999999999988
 10
75.684530865944069
 20
65.469305433318695
 30
0.0
 11
75.618946329944066
 21
65.227583525318693
 31
0.0
  0
LINE
  5
226
  8
0
 39
6.9181999999999988
 10
75.618946329944066
 20
65.227583525318693
 30
0.0
 11
75.581311321944071
 21
64.982955973318695
 31
0.0
  0
LINE
  5
227
  8
0
 39
6.9181999999999988
 10
75.581311321944071
 20
64.982955973318695
 30
0.0
 11
75.571210749944072
 21
64.737083145318707
 31
0.0
  0
LINE
  5
228
  8
0
 39
6.9181999999999988
 10
75.571210749944072
 20
64.737083145318707
 30
0.0
 11
75.588644613944055
 21
64.490795225318692
 31
0.0
  0
LINE
  5
229
  8
0
 39
6.9181999999999988
 10
75.588644613944055
 20
64.490795225318692
 30
0.0
 11
75.633059457944057
 21
64.246306037318703
 31
0.0
  0
LINE
  5
22A
  8
0
 39
6.9181999999999988
 10
75.633059457944057
 20
64.246306037318703
 30
0.0
 11
75.704040189944052
 21
64.004584129318687
 31
0.0
  0
LINE
  5
22B
  8
0
 39
6.9181999999999988
 10
75.704040189944052
 20
64.004584129318687
 30
0.0
 11
75.801171717944044
 21
63.767151505318701
 31
0.0
  0
LINE
  5
22C
  8
0
 39
6.9181999999999988
 10
75.801171717944044
 20
63.767151505318701
 30
0.0
 11
75.92445404194406
 21
63.535115077318693
 31
0.0
  0
LINE
  5
22D
  8
0
 39
6.9181999999999988
 10
75.92445404194406
 20
63.535115077318693
 30
0.0
 11
76.073056977944077
 21
63.310411941318698
 31
0.0
  0
LINE
  5
22E
  8
0
 39
6.9181999999999988
 10
76.073056977944077
 20
63.310411941318698
 30
0.0
 11
76.246980525944068
 21
63.094010645318711
 31
0.0
  0
LINE
  5
22F
  8
0
 39
6.9181999999999988
 10
76.246980525944068
 20
63.094010645318711
 30
0.0
 11
76.445532865944045
 21
62.887848285318711
 31
0.0
  0
LINE
  5
230
  8
0
 39
6.9181999999999988
 10
76.445532865944045
 20
62.887848285318711
 30
0.0
 11
87.534265513944064
 21
57.259615857318643
 31
0.0
  0
LINE
  5
231
  8
0
 39
6.9181999999999988
 10
87.534265513944064
 20
57.259615857318643
 30
0.0
 11
87.534265513944064
 21
57.259615857318643
 31
0.0
  0
LINE
  5
232
  8
0
 39
6.9181999999999988
 10
87.534265513944064
 20
57.259615857318643
 30
0.0
 11
87.883496249944045
 21
57.043906381318628
 31
0.0
  0
LINE
  5
233
  8
0
 39
6.9181999999999988
 10
87.883496249944045
 20
57.043906381318628
 30
0.0
 11
88.186513409944055
 21
56.79374426931863
 31
0.0
  0
LINE
  5
234
  8
0
 39
6.9181999999999988
 10
88.186513409944055
 20
56.79374426931863
 30
0.0
 11
88.443593721944069
 21
56.51480244531863
 31
0.0
  0
LINE
  5
235
  8
0
 39
6.9181999999999988
 10
88.443593721944069
 20
56.51480244531863
 30
0.0
 11
88.654045365944057
 21
56.213584017318638
 31
0.0
  0
LINE
  5
236
  8
0
 39
6.9181999999999988
 10
88.654045365944057
 20
56.213584017318638
 30
0.0
 11
88.818421797944069
 21
55.89576190931863
 31
0.0
  0
LINE
  5
237
  8
0
 39
6.9181999999999988
 10
88.818421797944069
 20
55.89576190931863
 30
0.0
 11
88.936307925944064
 21
55.567977593318638
 31
0.0
  0
LINE
  5
238
  8
0
 39
6.9181999999999988
 10
88.936307925944064
 20
55.567977593318638
 30
0.0
 11
89.007703749944056
 21
55.236042357318631
 31
0.0
  0
LINE
  5
23B
  8
0
 39
6.9181999999999988
 10
89.007703749944042
 20
54.573284885334637
 30
0.0
 11
88.941012301944056
 21
54.277041473318633
 31
0.0
  0
LINE
  5
23C
  8
0
 39
6.9181999999999988
 10
88.941012301944056
 20
54.277041473318633
 30
0.0
 11
88.825063269944067
 21
53.98993617331864
 31
0.0
  0
LINE
  5
23D
  8
0
 39
6.9181999999999988
 10
88.825063269944067
 20
53.98993617331864
 30
0.0
 11
88.661517021944064
 21
53.729535125318641
 31
0.0
  0
LINE
  5
23E
  8
0
 39
6.9181999999999988
 10
88.661517021944064
 20
53.729535125318641
 30
0.0
 11
88.451065377944047
 21
53.501511253318618
 31
0.0
  0
LINE
  5
23F
  8
0
 39
6.9181999999999988
 10
88.451065377944047
 20
53.501511253318618
 30
0.0
 11
88.193154881944054
 21
53.312506029318641
 31
0.0
  0
LINE
  5
240
  8
0
 39
6.9181999999999988
 10
88.193154881944054
 20
53.312506029318641
 30
0.0
 11
87.887647169944046
 21
53.168330741318641
 31
0.0
  0
LINE
  5
241
  8
0
 39
6.9181999999999988
 10
87.887647169944046
 20
53.168330741318641
 30
0.0
 11
87.534265513944064
 21
53.075488497318638
 31
0.0
  0
LINE
  5
242
  8
0
 39
6.9181999999999988
 10
87.534265513944064
 20
53.075488497318638
 30
0.0
 11
87.534265513944064
 21
53.075488497318638
 31
0.0
  0
LINE
  5
243
  8
0
 39
6.9181999999999988
 10
87.534265513944064
 20
53.075488497318638
 30
0.0
 11
86.670043969944047
 21
52.689176209318639
 31
0.0
  0
LINE
  5
244
  8
0
 39
6.9181999999999988
 10
86.670043969944047
 20
52.689176209318639
 30
0.0
 11
85.805822425944058
 21
52.286675333318648
 31
0.0
  0
LINE
  5
245
  8
0
 39
6.9181999999999988
 10
85.805822425944058
 20
52.286675333318648
 30
0.0
 11
84.941600881944055
 21
51.86798586931863
 31
0.0
  0
LINE
  5
246
  8
0
 39
6.9181999999999988
 10
84.941600881944055
 20
51.86798586931863
 30
0.0
 11
84.077102609944063
 21
51.43352290931864
 31
0.0
  0
LINE
  5
247
  8
0
 39
6.9181999999999988
 10
84.077102609944063
 20
51.43352290931864
 30
0.0
 11
83.212881065944046
 21
50.983148089318632
 31
0.0
  0
LINE
  5
248
  8
0
 39
6.9181999999999988
 10
83.212881065944046
 20
50.983148089318632
 30
0.0
 11
82.348659521944057
 21
50.517138137318632
 31
0.0
  0
LINE
  5
249
  8
0
 39
6.9181999999999988
 10
82.348659521944057
 20
50.517138137318632
 30
0.0
 11
81.484437977944054
 21
50.035631417318633
 31
0.0
  0
LINE
  5
24A
  8
0
 39
6.9181999999999988
 10
81.484437977944054
 20
50.035631417318633
 30
0.0
 11
80.619801341944054
 21
49.539181385318642
 31
0.0
  0
LINE
  5
24B
  8
0
 39
6.9181999999999988
 10
80.619801341944054
 20
49.539181385318642
 30
0.0
 11
79.755579797944065
 21
49.027372949318632
 31
0.0
  0
LINE
  5
24C
  8
0
 39
6.9181999999999988
 10
79.755579797944065
 20
49.027372949318632
 30
0.0
 11
77.933499321944055
 21
48.500759565318702
 31
0.0
  0
LINE
  5
24D
  8
0
 39
6.9181999999999988
 10
77.933499321944055
 20
48.500759565318702
 30
0.0
 11
77.069277777944066
 21
47.959341233318689
 31
0.0
  0
LINE
  5
24E
  8
0
 39
6.9181999999999988
 10
77.069277777944066
 20
47.959341233318689
 30
0.0
 11
76.20464114194408
 21
47.403533045318689
 31
0.0
  0
LINE
  5
24F
  8
0
 39
6.9181999999999988
 10
76.20464114194408
 20
47.403533045318689
 30
0.0
 11
75.340419597944049
 21
46.8331966373187
 31
0.0
  0
LINE
  5
250
  8
0
 39
6.9181999999999988
 10
75.340419597944049
 20
46.8331966373187
 30
0.0
 11
74.475782961944063
 21
46.248747101318692
 31
0.0
  0
LINE
  5
251
  8
0
 39
6.9181999999999988
 10
74.475782961944063
 20
46.248747101318692
 30
0.0
 11
73.611561417944074
 21
45.650322801318687
 31
0.0
  0
LINE
  5
252
  8
0
 39
6.9181999999999988
 10
73.611561417944074
 20
45.650322801318687
 30
0.0
 11
72.907703749944062
 21
45.152024461867271
 31
0.0
  0
LINE
  5
256
  8
0
 39
6.9181999999999988
 10
95.706454377944056
 20
100.0345697293187
 30
0.0
 11
95.706454377944056
 21
100.0345697293187
 31
0.0
  0
LINE
  5
257
  8
0
 39
6.9181999999999988
 10
95.706454377944056
 20
100.0345697293187
 30
0.0
 11
95.439550221944074
 21
99.989186337318685
 31
0.0
  0
LINE
  5
258
  8
0
 39
6.9181999999999988
 10
95.439550221944074
 20
99.989186337318685
 30
0.0
 11
95.196859765944069
 21
99.935639469318716
 31
0.0
  0
LINE
  5
259
  8
0
 39
6.9181999999999988
 10
95.196859765944069
 20
99.935639469318716
 30
0.0
 11
94.976445913944076
 21
99.873098941318673
 31
0.0
  0
LINE
  5
25A
  8
0
 39
6.9181999999999988
 10
94.976445913944076
 20
99.873098941318673
 30
0.0
 11
94.775818113944055
 21
99.801011297318695
 31
0.0
  0
LINE
  5
25B
  8
0
 39
6.9181999999999988
 10
94.775818113944055
 20
99.801011297318695
 30
0.0
 11
94.593315997944075
 21
99.718407989318706
 31
0.0
  0
LINE
  5
25C
  8
0
 39
6.9181999999999988
 10
94.593315997944075
 20
99.718407989318706
 30
0.0
 11
94.426449013944065
 21
99.624873925318695
 31
0.0
  0
LINE
  5
25D
  8
0
 39
6.9181999999999988
 10
94.426449013944065
 20
99.624873925318695
 30
0.0
 11
94.273280065944064
 21
99.519440557318688
 31
0.0
  0
LINE
  5
25E
  8
0
 39
6.9181999999999988
 10
94.273280065944064
 20
99.519440557318688
 30
0.0
 11
94.131456965944082
 21
99.401831157318696
 31
0.0
  0
LINE
  5
25F
  8
0
 39
6.9181999999999988
 10
94.131456965944082
 20
99.401831157318696
 30
0.0
 11
93.999319345944073
 21
99.270662085318691
 31
0.0
  0
LINE
  5
260
  8
0
 39
6.9181999999999988
 10
93.999319345944073
 20
99.270662085318691
 30
0.0
 11
93.874376653944083
 21
99.125656613318696
 31
0.0
  0
LINE
  5
261
  8
0
 39
6.9181999999999988
 10
93.874376653944083
 20
99.125656613318696
 30
0.0
 11
93.754691793944076
 21
98.965984557318706
 31
0.0
  0
LINE
  5
262
  8
0
 39
6.9181999999999988
 10
93.754691793944076
 20
98.965984557318706
 30
0.0
 11
93.637912577944078
 21
98.791369189318701
 31
0.0
  0
LINE
  5
263
  8
0
 39
6.9181999999999988
 10
93.637912577944078
 20
98.791369189318701
 30
0.0
 11
93.522240273944064
 21
98.600288505318701
 31
0.0
  0
LINE
  5
264
  8
0
 39
6.9181999999999988
 10
93.522240273944064
 20
98.600288505318701
 30
0.0
 11
93.405322693944058
 21
98.392742505318722
 31
0.0
  0
LINE
  5
265
  8
0
 39
6.9181999999999988
 10
93.405322693944058
 20
98.392742505318722
 30
0.0
 11
93.285084377944059
 21
98.167762641318689
 31
0.0
  0
LINE
  5
266
  8
0
 39
6.9181999999999988
 10
93.285084377944059
 20
98.167762641318689
 30
0.0
 11
93.159311501944075
 21
97.924795457318723
 31
0.0
  0
LINE
  5
267
  8
0
 39
6.9181999999999988
 10
93.159311501944075
 20
97.924795457318723
 30
0.0
 11
93.159311501944075
 21
97.924795457318723
 31
0.0
  0
LINE
  5
268
  8
0
 39
6.9181999999999988
 10
93.159311501944075
 20
97.924795457318723
 30
0.0
 11
93.122645041944068
 21
97.574042717318704
 31
0.0
  0
LINE
  5
269
  8
0
 39
6.9181999999999988
 10
93.122645041944068
 20
97.574042717318704
 30
0.0
 11
93.055676865944065
 21
97.223566705318689
 31
0.0
  0
LINE
  5
26A
  8
0
 39
6.9181999999999988
 10
93.055676865944065
 20
97.223566705318689
 30
0.0
 11
92.958683701944082
 21
96.872813965318699
 31
0.0
  0
LINE
  5
26B
  8
0
 39
6.9181999999999988
 10
92.958683701944082
 20
96.872813965318699
 30
0.0
 11
92.831388821944046
 21
96.522476317318691
 31
0.0
  0
LINE
  5
26C
  8
0
 39
6.9181999999999988
 10
92.831388821944046
 20
96.522476317318691
 30
0.0
 11
92.674207317944067
 21
96.171723577318687
 31
0.0
  0
LINE
  5
26D
  8
0
 39
6.9181999999999988
 10
92.674207317944067
 20
96.171723577318687
 30
0.0
 11
92.486585733944054
 21
95.821385929318708
 31
0.0
  0
LINE
  5
26E
  8
0
 39
6.9181999999999988
 10
92.486585733944054
 20
95.821385929318708
 30
0.0
 11
92.268939161944076
 21
95.470633189318704
 31
0.0
  0
LINE
  5
26F
  8
0
 39
6.9181999999999988
 10
92.268939161944076
 20
95.470633189318704
 30
0.0
 11
92.020990873944058
 21
95.120295541318697
 31
0.0
  0
LINE
  5
270
  8
0
 39
6.9181999999999988
 10
92.020990873944058
 20
95.120295541318697
 30
0.0
 11
91.743017597944075
 21
94.769542801318707
 31
0.0
  0
LINE
  5
271
  8
0
 39
6.9181999999999988
 10
91.743017597944075
 20
94.769542801318707
 30
0.0
 11
91.434880969944061
 21
94.419066789318705
 31
0.0
  0
LINE
  5
272
  8
0
 39
6.9181999999999988
 10
91.434880969944061
 20
94.419066789318705
 30
0.0
 11
91.096580989944087
 21
94.068314049318687
 31
0.0
  0
LINE
  5
273
  8
0
 39
6.9181999999999988
 10
91.096580989944087
 20
94.068314049318687
 30
0.0
 11
90.727979293944074
 21
93.717976401318694
 31
0.0
  0
LINE
  5
274
  8
0
 39
6.9181999999999988
 10
90.727979293944074
 20
93.717976401318694
 30
0.0
 11
90.329490973944047
 21
93.36722366131869
 31
0.0
  0
LINE
  5
275
  8
0
 39
6.9181999999999988
 10
90.329490973944047
 20
93.36722366131869
 30
0.0
 11
89.900700937944066
 21
93.016886013318711
 31
0.0
  0
LINE
  5
276
  8
0
 39
6.9181999999999988
 10
89.900700937944066
 20
93.016886013318711
 30
0.0
 11
89.441747549944083
 21
92.666133273318707
 31
0.0
  0
LINE
  5
277
  8
0
 39
6.9181999999999988
 10
89.441747549944083
 20
92.666133273318707
 30
0.0
 11
88.952492445944074
 21
92.315795625318685
 31
0.0
  0
LINE
  5
278
  8
0
 39
6.9181999999999988
 10
88.952492445944074
 20
92.315795625318685
 30
0.0
 11
73.068482717944065
 21
86.848342165318698
 31
0.0
  0
LINE
  5
279
  8
0
 39
6.9181999999999988
 10
73.068482717944065
 20
86.848342165318698
 30
0.0
 11
73.068482717944065
 21
82.664214805318693
 31
0.0
  0
LINE
  5
27A
  8
0
 39
6.9181999999999988
 10
73.068482717944065
 20
82.664214805318693
 30
0.0
 11
86.737185549944058
 21
76.074075849318689
 31
0.0
  0
LINE
  5
27B
  8
0
 39
6.9181999999999988
 10
86.737185549944058
 20
76.074075849318689
 30
0.0
 11
86.737185549944058
 21
76.074075849318689
 31
0.0
  0
LINE
  5
27C
  8
0
 39
6.9181999999999988
 10
86.737185549944058
 20
76.074075849318689
 30
0.0
 11
86.925775681944074
 21
75.90264285331871
 31
0.0
  0
LINE
  5
27D
  8
0
 39
6.9181999999999988
 10
86.925775681944074
 20
75.90264285331871
 30
0.0
 11
87.089183565944069
 21
75.7316249493187
 31
0.0
  0
LINE
  5
27E
  8
0
 39
6.9181999999999988
 10
87.089183565944069
 20
75.7316249493187
 30
0.0
 11
87.227547565944079
 21
75.560330317318673
 31
0.0
  0
LINE
  5
27F
  8
0
 39
6.9181999999999988
 10
87.227547565944079
 20
75.560330317318673
 30
0.0
 11
87.340452589944064
 21
75.389312413318692
 31
0.0
  0
LINE
  5
280
  8
0
 39
6.9181999999999988
 10
87.340452589944064
 20
75.389312413318692
 30
0.0
 11
87.42845209394406
 21
75.217879417318699
 31
0.0
  0
LINE
  5
281
  8
0
 39
6.9181999999999988
 10
87.42845209394406
 20
75.217879417318699
 30
0.0
 11
87.491130985944054
 21
75.046861513318689
 31
0.0
  0
LINE
  5
282
  8
0
 39
6.9181999999999988
 10
87.491130985944054
 20
75.046861513318689
 30
0.0
 11
87.528904357944029
 21
74.875843609318693
 31
0.0
  0
LINE
  5
283
  8
0
 39
6.9181999999999988
 10
87.528904357944029
 20
74.875843609318693
 30
0.0
 11
87.541357117944074
 21
74.704825705318697
 31
0.0
  0
LINE
  5
284
  8
0
 39
6.9181999999999988
 10
87.541357117944074
 20
74.704825705318697
 30
0.0
 11
87.528904357944029
 21
74.53339270931869
 31
0.0
  0
LINE
  5
285
  8
0
 39
6.9181999999999988
 10
87.528904357944029
 20
74.53339270931869
 30
0.0
 11
87.491130985944054
 21
74.362374805318694
 31
0.0
  0
LINE
  5
286
  8
0
 39
6.9181999999999988
 10
87.491130985944054
 20
74.362374805318694
 30
0.0
 11
87.42845209394406
 21
74.19121853731869
 31
0.0
  0
LINE
  5
287
  8
0
 39
6.9181999999999988
 10
87.42845209394406
 20
74.19121853731869
 30
0.0
 11
87.340452589944064
 21
74.020200633318709
 31
0.0
  0
LINE
  5
288
  8
0
 39
6.9181999999999988
 10
87.340452589944064
 20
74.020200633318709
 30
0.0
 11
87.227547565944079
 21
73.848767637318701
 31
0.0
  0
LINE
  5
289
  8
0
 39
6.9181999999999988
 10
87.227547565944079
 20
73.848767637318701
 30
0.0
 11
87.089183565944069
 21
73.677749733318706
 31
0.0
  0
LINE
  5
28A
  8
0
 39
6.9181999999999988
 10
87.089183565944069
 20
73.677749733318706
 30
0.0
 11
86.925775681944074
 21
73.506731829318696
 31
0.0
  0
LINE
  5
28B
  8
0
 39
6.9181999999999988
 10
86.925775681944074
 20
73.506731829318696
 30
0.0
 11
86.737185549944058
 21
73.335713925318686
 31
0.0
  0
LINE
  5
28C
  8
0
 39
6.9181999999999988
 10
86.737185549944058
 20
73.335713925318686
 30
0.0
 11
72.907703749944062
 21
66.747235337318699
 31
0.0
  0
LINE
  5
28D
  8
0
 39
6.9181999999999988
 10
72.907703749944062
 20
66.747235337318699
 30
0.0
 11
72.907703749944062
 21
62.727069317318701
 31
0.0
  0
LINE
  5
28E
  8
0
 39
6.9181999999999988
 10
72.907703749944062
 20
62.727069317318701
 30
0.0
 11
86.086978073944039
 21
56.13388635331863
 31
0.0
  0
LINE
  5
28F
  8
0
 39
6.9181999999999988
 10
86.086978073944039
 20
56.13388635331863
 30
0.0
 11
86.086978073944039
 21
56.13388635331863
 31
0.0
  0
LINE
  5
290
  8
0
 39
6.9181999999999988
 10
86.086978073944039
 20
56.13388635331863
 30
0.0
 11
86.396636705944076
 21
56.015585133318631
 31
0.0
  0
LINE
  5
291
  8
0
 39
6.9181999999999988
 10
86.396636705944076
 20
56.015585133318631
 30
0.0
 11
86.658836485944065
 21
55.884554425318633
 31
0.0
  0
LINE
  5
292
  8
0
 39
6.9181999999999988
 10
86.658836485944065
 20
55.884554425318633
 30
0.0
 11
86.875376145944045
 21
55.742592961318621
 31
0.0
  0
LINE
  5
293
  8
0
 39
6.9181999999999988
 10
86.875376145944045
 20
55.742592961318621
 30
0.0
 11
87.047224233944064
 21
55.592191293318621
 31
0.0
  0
LINE
  5
294
  8
0
 39
6.9181999999999988
 10
87.047224233944064
 20
55.592191293318621
 30
0.0
 11
87.176179481944075
 21
55.434871425318619
 31
0.0
  0
LINE
  5
295
  8
0
 39
6.9181999999999988
 10
87.176179481944075
 20
55.434871425318619
 30
0.0
 11
87.263487165944056
 21
55.273262273318629
 31
0.0
  0
LINE
  5
296
  8
0
 39
6.9181999999999988
 10
87.263487165944056
 20
55.273262273318629
 30
0.0
 11
87.310530925944065
 21
55.109162569318627
 31
0.0
  0
LINE
  5
297
  8
0
 39
6.9181999999999988
 10
87.310530925944065
 20
55.109162569318627
 30
0.0
 11
87.318417673944055
 21
54.945062865318619
 31
0.0
  0
LINE
  5
298
  8
0
 39
6.9181999999999988
 10
87.318417673944055
 20
54.945062865318619
 30
0.0
 11
87.289222869944041
 21
54.78248516531864
 31
0.0
  0
LINE
  5
299
  8
0
 39
6.9181999999999988
 10
87.289222869944041
 20
54.78248516531864
 30
0.0
 11
87.223499969944086
 21
54.624196749318628
 31
0.0
  0
LINE
  5
29A
  8
0
 39
6.9181999999999988
 10
87.223499969944086
 20
54.624196749318628
 30
0.0
 11
87.123324433944049
 21
54.471857985318628
 31
0.0
  0
LINE
  5
29B
  8
0
 39
6.9181999999999988
 10
87.123324433944049
 20
54.471857985318628
 30
0.0
 11
86.989388081944028
 21
54.327959425318632
 31
0.0
  0
LINE
  5
29C
  8
0
 39
6.9181999999999988
 10
86.989388081944028
 20
54.327959425318632
 30
0.0
 11
86.823766373944053
 21
54.194161437318627
 31
0.0
  0
LINE
  5
29D
  8
0
 39
6.9181999999999988
 10
86.823766373944053
 20
54.194161437318627
 30
0.0
 11
86.627289493944062
 21
54.073092937318648
 31
0.0
  0
LINE
  5
29E
  8
0
 39
6.9181999999999988
 10
86.627289493944062
 20
54.073092937318648
 30
0.0
 11
86.401756173944065
 21
53.96655265731863
 31
0.0
  0
LINE
  5
29F
  8
0
 39
6.9181999999999988
 10
86.401756173944065
 20
53.96655265731863
 30
0.0
 11
86.148134961944066
 21
53.876892785318617
 31
0.0
  0
LINE
  5
2A0
  8
0
 39
6.9181999999999988
 10
86.148134961944066
 20
53.876892785318617
 30
0.0
 11
86.148134961944066
 21
53.876892785318617
 31
0.0
  0
LINE
  5
2A1
  8
0
 39
6.9181999999999988
 10
86.148134961944066
 20
53.876892785318617
 30
0.0
 11
85.380629853944058
 21
53.53624061731864
 31
0.0
  0
LINE
  5
2A2
  8
0
 39
6.9181999999999988
 10
85.380629853944058
 20
53.53624061731864
 30
0.0
 11
84.613124745944049
 21
53.181475321318622
 31
0.0
  0
LINE
  5
2A3
  8
0
 39
6.9181999999999988
 10
84.613124745944049
 20
53.181475321318622
 30
0.0
 11
83.845619637944054
 21
52.812043441318622
 31
0.0
  0
LINE
  5
2A4
  8
0
 39
6.9181999999999988
 10
83.845619637944054
 20
52.812043441318622
 30
0.0
 11
83.077699437944062
 21
52.42822170531862
 31
0.0
  0
LINE
  5
2A5
  8
0
 39
6.9181999999999988
 10
83.077699437944062
 20
52.42822170531862
 30
0.0
 11
82.310194329944039
 21
52.029318293318639
 31
0.0
  0
LINE
  5
2A6
  8
0
 39
6.9181999999999988
 10
82.310194329944039
 20
52.029318293318639
 30
0.0
 11
81.542412493944056
 21
51.615886661318633
 31
0.0
  0
LINE
  5
2A7
  8
0
 39
6.9181999999999988
 10
81.542412493944056
 20
51.615886661318633
 30
0.0
 11
80.774907385944033
 21
51.187373353318641
 31
0.0
  0
LINE
  5
2A8
  8
0
 39
6.9181999999999988
 10
80.774907385944033
 20
51.187373353318641
 30
0.0
 11
80.006987185944055
 21
50.744055097318643
 31
0.0
  0
LINE
  5
2A9
  8
0
 39
6.9181999999999988
 10
80.006987185944055
 20
50.744055097318643
 30
0.0
 11
79.239482077944061
 21
50.285378437318627
 31
0.0
  0
LINE
  5
2AA
  8
0
 39
6.9181999999999988
 10
79.239482077944061
 20
50.285378437318627
 30
0.0
 11
77.513979673944064
 21
49.811758465318682
 31
0.0
  0
LINE
  5
2AB
  8
0
 39
6.9181999999999988
 10
77.513979673944064
 20
49.811758465318682
 30
0.0
 11
76.746474565944055
 21
49.322780089318698
 31
0.0
  0
LINE
  5
2AC
  8
0
 39
6.9181999999999988
 10
76.746474565944055
 20
49.322780089318698
 30
0.0
 11
75.978554365944063
 21
48.818581673318697
 31
0.0
  0
LINE
  5
2AD
  8
0
 39
6.9181999999999988
 10
75.978554365944063
 20
48.818581673318697
 30
0.0
 11
75.211049257944069
 21
48.298748125318689
 31
0.0
  0
LINE
  5
2AE
  8
0
 39
6.9181999999999988
 10
75.211049257944069
 20
48.298748125318689
 30
0.0
 11
74.443129057944077
 21
47.763417809318689
 31
0.0
  0
LINE
  5
2AF
  8
0
 39
6.9181999999999988
 10
74.443129057944077
 20
47.763417809318689
 30
0.0
 11
73.675623949944054
 21
47.212590725318698
 31
0.0
  0
LINE
  5
2B0
  8
0
 39
6.9181999999999988
 10
73.675623949944054
 20
47.212590725318698
 30
0.0
 11
72.907703749944062
 21
46.646266873318687
 31
0.0
  0
LINE
  5
2B1
  8
0
 39
6.9181999999999988
 10
72.907703749944062
 20
46.646266873318687
 30
0.0
 11
72.907703749944062
 21
45.038200465318702
 31
0.0
  0
LINE
  5
2B4
  8
0
 39
6.9181999999999988
 10
103.90770374994401
 20
100.0345697293187
 30
0.0
 11
95.706454377944056
 21
100.0345697293187
 31
0.0
  0
LINE
  5
2BC
  8
1
 10
103.90770374994401
 20
100.5345697293187
 30
0.0
 11
103.90770374994401
 21
44.534569729318697
 31
0.0
  0
LINE
  5
2BD
  8
0
 39
6.9181999999999988
 10
102.187285773944
 20
69.322051013318685
 30
0.0
 11
103.90770374994401
 21
69.420249306475256
 31
0.0
  0
LINE
  5
2BF
  8
0
 39
6.9181999999999988
 10
103.91116284994401
 20
67.304288801318691
 30
0.0
 11
103.91116284994401
 21
67.304288801318691
 31
0.0
  0
LINE
  5
2C0
  8
0
 39
6.9181999999999988
 10
103.90770374994401
 20
67.30391230063843
 30
0.0
 11
103.707767769944
 21
67.282150561318687
 31
0.0
  0
LINE
  5
2C1
  8
0
 39
6.9181999999999988
 10
103.707767769944
 20
67.282150561318687
 30
0.0
 11
103.515580173944
 21
67.286716573318699
 31
0.0
  0
LINE
  5
2C2
  8
0
 39
6.9181999999999988
 10
103.515580173944
 20
67.286716573318699
 30
0.0
 11
103.335015153944
 21
67.316049741318722
 31
0.0
  0
LINE
  5
2C3
  8
0
 39
6.9181999999999988
 10
103.335015153944
 20
67.316049741318722
 30
0.0
 11
103.166211073944
 21
67.369181517318694
 31
0.0
  0
LINE
  5
2C4
  8
0
 39
6.9181999999999988
 10
103.166211073944
 20
67.369181517318694
 30
0.0
 11
103.009721389944
 21
67.444174805318696
 31
0.0
  0
LINE
  5
2C5
  8
0
 39
6.9181999999999988
 10
103.009721389944
 20
67.444174805318696
 30
0.0
 11
102.86582282994399
 21
67.540061057318695
 31
0.0
  0
LINE
  5
2C6
  8
0
 39
6.9181999999999988
 10
102.86582282994399
 20
67.540061057318695
 30
0.0
 11
102.734792121944
 21
67.655179905318676
 31
0.0
  0
LINE
  5
2C7
  8
0
 39
6.9181999999999988
 10
102.734792121944
 20
67.655179905318676
 30
0.0
 11
102.61676762994399
 21
67.788147709318693
 31
0.0
  0
LINE
  5
2C8
  8
0
 39
6.9181999999999988
 10
102.61676762994399
 20
67.788147709318693
 30
0.0
 11
102.51257953794401
 21
67.937304101318674
 31
0.0
  0
LINE
  5
2C9
  8
0
 39
6.9181999999999988
 10
102.51257953794401
 20
67.937304101318674
 30
0.0
 11
102.422089481944
 21
68.101680533318699
 31
0.0
  0
LINE
  5
2CA
  8
0
 39
6.9181999999999988
 10
102.422089481944
 20
68.101680533318699
 30
0.0
 11
102.345712553944
 21
68.279339909318693
 31
0.0
  0
LINE
  5
2CB
  8
0
 39
6.9181999999999988
 10
102.345712553944
 20
68.279339909318693
 30
0.0
 11
102.283725481944
 21
68.46945204531869
 31
0.0
  0
LINE
  5
2CC
  8
0
 39
6.9181999999999988
 10
102.283725481944
 20
68.46945204531869
 30
0.0
 11
102.236820085944
 21
68.669941481318702
 31
0.0
  0
LINE
  5
2CD
  8
0
 39
6.9181999999999988
 10
102.236820085944
 20
68.669941481318702
 30
0.0
 11
102.204719637944
 21
68.879839669318685
 31
0.0
  0
LINE
  5
2CE
  8
0
 39
6.9181999999999988
 10
102.204719637944
 20
68.879839669318685
 30
0.0
 11
102.188254321944
 21
69.097624605318714
 31
0.0
  0
LINE
  5
2CF
  8
0
 39
6.9181999999999988
 10
102.188254321944
 20
69.097624605318714
 30
0.0
 11
102.187285773944
 21
69.322051013318685
 31
0.0
  0
LINE
  5
2D1
  8
0
 10
99.907703749944062
 20
100.0345697293187
 30
0.0
 11
99.907703749944062
 21
87.034569729318704
 31
0.0
  0
LINE
  5
2D2
  8
0
 10
96.407703749944062
 20
87.034569729318704
 30
0.0
 11
96.407703749944062
 21
82.034569729318719
 31
0.0
  0
LINE
  5
2D4
  8
0
 10
96.407703749944062
 20
87.034569729318704
 30
0.0
 11
103.90770374994401
 21
87.034569729318704
 31
0.0
  0
LINE
  5
347
  8
0
 10
103.90770374994401
 20
82.034569729318704
 30
0.0
 11
92.978906158209597
 21
82.034569729318719
 31
0.0
  0
LINE
  5
34B
  8
0
 39
6.9181999999999988
 10
88.824147127466304
 20
84.757800489318697
 30
0.0
 11
88.821639209944067
 21
84.701486341318684
 31
0.0
  0
LINE
  5
34C
  8
0
 39
6.9181999999999988
 10
88.821639209944067
 20
84.701486341318684
 30
0.0
 11
88.823853033944047
 21
84.563399069318706
 31
0.0
  0
LINE
  5
34D
  8
0
 39
6.9181999999999988
 10
88.823853033944047
 20
84.563399069318706
 30
0.0
 11
88.834922153944078
 21
84.423928157318684
 31
0.0
  0
LINE
  5
34E
  8
0
 39
6.9181999999999988
 10
88.834922153944078
 20
84.423928157318684
 30
0.0
 11
88.855538389944073
 21
84.284042153318694
 31
0.0
  0
LINE
  5
34F
  8
0
 39
6.9181999999999988
 10
88.855538389944073
 20
84.284042153318694
 30
0.0
 11
88.886670289944064
 21
84.143325965318695
 31
0.0
  0
LINE
  5
350
  8
0
 39
6.9181999999999988
 10
88.886670289944064
 20
84.143325965318695
 30
0.0
 11
88.928732945944077
 21
84.002609777318696
 31
0.0
  0
LINE
  5
351
  8
0
 39
6.9181999999999988
 10
88.928732945944077
 20
84.002609777318696
 30
0.0
 11
88.982833269944067
 21
83.862170317318686
 31
0.0
  0
LINE
  5
352
  8
0
 39
6.9181999999999988
 10
88.982833269944067
 20
83.862170317318686
 30
0.0
 11
89.048971261944061
 21
83.722422677318676
 31
0.0
  0
LINE
  5
353
  8
0
 39
6.9181999999999988
 10
89.048971261944061
 20
83.722422677318676
 30
0.0
 11
89.128668925944055
 21
83.583366857318694
 31
0.0
  0
LINE
  5
354
  8
0
 39
6.9181999999999988
 10
89.128668925944055
 20
83.583366857318694
 30
0.0
 11
89.222202989944094
 21
83.445694677318698
 31
0.0
  0
LINE
  5
355
  8
0
 39
6.9181999999999988
 10
89.222202989944094
 20
83.445694677318698
 30
0.0
 11
89.330403637944059
 21
83.309682865318706
 31
0.0
  0
LINE
  5
356
  8
0
 39
6.9181999999999988
 10
89.330403637944059
 20
83.309682865318706
 30
0.0
 11
89.45354759794408
 21
83.175884877318708
 31
0.0
  0
LINE
  5
357
  8
0
 39
6.9181999999999988
 10
89.45354759794408
 20
83.175884877318708
 30
0.0
 11
89.593156873944054
 21
83.044162349318697
 31
0.0
  0
LINE
  5
358
  8
0
 39
6.9181999999999988
 10
89.593156873944054
 20
83.044162349318697
 30
0.0
 11
89.749231465944035
 21
82.915345465318694
 31
0.0
  0
LINE
  5
359
  8
0
 39
6.9181999999999988
 10
89.749231465944035
 20
82.915345465318694
 30
0.0
 11
89.922739921944057
 21
82.789572589318681
 31
0.0
  0
LINE
  5
35A
  8
0
 39
6.9181999999999988
 10
89.922739921944057
 20
82.789572589318681
 30
0.0
 11
90.114235697944068
 21
82.667258813318696
 31
0.0
  0
LINE
  5
35B
  8
0
 39
6.9181999999999988
 10
90.114235697944068
 20
82.667258813318696
 30
0.0
 11
90.114235697944068
 21
82.667258813318696
 31
0.0
  0
LINE
  5
35C
  8
0
 39
6.9181999999999988
 10
90.114235697944068
 20
82.667258813318696
 30
0.0
 11
90.315416953944052
 21
82.676529201318687
 31
0.0
  0
LINE
  5
35D
  8
0
 39
6.9181999999999988
 10
90.315416953944052
 20
82.676529201318687
 30
0.0
 11
90.506359273944057
 21
82.695346705318684
 31
0.0
  0
LINE
  5
35E
  8
0
 39
6.9181999999999988
 10
90.506359273944057
 20
82.695346705318684
 30
0.0
 11
90.687339385944071
 21
82.723849689318683
 31
0.0
  0
LINE
  5
35F
  8
0
 39
6.9181999999999988
 10
90.687339385944071
 20
82.723849689318683
 30
0.0
 11
90.858080561944064
 21
82.762591609318704
 31
0.0
  0
LINE
  5
360
  8
0
 39
6.9181999999999988
 10
90.858080561944064
 20
82.762591609318704
 30
0.0
 11
91.018997893944046
 21
82.811849193318679
 31
0.0
  0
LINE
  5
361
  8
0
 39
6.9181999999999988
 10
91.018997893944046
 20
82.811849193318679
 30
0.0
 11
91.169676289944064
 21
82.872452625318687
 31
0.0
  0
LINE
  5
362
  8
0
 39
6.9181999999999988
 10
91.169676289944064
 20
82.872452625318687
 30
0.0
 11
91.310392477944063
 21
82.944678633318688
 31
0.0
  0
LINE
  5
363
  8
0
 39
6.9181999999999988
 10
91.310392477944063
 20
82.944678633318688
 30
0.0
 11
91.440869729944055
 21
83.029080673318703
 31
0.0
  0
LINE
  5
364
  8
0
 39
6.9181999999999988
 10
91.440869729944055
 20
83.029080673318703
 30
0.0
 11
91.561661501944059
 21
83.125658745318702
 31
0.0
  0
LINE
  5
365
  8
0
 39
6.9181999999999988
 10
91.561661501944059
 20
83.125658745318702
 30
0.0
 11
91.672214337944084
 21
83.235519761318699
 31
0.0
  0
LINE
  5
366
  8
0
 39
6.9181999999999988
 10
91.672214337944084
 20
83.235519761318699
 30
0.0
 11
91.772666601944067
 21
83.358940449318709
 31
0.0
  0
LINE
  5
367
  8
0
 39
6.9181999999999988
 10
91.772666601944067
 20
83.358940449318709
 30
0.0
 11
91.863018293944066
 21
83.496335901318716
 31
0.0
  0
LINE
  5
368
  8
0
 39
6.9181999999999988
 10
91.863018293944066
 20
83.496335901318716
 30
0.0
 11
91.943546141944068
 21
83.647982845318694
 31
0.0
  0
LINE
  5
369
  8
0
 39
6.9181999999999988
 10
91.943546141944068
 20
83.647982845318694
 30
0.0
 11
92.013835053944078
 21
83.814711465318695
 31
0.0
  0
LINE
  5
36A
  8
0
 39
6.9181999999999988
 10
92.013835053944078
 20
83.814711465318695
 30
0.0
 11
92.074023393944074
 21
83.996798489318707
 31
0.0
  0
LINE
  5
36B
  8
0
 39
6.9181999999999988
 10
92.074023393944074
 20
83.996798489318707
 30
0.0
 11
92.110785850675569
 21
84.141822836534999
 31
0.0
  0
LINE
  5
381
  8
0
 10
72.907703749944062
 20
45.034569729318697
 30
0.0
 11
103.90770374994401
 21
45.034569729318697
 31
0.0
  0
LINE
  5
3A2
  8
0
 10
89.007703749944056
 20
55.236042357318631
 30
0.0
 11
89.007703749944056
 21
54.573284885334637
 31
0.0
  0
LINE
  5
3AC
  8
0
 39
6.9181999999999988
 10
115.74138410594399
 20
83.996798489318707
 30
0.0
 11
115.7046216492125
 21
84.141822836534999
 31
0.0
  0
LINE
  5
3AD
  8
0
 39
6.9181999999999988
 10
115.801572445944
 20
83.814711465318695
 30
0.0
 11
115.74138410594399
 21
83.996798489318707
 31
0.0
  0
LINE
  5
3AE
  8
0
 39
6.9181999999999988
 10
115.871861357944
 20
83.647982845318694
 30
0.0
 11
115.801572445944
 21
83.814711465318695
 31
0.0
  0
LINE
  5
3AF
  8
0
 39
6.9181999999999988
 10
115.952389205944
 20
83.496335901318716
 30
0.0
 11
115.871861357944
 21
83.647982845318694
 31
0.0
  0
LINE
  5
3B0
  8
0
 39
6.9181999999999988
 10
116.042740897944
 20
83.358940449318709
 30
0.0
 11
115.952389205944
 21
83.496335901318716
 31
0.0
  0
LINE
  5
3B1
  8
0
 39
6.9181999999999988
 10
116.143193161944
 20
83.235519761318699
 30
0.0
 11
116.042740897944
 21
83.358940449318709
 31
0.0
  0
LINE
  5
3B2
  8
0
 39
6.9181999999999988
 10
116.25374599794399
 20
83.125658745318702
 30
0.0
 11
116.143193161944
 21
83.235519761318699
 31
0.0
  0
LINE
  5
3B3
  8
0
 39
6.9181999999999988
 10
116.374537769944
 20
83.029080673318703
 30
0.0
 11
116.25374599794399
 21
83.125658745318702
 31
0.0
  0
LINE
  5
3B4
  8
0
 39
6.9181999999999988
 10
116.505015021944
 20
82.944678633318688
 30
0.0
 11
116.374537769944
 21
83.029080673318703
 31
0.0
  0
LINE
  5
3B5
  8
0
 39
6.9181999999999988
 10
116.645731209944
 20
82.872452625318687
 30
0.0
 11
116.505015021944
 21
82.944678633318688
 31
0.0
  0
LINE
  5
3B6
  8
0
 39
6.9181999999999988
 10
116.79640960594401
 20
82.811849193318679
 30
0.0
 11
116.645731209944
 21
82.872452625318687
 31
0.0
  0
LINE
  5
3B7
  8
0
 39
6.9181999999999988
 10
116.957326937944
 20
82.762591609318704
 30
0.0
 11
116.79640960594401
 21
82.811849193318679
 31
0.0
  0
LINE
  5
3B8
  8
0
 39
6.9181999999999988
 10
117.128068113944
 20
82.723849689318683
 30
0.0
 11
116.957326937944
 21
82.762591609318704
 31
0.0
  0
LINE
  5
3B9
  8
0
 39
6.9181999999999988
 10
117.309048225944
 20
82.695346705318684
 30
0.0
 11
117.128068113944
 21
82.723849689318683
 31
0.0
  0
LINE
  5
3BA
  8
0
 39
6.9181999999999988
 10
117.499990545944
 20
82.676529201318687
 30
0.0
 11
117.309048225944
 21
82.695346705318684
 31
0.0
  0
LINE
  5
3BB
  8
0
 39
6.9181999999999988
 10
117.701171801944
 20
82.667258813318696
 30
0.0
 11
117.499990545944
 21
82.676529201318687
 31
0.0
  0
LINE
  5
3BC
  8
0
 39
6.9181999999999988
 10
117.701171801944
 20
82.667258813318696
 30
0.0
 11
117.701171801944
 21
82.667258813318696
 31
0.0
  0
LINE
  5
3BD
  8
0
 39
6.9181999999999988
 10
117.892667577944
 20
82.789572589318681
 30
0.0
 11
117.701171801944
 21
82.667258813318696
 31
0.0
  0
LINE
  5
3BE
  8
0
 39
6.9181999999999988
 10
118.066176033944
 20
82.915345465318694
 30
0.0
 11
117.892667577944
 21
82.789572589318681
 31
0.0
  0
LINE
  5
3BF
  8
0
 39
6.9181999999999988
 10
118.222250625944
 20
83.044162349318697
 30
0.0
 11
118.066176033944
 21
82.915345465318694
 31
0.0
  0
LINE
  5
3C0
  8
0
 39
6.9181999999999988
 10
118.361859901944
 20
83.175884877318708
 30
0.0
 11
118.222250625944
 21
83.044162349318697
 31
0.0
  0
LINE
  5
3C1
  8
0
 39
6.9181999999999988
 10
118.48500386194399
 20
83.309682865318706
 30
0.0
 11
118.361859901944
 21
83.175884877318708
 31
0.0
  0
LINE
  5
3C2
  8
0
 39
6.9181999999999988
 10
118.593204509944
 20
83.445694677318698
 30
0.0
 11
118.48500386194399
 21
83.309682865318706
 31
0.0
  0
LINE
  5
3C3
  8
0
 39
6.9181999999999988
 10
118.686738573944
 20
83.583366857318694
 30
0.0
 11
118.593204509944
 21
83.445694677318698
 31
0.0
  0
LINE
  5
3C4
  8
0
 39
6.9181999999999988
 10
118.76643623794401
 20
83.722422677318676
 30
0.0
 11
118.686738573944
 21
83.583366857318694
 31
0.0
  0
LINE
  5
3C5
  8
0
 39
6.9181999999999988
 10
118.832574229944
 20
83.862170317318686
 30
0.0
 11
118.76643623794401
 21
83.722422677318676
 31
0.0
  0
LINE
  5
3C6
  8
0
 39
6.9181999999999988
 10
118.886674553944
 20
84.002609777318696
 30
0.0
 11
118.832574229944
 21
83.862170317318686
 31
0.0
  0
LINE
  5
3C7
  8
0
 39
6.9181999999999988
 10
118.928737209944
 20
84.143325965318695
 30
0.0
 11
118.886674553944
 21
84.002609777318696
 31
0.0
  0
LINE
  5
3C8
  8
0
 39
6.9181999999999988
 10
118.95986910994399
 20
84.284042153318694
 30
0.0
 11
118.928737209944
 21
84.143325965318695
 31
0.0
  0
LINE
  5
3C9
  8
0
 39
6.9181999999999988
 10
118.980485345944
 20
84.423928157318684
 30
0.0
 11
118.95986910994399
 21
84.284042153318694
 31
0.0
  0
LINE
  5
3CA
  8
0
 39
6.9181999999999988
 10
118.99155446594401
 20
84.563399069318706
 30
0.0
 11
118.980485345944
 21
84.423928157318684
 31
0.0
  0
LINE
  5
3CB
  8
0
 39
6.9181999999999988
 10
118.993768289944
 20
84.701486341318684
 30
0.0
 11
118.99155446594401
 21
84.563399069318706
 31
0.0
  0
LINE
  5
3CC
  8
0
 39
6.9181999999999988
 10
118.99126037242181
 20
84.757800489318697
 30
0.0
 11
118.993768289944
 21
84.701486341318684
 31
0.0
  0
LINE
  5
3CD
  8
0
 39
6.9181999999999988
 10
105.627153177944
 20
69.097624605318714
 30
0.0
 11
105.628121725944
 21
69.322051013318685
 31
0.0
  0
LINE
  5
3CE
  8
0
 39
6.9181999999999988
 10
105.610687861944
 20
68.879839669318685
 30
0.0
 11
105.627153177944
 21
69.097624605318714
 31
0.0
  0
LINE
  5
3CF
  8
0
 39
6.9181999999999988
 10
105.57858741394401
 20
68.669941481318702
 30
0.0
 11
105.610687861944
 21
68.879839669318685
 31
0.0
  0
LINE
  5
3D0
  8
0
 39
6.9181999999999988
 10
105.53168201794399
 20
68.46945204531869
 30
0.0
 11
105.57858741394401
 21
68.669941481318702
 31
0.0
  0
LINE
  5
3D1
  8
0
 39
6.9181999999999988
 10
105.469694945944
 20
68.279339909318693
 30
0.0
 11
105.53168201794399
 21
68.46945204531869
 31
0.0
  0
LINE
  5
3D2
  8
0
 39
6.9181999999999988
 10
105.393318017944
 20
68.101680533318699
 30
0.0
 11
105.469694945944
 21
68.279339909318693
 31
0.0
  0
LINE
  5
3D3
  8
0
 39
6.9181999999999988
 10
105.302827961944
 20
67.937304101318674
 30
0.0
 11
105.393318017944
 21
68.101680533318699
 31
0.0
  0
LINE
  5
3D4
  8
0
 39
6.9181999999999988
 10
105.198639869944
 20
67.788147709318693
 30
0.0
 11
105.302827961944
 21
67.937304101318674
 31
0.0
  0
LINE
  5
3D5
  8
0
 39
6.9181999999999988
 10
105.080615377944
 20
67.655179905318676
 30
0.0
 11
105.198639869944
 21
67.788147709318693
 31
0.0
  0
LINE
  5
3D6
  8
0
 39
6.9181999999999988
 10
104.949584669944
 20
67.540061057318695
 30
0.0
 11
105.080615377944
 21
67.655179905318676
 31
0.0
  0
LINE
  5
3D7
  8
0
 39
6.9181999999999988
 10
104.80568610994401
 20
67.444174805318696
 30
0.0
 11
104.949584669944
 21
67.540061057318695
 31
0.0
  0
LINE
  5
3D8
  8
0
 39
6.9181999999999988
 10
104.649196425944
 20
67.369181517318694
 30
0.0
 11
104.80568610994401
 21
67.444174805318696
 31
0.0
  0
LINE
  5
3D9
  8
0
 39
6.9181999999999988
 10
104.480392345944
 20
67.316049741318722
 30
0.0
 11
104.649196425944
 21
67.369181517318694
 31
0.0
  0
LINE
  5
3DA
  8
0
 39
6.9181999999999988
 10
104.29982732594399
 20
67.286716573318699
 30
0.0
 11
104.480392345944
 21
67.316049741318722
 31
0.0
  0
LINE
  5
3DB
  8
0
 39
6.9181999999999988
 10
104.107639729944
 20
67.282150561318687
 30
0.0
 11
104.29982732594399
 21
67.286716573318699
 31
0.0
  0
LINE
  5
3DC
  8
0
 39
6.9181999999999988
 10
103.90770374994401
 20
67.30391230063843
 30
0.0
 11
104.107639729944
 21
67.282150561318687
 31
0.0
  0
LINE
  5
3DD
  8
0
 39
6.9181999999999988
 10
103.904244649944
 20
67.304288801318691
 30
0.0
 11
103.904244649944
 21
67.304288801318691
 31
0.0
  0
LINE
  5
3DE
  8
0
 39
6.9181999999999988
 10
105.628121725944
 20
69.322051013318685
 30
0.0
 11
103.90770374994401
 21
69.420249306475256
 31
0.0
  0
LINE
  5
3DF
  8
0
 39
6.9181999999999988
 10
103.90770374994401
 20
100.0345697293187
 30
0.0
 11
112.108953121944
 21
100.0345697293187
 31
0.0
  0
LINE
  5
3E0
  8
0
 39
6.9181999999999988
 10
134.90770374994401
 20
46.646266873318687
 30
0.0
 11
134.90770374994401
 21
45.038200465318702
 31
0.0
  0
LINE
  5
3E1
  8
0
 39
6.9181999999999988
 10
134.13978354994401
 20
47.212590725318698
 30
0.0
 11
134.90770374994401
 21
46.646266873318687
 31
0.0
  0
LINE
  5
3E2
  8
0
 39
6.9181999999999988
 10
133.37227844194399
 20
47.763417809318689
 30
0.0
 11
134.13978354994401
 21
47.212590725318698
 31
0.0
  0
LINE
  5
3E3
  8
0
 39
6.9181999999999988
 10
132.604358241944
 20
48.298748125318689
 30
0.0
 11
133.37227844194399
 21
47.763417809318689
 31
0.0
  0
LINE
  5
3E4
  8
0
 39
6.9181999999999988
 10
131.836853133944
 20
48.818581673318697
 30
0.0
 11
132.604358241944
 21
48.298748125318689
 31
0.0
  0
LINE
  5
3E5
  8
0
 39
6.9181999999999988
 10
131.06893293394401
 20
49.322780089318698
 30
0.0
 11
131.836853133944
 21
48.818581673318697
 31
0.0
  0
LINE
  5
3E6
  8
0
 39
6.9181999999999988
 10
130.30142782594399
 20
49.811758465318682
 30
0.0
 11
131.06893293394401
 21
49.322780089318698
 31
0.0
  0
LINE
  5
3E7
  8
0
 39
6.9181999999999988
 10
128.57592542194399
 20
50.285378437318627
 30
0.0
 11
130.30142782594399
 21
49.811758465318682
 31
0.0
  0
LINE
  5
3E8
  8
0
 39
6.9181999999999988
 10
127.808420313944
 20
50.744055097318643
 30
0.0
 11
128.57592542194399
 21
50.285378437318627
 31
0.0
  0
LINE
  5
3E9
  8
0
 39
6.9181999999999988
 10
127.04050011394401
 20
51.187373353318641
 30
0.0
 11
127.808420313944
 21
50.744055097318643
 31
0.0
  0
LINE
  5
3EA
  8
0
 39
6.9181999999999988
 10
126.272995005944
 20
51.615886661318633
 30
0.0
 11
127.04050011394401
 21
51.187373353318641
 31
0.0
  0
LINE
  5
3EB
  8
0
 39
6.9181999999999988
 10
125.505213169944
 20
52.029318293318639
 30
0.0
 11
126.272995005944
 21
51.615886661318633
 31
0.0
  0
LINE
  5
3EC
  8
0
 39
6.9181999999999988
 10
124.73770806194401
 20
52.42822170531862
 30
0.0
 11
125.505213169944
 21
52.029318293318639
 31
0.0
  0
LINE
  5
3ED
  8
0
 39
6.9181999999999988
 10
123.969787861944
 20
52.812043441318622
 30
0.0
 11
124.73770806194401
 21
52.42822170531862
 31
0.0
  0
LINE
  5
3EE
  8
0
 39
6.9181999999999988
 10
123.202282753944
 20
53.181475321318622
 30
0.0
 11
123.969787861944
 21
52.812043441318622
 31
0.0
  0
LINE
  5
3EF
  8
0
 39
6.9181999999999988
 10
122.434777645944
 20
53.53624061731864
 30
0.0
 11
123.202282753944
 21
53.181475321318622
 31
0.0
  0
LINE
  5
3F0
  8
0
 39
6.9181999999999988
 10
121.667272537944
 20
53.876892785318617
 30
0.0
 11
122.434777645944
 21
53.53624061731864
 31
0.0
  0
LINE
  5
3F1
  8
0
 39
6.9181999999999988
 10
121.667272537944
 20
53.876892785318617
 30
0.0
 11
121.667272537944
 21
53.876892785318617
 31
0.0
  0
LINE
  5
3F2
  8
0
 39
6.9181999999999988
 10
121.413651325944
 20
53.96655265731863
 30
0.0
 11
121.667272537944
 21
53.876892785318617
 31
0.0
  0
LINE
  5
3F3
  8
0
 39
6.9181999999999988
 10
121.18811800594401
 20
54.073092937318648
 30
0.0
 11
121.413651325944
 21
53.96655265731863
 31
0.0
  0
LINE
  5
3F4
  8
0
 39
6.9181999999999988
 10
120.991641125944
 20
54.194161437318627
 30
0.0
 11
121.18811800594401
 21
54.073092937318648
 31
0.0
  0
LINE
  5
3F5
  8
0
 39
6.9181999999999988
 10
120.826019417944
 20
54.327959425318632
 30
0.0
 11
120.991641125944
 21
54.194161437318627
 31
0.0
  0
LINE
  5
3F6
  8
0
 39
6.9181999999999988
 10
120.692083065944
 20
54.471857985318628
 30
0.0
 11
120.826019417944
 21
54.327959425318632
 31
0.0
  0
LINE
  5
3F7
  8
0
 39
6.9181999999999988
 10
120.591907529944
 20
54.624196749318628
 30
0.0
 11
120.692083065944
 21
54.471857985318628
 31
0.0
  0
LINE
  5
3F8
  8
0
 39
6.9181999999999988
 10
120.526184629944
 20
54.78248516531864
 30
0.0
 11
120.591907529944
 21
54.624196749318628
 31
0.0
  0
LINE
  5
3F9
  8
0
 39
6.9181999999999988
 10
120.496989825944
 20
54.945062865318619
 30
0.0
 11
120.526184629944
 21
54.78248516531864
 31
0.0
  0
LINE
  5
3FA
  8
0
 39
6.9181999999999988
 10
120.504876573944
 20
55.109162569318627
 30
0.0
 11
120.496989825944
 21
54.945062865318619
 31
0.0
  0
LINE
  5
3FB
  8
0
 39
6.9181999999999988
 10
120.551920333944
 20
55.273262273318629
 30
0.0
 11
120.504876573944
 21
55.109162569318627
 31
0.0
  0
LINE
  5
3FC
  8
0
 39
6.9181999999999988
 10
120.63922801794401
 20
55.434871425318619
 30
0.0
 11
120.551920333944
 21
55.273262273318629
 31
0.0
  0
LINE
  5
3FD
  8
0
 39
6.9181999999999988
 10
120.768183265944
 20
55.592191293318621
 30
0.0
 11
120.63922801794401
 21
55.434871425318619
 31
0.0
  0
LINE
  5
3FE
  8
0
 39
6.9181999999999988
 10
120.94003135394399
 20
55.742592961318621
 30
0.0
 11
120.768183265944
 21
55.592191293318621
 31
0.0
  0
LINE
  5
3FF
  8
0
 39
6.9181999999999988
 10
121.156571013944
 20
55.884554425318633
 30
0.0
 11
120.94003135394399
 21
55.742592961318621
 31
0.0
  0
LINE
  5
400
  8
0
 39
6.9181999999999988
 10
121.41877079394401
 20
56.015585133318631
 30
0.0
 11
121.156571013944
 21
55.884554425318633
 31
0.0
  0
LINE
  5
401
  8
0
 39
6.9181999999999988
 10
121.728429425944
 20
56.13388635331863
 30
0.0
 11
121.41877079394401
 21
56.015585133318631
 31
0.0
  0
LINE
  5
402
  8
0
 39
6.9181999999999988
 10
121.728429425944
 20
56.13388635331863
 30
0.0
 11
121.728429425944
 21
56.13388635331863
 31
0.0
  0
LINE
  5
403
  8
0
 39
6.9181999999999988
 10
134.90770374994401
 20
62.727069317318701
 30
0.0
 11
121.728429425944
 21
56.13388635331863
 31
0.0
  0
LINE
  5
404
  8
0
 39
6.9181999999999988
 10
134.90770374994401
 20
66.747235337318699
 30
0.0
 11
134.90770374994401
 21
62.727069317318701
 31
0.0
  0
LINE
  5
405
  8
0
 39
6.9181999999999988
 10
121.07822194994399
 20
73.335713925318686
 30
0.0
 11
134.90770374994401
 21
66.747235337318699
 31
0.0
  0
LINE
  5
406
  8
0
 39
6.9181999999999988
 10
120.88963181794399
 20
73.506731829318696
 30
0.0
 11
121.07822194994399
 21
73.335713925318686
 31
0.0
  0
LINE
  5
407
  8
0
 39
6.9181999999999988
 10
120.726223933944
 20
73.677749733318706
 30
0.0
 11
120.88963181794399
 21
73.506731829318696
 31
0.0
  0
LINE
  5
408
  8
0
 39
6.9181999999999988
 10
120.587859933944
 20
73.848767637318701
 30
0.0
 11
120.726223933944
 21
73.677749733318706
 31
0.0
  0
LINE
  5
409
  8
0
 39
6.9181999999999988
 10
120.474954909944
 20
74.020200633318709
 30
0.0
 11
120.587859933944
 21
73.848767637318701
 31
0.0
  0
LINE
  5
40A
  8
0
 39
6.9181999999999988
 10
120.38695540594399
 20
74.19121853731869
 30
0.0
 11
120.474954909944
 21
74.020200633318709
 31
0.0
  0
LINE
  5
40B
  8
0
 39
6.9181999999999988
 10
120.324276513944
 20
74.362374805318694
 30
0.0
 11
120.38695540594399
 21
74.19121853731869
 31
0.0
  0
LINE
  5
40C
  8
0
 39
6.9181999999999988
 10
120.286503141944
 20
74.53339270931869
 30
0.0
 11
120.324276513944
 21
74.362374805318694
 31
0.0
  0
LINE
  5
40D
  8
0
 39
6.9181999999999988
 10
120.27405038194399
 20
74.704825705318697
 30
0.0
 11
120.286503141944
 21
74.53339270931869
 31
0.0
  0
LINE
  5
40E
  8
0
 39
6.9181999999999988
 10
120.286503141944
 20
74.875843609318693
 30
0.0
 11
120.27405038194399
 21
74.704825705318697
 31
0.0
  0
LINE
  5
40F
  8
0
 39
6.9181999999999988
 10
120.324276513944
 20
75.046861513318689
 30
0.0
 11
120.286503141944
 21
74.875843609318693
 31
0.0
  0
LINE
  5
410
  8
0
 39
6.9181999999999988
 10
120.38695540594399
 20
75.217879417318699
 30
0.0
 11
120.324276513944
 21
75.046861513318689
 31
0.0
  0
LINE
  5
411
  8
0
 39
6.9181999999999988
 10
120.474954909944
 20
75.389312413318692
 30
0.0
 11
120.38695540594399
 21
75.217879417318699
 31
0.0
  0
LINE
  5
412
  8
0
 39
6.9181999999999988
 10
120.587859933944
 20
75.560330317318673
 30
0.0
 11
120.474954909944
 21
75.389312413318692
 31
0.0
  0
LINE
  5
413
  8
0
 39
6.9181999999999988
 10
120.726223933944
 20
75.7316249493187
 30
0.0
 11
120.587859933944
 21
75.560330317318673
 31
0.0
  0
LINE
  5
414
  8
0
 39
6.9181999999999988
 10
120.88963181794399
 20
75.90264285331871
 30
0.0
 11
120.726223933944
 21
75.7316249493187
 31
0.0
  0
LINE
  5
415
  8
0
 39
6.9181999999999988
 10
121.07822194994399
 20
76.074075849318689
 30
0.0
 11
120.88963181794399
 21
75.90264285331871
 31
0.0
  0
LINE
  5
416
  8
0
 39
6.9181999999999988
 10
121.07822194994399
 20
76.074075849318689
 30
0.0
 11
121.07822194994399
 21
76.074075849318689
 31
0.0
  0
LINE
  5
417
  8
0
 39
6.9181999999999988
 10
134.74692478194399
 20
82.664214805318693
 30
0.0
 11
121.07822194994399
 21
76.074075849318689
 31
0.0
  0
LINE
  5
418
  8
0
 39
6.9181999999999988
 10
134.74692478194399
 20
86.848342165318698
 30
0.0
 11
134.74692478194399
 21
82.664214805318693
 31
0.0
  0
LINE
  5
419
  8
0
 39
6.9181999999999988
 10
118.86291505394399
 20
92.315795625318685
 30
0.0
 11
134.74692478194399
 21
86.848342165318698
 31
0.0
  0
LINE
  5
41A
  8
0
 39
6.9181999999999988
 10
118.373659949944
 20
92.666133273318707
 30
0.0
 11
118.86291505394399
 21
92.315795625318685
 31
0.0
  0
LINE
  5
41B
  8
0
 39
6.9181999999999988
 10
117.914706561944
 20
93.016886013318711
 30
0.0
 11
118.373659949944
 21
92.666133273318707
 31
0.0
  0
LINE
  5
41C
  8
0
 39
6.9181999999999988
 10
117.48591652594401
 20
93.36722366131869
 30
0.0
 11
117.914706561944
 21
93.016886013318711
 31
0.0
  0
LINE
  5
41D
  8
0
 39
6.9181999999999988
 10
117.08742820594399
 20
93.717976401318694
 30
0.0
 11
117.48591652594401
 21
93.36722366131869
 31
0.0
  0
LINE
  5
41E
  8
0
 39
6.9181999999999988
 10
116.71882650994399
 20
94.068314049318687
 30
0.0
 11
117.08742820594399
 21
93.717976401318694
 31
0.0
  0
LINE
  5
41F
  8
0
 39
6.9181999999999988
 10
116.38052652994401
 20
94.419066789318705
 30
0.0
 11
116.71882650994399
 21
94.068314049318687
 31
0.0
  0
LINE
  5
420
  8
0
 39
6.9181999999999988
 10
116.07238990194401
 20
94.769542801318707
 30
0.0
 11
116.38052652994401
 21
94.419066789318705
 31
0.0
  0
LINE
  5
421
  8
0
 39
6.9181999999999988
 10
115.794416625944
 20
95.120295541318697
 30
0.0
 11
116.07238990194401
 21
94.769542801318707
 31
0.0
  0
LINE
  5
422
  8
0
 39
6.9181999999999988
 10
115.54646833794401
 20
95.470633189318704
 30
0.0
 11
115.794416625944
 21
95.120295541318697
 31
0.0
  0
LINE
  5
423
  8
0
 39
6.9181999999999988
 10
115.328821765944
 20
95.821385929318708
 30
0.0
 11
115.54646833794401
 21
95.470633189318704
 31
0.0
  0
LINE
  5
424
  8
0
 39
6.9181999999999988
 10
115.141200181944
 20
96.171723577318687
 30
0.0
 11
115.328821765944
 21
95.821385929318708
 31
0.0
  0
LINE
  5
425
  8
0
 39
6.9181999999999988
 10
114.98401867794399
 20
96.522476317318691
 30
0.0
 11
115.141200181944
 21
96.171723577318687
 31
0.0
  0
LINE
  5
426
  8
0
 39
6.9181999999999988
 10
114.856723797944
 20
96.872813965318699
 30
0.0
 11
114.98401867794399
 21
96.522476317318691
 31
0.0
  0
LINE
  5
427
  8
0
 39
6.9181999999999988
 10
114.759730633944
 20
97.223566705318689
 30
0.0
 11
114.856723797944
 21
96.872813965318699
 31
0.0
  0
LINE
  5
428
  8
0
 39
6.9181999999999988
 10
114.692762457944
 20
97.574042717318704
 30
0.0
 11
114.759730633944
 21
97.223566705318689
 31
0.0
  0
LINE
  5
429
  8
0
 39
6.9181999999999988
 10
114.65609599794401
 20
97.924795457318723
 30
0.0
 11
114.692762457944
 21
97.574042717318704
 31
0.0
  0
LINE
  5
42A
  8
0
 39
6.9181999999999988
 10
114.65609599794401
 20
97.924795457318723
 30
0.0
 11
114.65609599794401
 21
97.924795457318723
 31
0.0
  0
LINE
  5
42B
  8
0
 39
6.9181999999999988
 10
114.53032312194399
 20
98.167762641318689
 30
0.0
 11
114.65609599794401
 21
97.924795457318723
 31
0.0
  0
LINE
  5
42C
  8
0
 39
6.9181999999999988
 10
114.410084805944
 20
98.392742505318722
 30
0.0
 11
114.53032312194399
 21
98.167762641318689
 31
0.0
  0
LINE
  5
42D
  8
0
 39
6.9181999999999988
 10
114.293167225944
 20
98.600288505318701
 30
0.0
 11
114.410084805944
 21
98.392742505318722
 31
0.0
  0
LINE
  5
42E
  8
0
 39
6.9181999999999988
 10
114.177494921944
 20
98.791369189318701
 30
0.0
 11
114.293167225944
 21
98.600288505318701
 31
0.0
  0
LINE
  5
42F
  8
0
 39
6.9181999999999988
 10
114.06071570594401
 20
98.965984557318706
 30
0.0
 11
114.177494921944
 21
98.791369189318701
 31
0.0
  0
LINE
  5
430
  8
0
 39
6.9181999999999988
 10
113.941030845944
 20
99.125656613318696
 30
0.0
 11
114.06071570594401
 21
98.965984557318706
 31
0.0
  0
LINE
  5
431
  8
0
 39
6.9181999999999988
 10
113.81608815394399
 20
99.270662085318691
 30
0.0
 11
113.941030845944
 21
99.125656613318696
 31
0.0
  0
LINE
  5
432
  8
0
 39
6.9181999999999988
 10
113.683950533944
 20
99.401831157318696
 30
0.0
 11
113.81608815394399
 21
99.270662085318691
 31
0.0
  0
LINE
  5
433
  8
0
 39
6.9181999999999988
 10
113.542127433944
 20
99.519440557318688
 30
0.0
 11
113.683950533944
 21
99.401831157318696
 31
0.0
  0
LINE
  5
434
  8
0
 39
6.9181999999999988
 10
113.388958485944
 20
99.624873925318695
 30
0.0
 11
113.542127433944
 21
99.519440557318688
 31
0.0
  0
LINE
  5
435
  8
0
 39
6.9181999999999988
 10
113.22209150194401
 20
99.718407989318706
 30
0.0
 11
113.388958485944
 21
99.624873925318695
 31
0.0
  0
LINE
  5
436
  8
0
 39
6.9181999999999988
 10
113.039589385944
 20
99.801011297318695
 30
0.0
 11
113.22209150194401
 21
99.718407989318706
 31
0.0
  0
LINE
  5
437
  8
0
 39
6.9181999999999988
 10
112.83896158594401
 20
99.873098941318673
 30
0.0
 11
113.039589385944
 21
99.801011297318695
 31
0.0
  0
LINE
  5
438
  8
0
 39
6.9181999999999988
 10
112.618547733944
 20
99.935639469318716
 30
0.0
 11
112.83896158594401
 21
99.873098941318673
 31
0.0
  0
LINE
  5
439
  8
0
 39
6.9181999999999988
 10
112.37585727794399
 20
99.989186337318685
 30
0.0
 11
112.618547733944
 21
99.935639469318716
 31
0.0
  0
LINE
  5
43A
  8
0
 39
6.9181999999999988
 10
112.108953121944
 20
100.0345697293187
 30
0.0
 11
112.37585727794399
 21
99.989186337318685
 31
0.0
  0
LINE
  5
43B
  8
0
 39
6.9181999999999988
 10
112.108953121944
 20
100.0345697293187
 30
0.0
 11
112.108953121944
 21
100.0345697293187
 31
0.0
  0
LINE
  5
43C
  8
0
 39
6.9181999999999988
 10
134.20384608194399
 20
45.650322801318687
 30
0.0
 11
134.90770374994401
 21
45.152024461867271
 31
0.0
  0
LINE
  5
43D
  8
0
 39
6.9181999999999988
 10
133.33962453794399
 20
46.248747101318692
 30
0.0
 11
134.20384608194399
 21
45.650322801318687
 31
0.0
  0
LINE
  5
43E
  8
0
 39
6.9181999999999988
 10
132.47498790194399
 20
46.8331966373187
 30
0.0
 11
133.33962453794399
 21
46.248747101318692
 31
0.0
  0
LINE
  5
43F
  8
0
 39
6.9181999999999988
 10
131.61076635794399
 20
47.403533045318689
 30
0.0
 11
132.47498790194399
 21
46.8331966373187
 31
0.0
  0
LINE
  5
440
  8
0
 39
6.9181999999999988
 10
130.74612972194399
 20
47.959341233318689
 30
0.0
 11
131.61076635794399
 21
47.403533045318689
 31
0.0
  0
LINE
  5
441
  8
0
 39
6.9181999999999988
 10
129.88190817794401
 20
48.500759565318702
 30
0.0
 11
130.74612972194399
 21
47.959341233318689
 31
0.0
  0
LINE
  5
442
  8
0
 39
6.9181999999999988
 10
128.05982770194399
 20
49.027372949318632
 30
0.0
 11
129.88190817794401
 21
48.500759565318702
 31
0.0
  0
LINE
  5
443
  8
0
 39
6.9181999999999988
 10
127.195606157944
 20
49.539181385318642
 30
0.0
 11
128.05982770194399
 21
49.027372949318632
 31
0.0
  0
LINE
  5
444
  8
0
 39
6.9181999999999988
 10
126.330969521944
 20
50.035631417318633
 30
0.0
 11
127.195606157944
 21
49.539181385318642
 31
0.0
  0
LINE
  5
445
  8
0
 39
6.9181999999999988
 10
125.466747977944
 20
50.517138137318632
 30
0.0
 11
126.330969521944
 21
50.035631417318633
 31
0.0
  0
LINE
  5
446
  8
0
 39
6.9181999999999988
 10
124.60252643394401
 20
50.983148089318632
 30
0.0
 11
125.466747977944
 21
50.517138137318632
 31
0.0
  0
LINE
  5
447
  8
0
 39
6.9181999999999988
 10
123.738304889944
 20
51.43352290931864
 30
0.0
 11
124.60252643394401
 21
50.983148089318632
 31
0.0
  0
LINE
  5
448
  8
0
 39
6.9181999999999988
 10
122.873806617944
 20
51.86798586931863
 30
0.0
 11
123.738304889944
 21
51.43352290931864
 31
0.0
  0
LINE
  5
449
  8
0
 39
6.9181999999999988
 10
122.009585073944
 20
52.286675333318648
 30
0.0
 11
122.873806617944
 21
51.86798586931863
 31
0.0
  0
LINE
  5
44A
  8
0
 39
6.9181999999999988
 10
121.14536352994401
 20
52.689176209318639
 30
0.0
 11
122.009585073944
 21
52.286675333318648
 31
0.0
  0
LINE
  5
44B
  8
0
 39
6.9181999999999988
 10
120.281141985944
 20
53.075488497318638
 30
0.0
 11
121.14536352994401
 21
52.689176209318639
 31
0.0
  0
LINE
  5
44C
  8
0
 39
6.9181999999999988
 10
120.281141985944
 20
53.075488497318638
 30
0.0
 11
120.281141985944
 21
53.075488497318638
 31
0.0
  0
LINE
  5
44D
  8
0
 39
6.9181999999999988
 10
119.92776032994399
 20
53.168330741318641
 30
0.0
 11
120.281141985944
 21
53.075488497318638
 31
0.0
  0
LINE
  5
44E
  8
0
 39
6.9181999999999988
 10
119.622252617944
 20
53.312506029318641
 30
0.0
 11
119.92776032994399
 21
53.168330741318641
 31
0.0
  0
LINE
  5
44F
  8
0
 39
6.9181999999999988
 10
119.36434212194401
 20
53.501511253318618
 30
0.0
 11
119.622252617944
 21
53.312506029318641
 31
0.0
  0
LINE
  5
450
  8
0
 39
6.9181999999999988
 10
119.153890477944
 20
53.729535125318641
 30
0.0
 11
119.36434212194401
 21
53.501511253318618
 31
0.0
  0
LINE
  5
451
  8
0
 39
6.9181999999999988
 10
118.990344229944
 20
53.98993617331864
 30
0.0
 11
119.153890477944
 21
53.729535125318641
 31
0.0
  0
LINE
  5
452
  8
0
 39
6.9181999999999988
 10
118.874395197944
 20
54.277041473318633
 30
0.0
 11
118.990344229944
 21
53.98993617331864
 31
0.0
  0
LINE
  5
453
  8
0
 39
6.9181999999999988
 10
118.807703749944
 20
54.573284885334637
 30
0.0
 11
118.874395197944
 21
54.277041473318633
 31
0.0
  0
LINE
  5
454
  8
0
 39
6.9181999999999988
 10
118.879099573944
 20
55.567977593318638
 30
0.0
 11
118.807703749944
 21
55.236042357318631
 31
0.0
  0
LINE
  5
455
  8
0
 39
6.9181999999999988
 10
118.996985701944
 20
55.89576190931863
 30
0.0
 11
118.879099573944
 21
55.567977593318638
 31
0.0
  0
LINE
  5
456
  8
0
 39
6.9181999999999988
 10
119.161362133944
 20
56.213584017318638
 30
0.0
 11
118.996985701944
 21
55.89576190931863
 31
0.0
  0
LINE
  5
457
  8
0
 39
6.9181999999999988
 10
119.371813777944
 20
56.51480244531863
 30
0.0
 11
119.161362133944
 21
56.213584017318638
 31
0.0
  0
LINE
  5
458
  8
0
 39
6.9181999999999988
 10
119.628894089944
 20
56.79374426931863
 30
0.0
 11
119.371813777944
 21
56.51480244531863
 31
0.0
  0
LINE
  5
459
  8
0
 39
6.9181999999999988
 10
119.93191124994399
 20
57.043906381318628
 30
0.0
 11
119.628894089944
 21
56.79374426931863
 31
0.0
  0
LINE
  5
45A
  8
0
 39
6.9181999999999988
 10
120.281141985944
 20
57.259615857318643
 30
0.0
 11
119.93191124994399
 21
57.043906381318628
 31
0.0
  0
LINE
  5
45B
  8
0
 39
6.9181999999999988
 10
120.281141985944
 20
57.259615857318643
 30
0.0
 11
120.281141985944
 21
57.259615857318643
 31
0.0
  0
LINE
  5
45C
  8
0
 39
6.9181999999999988
 10
131.36987463394399
 20
62.887848285318711
 30
0.0
 11
120.281141985944
 21
57.259615857318643
 31
0.0
  0
LINE
  5
45D
  8
0
 39
6.9181999999999988
 10
131.56842697394401
 20
63.094010645318711
 30
0.0
 11
131.36987463394399
 21
62.887848285318711
 31
0.0
  0
LINE
  5
45E
  8
0
 39
6.9181999999999988
 10
131.74235052194399
 20
63.310411941318698
 30
0.0
 11
131.56842697394401
 21
63.094010645318711
 31
0.0
  0
LINE
  5
45F
  8
0
 39
6.9181999999999988
 10
131.89095345794399
 20
63.535115077318693
 30
0.0
 11
131.74235052194399
 21
63.310411941318698
 31
0.0
  0
LINE
  5
460
  8
0
 39
6.9181999999999988
 10
132.014235781944
 20
63.767151505318701
 30
0.0
 11
131.89095345794399
 21
63.535115077318693
 31
0.0
  0
LINE
  5
461
  8
0
 39
6.9181999999999988
 10
132.111367309944
 20
64.004584129318687
 30
0.0
 11
132.014235781944
 21
63.767151505318701
 31
0.0
  0
LINE
  5
462
  8
0
 39
6.9181999999999988
 10
132.18234804194401
 20
64.246306037318703
 30
0.0
 11
132.111367309944
 21
64.004584129318687
 31
0.0
  0
LINE
  5
463
  8
0
 39
6.9181999999999988
 10
132.226762885944
 20
64.490795225318692
 30
0.0
 11
132.18234804194401
 21
64.246306037318703
 31
0.0
  0
LINE
  5
464
  8
0
 39
6.9181999999999988
 10
132.244196749944
 20
64.737083145318707
 30
0.0
 11
132.226762885944
 21
64.490795225318692
 31
0.0
  0
LINE
  5
465
  8
0
 39
6.9181999999999988
 10
132.234096177944
 20
64.982955973318695
 30
0.0
 11
132.244196749944
 21
64.737083145318707
 31
0.0
  0
LINE
  5
466
  8
0
 39
6.9181999999999988
 10
132.196461169944
 20
65.227583525318693
 30
0.0
 11
132.234096177944
 21
64.982955973318695
 31
0.0
  0
LINE
  5
467
  8
0
 39
6.9181999999999988
 10
132.13087663394401
 20
65.469305433318695
 30
0.0
 11
132.196461169944
 21
65.227583525318693
 31
0.0
  0
LINE
  5
468
  8
0
 39
6.9181999999999988
 10
132.036927477944
 20
65.707014785318705
 30
0.0
 11
132.13087663394401
 21
65.469305433318695
 31
0.0
  0
LINE
  5
469
  8
0
 39
6.9181999999999988
 10
131.914060245944
 20
65.938774485318689
 30
0.0
 11
132.036927477944
 21
65.707014785318705
 31
0.0
  0
LINE
  5
46A
  8
0
 39
6.9181999999999988
 10
131.76213657394399
 20
66.1636159853187
 30
0.0
 11
131.914060245944
 21
65.938774485318689
 31
0.0
  0
LINE
  5
46B
  8
0
 39
6.9181999999999988
 10
131.58074136994401
 20
66.379878917318706
 30
0.0
 11
131.76213657394399
 21
66.1636159853187
 31
0.0
  0
LINE
  5
46C
  8
0
 39
6.9181999999999988
 10
131.36987463394399
 20
66.586456369318697
 30
0.0
 11
131.58074136994401
 21
66.379878917318706
 31
0.0
  0
LINE
  5
46D
  8
0
 39
6.9181999999999988
 10
131.36987463394399
 20
66.586456369318697
 30
0.0
 11
131.36987463394399
 21
66.586456369318697
 31
0.0
  0
LINE
  5
46E
  8
0
 39
6.9181999999999988
 10
128.475299753944
 20
68.033743809318693
 30
0.0
 11
131.36987463394399
 21
66.586456369318697
 31
0.0
  0
LINE
  5
46F
  8
0
 39
6.9181999999999988
 10
128.28103669794399
 20
67.904373469318699
 30
0.0
 11
128.475299753944
 21
68.033743809318693
 31
0.0
  0
LINE
  5
470
  8
0
 39
6.9181999999999988
 10
128.06380521794401
 20
67.799216829318695
 30
0.0
 11
128.28103669794399
 21
67.904373469318699
 31
0.0
  0
LINE
  5
471
  8
0
 39
6.9181999999999988
 10
127.828863145944
 20
67.719519165318701
 30
0.0
 11
128.06380521794401
 21
67.799216829318695
 31
0.0
  0
LINE
  5
472
  8
0
 39
6.9181999999999988
 10
127.581883405944
 20
67.666664117318703
 30
0.0
 11
127.828863145944
 21
67.719519165318701
 31
0.0
  0
LINE
  5
473
  8
0
 39
6.9181999999999988
 10
127.327570373944
 20
67.642035325318702
 30
0.0
 11
127.581883405944
 21
67.666664117318703
 31
0.0
  0
LINE
  5
474
  8
0
 39
6.9181999999999988
 10
127.07173533794401
 20
67.647154793318691
 30
0.0
 11
127.327570373944
 21
67.642035325318702
 31
0.0
  0
LINE
  5
475
  8
0
 39
6.9181999999999988
 10
126.819221037944
 20
67.683406161318686
 30
0.0
 11
127.07173533794401
 21
67.647154793318691
 31
0.0
  0
LINE
  5
476
  8
0
 39
6.9181999999999988
 10
126.575700397944
 20
67.752173069318701
 30
0.0
 11
126.819221037944
 21
67.683406161318686
 31
0.0
  0
LINE
  5
477
  8
0
 39
6.9181999999999988
 10
126.346154521944
 20
67.85456242931869
 30
0.0
 11
126.575700397944
 21
67.752173069318701
 31
0.0
  0
LINE
  5
478
  8
0
 39
6.9181999999999988
 10
126.136117969944
 20
67.992649701318683
 30
0.0
 11
126.346154521944
 21
67.85456242931869
 31
0.0
  0
LINE
  5
479
  8
0
 39
6.9181999999999988
 10
125.950571845944
 20
68.167265069318674
 30
0.0
 11
126.136117969944
 21
67.992649701318683
 31
0.0
  0
LINE
  5
47A
  8
0
 39
6.9181999999999988
 10
125.795465801944
 20
68.380345629318697
 30
0.0
 11
125.950571845944
 21
68.167265069318674
 31
0.0
  0
LINE
  5
47B
  8
0
 39
6.9181999999999988
 10
125.675504213944
 20
68.63272156531869
 30
0.0
 11
125.795465801944
 21
68.380345629318697
 31
0.0
  0
LINE
  5
47C
  8
0
 39
6.9181999999999988
 10
125.596221641944
 20
68.926191609318693
 30
0.0
 11
125.675504213944
 21
68.63272156531869
 31
0.0
  0
LINE
  5
47D
  8
0
 39
6.9181999999999988
 10
125.562875917944
 20
69.262001037318683
 30
0.0
 11
125.596221641944
 21
68.926191609318693
 31
0.0
  0
LINE
  5
47E
  8
0
 39
6.9181999999999988
 10
125.580863237944
 20
69.641810217318664
 30
0.0
 11
125.562875917944
 21
69.262001037318683
 31
0.0
  0
LINE
  5
47F
  8
0
 39
6.9181999999999988
 10
125.580863237944
 20
69.641810217318664
 30
0.0
 11
125.580863237944
 21
69.641810217318664
 31
0.0
  0
LINE
  5
480
  8
0
 39
6.9181999999999988
 10
119.791713477944
 20
72.212336609318683
 30
0.0
 11
125.580863237944
 21
69.641810217318664
 31
0.0
  0
LINE
  5
481
  8
0
 39
6.9181999999999988
 10
119.492985601944
 20
72.422926617318694
 30
0.0
 11
119.791713477944
 21
72.212336609318683
 31
0.0
  0
LINE
  5
482
  8
0
 39
6.9181999999999988
 10
119.230924185944
 20
72.687755313318675
 30
0.0
 11
119.492985601944
 21
72.422926617318694
 31
0.0
  0
LINE
  5
483
  8
0
 39
6.9181999999999988
 10
119.005944321944
 20
72.998382493318701
 30
0.0
 11
119.230924185944
 21
72.687755313318675
 31
0.0
  0
LINE
  5
484
  8
0
 39
6.9181999999999988
 10
118.819152921944
 20
73.347198137318699
 30
0.0
 11
119.005944321944
 21
72.998382493318701
 31
0.0
  0
LINE
  5
485
  8
0
 39
6.9181999999999988
 10
118.670826713944
 20
73.725346949318691
 30
0.0
 11
118.819152921944
 21
73.347198137318699
 31
0.0
  0
LINE
  5
486
  8
0
 39
6.9181999999999988
 10
118.561934245944
 20
74.12521890931869
 30
0.0
 11
118.670826713944
 21
73.725346949318691
 31
0.0
  0
LINE
  5
487
  8
0
 39
6.9181999999999988
 10
118.49302897394401
 20
74.538512177318694
 30
0.0
 11
118.561934245944
 21
74.12521890931869
 31
0.0
  0
LINE
  5
488
  8
0
 39
6.9181999999999988
 10
118.464941081944
 20
74.957201641318704
 30
0.0
 11
118.49302897394401
 21
74.538512177318694
 31
0.0
  0
LINE
  5
489
  8
0
 39
6.9181999999999988
 10
118.477947297944
 20
75.372708733318689
 30
0.0
 11
118.464941081944
 21
74.957201641318704
 31
0.0
  0
LINE
  5
48A
  8
0
 39
6.9181999999999988
 10
118.533569625944
 20
75.777561797318697
 30
0.0
 11
118.477947297944
 21
75.372708733318689
 31
0.0
  0
LINE
  5
48B
  8
0
 39
6.9181999999999988
 10
118.631808065944
 20
76.16318226531871
 30
0.0
 11
118.533569625944
 21
75.777561797318697
 31
0.0
  0
LINE
  5
48C
  8
0
 39
6.9181999999999988
 10
118.773907893944
 20
76.52182175331869
 30
0.0
 11
118.631808065944
 21
76.16318226531871
 31
0.0
  0
LINE
  5
48D
  8
0
 39
6.9181999999999988
 10
118.960007473944
 20
76.844901693318704
 30
0.0
 11
118.773907893944
 21
76.52182175331869
 31
0.0
  0
LINE
  5
48E
  8
0
 39
6.9181999999999988
 10
119.191352081944
 20
77.124673701318684
 30
0.0
 11
118.960007473944
 21
76.844901693318704
 31
0.0
  0
LINE
  5
48F
  8
0
 39
6.9181999999999988
 10
119.468218445944
 20
77.352835937318702
 30
0.0
 11
119.191352081944
 21
77.124673701318684
 31
0.0
  0
LINE
  5
490
  8
0
 39
6.9181999999999988
 10
119.791713477944
 20
77.5213632893187
 30
0.0
 11
119.468218445944
 21
77.352835937318702
 31
0.0
  0
LINE
  5
491
  8
0
 39
6.9181999999999988
 10
119.791713477944
 20
77.5213632893187
 30
0.0
 11
119.791713477944
 21
77.5213632893187
 31
0.0
  0
LINE
  5
492
  8
0
 39
6.9181999999999988
 10
129.28223860194399
 20
81.863225609318675
 30
0.0
 11
119.791713477944
 21
77.5213632893187
 31
0.0
  0
LINE
  5
493
  8
0
 39
6.9181999999999988
 10
129.51385993794401
 20
82.054859749318695
 30
0.0
 11
129.28223860194399
 21
81.863225609318675
 31
0.0
  0
LINE
  5
494
  8
0
 39
6.9181999999999988
 10
129.71628646994401
 20
82.256732825318693
 30
0.0
 11
129.51385993794401
 21
82.054859749318695
 31
0.0
  0
LINE
  5
495
  8
0
 39
6.9181999999999988
 10
129.88896474194399
 20
82.466215921318692
 30
0.0
 11
129.71628646994401
 21
82.256732825318693
 31
0.0
  0
LINE
  5
496
  8
0
 39
6.9181999999999988
 10
130.032033117944
 20
82.680956849318704
 30
0.0
 11
129.88896474194399
 21
82.466215921318692
 31
0.0
  0
LINE
  5
497
  8
0
 39
6.9181999999999988
 10
130.14452304994401
 20
82.898049965318677
 30
0.0
 11
130.032033117944
 21
82.680956849318704
 31
0.0
  0
LINE
  5
498
  8
0
 39
6.9181999999999988
 10
130.226572901944
 20
83.115696537318698
 30
0.0
 11
130.14452304994401
 21
82.898049965318677
 31
0.0
  0
LINE
  5
499
  8
0
 39
6.9181999999999988
 10
130.27749085394399
 20
83.330990921318687
 30
0.0
 11
130.226572901944
 21
83.115696537318698
 31
0.0
  0
LINE
  5
49A
  8
0
 39
6.9181999999999988
 10
130.29713854194401
 20
83.541580929318698
 30
0.0
 11
130.27749085394399
 21
83.330990921318687
 31
0.0
  0
LINE
  5
49B
  8
0
 39
6.9181999999999988
 10
130.28482414594399
 20
83.744699281318717
 30
0.0
 11
130.29713854194401
 21
83.541580929318698
 31
0.0
  0
LINE
  5
49C
  8
0
 39
6.9181999999999988
 10
130.24068602994399
 20
83.938270517318699
 30
0.0
 11
130.28482414594399
 21
83.744699281318717
 31
0.0
  0
LINE
  5
49D
  8
0
 39
6.9181999999999988
 10
130.16389400994399
 20
84.119527357318717
 30
0.0
 11
130.24068602994399
 21
83.938270517318699
 31
0.0
  0
LINE
  5
49E
  8
0
 39
6.9181999999999988
 10
130.05472481394401
 20
84.286532705318692
 30
0.0
 11
130.16389400994399
 21
84.119527357318717
 31
0.0
  0
LINE
  5
49F
  8
0
 39
6.9181999999999988
 10
129.912071529944
 20
84.436104189318712
 30
0.0
 11
130.05472481394401
 21
84.286532705318692
 31
0.0
  0
LINE
  5
4A0
  8
0
 39
6.9181999999999988
 10
129.73607252194401
 20
84.566166349318706
 30
0.0
 11
129.912071529944
 21
84.436104189318712
 31
0.0
  0
LINE
  5
4A1
  8
0
 39
6.9181999999999988
 10
129.526174333944
 20
84.674228633318691
 30
0.0
 11
129.73607252194401
 21
84.566166349318706
 31
0.0
  0
LINE
  5
4A2
  8
0
 39
6.9181999999999988
 10
129.28223860194399
 20
84.757800489318697
 30
0.0
 11
129.526174333944
 21
84.674228633318691
 31
0.0
  0
LINE
  5
4A3
  8
0
 39
6.9181999999999988
 10
129.28223860194399
 20
84.757800489318697
 30
0.0
 11
129.28223860194399
 21
84.757800489318697
 31
0.0
  0
LINE
  5
4A4
  8
0
 39
6.9181999999999988
 10
124.632101289944
 20
84.757800489318697
 30
0.0
 11
129.28223860194399
 21
84.757800489318697
 31
0.0
  0
LINE
  5
4A5
  8
0
 39
6.9181999999999988
 10
124.564856385944
 20
84.265501377318714
 30
0.0
 11
124.632101289944
 21
84.757800489318697
 31
0.0
  0
LINE
  5
4A6
  8
0
 39
6.9181999999999988
 10
124.438945145944
 20
83.844044633318703
 30
0.0
 11
124.564856385944
 21
84.265501377318714
 31
0.0
  0
LINE
  5
4A7
  8
0
 39
6.9181999999999988
 10
124.262669409944
 20
83.492046617318692
 30
0.0
 11
124.438945145944
 21
83.844044633318703
 31
0.0
  0
LINE
  5
4A8
  8
0
 39
6.9181999999999988
 10
124.04529956594401
 20
83.208538781318694
 30
0.0
 11
124.262669409944
 21
83.492046617318692
 31
0.0
  0
LINE
  5
4A9
  8
0
 39
6.9181999999999988
 10
123.795275817944
 20
82.992137485318693
 30
0.0
 11
124.04529956594401
 21
83.208538781318694
 31
0.0
  0
LINE
  5
4AA
  8
0
 39
6.9181999999999988
 10
123.521591825944
 20
82.842427637318693
 30
0.0
 11
123.795275817944
 21
82.992137485318693
 31
0.0
  0
LINE
  5
4AB
  8
0
 39
6.9181999999999988
 10
123.232964521944
 20
82.757748869318704
 30
0.0
 11
123.521591825944
 21
82.842427637318693
 31
0.0
  0
LINE
  5
4AC
  8
0
 39
6.9181999999999988
 10
122.938664293944
 20
82.737547725318692
 30
0.0
 11
123.232964521944
 21
82.757748869318704
 31
0.0
  0
LINE
  5
4AD
  8
0
 39
6.9181999999999988
 10
122.64671625394401
 20
82.780025473318688
 30
0.0
 11
122.938664293944
 21
82.737547725318692
 31
0.0
  0
LINE
  5
4AE
  8
0
 39
6.9181999999999988
 10
122.366805881944
 20
82.884767021318709
 30
0.0
 11
122.64671625394401
 21
82.780025473318688
 31
0.0
  0
LINE
  5
4AF
  8
0
 39
6.9181999999999988
 10
122.10723501794401
 20
83.050527093318706
 30
0.0
 11
122.366805881944
 21
82.884767021318709
 31
0.0
  0
LINE
  5
4B0
  8
0
 39
6.9181999999999988
 10
121.877135685944
 20
83.276475505318686
 30
0.0
 11
122.10723501794401
 21
83.050527093318706
 31
0.0
  0
LINE
  5
4B1
  8
0
 39
6.9181999999999988
 10
121.684948089944
 20
83.560951889318702
 30
0.0
 11
121.877135685944
 21
83.276475505318686
 31
0.0
  0
LINE
  5
4B2
  8
0
 39
6.9181999999999988
 10
121.540080981944
 20
83.903541153318713
 30
0.0
 11
121.684948089944
 21
83.560951889318702
 31
0.0
  0
LINE
  5
4B3
  8
0
 39
6.9181999999999988
 10
121.450836201944
 20
84.302721293318697
 30
0.0
 11
121.540080981944
 21
83.903541153318713
 31
0.0
  0
LINE
  5
4B4
  8
0
 39
6.9181999999999988
 10
121.426484137944
 20
84.757800489318697
 30
0.0
 11
121.450836201944
 21
84.302721293318697
 31
0.0
  0
LINE
  5
4B5
  8
0
 39
6.9181999999999988
 10
121.426484137944
 20
84.757800489318697
 30
0.0
 11
121.426484137944
 21
84.757800489318697
 31
0.0
  0
LINE
  5
4B6
  8
0
 39
6.9181999999999988
 10
117.057917565944
 20
84.757800489318697
 30
0.0
 11
121.426484137944
 21
84.757800489318697
 31
0.0
  0
LINE
  5
4B7
  8
0
 39
6.9181999999999988
 10
116.73248543794401
 20
84.681977017318687
 30
0.0
 11
117.057917565944
 21
84.757800489318697
 31
0.0
  0
LINE
  5
4B8
  8
0
 39
6.9181999999999988
 10
116.44067576194399
 20
84.585398945318687
 30
0.0
 11
116.73248543794401
 21
84.681977017318687
 31
0.0
  0
LINE
  5
4B9
  8
0
 39
6.9181999999999988
 10
116.180413077944
 20
84.469034821318715
 30
0.0
 11
116.44067576194399
 21
84.585398945318687
 31
0.0
  0
LINE
  5
4BA
  8
0
 39
6.9181999999999988
 10
115.949898653944
 20
84.334268285318686
 30
0.0
 11
116.180413077944
 21
84.469034821318715
 31
0.0
  0
LINE
  5
4BB
  8
0
 39
6.9181999999999988
 10
115.74691866594399
 20
84.182067885318673
 30
0.0
 11
115.949898653944
 21
84.334268285318686
 31
0.0
  0
LINE
  5
4BC
  8
0
 39
6.9181999999999988
 10
115.57008947394399
 20
84.013817261318692
 30
0.0
 11
115.74691866594399
 21
84.182067885318673
 31
0.0
  0
LINE
  5
4BD
  8
0
 39
6.9181999999999988
 10
115.417058889944
 20
83.830484961318675
 30
0.0
 11
115.57008947394399
 21
84.013817261318692
 31
0.0
  0
LINE
  5
4BE
  8
0
 39
6.9181999999999988
 10
115.28630490994399
 20
83.633592989318686
 30
0.0
 11
115.417058889944
 21
83.830484961318675
 31
0.0
  0
LINE
  5
4BF
  8
0
 39
6.9181999999999988
 10
115.175336981944
 20
83.423694801318689
 30
0.0
 11
115.28630490994399
 21
83.633592989318686
 31
0.0
  0
LINE
  5
4C0
  8
0
 39
6.9181999999999988
 10
115.082909829944
 20
83.202589129318696
 30
0.0
 11
115.175336981944
 21
83.423694801318689
 31
0.0
  0
LINE
  5
4C1
  8
0
 39
6.9181999999999988
 10
115.006809629944
 20
82.971106157318701
 30
0.0
 11
115.082909829944
 21
83.202589129318696
 31
0.0
  0
LINE
  5
4C2
  8
0
 39
6.9181999999999988
 10
114.94551437794399
 20
82.730906253318693
 30
0.0
 11
115.006809629944
 21
82.971106157318701
 31
0.0
  0
LINE
  5
4C3
  8
0
 39
6.9181999999999988
 10
114.896395157944
 20
82.482542873318707
 30
0.0
 11
114.94551437794399
 21
82.730906253318693
 31
0.0
  0
LINE
  5
4C4
  8
0
 39
6.9181999999999988
 10
114.85834505794401
 20
82.227676385318702
 30
0.0
 11
114.896395157944
 21
82.482542873318707
 31
0.0
  0
LINE
  5
4C5
  8
0
 39
6.9181999999999988
 10
114.8365013416785
 20
82.034569729318704
 30
0.0
 11
114.85834505794401
 21
82.227676385318702
 31
0.0
  0
POLYLINE
  5
4C7
  8
0
 66
     1
 10
0.0
 20
0.0
 30
0.0
 39
6.9181999999999988
  0
VERTEX
  5
614
  8
0
 10
118.98768027394399
 20
77.521363289318714
 30
0.0
  0
VERTEX
  5
615
  8
0
 10
103.893175529944
 20
77.521363289318714
 30
0.0
  0
SEQEND
  5
616
  8
0
  0
POLYLINE
  5
4C8
  8
0
 66
     1
 10
0.0
 20
0.0
 30
0.0
 39
6.9181999999999988
  0
VERTEX
  5
617
  8
0
 10
118.82690130594401
 20
72.214688797318701
 30
0.0
  0
VERTEX
  5
618
  8
0
 10
103.904106285944
 20
72.214688797318701
 30
0.0
  0
SEQEND
  5
619
  8
0
  0
POLYLINE
  5
4C9
  8
0
 66
     1
 10
0.0
 20
0.0
 30
0.0
 39
6.9181999999999988
  0
VERTEX
  5
61A
  8
0
 10
130.887537729944
 20
66.264898433318706
 30
0.0
  0
VERTEX
  5
61B
  8
0
 10
103.90770374994401
 20
66.264898433318706
 30
0.0
  0
SEQEND
  5
61C
  8
0
  0
POLYLINE
  5
4CA
  8
0
 66
     1
 10
0.0
 20
0.0
 30
0.0
 39
6.9181999999999988
  0
VERTEX
  5
61D
  8
0
 10
131.20909566594401
 20
63.048627253318699
 30
0.0
  0
VERTEX
  5
61E
  8
0
 10
103.90770374994401
 20
63.048627253318699
 30
0.0
  0
SEQEND
  5
61F
  8
0
  0
POLYLINE
  5
4CB
  8
0
 66
     1
 10
0.0
 20
0.0
 30
0.0
 39
6.9181999999999988
  0
VERTEX
  5
620
  8
0
 10
118.51215824594399
 20
56.777140589318627
 30
0.0
  0
VERTEX
  5
621
  8
0
 10
103.906873565944
 20
56.777140589318691
 30
0.0
  0
SEQEND
  5
622
  8
0
  0
POLYLINE
  5
4CC
  8
0
 66
     1
 10
0.0
 20
0.0
 30
0.0
 39
6.9181999999999988
  0
VERTEX
  5
623
  8
0
 10
118.35137927794401
 20
53.239311473318637
 30
0.0
  0
VERTEX
  5
624
  8
0
 10
103.90770374994401
 20
53.239311473318701
 30
0.0
  0
SEQEND
  5
625
  8
0
  0
LINE
  5
4CD
  8
0
 10
134.90770374994401
 20
45.034569729318697
 30
0.0
 11
103.90770374994401
 21
45.034569729318697
 31
0.0
  0
LINE
  5
4CE
  8
0
 10
118.807703749944
 20
55.236042357318631
 30
0.0
 11
118.807703749944
 21
54.573284885334637
 31
0.0
  0
LINE
  5
4CF
  8
0
 10
103.90770374994401
 20
82.034569729318704
 30
0.0
 11
114.8365013416785
 21
82.034569729318719
 31
0.0
  0
LINE
  5
4D0
  8
0
 10
107.90770374994401
 20
100.0345697293187
 30
0.0
 11
107.90770374994401
 21
87.034569729318704
 31
0.0
  0
LINE
  5
4D1
  8
0
 10
111.40770374994401
 20
87.034569729318704
 30
0.0
 11
103.90770374994401
 21
87.034569729318704
 31
0.0
  0
LINE
  5
4D2
  8
0
 10
111.40770374994401
 20
87.034569729318704
 30
0.0
 11
111.40770374994401
 21
82.034569729318719
 31
0.0
  0
DIMENSION
  5
4D7
  8
2
  2
*D1
 10
107.90770374994401
 20
110.1060257818409
 30
0.0
 11
103.90770374994401
 21
111.9810257818409
 31
0.0
 70
     0
  1
%%c<>
 13
99.907703749944062
 23
100.0345697293187
 33
0.0
 14
107.90770374994401
 24
100.0345697293187
 34
0.0
  0
DIMENSION
  5
4E4
  8
2
  2
*D2
 10
111.40770374994401
 20
114.9189704682187
 30
0.0
 11
103.90770374994401
 21
116.7939704682187
 31
0.0
 70
     0
  1
%%c<>
 13
96.407703749944062
 23
87.034569729318704
 33
0.0
 14
111.40770374994401
 24
87.034569729318704
 34
0.0
  0
DIMENSION
  5
4F1
  8
2
  2
*D3
 10
150.6150075754289
 20
87.034569729318704
 30
0.0
 11
148.7400075754289
 21
93.534569729318704
 31
0.0
 70
     0
 13
111.40770374994401
 23
100.0345697293187
 33
0.0
 14
111.40770374994401
 24
87.034569729318704
 34
0.0
 50
90.0
  0
DIMENSION
  5
4FE
  8
2
  2
*D4
 10
156.60648622073151
 20
82.034569729318704
 30
0.0
 11
154.73148622073151
 21
91.034569729318704
 31
0.0
 70
     0
 13
111.40770374994401
 23
100.0345697293187
 33
0.0
 14
114.8365013416785
 24
82.034569729318704
 34
0.0
 50
90.0
  0
DIMENSION
  5
50B
  8
2
  2
*D5
 10
162.80456829365559
 20
45.034569729318697
 30
0.0
 11
160.92956829365559
 21
72.534569729318704
 31
0.0
 70
     0
 13
111.40770374994401
 23
100.0345697293187
 33
0.0
 14
134.90770374994401
 24
45.034569729318697
 34
0.0
 50
90.0
  0
DIMENSION
  5
518
  8
2
  2
*D6
 10
118.807703749944
 20
34.752143247644419
 30
0.0
 11
103.90770374994401
 21
36.627143247644419
 31
0.0
 70
     0
  1
%%c<>
 13
89.007703749944056
 23
54.573284885334637
 33
0.0
 14
118.807703749944
 24
54.573284885334637
 34
0.0
1001
ACAD
1000
DSTYLE
1002
{
1070
   271
1070
     6
1002
}
  0
DIMENSION
  5
52E
  8
2
  2
*D7
 10
134.90770374994401
 20
28.649338495129079
 30
0.0
 11
103.90770374994401
 21
30.524338495129079
 31
0.0
 70
     0
  1
%%c<>
 13
72.907703749944062
 23
46.646266873318687
 33
0.0
 14
134.90770374994401
 24
46.646266873318687
 34
0.0
1001
ACAD
1000
DSTYLE
1002
{
1070
   271
1070
     6
1002
}
  0
DIMENSION
  5
548
  8
2
  2
*D8
 10
114.40770374994401
 20
120.6782670351589
 30
0.0
 11
103.90770374994401
 21
122.5532670351589
 31
0.0
 70
     0
  1
%%c<>
 13
93.407703749944062
 23
98.396969231945903
 33
0.0
 14
114.40770374994401
 24
98.396969231945903
 34
0.0
  0
LINE
  5
59E
  8
0
 39
6.9181999999999988
 10
85.772373377944064
 20
68.596608561318703
 30
0.0
 11
88.747337741944065
 21
70.204674969318688
 31
0.0
  0
LINE
  5
59F
  8
0
 39
6.9181999999999988
 10
88.747337741944065
 20
70.204674969318688
 30
0.0
 11
88.747337741944065
 21
70.204674969318688
 31
0.0
  0
LINE
  5
5A0
  8
0
 39
6.9181999999999988
 10
88.747337741944065
 20
70.204674969318688
 30
0.0
 11
88.812783913944074
 21
70.039745081318699
 31
0.0
  0
LINE
  5
5A1
  8
0
 39
6.9181999999999988
 10
88.812783913944074
 20
70.039745081318699
 30
0.0
 11
88.866607509944046
 21
69.868035357318689
 31
0.0
  0
LINE
  5
5A2
  8
0
 39
6.9181999999999988
 10
88.866607509944046
 20
69.868035357318689
 30
0.0
 11
88.909361985944074
 21
69.690791073318707
 31
0.0
  0
LINE
  5
5A3
  8
0
 39
6.9181999999999988
 10
88.909361985944074
 20
69.690791073318707
 30
0.0
 11
88.940908977944062
 21
69.510364417318684
 31
0.0
  0
LINE
  5
5A4
  8
0
 39
6.9181999999999988
 10
88.940908977944062
 20
69.510364417318684
 30
0.0
 11
88.961940305944083
 21
69.327862301318675
 31
0.0
  0
LINE
  5
5A5
  8
0
 39
6.9181999999999988
 10
88.961940305944083
 20
69.327862301318675
 30
0.0
 11
88.971902513944045
 21
69.145498549318688
 31
0.0
  0
LINE
  5
5A6
  8
0
 39
6.9181999999999988
 10
88.971902513944045
 20
69.145498549318688
 30
0.0
 11
88.971349057944067
 21
68.964933529318685
 31
0.0
  0
LINE
  5
5A7
  8
0
 39
6.9181999999999988
 10
88.971349057944067
 20
68.964933529318685
 30
0.0
 11
88.960003209944048
 21
68.788104337318686
 31
0.0
  0
LINE
  5
5A8
  8
0
 39
6.9181999999999988
 10
88.960003209944048
 20
68.788104337318686
 30
0.0
 11
88.938556789944045
 21
68.616256249318695
 31
0.0
  0
LINE
  5
5A9
  8
0
 39
6.9181999999999988
 10
88.938556789944045
 20
68.616256249318695
 30
0.0
 11
88.906594705944045
 21
68.451741453318704
 31
0.0
  0
LINE
  5
5AA
  8
0
 39
6.9181999999999988
 10
88.906594705944045
 20
68.451741453318704
 30
0.0
 11
88.864670413944069
 21
68.295943589318711
 31
0.0
  0
LINE
  5
5AB
  8
0
 39
6.9181999999999988
 10
88.864670413944069
 20
68.295943589318711
 30
0.0
 11
88.812507185944085
 21
68.150938117318702
 31
0.0
  0
LINE
  5
5AC
  8
0
 39
6.9181999999999988
 10
88.812507185944085
 20
68.150938117318702
 30
0.0
 11
88.750658477944086
 21
68.017970313318699
 31
0.0
  0
LINE
  5
5AD
  8
0
 39
6.9181999999999988
 10
88.750658477944086
 20
68.017970313318699
 30
0.0
 11
88.678847561944053
 21
67.899530729318684
 31
0.0
  0
LINE
  5
5AE
  8
0
 39
6.9181999999999988
 10
88.678847561944053
 20
67.899530729318684
 30
0.0
 11
88.597351165944048
 21
67.796864641318706
 31
0.0
  0
LINE
  5
5AF
  8
0
 39
6.9181999999999988
 10
88.597351165944048
 20
67.796864641318706
 30
0.0
 11
88.506169289944083
 21
67.712047509318694
 31
0.0
  0
LINE
  5
5B0
  8
0
 39
6.9181999999999988
 10
88.506169289944083
 20
67.712047509318694
 30
0.0
 11
88.506169289944083
 21
67.712047509318694
 31
0.0
  0
LINE
  5
5B1
  8
0
 39
6.9181999999999988
 10
88.506169289944083
 20
67.712047509318694
 30
0.0
 11
88.331000465944058
 21
67.599419213318697
 31
0.0
  0
LINE
  5
5B2
  8
0
 39
6.9181999999999988
 10
88.331000465944058
 20
67.599419213318697
 30
0.0
 11
88.148083257944066
 21
67.512526621318699
 31
0.0
  0
LINE
  5
5B3
  8
0
 39
6.9181999999999988
 10
88.148083257944066
 20
67.512526621318699
 30
0.0
 11
87.959493125944064
 21
67.450539549318705
 31
0.0
  0
LINE
  5
5B4
  8
0
 39
6.9181999999999988
 10
87.959493125944064
 20
67.450539549318705
 30
0.0
 11
87.766336981944065
 21
67.41290454131871
 31
0.0
  0
LINE
  5
5B5
  8
0
 39
6.9181999999999988
 10
87.766336981944065
 20
67.41290454131871
 30
0.0
 11
87.571105377944079
 21
67.39865304931871
 31
0.0
  0
LINE
  5
5B6
  8
0
 39
6.9181999999999988
 10
87.571105377944079
 20
67.39865304931871
 30
0.0
 11
87.375181953944065
 21
67.407508345318689
 31
0.0
  0
LINE
  5
5B7
  8
0
 39
6.9181999999999988
 10
87.375181953944065
 20
67.407508345318689
 30
0.0
 11
87.18050380594407
 21
67.438363517318692
 31
0.0
  0
LINE
  5
5B8
  8
0
 39
6.9181999999999988
 10
87.18050380594407
 20
67.438363517318692
 30
0.0
 11
86.988592937944063
 21
67.490941837318701
 31
0.0
  0
LINE
  5
5B9
  8
0
 39
6.9181999999999988
 10
86.988592937944063
 20
67.490941837318701
 30
0.0
 11
86.80166317394405
 21
67.563859665318688
 31
0.0
  0
LINE
  5
5BA
  8
0
 39
6.9181999999999988
 10
86.80166317394405
 20
67.563859665318688
 30
0.0
 11
86.621098153944075
 21
67.656978637318701
 31
0.0
  0
LINE
  5
5BB
  8
0
 39
6.9181999999999988
 10
86.621098153944075
 20
67.656978637318701
 30
0.0
 11
86.448834973944059
 21
67.769330205318695
 31
0.0
  0
LINE
  5
5BC
  8
0
 39
6.9181999999999988
 10
86.448834973944059
 20
67.769330205318695
 30
0.0
 11
86.286395637944054
 21
67.900499277318687
 31
0.0
  0
LINE
  5
5BD
  8
0
 39
6.9181999999999988
 10
86.286395637944054
 20
67.900499277318687
 30
0.0
 11
86.135993969944053
 21
68.049240577318699
 31
0.0
  0
LINE
  5
5BE
  8
0
 39
6.9181999999999988
 10
86.135993969944053
 20
68.049240577318699
 30
0.0
 11
85.998736881944055
 21
68.215415741318694
 31
0.0
  0
LINE
  5
5BF
  8
0
 39
6.9181999999999988
 10
85.998736881944055
 20
68.215415741318694
 30
0.0
 11
85.877114925944056
 21
68.397917857318674
 31
0.0
  0
LINE
  5
5C0
  8
0
 39
6.9181999999999988
 10
85.877114925944056
 20
68.397917857318674
 30
0.0
 11
85.772373377944064
 21
68.596608561318703
 31
0.0
  0
LINE
  5
5C1
  8
0
 39
6.9181999999999988
 10
122.043034121944
 20
68.596608561318703
 30
0.0
 11
119.068069757944
 21
70.204674969318688
 31
0.0
  0
LINE
  5
5C2
  8
0
 39
6.9181999999999988
 10
119.068069757944
 20
70.204674969318688
 30
0.0
 11
119.068069757944
 21
70.204674969318688
 31
0.0
  0
LINE
  5
5C3
  8
0
 39
6.9181999999999988
 10
119.068069757944
 20
70.204674969318688
 30
0.0
 11
119.00262358594399
 21
70.039745081318699
 31
0.0
  0
LINE
  5
5C4
  8
0
 39
6.9181999999999988
 10
119.00262358594399
 20
70.039745081318699
 30
0.0
 11
118.94879998994401
 21
69.868035357318689
 31
0.0
  0
LINE
  5
5C5
  8
0
 39
6.9181999999999988
 10
118.94879998994401
 20
69.868035357318689
 30
0.0
 11
118.90604551394399
 21
69.690791073318707
 31
0.0
  0
LINE
  5
5C6
  8
0
 39
6.9181999999999988
 10
118.90604551394399
 20
69.690791073318707
 30
0.0
 11
118.87449852194401
 21
69.510364417318684
 31
0.0
  0
LINE
  5
5C7
  8
0
 39
6.9181999999999988
 10
118.87449852194401
 20
69.510364417318684
 30
0.0
 11
118.853467193944
 21
69.327862301318675
 31
0.0
  0
LINE
  5
5C8
  8
0
 39
6.9181999999999988
 10
118.853467193944
 20
69.327862301318675
 30
0.0
 11
118.84350498594399
 21
69.145498549318688
 31
0.0
  0
LINE
  5
5C9
  8
0
 39
6.9181999999999988
 10
118.84350498594399
 20
69.145498549318688
 30
0.0
 11
118.844058441944
 21
68.964933529318685
 31
0.0
  0
LINE
  5
5CA
  8
0
 39
6.9181999999999988
 10
118.844058441944
 20
68.964933529318685
 30
0.0
 11
118.855404289944
 21
68.788104337318686
 31
0.0
  0
LINE
  5
5CB
  8
0
 39
6.9181999999999988
 10
118.855404289944
 20
68.788104337318686
 30
0.0
 11
118.87685070994399
 21
68.616256249318695
 31
0.0
  0
LINE
  5
5CC
  8
0
 39
6.9181999999999988
 10
118.87685070994399
 20
68.616256249318695
 30
0.0
 11
118.90881279394399
 21
68.451741453318704
 31
0.0
  0
LINE
  5
5CD
  8
0
 39
6.9181999999999988
 10
118.90881279394399
 20
68.451741453318704
 30
0.0
 11
118.950737085944
 21
68.295943589318711
 31
0.0
  0
LINE
  5
5CE
  8
0
 39
6.9181999999999988
 10
118.950737085944
 20
68.295943589318711
 30
0.0
 11
119.002900313944
 21
68.150938117318702
 31
0.0
  0
LINE
  5
5CF
  8
0
 39
6.9181999999999988
 10
119.002900313944
 20
68.150938117318702
 30
0.0
 11
119.064749021944
 21
68.017970313318699
 31
0.0
  0
LINE
  5
5D0
  8
0
 39
6.9181999999999988
 10
119.064749021944
 20
68.017970313318699
 30
0.0
 11
119.136559937944
 21
67.899530729318684
 31
0.0
  0
LINE
  5
5D1
  8
0
 39
6.9181999999999988
 10
119.136559937944
 20
67.899530729318684
 30
0.0
 11
119.21805633394401
 21
67.796864641318706
 31
0.0
  0
LINE
  5
5D2
  8
0
 39
6.9181999999999988
 10
119.21805633394401
 20
67.796864641318706
 30
0.0
 11
119.309238209944
 21
67.712047509318694
 31
0.0
  0
LINE
  5
5D3
  8
0
 39
6.9181999999999988
 10
119.309238209944
 20
67.712047509318694
 30
0.0
 11
119.309238209944
 21
67.712047509318694
 31
0.0
  0
LINE
  5
5D4
  8
0
 39
6.9181999999999988
 10
119.309238209944
 20
67.712047509318694
 30
0.0
 11
119.484407033944
 21
67.599419213318697
 31
0.0
  0
LINE
  5
5D5
  8
0
 39
6.9181999999999988
 10
119.484407033944
 20
67.599419213318697
 30
0.0
 11
119.667324241944
 21
67.512526621318699
 31
0.0
  0
LINE
  5
5D6
  8
0
 39
6.9181999999999988
 10
119.667324241944
 20
67.512526621318699
 30
0.0
 11
119.855914373944
 21
67.450539549318705
 31
0.0
  0
LINE
  5
5D7
  8
0
 39
6.9181999999999988
 10
119.855914373944
 20
67.450539549318705
 30
0.0
 11
120.049070517944
 21
67.41290454131871
 31
0.0
  0
LINE
  5
5D8
  8
0
 39
6.9181999999999988
 10
120.049070517944
 20
67.41290454131871
 30
0.0
 11
120.244302121944
 21
67.39865304931871
 31
0.0
  0
LINE
  5
5D9
  8
0
 39
6.9181999999999988
 10
120.244302121944
 20
67.39865304931871
 30
0.0
 11
120.440225545944
 21
67.407508345318689
 31
0.0
  0
LINE
  5
5DA
  8
0
 39
6.9181999999999988
 10
120.440225545944
 20
67.407508345318689
 30
0.0
 11
120.634903693944
 21
67.438363517318692
 31
0.0
  0
LINE
  5
5DB
  8
0
 39
6.9181999999999988
 10
120.634903693944
 20
67.438363517318692
 30
0.0
 11
120.826814561944
 21
67.490941837318701
 31
0.0
  0
LINE
  5
5DC
  8
0
 39
6.9181999999999988
 10
120.826814561944
 20
67.490941837318701
 30
0.0
 11
121.013744325944
 21
67.563859665318688
 31
0.0
  0
LINE
  5
5DD
  8
0
 39
6.9181999999999988
 10
121.013744325944
 20
67.563859665318688
 30
0.0
 11
121.19430934594401
 21
67.656978637318701
 31
0.0
  0
LINE
  5
5DE
  8
0
 39
6.9181999999999988
 10
121.19430934594401
 20
67.656978637318701
 30
0.0
 11
121.36657252594399
 21
67.769330205318695
 31
0.0
  0
LINE
  5
5DF
  8
0
 39
6.9181999999999988
 10
121.36657252594399
 20
67.769330205318695
 30
0.0
 11
121.529011861944
 21
67.900499277318687
 31
0.0
  0
LINE
  5
5E0
  8
0
 39
6.9181999999999988
 10
121.529011861944
 20
67.900499277318687
 30
0.0
 11
121.679413529944
 21
68.049240577318699
 31
0.0
  0
LINE
  5
5E1
  8
0
 39
6.9181999999999988
 10
121.679413529944
 20
68.049240577318699
 30
0.0
 11
121.816670617944
 21
68.215415741318694
 31
0.0
  0
LINE
  5
5E2
  8
0
 39
6.9181999999999988
 10
121.816670617944
 20
68.215415741318694
 30
0.0
 11
121.938292573944
 21
68.397917857318674
 31
0.0
  0
LINE
  5
5E3
  8
0
 39
6.9181999999999988
 10
121.938292573944
 20
68.397917857318674
 30
0.0
 11
122.043034121944
 21
68.596608561318703
 31
0.0
  0
ENDSEC
  0
EOF
