  0
SECTION
  2
HEADER
  9
$ACADVER
  1
AC1009
  9
$INSBASE
 10
0.0
 20
0.0
 30
0.0
  9
$EXTMIN
 10
38.335559947949129
 20
-37.843797467245132
 30
0.0
  9
$EXTMAX
 10
169.98982900810259
 20
137.5718194370705
 30
8.4346772575699198
  9
$LIMMIN
 10
0.0
 20
0.0
  9
$LIMMAX
 10
420.0
 20
297.0
  9
$ORTHOMODE
 70
     0
  9
$REGENMODE
 70
     1
  9
$FILLMODE
 70
     1
  9
$QTEXTMODE
 70
     0
  9
$MIRRTEXT
 70
     1
  9
$DRAGMODE
 70
     2
  9
$LTSCALE
 40
0.3
  9
$OSMODE
 70
    37
  9
$ATTMODE
 70
     1
  9
$TEXTSIZE
 40
2.5
  9
$TRACEWID
 40
1.0
  9
$TEXTSTYLE
  7
STANDARD
  9
$CLAYER
  8
2
  9
$CELTYPE
  6
BYLAYER
  9
$CECOLOR
 62
   256
  9
$DIMSCALE
 40
1.0
  9
$DIMASZ
 40
2.5
  9
$DIMEXO
 40
0.625
  9
$DIMDLI
 40
3.75
  9
$DIMRND
 40
0.0
  9
$DIMDLE
 40
0.0
  9
$DIMEXE
 40
1.25
  9
$DIMTP
 40
0.0
  9
$DIMTM
 40
0.0
  9
$DIMTXT
 40
2.5
  9
$DIMCEN
 40
2.5
  9
$DIMTSZ
 40
0.0
  9
$DIMTOL
 70
     0
  9
$DIMLIM
 70
     0
  9
$DIMTIH
 70
     0
  9
$DIMTOH
 70
     0
  9
$DIMSE1
 70
     0
  9
$DIMSE2
 70
     0
  9
$DIMTAD
 70
     1
  9
$DIMZIN
 70
     8
  9
$DIMBLK
  1

  9
$DIMASO
 70
     1
  9
$DIMSHO
 70
     1
  9
$DIMPOST
  1

  9
$DIMAPOST
  1

  9
$DIMALT
 70
     0
  9
$DIMALTD
 70
     3
  9
$DIMALTF
 40
0.03937007874016
  9
$DIMLFAC
 40
1.0
  9
$DIMTOFL
 70
     1
  9
$DIMTVP
 40
0.0
  9
$DIMTIX
 70
     0
  9
$DIMSOXD
 70
     0
  9
$DIMSAH
 70
     0
  9
$DIMBLK1
  1

  9
$DIMBLK2
  1

  9
$DIMSTYLE
  2
ISO-25
  9
$DIMCLRD
 70
     0
  9
$DIMCLRE
 70
     0
  9
$DIMCLRT
 70
     0
  9
$DIMTFAC
 40
1.0
  9
$DIMGAP
 40
0.625
  9
$LUNITS
 70
     2
  9
$LUPREC
 70
     4
  9
$SKETCHINC
 40
1.0
  9
$FILLETRAD
 40
10.0
  9
$AUNITS
 70
     0
  9
$AUPREC
 70
     0
  9
$MENU
  1
.
  9
$ELEVATION
 40
0.0
  9
$PELEVATION
 40
0.0
  9
$THICKNESS
 40
0.0
  9
$LIMCHECK
 70
     0
  9
$BLIPMODE
 70
     0
  9
$CHAMFERA
 40
10.0
  9
$CHAMFERB
 40
10.0
  9
$SKPOLY
 70
     0
  9
$TDCREATE
 40
2453441.4505634368
  9
$TDUPDATE
 40
2453551.9137159139
  9
$TDINDWG
 40
0.0425318866
  9
$TDUSRTIMER
 40
0.0425317708
  9
$USRTIMER
 70
     1
  9
$ANGBASE
 50
0.0
  9
$ANGDIR
 70
     0
  9
$PDMODE
 70
     0
  9
$PDSIZE
 40
0.0
  9
$PLINEWID
 40
0.0
  9
$COORDS
 70
     1
  9
$SPLFRAME
 70
     0
  9
$SPLINETYPE
 70
     6
  9
$SPLINESEGS
 70
     8
  9
$ATTDIA
 70
     0
  9
$ATTREQ
 70
     1
  9
$HANDLING
 70
-16383
  9
$HANDSEED
  5
91C
  9
$SURFTAB1
 70
     6
  9
$SURFTAB2
 70
     6
  9
$SURFTYPE
 70
     6
  9
$SURFU
 70
     6
  9
$SURFV
 70
     6
  9
$UCSNAME
  2

  9
$UCSORG
 10
0.0
 20
0.0
 30
0.0
  9
$UCSXDIR
 10
1.0
 20
0.0
 30
0.0
  9
$UCSYDIR
 10
0.0
 20
1.0
 30
0.0
  9
$PUCSNAME
  2

  9
$PUCSORG
 10
0.0
 20
0.0
 30
0.0
  9
$PUCSXDIR
 10
1.0
 20
0.0
 30
0.0
  9
$PUCSYDIR
 10
0.0
 20
1.0
 30
0.0
  9
$USERI1
 70
     0
  9
$USERI2
 70
     0
  9
$USERI3
 70
     0
  9
$USERI4
 70
     0
  9
$USERI5
 70
     0
  9
$USERR1
 40
0.0
  9
$USERR2
 40
0.0
  9
$USERR3
 40
0.0
  9
$USERR4
 40
0.0
  9
$USERR5
 40
0.0
  9
$WORLDVIEW
 70
     1
  9
$SHADEDGE
 70
     3
  9
$SHADEDIF
 70
    70
  9
$TILEMODE
 70
     1
  9
$MAXACTVP
 70
    64
  9
$PLIMCHECK
 70
     0
  9
$PEXTMIN
 10
1.0000000000000000E+020
 20
1.0000000000000000E+020
 30
1.0000000000000000E+020
  9
$PEXTMAX
 10
-1.0000000000000000E+020
 20
-1.0000000000000000E+020
 30
-1.0000000000000000E+020
  9
$PLIMMIN
 10
0.0
 20
0.0
  9
$PLIMMAX
 10
420.0
 20
297.0
  9
$UNITMODE
 70
     0
  9
$VISRETAIN
 70
     1
  9
$PLINEGEN
 70
     0
  9
$PSLTSCALE
 70
     1
  0
ENDSEC
  0
SECTION
  2
TABLES
  0
TABLE
  2
VPORT
 70
     2
  0
VPORT
  2
*ACTIVE
 70
     0
 10
0.0
 20
0.0
 11
1.0
 21
1.0
 12
171.13599260459171
 22
39.937899251131391
 13
0.0
 23
0.0
 14
10.0
 24
10.0
 15
10.0
 25
10.0
 16
0.0
 26
0.0
 36
1.0
 17
0.0
 27
0.0
 37
0.0
 40
199.8807015874558
 41
2.5392405063291141
 42
50.0
 43
0.0
 44
0.0
 50
0.0
 51
0.0
 71
     0
 72
   100
 73
     1
 74
     3
 75
     0
 76
     0
 77
     0
 78
     0
  0
ENDTAB
  0
TABLE
  2
LTYPE
 70
     2
  0
LTYPE
  2
CONTINUOUS
 70
     0
  3
Solid line
 72
    65
 73
     0
 40
0.0
  0
LTYPE
  2
CENTER
 70
     0
  3
Center ____ _ ____ _ ____ _ ____ _ ____ _ ____
 72
    65
 73
     4
 40
50.799999999999997
 49
31.75
 49
-6.3499999999999988
 49
6.3499999999999988
 49
-6.3499999999999988
  0
ENDTAB
  0
TABLE
  2
LAYER
 70
     4
  0
LAYER
  2
0
 70
     0
 62
     7
  6
CONTINUOUS
  0
LAYER
  2
1
 70
     0
 62
     7
  6
CENTER
  0
LAYER
  2
2
 70
     0
 62
     7
  6
CONTINUOUS
  0
LAYER
  2
DEFPOINTS
 70
     0
 62
     7
  6
CONTINUOUS
  0
ENDTAB
  0
TABLE
  2
STYLE
 70
     3
  0
STYLE
  2
STANDARD
 70
     0
 40
0.0
 41
1.0
 50
0.0
 71
     0
 42
2.5
  3
txt
  4

  0
STYLE
  2
\U+00C9L\U+00C9R_\U+00C2S\U+00C2V\U+00C2B\U+00C2N
 70
     0
 40
1.0
 41
1.0
 50
0.0
 71
     0
 42
1.0
  3
\U+00E9l\U+00E9r \U+00E2S\U+00E2V\U+00E2b\U+00E2N
  4

  0
STYLE
  2

 70
     1
 40
0.0
 41
1.0
 50
0.0
 71
     0
 42
2.5
  3
ltypeshp.shx
  4

  0
ENDTAB
  0
TABLE
  2
VIEW
 70
     0
  0
ENDTAB
  0
TABLE
  2
UCS
 70
     0
  0
ENDTAB
  0
TABLE
  2
APPID
 70
     1
  0
APPID
  2
ACAD
 70
     0
  0
ENDTAB
  0
TABLE
  2
DIMSTYLE
 70
     2
  0
DIMSTYLE
  2
ISO-25
 70
     0
  3

  4

  5

  6

  7

 40
1.0
 41
2.5
 42
0.625
 43
3.75
 44
1.25
 45
0.0
 46
0.0
 47
0.0
 48
0.0
140
2.5
141
2.5
142
0.0
143
0.03937007874016
144
1.0
145
0.0
146
1.0
147
0.625
 71
     0
 72
     0
 73
     0
 74
     0
 75
     0
 76
     0
 77
     1
 78
     8
170
     0
171
     3
172
     1
173
     0
174
     0
175
     0
176
     0
177
     0
178
     0
  0
DIMSTYLE
  2
STANDARD
 70
     0
  3

  4

  5

  6

  7

 40
1.0
 41
0.18
 42
0.0625
 43
0.38
 44
0.18
 45
0.0
 46
0.0
 47
0.0
 48
0.0
140
0.18
141
0.09
142
0.0
143
25.399999999999999
144
1.0
145
0.0
146
1.0
147
0.09
 71
     0
 72
     0
 73
     1
 74
     1
 75
     0
 76
     0
 77
     0
 78
     0
170
     0
171
     2
172
     0
173
     0
174
     0
175
     0
176
     0
177
     0
178
     0
  0
ENDTAB
  0
ENDSEC
  0
SECTION
  2
BLOCKS
  0
BLOCK
  8
0
  2
$MODEL_SPACE
 70
     0
 10
0.0
 20
0.0
 30
0.0
  3
$MODEL_SPACE
  1

  0
ENDBLK
  5
21
  8
0
  0
BLOCK
 67
     1
  8
0
  2
$PAPER_SPACE
 70
     0
 10
0.0
 20
0.0
 30
0.0
  3
$PAPER_SPACE
  1

  0
ENDBLK
  5
1D
 67
     1
  8
0
  0
BLOCK
  8
0
  2
*D1
 70
     1
 10
0.0
 20
0.0
 30
0.0
  3
*D1
  1

  0
LINE
  5
89E
  8
2
 62
     0
 10
75.585559942698069
 20
115.1271121678529
 30
0.0
 11
75.585559942698069
 21
129.0876296521144
 31
0.0
  0
LINE
  5
89F
  8
2
 62
     0
 10
89.085559942698069
 20
115.1271121678529
 30
0.0
 11
89.085559942698069
 21
129.0876296521144
 31
0.0
  0
LINE
  5
8A0
  8
2
 62
     0
 10
78.085559942698069
 20
127.8376296521144
 30
0.0
 11
86.585559942698069
 21
127.8376296521144
 31
0.0
  0
SOLID
  5
8A1
  8
2
 62
     0
 10
78.085559942698069
 20
128.25429631878109
 30
0.0
 11
78.085559942698069
 21
127.4209629854477
 31
0.0
 12
75.585559942698069
 22
127.8376296521144
 32
0.0
 13
75.585559942698069
 23
127.8376296521144
 33
0.0
  0
SOLID
  5
8A2
  8
2
 62
     0
 10
86.585559942698069
 20
128.25429631878109
 30
0.0
 11
86.585559942698069
 21
127.4209629854477
 31
0.0
 12
89.085559942698069
 22
127.8376296521144
 32
0.0
 13
89.085559942698069
 23
127.8376296521144
 33
0.0
  0
INSERT
  5
8A3
  8
2
  2
*U11
 10
0.0
 20
0.0
 30
0.0
  0
POINT
  5
8A4
  8
DEFPOINTS
 62
     0
 10
75.585559942698069
 20
114.5021121678529
 30
0.0
  0
POINT
  5
8A5
  8
DEFPOINTS
 62
     0
 10
89.085559942698069
 20
114.5021121678529
 30
0.0
  0
POINT
  5
8A6
  8
DEFPOINTS
 62
     0
 10
89.085559942698069
 20
127.8376296521144
 30
0.0
  0
ENDBLK
  5
820
  8
0
  0
BLOCK
  8
0
  2
*D2
 70
     1
 10
0.0
 20
0.0
 30
0.0
  3
*D2
  1

  0
LINE
  5
895
  8
2
 62
     0
 10
69.835559942698055
 20
115.1271121678529
 30
0.0
 11
69.835559942698055
 21
135.69681943707039
 31
0.0
  0
LINE
  5
896
  8
2
 62
     0
 10
94.835559942698055
 20
115.1271121678529
 30
0.0
 11
94.835559942698055
 21
135.69681943707039
 31
0.0
  0
LINE
  5
897
  8
2
 62
     0
 10
72.335559942698055
 20
134.44681943707039
 30
0.0
 11
92.335559942698055
 21
134.44681943707039
 31
0.0
  0
SOLID
  5
898
  8
2
 62
     0
 10
72.335559942698055
 20
134.8634861037371
 30
0.0
 11
72.335559942698055
 21
134.03015277040379
 31
0.0
 12
69.835559942698055
 22
134.44681943707039
 32
0.0
 13
69.835559942698055
 23
134.44681943707039
 33
0.0
  0
SOLID
  5
899
  8
2
 62
     0
 10
92.335559942698055
 20
134.8634861037371
 30
0.0
 11
92.335559942698055
 21
134.03015277040379
 31
0.0
 12
94.835559942698055
 22
134.44681943707039
 32
0.0
 13
94.835559942698055
 23
134.44681943707039
 33
0.0
  0
INSERT
  5
89A
  8
2
  2
*U10
 10
0.0
 20
0.0
 30
0.0
  0
POINT
  5
89B
  8
DEFPOINTS
 62
     0
 10
69.835559942698055
 20
114.5021121678529
 30
0.0
  0
POINT
  5
89C
  8
DEFPOINTS
 62
     0
 10
94.835559942698055
 20
114.5021121678529
 30
0.0
  0
POINT
  5
89D
  8
DEFPOINTS
 62
     0
 10
94.835559942698055
 20
134.44681943707039
 30
0.0
  0
ENDBLK
  5
82D
  8
0
  0
BLOCK
  8
0
  2
*D3
 70
     1
 10
0.0
 20
0.0
 30
0.0
  3
*D3
  1

  0
LINE
  5
830
  8
2
 62
     0
 10
95.460559942698055
 20
114.5021121678529
 30
0.0
 11
148.4599256182193
 21
114.5021121678529
 31
0.0
  0
LINE
  5
831
  8
2
 62
     0
 10
95.460559942698055
 20
104.5021121678529
 30
0.0
 11
148.4599256182193
 21
104.5021121678529
 31
0.0
  0
LINE
  5
832
  8
2
 62
     0
 10
147.2099256182193
 20
112.0021121678529
 30
0.0
 11
147.2099256182193
 21
107.0021121678529
 31
0.0
  0
SOLID
  5
833
  8
2
 62
     0
 10
146.79325895155259
 20
112.0021121678529
 30
0.0
 11
147.6265922848859
 21
112.0021121678529
 31
0.0
 12
147.2099256182193
 22
114.5021121678529
 32
0.0
 13
147.2099256182193
 23
114.5021121678529
 33
0.0
  0
SOLID
  5
834
  8
2
 62
     0
 10
146.79325895155259
 20
107.0021121678529
 30
0.0
 11
147.6265922848859
 21
107.0021121678529
 31
0.0
 12
147.2099256182193
 22
104.5021121678529
 32
0.0
 13
147.2099256182193
 23
104.5021121678529
 33
0.0
  0
TEXT
  5
835
  8
2
 62
     0
 10
146.58492561821919
 20
108.0437788345196
 30
0.0
 40
2.5
  1
10
 50
90.0
  0
POINT
  5
836
  8
DEFPOINTS
 62
     0
 10
94.835559942698055
 20
114.5021121678529
 30
0.0
  0
POINT
  5
837
  8
DEFPOINTS
 62
     0
 10
94.835559942698055
 20
104.5021121678529
 30
0.0
  0
POINT
  5
838
  8
DEFPOINTS
 62
     0
 10
147.2099256182193
 20
104.5021121678529
 30
0.0
  0
ENDBLK
  5
83A
  8
0
  0
BLOCK
  8
0
  2
*D4
 70
     1
 10
0.0
 20
0.0
 30
0.0
  3
*D4
  1

  0
LINE
  5
83D
  8
2
 62
     0
 10
95.460559942698055
 20
114.5021121678529
 30
0.0
 11
156.02355866831451
 21
114.5021121678529
 31
0.0
  0
LINE
  5
83E
  8
2
 62
     0
 10
95.460559942698055
 20
94.502112167852943
 30
0.0
 11
156.02355866831451
 21
94.502112167852928
 31
0.0
  0
LINE
  5
83F
  8
2
 62
     0
 10
154.77355866831451
 20
112.0021121678529
 30
0.0
 11
154.77355866831451
 21
97.002112167852928
 31
0.0
  0
SOLID
  5
840
  8
2
 62
     0
 10
154.35689200164791
 20
112.0021121678529
 30
0.0
 11
155.19022533498119
 21
112.0021121678529
 31
0.0
 12
154.77355866831451
 22
114.5021121678529
 32
0.0
 13
154.77355866831451
 23
114.5021121678529
 33
0.0
  0
SOLID
  5
841
  8
2
 62
     0
 10
154.35689200164791
 20
97.002112167852928
 30
0.0
 11
155.19022533498119
 21
97.002112167852928
 31
0.0
 12
154.77355866831451
 22
94.502112167852928
 32
0.0
 13
154.77355866831451
 23
94.502112167852928
 33
0.0
  0
TEXT
  5
842
  8
2
 62
     0
 10
154.14855866831451
 20
102.6271121678529
 30
0.0
 40
2.5
  1
20
 50
90.0
  0
POINT
  5
843
  8
DEFPOINTS
 62
     0
 10
94.835559942698055
 20
114.5021121678529
 30
0.0
  0
POINT
  5
844
  8
DEFPOINTS
 62
     0
 10
94.835559942698055
 20
94.502112167852943
 30
0.0
  0
POINT
  5
845
  8
DEFPOINTS
 62
     0
 10
154.77355866831451
 20
94.502112167852928
 30
0.0
  0
ENDBLK
  5
847
  8
0
  0
BLOCK
  8
0
  2
*D5
 70
     1
 10
0.0
 20
0.0
 30
0.0
  3
*D5
  1

  0
LINE
  5
84A
  8
2
 62
     0
 10
95.460559942698055
 20
114.5021121678529
 30
0.0
 11
162.56626549356119
 21
114.5021121678529
 31
0.0
  0
LINE
  5
84B
  8
2
 62
     0
 10
122.17709081456989
 20
88.502112167852957
 30
0.0
 11
162.56626549356119
 21
88.502112167852957
 31
0.0
  0
LINE
  5
84C
  8
2
 62
     0
 10
161.31626549356119
 20
112.0021121678529
 30
0.0
 11
161.31626549356119
 21
91.002112167852957
 31
0.0
  0
SOLID
  5
84D
  8
2
 62
     0
 10
160.89959882689459
 20
112.0021121678529
 30
0.0
 11
161.7329321602279
 21
112.0021121678529
 31
0.0
 12
161.31626549356119
 22
114.5021121678529
 32
0.0
 13
161.31626549356119
 23
114.5021121678529
 33
0.0
  0
SOLID
  5
84E
  8
2
 62
     0
 10
160.89959882689459
 20
91.002112167852957
 30
0.0
 11
161.7329321602279
 21
91.002112167852957
 31
0.0
 12
161.31626549356119
 22
88.502112167852957
 32
0.0
 13
161.31626549356119
 23
88.502112167852957
 33
0.0
  0
TEXT
  5
84F
  8
2
 62
     0
 10
160.69126549356119
 20
99.418778834519628
 30
0.0
 40
2.5
  1
26
 50
90.0
  0
POINT
  5
850
  8
DEFPOINTS
 62
     0
 10
94.835559942698055
 20
114.5021121678529
 30
0.0
  0
POINT
  5
851
  8
DEFPOINTS
 62
     0
 10
121.55209081456989
 20
88.502112167852957
 30
0.0
  0
POINT
  5
852
  8
DEFPOINTS
 62
     0
 10
161.31626549356119
 20
88.502112167852957
 30
0.0
  0
ENDBLK
  5
854
  8
0
  0
BLOCK
  8
0
  2
*D6
 70
     1
 10
0.0
 20
0.0
 30
0.0
  3
*D6
  1

  0
LINE
  5
863
  8
2
 62
     0
 10
96.085559942698055
 20
114.5021121678529
 30
0.0
 11
169.98982900810259
 21
114.5021121678529
 31
0.0
  0
LINE
  5
864
  8
2
 62
     0
 10
126.66075272848489
 20
29.502112167852939
 30
0.0
 11
169.98982900810259
 21
29.502112167852928
 31
0.0
  0
LINE
  5
865
  8
2
 62
     0
 10
168.73982900810259
 20
112.0021121678529
 30
0.0
 11
168.73982900810259
 21
32.002112167852928
 31
0.0
  0
SOLID
  5
866
  8
2
 62
     0
 10
168.3231623414359
 20
112.0021121678529
 30
0.0
 11
169.1564956747693
 21
112.0021121678529
 31
0.0
 12
168.73982900810259
 22
114.5021121678529
 32
0.0
 13
168.73982900810259
 23
114.5021121678529
 33
0.0
  0
SOLID
  5
867
  8
2
 62
     0
 10
168.3231623414359
 20
32.002112167852928
 30
0.0
 11
169.15649567476919
 21
32.002112167852928
 31
0.0
 12
168.73982900810259
 22
29.502112167852928
 32
0.0
 13
168.73982900810259
 23
29.502112167852928
 33
0.0
  0
TEXT
  5
868
  8
2
 62
     0
 10
168.11482900810259
 20
69.918778834519614
 30
0.0
 40
2.5
  1
85
 50
90.0
  0
POINT
  5
869
  8
DEFPOINTS
 62
     0
 10
95.460559942698055
 20
114.5021121678529
 30
0.0
  0
POINT
  5
86A
  8
DEFPOINTS
 62
     0
 10
126.03575272848489
 20
29.502112167852939
 30
0.0
  0
POINT
  5
86B
  8
DEFPOINTS
 62
     0
 10
168.73982900810259
 20
29.502112167852928
 30
0.0
  0
ENDBLK
  5
862
  8
0
  0
BLOCK
  8
0
  2
*D7
 70
     1
 10
0.0
 20
0.0
 30
0.0
  3
*D7
  1

  0
LINE
  5
8A7
  8
2
 62
     0
 10
69.835559942698055
 20
87.877112167852957
 30
0.0
 11
69.835559942698055
 21
3.3103383752396658
 31
0.0
  0
LINE
  5
8A8
  8
2
 62
     0
 10
94.835559942698055
 20
87.877112167852957
 30
0.0
 11
94.835559942698055
 21
3.3103383752396658
 31
0.0
  0
LINE
  5
8A9
  8
2
 62
     0
 10
72.335559942698055
 20
4.5603383752396658
 30
0.0
 11
92.335559942698055
 21
4.5603383752396658
 31
0.0
  0
SOLID
  5
8AA
  8
2
 62
     0
 10
72.335559942698055
 20
4.9770050419063327
 30
0.0
 11
72.335559942698055
 21
4.1436717085729988
 31
0.0
 12
69.835559942698055
 22
4.5603383752396658
 32
0.0
 13
69.835559942698055
 23
4.5603383752396658
 33
0.0
  0
SOLID
  5
8AB
  8
2
 62
     0
 10
92.335559942698055
 20
4.9770050419063327
 30
0.0
 11
92.335559942698055
 21
4.1436717085729988
 31
0.0
 12
94.835559942698055
 22
4.5603383752396658
 32
0.0
 13
94.835559942698055
 23
4.5603383752396658
 33
0.0
  0
INSERT
  5
8AC
  8
2
  2
*U12
 10
0.0
 20
0.0
 30
0.0
  0
POINT
  5
8AD
  8
DEFPOINTS
 62
     0
 10
69.835559942698055
 20
88.502112167852957
 30
0.0
  0
POINT
  5
8AE
  8
DEFPOINTS
 62
     0
 10
94.835559942698055
 20
88.502112167852957
 30
0.0
  0
POINT
  5
8AF
  8
DEFPOINTS
 62
     0
 10
94.835559942698055
 20
4.5603383752396658
 30
0.0
  0
ENDBLK
  5
879
  8
0
  0
BLOCK
  8
0
  2
*D8
 70
     1
 10
0.0
 20
0.0
 30
0.0
  3
*D8
  1

  0
LINE
  5
8B0
  8
2
 62
     0
 10
68.335559942698069
 20
75.716255208004227
 30
0.0
 11
68.335559942698069
 21
-5.8849186988703357
 31
0.0
  0
LINE
  5
8B1
  8
2
 62
     0
 10
96.335559942698069
 20
75.716255208004227
 30
0.0
 11
96.335559942698069
 21
-5.8849186988703357
 31
0.0
  0
LINE
  5
8B2
  8
2
 62
     0
 10
70.835559942698069
 20
-4.6349186988703357
 30
0.0
 11
93.835559942698069
 21
-4.6349186988703357
 31
0.0
  0
SOLID
  5
8B3
  8
2
 62
     0
 10
70.835559942698069
 20
-4.2182520322036687
 30
0.0
 11
70.835559942698069
 21
-5.0515853655370027
 31
0.0
 12
68.335559942698069
 22
-4.6349186988703357
 32
0.0
 13
68.335559942698069
 23
-4.6349186988703357
 33
0.0
  0
SOLID
  5
8B4
  8
2
 62
     0
 10
93.835559942698069
 20
-4.2182520322036687
 30
0.0
 11
93.835559942698069
 21
-5.0515853655370027
 31
0.0
 12
96.335559942698069
 22
-4.6349186988703357
 32
0.0
 13
96.335559942698069
 23
-4.6349186988703357
 33
0.0
  0
INSERT
  5
8B5
  8
2
  2
*U13
 10
0.0
 20
0.0
 30
0.0
  0
POINT
  5
8B6
  8
DEFPOINTS
 62
     0
 10
68.335559942698069
 20
76.341255208004227
 30
0.0
  0
POINT
  5
8B7
  8
DEFPOINTS
 62
     0
 10
96.335559942698069
 20
76.341255208004227
 30
0.0
  0
POINT
  5
8B8
  8
DEFPOINTS
 62
     0
 10
96.335559942698069
 20
-4.6349186988703357
 30
0.0
  0
ENDBLK
  5
886
  8
0
  0
BLOCK
  8
0
  2
*D9
 70
     1
 10
0.0
 20
0.0
 30
0.0
  3
*D9
  1

  0
LINE
  5
8C7
  8
2
 62
     0
 10
38.335559947949129
 20
30.465292526075139
 30
0.0
 11
38.335559947949129
 21
-14.477941501453721
 31
0.0
  0
LINE
  5
8C8
  8
2
 62
     0
 10
126.335559937447
 20
30.465292526075139
 30
0.0
 11
126.335559937447
 21
-14.477941501453721
 31
0.0
  0
LINE
  5
8C9
  8
2
 62
     0
 10
40.835559947949129
 20
-13.227941501453721
 30
0.0
 11
123.835559937447
 21
-13.227941501453721
 31
0.0
  0
SOLID
  5
8CA
  8
2
 62
     0
 10
40.835559947949129
 20
-12.81127483478706
 30
0.0
 11
40.835559947949129
 21
-13.64460816812039
 31
0.0
 12
38.335559947949129
 22
-13.227941501453721
 32
0.0
 13
38.335559947949129
 23
-13.227941501453721
 33
0.0
  0
SOLID
  5
8CB
  8
2
 62
     0
 10
123.835559937447
 20
-12.81127483478706
 30
0.0
 11
123.835559937447
 21
-13.64460816812039
 31
0.0
 12
126.335559937447
 22
-13.227941501453721
 32
0.0
 13
126.335559937447
 23
-13.227941501453721
 33
0.0
  0
INSERT
  5
8CC
  8
2
  2
*U14
 10
0.0
 20
0.0
 30
0.0
  0
POINT
  5
8CD
  8
DEFPOINTS
 62
     0
 10
38.335559947949129
 20
31.090292526075139
 30
0.0
  0
POINT
  5
8CE
  8
DEFPOINTS
 62
     0
 10
126.335559937447
 20
31.090292526075139
 30
0.0
  0
POINT
  5
8CF
  8
DEFPOINTS
 62
     0
 10
126.335559937447
 20
-13.227941501453721
 30
0.0
  0
ENDBLK
  5
893
  8
0
  0
BLOCK
  8
0
  2
*U10
 70
     1
 10
0.0
 20
0.0
 30
0.0
  3
*U10
  1

  0
TEXT
  5
904
  8
2
 62
     0
 10
79.00222660936474
 20
135.07181943707039
 30
0.0
 40
2.5
  1
\U+2205
  0
TEXT
  5
905
  8
2
 62
     0
 10
81.50222660936474
 20
135.07181943707039
 30
0.0
 40
2.5
  1
25
  0
ENDBLK
  5
907
  8
0
  0
BLOCK
  8
0
  2
*U11
 70
     1
 10
0.0
 20
0.0
 30
0.0
  3
*U11
  1

  0
TEXT
  5
909
  8
2
 62
     0
 10
77.75222660936474
 20
128.4626296521144
 30
0.0
 40
2.5
  1
\U+2205
  0
TEXT
  5
90A
  8
2
 62
     0
 10
80.25222660936474
 20
128.4626296521144
 30
0.0
 40
2.5
  1
13.5
  0
ENDBLK
  5
90C
  8
0
  0
BLOCK
  8
0
  2
*U12
 70
     1
 10
0.0
 20
0.0
 30
0.0
  3
*U12
  1

  0
TEXT
  5
90E
  8
2
 62
     0
 10
79.00222660936474
 20
5.1853383752396658
 30
0.0
 40
2.5
  1
\U+2205
  0
TEXT
  5
90F
  8
2
 62
     0
 10
81.50222660936474
 20
5.1853383752396658
 30
0.0
 40
2.5
  1
25
  0
ENDBLK
  5
911
  8
0
  0
BLOCK
  8
0
  2
*U13
 70
     1
 10
0.0
 20
0.0
 30
0.0
  3
*U13
  1

  0
TEXT
  5
913
  8
2
 62
     0
 10
79.00222660936474
 20
-4.0099186988703357
 30
0.0
 40
2.5
  1
\U+2205
  0
TEXT
  5
914
  8
2
 62
     0
 10
81.50222660936474
 20
-4.0099186988703357
 30
0.0
 40
2.5
  1
28
  0
ENDBLK
  5
916
  8
0
  0
BLOCK
  8
0
  2
*U14
 70
     1
 10
0.0
 20
0.0
 30
0.0
  3
*U14
  1

  0
TEXT
  5
918
  8
2
 62
     0
 10
79.00222660936474
 20
-12.602941501453721
 30
0.0
 40
2.5
  1
\U+2205
  0
TEXT
  5
919
  8
2
 62
     0
 10
81.50222660936474
 20
-12.602941501453721
 30
0.0
 40
2.5
  1
88
  0
ENDBLK
  5
91B
  8
0
  0
ENDSEC
  0
SECTION
  2
ENTITIES
  0
POLYLINE
  5
13B
  8
0
 66
     1
 10
0.0
 20
0.0
 30
0.0
 39
8.4346772575699198
  0
VERTEX
  5
8F1
  8
0
 10
67.724551922159677
 20
46.189208284851077
 30
0.0
  0
VERTEX
  5
8F2
  8
0
 10
82.335559942698055
 20
46.189208284851077
 30
0.0
  0
SEQEND
  5
8F3
  8
0
  0
POLYLINE
  5
13C
  8
0
 66
     1
 10
0.0
 20
0.0
 30
0.0
 39
8.4346772575699198
  0
VERTEX
  5
8F4
  8
0
 10
68.692852871328697
 20
53.965812022785357
 30
0.0
  0
VERTEX
  5
8F5
  8
0
 10
82.335559942698055
 20
53.965812022785357
 30
0.0
  0
SEQEND
  5
8F6
  8
0
  0
POLYLINE
  5
13D
  8
0
 66
     1
 10
0.0
 20
0.0
 30
0.0
 39
8.4346772575699198
  0
VERTEX
  5
8F7
  8
0
 10
68.335559942698069
 20
76.341255208004227
 30
0.0
  0
VERTEX
  5
8F8
  8
0
 10
82.335559942698055
 20
76.341255208004227
 30
0.0
  0
SEQEND
  5
8F9
  8
0
  0
LINE
  5
237
  8
0
 39
8.4346772575699198
 10
82.335559942698055
 20
86.501912802992805
 30
0.0
 11
62.744166382995303
 21
86.501912802992805
 31
0.0
  0
LINE
  5
238
  8
0
 39
8.4346772575699198
 10
62.744166382995303
 20
86.501912802992805
 30
0.0
 11
62.744166382995303
 21
86.501912802992805
 31
0.0
  0
LINE
  5
239
  8
0
 39
8.4346772575699198
 10
62.744166382995303
 20
86.501912802992805
 30
0.0
 11
62.529588193562681
 21
86.509841399614913
 31
0.0
  0
LINE
  5
23A
  8
0
 39
8.4346772575699198
 10
62.529588193562681
 20
86.509841399614913
 30
0.0
 11
62.323275987842528
 21
86.533289802390968
 31
0.0
  0
LINE
  5
23B
  8
0
 39
8.4346772575699198
 10
62.323275987842528
 20
86.533289802390968
 30
0.0
 11
62.1255671529251
 21
86.572595398411238
 31
0.0
  0
LINE
  5
23C
  8
0
 39
8.4346772575699198
 10
62.1255671529251
 20
86.572595398411238
 30
0.0
 11
61.937473850081282
 21
86.627083413495157
 31
0.0
  0
LINE
  5
23D
  8
0
 39
8.4346772575699198
 10
61.937473850081282
 20
86.627083413495157
 30
0.0
 11
61.759502159946571
 21
86.697597315368398
 31
0.0
  0
LINE
  5
23E
  8
0
 39
8.4346772575699198
 10
61.759502159946571
 20
86.697597315368398
 30
0.0
 11
61.59266424379183
 21
86.783462329850465
 31
0.0
  0
LINE
  5
23F
  8
0
 39
8.4346772575699198
 10
61.59266424379183
 20
86.783462329850465
 30
0.0
 11
61.43780356934284
 21
86.885015844031614
 31
0.0
  0
LINE
  5
240
  8
0
 39
8.4346772575699198
 10
61.43780356934284
 20
86.885015844031614
 30
0.0
 11
61.296100991415663
 21
87.00208916436668
 31
0.0
  0
LINE
  5
241
  8
0
 39
8.4346772575699198
 10
61.296100991415663
 20
87.00208916436668
 30
0.0
 11
61.1675565100103
 21
87.135019677945991
 31
0.0
  0
LINE
  5
242
  8
0
 39
8.4346772575699198
 10
61.1675565100103
 20
87.135019677945991
 30
0.0
 11
61.053688367033097
 21
87.283469997679205
 31
0.0
  0
LINE
  5
243
  8
0
 39
8.4346772575699198
 10
61.053688367033097
 20
87.283469997679205
 30
0.0
 11
60.954833949574393
 21
87.447608817111558
 31
0.0
  0
LINE
  5
244
  8
0
 39
8.4346772575699198
 10
60.954833949574393
 20
87.447608817111558
 30
0.0
 11
60.872511499540508
 21
87.627098749152623
 31
0.0
  0
LINE
  5
245
  8
0
 39
8.4346772575699198
 10
60.872511499540508
 20
87.627098749152623
 30
0.0
 11
60.806721016931462
 21
87.822614567983095
 31
0.0
  0
LINE
  5
246
  8
0
 39
8.4346772575699198
 10
60.806721016931462
 20
87.822614567983095
 30
0.0
 11
60.758980743653623
 21
88.033481499422336
 31
0.0
  0
LINE
  5
247
  8
0
 39
8.4346772575699198
 10
60.758980743653623
 20
88.033481499422336
 30
0.0
 11
60.729628066797282
 21
88.260036930560645
 31
0.0
  0
LINE
  5
248
  8
0
 39
8.4346772575699198
 10
60.729628066797282
 20
88.260036930560645
 30
0.0
 11
60.719843841178488
 21
88.502112167852957
 31
0.0
  0
LINE
  5
249
  8
0
 39
8.4346772575699198
 10
43.119029070826159
 20
88.502112167852957
 30
0.0
 11
51.285488635041403
 21
88.502112167852957
 31
0.0
  0
LINE
  5
24A
  8
0
 39
8.4346772575699198
 10
51.285488635041403
 20
88.502112167852957
 30
0.0
 11
51.285488635041403
 21
88.502112167852957
 31
0.0
  0
LINE
  5
24B
  8
0
 39
8.4346772575699198
 10
51.285488635041403
 20
88.502112167852957
 30
0.0
 11
51.571255500527862
 21
87.978656097248134
 31
0.0
  0
LINE
  5
24C
  8
0
 39
8.4346772575699198
 10
51.571255500527862
 20
87.978656097248134
 30
0.0
 11
51.886375042870682
 21
87.531449509051811
 31
0.0
  0
LINE
  5
24D
  8
0
 39
8.4346772575699198
 10
51.886375042870682
 20
87.531449509051811
 30
0.0
 11
52.226461229895889
 21
87.159817629083264
 31
0.0
  0
LINE
  5
24E
  8
0
 39
8.4346772575699198
 10
52.226461229895889
 20
87.159817629083264
 30
0.0
 11
52.58746541651989
 21
86.861567441255573
 31
0.0
  0
LINE
  5
24F
  8
0
 39
8.4346772575699198
 10
52.58746541651989
 20
86.861567441255573
 30
0.0
 11
52.964326796388107
 21
86.635855477843023
 31
0.0
  0
LINE
  5
250
  8
0
 39
8.4346772575699198
 10
52.964326796388107
 20
86.635855477843023
 30
0.0
 11
53.353334111507237
 21
86.480826109848891
 31
0.0
  0
LINE
  5
251
  8
0
 39
8.4346772575699198
 10
53.353334111507237
 20
86.480826109848891
 30
0.0
 11
53.749595249067859
 21
86.395129788911973
 31
0.0
  0
LINE
  5
252
  8
0
 39
8.4346772575699198
 10
53.749595249067859
 20
86.395129788911973
 30
0.0
 11
54.149230257531542
 21
86.377079579580766
 31
0.0
  0
LINE
  5
253
  8
0
 39
8.4346772575699198
 10
54.149230257531542
 20
86.377079579580766
 30
0.0
 11
54.547178330543673
 21
86.425832014129526
 31
0.0
  0
LINE
  5
254
  8
0
 39
8.4346772575699198
 10
54.547178330543673
 20
86.425832014129526
 30
0.0
 11
54.939728210110978
 21
86.53936277001641
 31
0.0
  0
LINE
  5
255
  8
0
 39
8.4346772575699198
 10
54.939728210110978
 20
86.53936277001641
 30
0.0
 11
55.321987783424042
 21
86.716490992425392
 31
0.0
  0
LINE
  5
256
  8
0
 39
8.4346772575699198
 10
55.321987783424042
 20
86.716490992425392
 30
0.0
 11
55.6900770989444
 21
86.955361052359763
 31
0.0
  0
LINE
  5
257
  8
0
 39
8.4346772575699198
 10
55.6900770989444
 20
86.955361052359763
 30
0.0
 11
56.03910404386265
 21
87.255129482093793
 31
0.0
  0
LINE
  5
258
  8
0
 39
8.4346772575699198
 10
56.03910404386265
 20
87.255129482093793
 30
0.0
 11
56.365188666640279
 21
87.613603265540519
 31
0.0
  0
LINE
  5
259
  8
0
 39
8.4346772575699198
 10
56.365188666640279
 20
87.613603265540519
 30
0.0
 11
56.66360754801314
 21
88.029938934974169
 31
0.0
  0
LINE
  5
25A
  8
0
 39
8.4346772575699198
 10
56.66360754801314
 20
88.029938934974169
 30
0.0
 11
56.930312042897491
 21
88.502112167852957
 31
0.0
  0
LINE
  5
25B
  8
0
 39
8.4346772575699198
 10
56.930312042897491
 20
88.502112167852957
 30
0.0
 11
82.335559942698055
 21
88.502112167852957
 31
0.0
  0
LINE
  5
25F
  8
0
 39
8.4346772575699198
 10
38.635367156911187
 20
29.50211216785295
 30
0.0
 11
40.172295267557573
 21
30.421253926004709
 31
0.0
  0
LINE
  5
260
  8
0
 39
8.4346772575699198
 10
40.172295267557573
 20
30.421253926004709
 30
0.0
 11
41.78095691412129
 21
31.449947164337921
 31
0.0
  0
LINE
  5
261
  8
0
 39
8.4346772575699198
 10
41.78095691412129
 20
31.449947164337921
 30
0.0
 11
43.339853964865377
 21
32.50225749899235
 31
0.0
  0
LINE
  5
262
  8
0
 39
8.4346772575699198
 10
43.339853964865377
 20
32.50225749899235
 30
0.0
 11
44.85961411313432
 21
33.569918946255569
 31
0.0
  0
LINE
  5
263
  8
0
 39
8.4346772575699198
 10
44.85961411313432
 20
33.569918946255569
 30
0.0
 11
46.350021584546923
 21
34.645677683686031
 31
0.0
  0
LINE
  5
264
  8
0
 39
8.4346772575699198
 10
46.350021584546923
 20
34.645677683686031
 30
0.0
 11
47.82153537890256
 21
35.721267727571338
 31
0.0
  0
LINE
  5
265
  8
0
 39
8.4346772575699198
 10
47.82153537890256
 20
35.721267727571338
 30
0.0
 11
49.284108415365189
 21
36.789097868379692
 31
0.0
  0
LINE
  5
266
  8
0
 39
8.4346772575699198
 10
49.284108415365189
 20
36.789097868379692
 30
0.0
 11
50.748537080824498
 21
37.840902122398667
 31
0.0
  0
LINE
  5
267
  8
0
 39
8.4346772575699198
 10
50.748537080824498
 20
37.840902122398667
 30
0.0
 11
52.224099520263763
 21
38.869932747822169
 31
0.0
  0
LINE
  5
268
  8
0
 39
8.4346772575699198
 10
52.224099520263763
 20
38.869932747822169
 30
0.0
 11
53.721929507663027
 21
39.867248986757268
 31
0.0
  0
LINE
  5
269
  8
0
 39
8.4346772575699198
 10
53.721929507663027
 20
39.867248986757268
 30
0.0
 11
55.251642575095907
 21
40.825765710307508
 31
0.0
  0
LINE
  5
26A
  8
0
 39
8.4346772575699198
 10
55.251642575095907
 20
40.825765710307508
 30
0.0
 11
56.824035109452133
 21
41.737048241215362
 31
0.0
  0
LINE
  5
26B
  8
0
 39
8.4346772575699198
 10
56.824035109452133
 20
41.737048241215362
 30
0.0
 11
58.448722642805251
 21
42.594011450584468
 31
0.0
  0
LINE
  5
26C
  8
0
 39
8.4346772575699198
 10
58.448722642805251
 20
42.594011450584468
 30
0.0
 11
60.858893328042932
 21
43.388051967612093
 31
0.0
  0
LINE
  5
26D
  8
0
 39
8.4346772575699198
 10
60.858893328042932
 20
43.388051967612093
 30
0.0
 11
62.61921047169777
 21
44.11208466340188
 31
0.0
  0
LINE
  5
26E
  8
0
 39
8.4346772575699198
 10
62.61921047169777
 20
44.11208466340188
 30
0.0
 11
64.463030920202556
 21
44.757674860696298
 31
0.0
  0
LINE
  5
26F
  8
0
 39
8.4346772575699198
 10
64.463030920202556
 20
44.757674860696298
 30
0.0
 11
64.463030920202556
 21
44.757674860696298
 31
0.0
  0
LINE
  5
270
  8
0
 39
8.4346772575699198
 10
64.463030920202556
 20
44.757674860696298
 30
0.0
 11
65.104909859503621
 21
45.35215091380983
 31
0.0
  0
LINE
  5
271
  8
0
 39
8.4346772575699198
 10
65.104909859503621
 20
45.35215091380983
 30
0.0
 11
65.661935945593541
 21
45.965689337525447
 31
0.0
  0
LINE
  5
272
  8
0
 39
8.4346772575699198
 10
65.661935945593541
 20
45.965689337525447
 30
0.0
 11
66.134277872017464
 21
46.59390409966926
 31
0.0
  0
LINE
  5
273
  8
0
 39
8.4346772575699198
 10
66.134277872017464
 20
46.59390409966926
 30
0.0
 11
66.52261041295597
 21
47.232071780977023
 31
0.0
  0
LINE
  5
274
  8
0
 39
8.4346772575699198
 10
66.52261041295597
 20
47.232071780977023
 30
0.0
 11
66.827102261954252
 21
47.876481123455349
 31
0.0
  0
LINE
  5
275
  8
0
 39
8.4346772575699198
 10
66.827102261954252
 20
47.876481123455349
 30
0.0
 11
67.048596886738054
 21
48.522071320749738
 31
0.0
  0
LINE
  5
276
  8
0
 39
8.4346772575699198
 10
67.048596886738054
 20
48.522071320749738
 30
0.0
 11
67.187262980852495
 21
49.164793727776569
 31
0.0
  0
LINE
  5
277
  8
0
 39
8.4346772575699198
 10
67.187262980852495
 20
49.164793727776569
 30
0.0
 11
67.243944012023348
 21
49.79992492527159
 31
0.0
  0
LINE
  5
278
  8
0
 39
8.4346772575699198
 10
67.243944012023348
 20
49.79992492527159
 30
0.0
 11
67.218471286705494
 21
50.423753655241448
 31
0.0
  0
LINE
  5
279
  8
0
 39
8.4346772575699198
 10
67.218471286705494
 20
50.423753655241448
 30
0.0
 11
67.112194353260122
 21
51.031387804876807
 31
0.0
  0
LINE
  5
27A
  8
0
 39
8.4346772575699198
 10
67.112194353260122
 20
51.031387804876807
 30
0.0
 11
66.92494451814207
 21
51.618441342003642
 31
0.0
  0
LINE
  5
27B
  8
0
 39
8.4346772575699198
 10
66.92494451814207
 20
51.618441342003642
 30
0.0
 11
66.657733942622244
 21
52.180359540902963
 31
0.0
  0
LINE
  5
27C
  8
0
 39
8.4346772575699198
 10
66.657733942622244
 20
52.180359540902963
 30
0.0
 11
66.310393933155524
 21
52.713431143581381
 31
0.0
  0
LINE
  5
27D
  8
0
 39
8.4346772575699198
 10
66.310393933155524
 20
52.713431143581381
 30
0.0
 11
65.884105344557923
 21
53.21242665013925
 31
0.0
  0
LINE
  5
27E
  8
0
 39
8.4346772575699198
 10
65.884105344557923
 20
53.21242665013925
 30
0.0
 11
65.37869948328435
 21
53.673297415492833
 31
0.0
  0
LINE
  5
27F
  8
0
 39
8.4346772575699198
 10
65.37869948328435
 20
53.673297415492833
 30
0.0
 11
64.795357204150818
 21
54.091657407468318
 31
0.0
  0
LINE
  5
280
  8
0
 39
8.4346772575699198
 10
64.795357204150818
 20
54.091657407468318
 30
0.0
 11
44.377319267546483
 21
60.814601262386986
 31
0.0
  0
LINE
  5
281
  8
0
 39
8.4346772575699198
 10
44.377319267546483
 20
60.814601262386986
 30
0.0
 11
44.377319267546483
 21
60.814601262386986
 31
0.0
  0
LINE
  5
282
  8
0
 39
8.4346772575699198
 10
44.377319267546483
 20
60.814601262386986
 30
0.0
 11
43.97498516236039
 21
61.002694565230811
 31
0.0
  0
LINE
  5
283
  8
0
 39
8.4346772575699198
 10
43.97498516236039
 20
61.002694565230811
 30
0.0
 11
43.6274764593485
 21
61.197872996970993
 31
0.0
  0
LINE
  5
284
  8
0
 39
8.4346772575699198
 10
43.6274764593485
 20
61.197872996970993
 30
0.0
 11
43.334118384330218
 21
61.399967864062369
 31
0.0
  0
LINE
  5
285
  8
0
 39
8.4346772575699198
 10
43.334118384330218
 20
61.399967864062369
 30
0.0
 11
43.095754405031307
 21
61.608135698779201
 31
0.0
  0
LINE
  5
286
  8
0
 39
8.4346772575699198
 10
43.095754405031307
 20
61.608135698779201
 30
0.0
 11
42.91137236018082
 21
61.822545194666588
 31
0.0
  0
LINE
  5
287
  8
0
 39
8.4346772575699198
 10
42.91137236018082
 20
61.822545194666588
 30
0.0
 11
42.781815717504543
 21
62.042015496908569
 31
0.0
  0
LINE
  5
288
  8
0
 39
8.4346772575699198
 10
42.781815717504543
 20
62.042015496908569
 30
0.0
 11
42.706409702821887
 21
62.266546605505098
 31
0.0
  0
LINE
  5
289
  8
0
 39
8.4346772575699198
 10
42.706409702821887
 20
62.266546605505098
 30
0.0
 11
42.685829090313398
 21
62.495126359185242
 31
0.0
  0
LINE
  5
28A
  8
0
 39
8.4346772575699198
 10
42.685829090313398
 20
62.495126359185242
 30
0.0
 11
42.719230412253367
 21
62.728092145039298
 31
0.0
  0
LINE
  5
28B
  8
0
 39
8.4346772575699198
 10
42.719230412253367
 20
62.728092145039298
 30
0.0
 11
42.807625829912723
 21
62.964263108251288
 31
0.0
  0
LINE
  5
28C
  8
0
 39
8.4346772575699198
 10
42.807625829912723
 20
62.964263108251288
 30
0.0
 11
42.950171875565637
 21
63.203470555275942
 31
0.0
  0
LINE
  5
28D
  8
0
 39
8.4346772575699198
 10
42.950171875565637
 20
63.203470555275942
 30
0.0
 11
43.147543323392782
 21
63.444871018387609
 31
0.0
  0
LINE
  5
28E
  8
0
 39
8.4346772575699198
 10
43.147543323392782
 20
63.444871018387609
 30
0.0
 11
43.399065399213526
 21
63.688633191131359
 31
0.0
  0
LINE
  5
28F
  8
0
 39
8.4346772575699198
 10
43.399065399213526
 20
63.688633191131359
 30
0.0
 11
43.705244183663318
 21
63.933407525146073
 31
0.0
  0
LINE
  5
290
  8
0
 39
8.4346772575699198
 10
43.705244183663318
 20
63.933407525146073
 30
0.0
 11
44.065742289651851
 21
64.179362713976801
 31
0.0
  0
LINE
  5
291
  8
0
 39
8.4346772575699198
 10
44.065742289651851
 20
64.179362713976801
 30
0.0
 11
44.481065797814573
 21
64.425655289897847
 31
0.0
  0
LINE
  5
292
  8
0
 39
8.4346772575699198
 10
44.481065797814573
 20
64.425655289897847
 30
0.0
 11
66.787459278843656
 21
73.500287214109534
 31
0.0
  0
LINE
  5
293
  8
0
 39
8.4346772575699198
 10
66.787459278843656
 20
73.500287214109534
 30
0.0
 11
66.787459278843656
 21
73.500287214109534
 31
0.0
  0
LINE
  5
294
  8
0
 39
8.4346772575699198
 10
66.787459278843656
 20
73.500287214109534
 30
0.0
 11
67.192155093661881
 21
73.86938869090082
 31
0.0
  0
LINE
  5
295
  8
0
 39
8.4346772575699198
 10
67.192155093661881
 20
73.86938869090082
 30
0.0
 11
67.53645861931588
 21
74.26430028010023
 31
0.0
  0
LINE
  5
296
  8
0
 39
8.4346772575699198
 10
67.53645861931588
 20
74.26430028010023
 30
0.0
 11
67.821382017076616
 21
74.679623788262973
 31
0.0
  0
LINE
  5
297
  8
0
 39
8.4346772575699198
 10
67.821382017076616
 20
74.679623788262973
 30
0.0
 11
68.048780915940654
 21
75.109961021944173
 31
0.0
  0
LINE
  5
298
  8
0
 39
8.4346772575699198
 10
68.048780915940654
 20
75.109961021944173
 30
0.0
 11
68.219498783633881
 21
75.550251174789324
 31
0.0
  0
LINE
  5
299
  8
0
 39
8.4346772575699198
 10
68.219498783633881
 20
75.550251174789324
 30
0.0
 11
68.335559942698069
 21
75.994758666263252
 31
0.0
  0
LINE
  5
29D
  8
0
 39
8.4346772575699198
 10
68.335559942698069
 20
77.4518372040814
 30
0.0
 11
68.279216298617499
 21
77.709697246272398
 31
0.0
  0
LINE
  5
29E
  8
0
 39
8.4346772575699198
 10
68.279216298617499
 20
77.709697246272398
 30
0.0
 11
68.142237139954545
 21
78.095836771123942
 31
0.0
  0
LINE
  5
29F
  8
0
 39
8.4346772575699198
 10
68.142237139954545
 20
78.095836771123942
 30
0.0
 11
67.95920464346527
 21
78.453804473935222
 31
0.0
  0
LINE
  5
2A0
  8
0
 39
8.4346772575699198
 10
67.95920464346527
 20
78.453804473935222
 30
0.0
 11
67.730962276875431
 21
78.778876935441929
 31
0.0
  0
LINE
  5
2A1
  8
0
 39
8.4346772575699198
 10
67.730962276875431
 20
78.778876935441929
 30
0.0
 11
67.459703056271991
 21
79.065318575109004
 31
0.0
  0
LINE
  5
2A2
  8
0
 39
8.4346772575699198
 10
67.459703056271991
 20
79.065318575109004
 30
0.0
 11
67.146439142925843
 21
79.30773119949157
 31
0.0
  0
LINE
  5
2A3
  8
0
 39
8.4346772575699198
 10
67.146439142925843
 20
79.30773119949157
 30
0.0
 11
66.792857472288532
 21
79.500716615144768
 31
0.0
  0
LINE
  5
2A4
  8
0
 39
8.4346772575699198
 10
66.792857472288532
 20
79.500716615144768
 30
0.0
 11
45.03252499691451
 21
86.413440708358763
 31
0.0
  0
LINE
  5
2A5
  8
0
 39
8.4346772575699198
 10
45.03252499691451
 20
86.413440708358763
 30
0.0
 11
45.03252499691451
 21
86.413440708358763
 31
0.0
  0
LINE
  5
2A6
  8
0
 39
8.4346772575699198
 10
45.03252499691451
 20
86.413440708358763
 30
0.0
 11
44.645373310792053
 21
86.594617575851373
 31
0.0
  0
LINE
  5
2A7
  8
0
 39
8.4346772575699198
 10
44.645373310792053
 20
86.594617575851373
 30
0.0
 11
44.315914817111363
 21
86.772420572440964
 31
0.0
  0
LINE
  5
2A8
  8
0
 39
8.4346772575699198
 10
44.315914817111363
 20
86.772420572440964
 30
0.0
 11
44.038751322427608
 21
86.948367940033862
 31
0.0
  0
LINE
  5
2A9
  8
0
 39
8.4346772575699198
 10
44.038751322427608
 20
86.948367940033862
 30
0.0
 11
43.809496794566861
 21
87.123134452810703
 31
0.0
  0
LINE
  5
2AA
  8
0
 39
8.4346772575699198
 10
43.809496794566861
 20
87.123134452810703
 30
0.0
 11
43.62275304008427
 21
87.29823835267787
 31
0.0
  0
LINE
  5
2AB
  8
0
 39
8.4346772575699198
 10
43.62275304008427
 20
87.29823835267787
 30
0.0
 11
43.474302720351027
 21
87.474017026725605
 31
0.0
  0
LINE
  5
2AC
  8
0
 39
8.4346772575699198
 10
43.474302720351027
 20
87.474017026725605
 30
0.0
 11
43.358747641922321
 21
87.651820023315196
 31
0.0
  0
LINE
  5
2AD
  8
0
 39
8.4346772575699198
 10
43.358747641922321
 20
87.651820023315196
 30
0.0
 11
43.271701772624219
 21
87.832490810172345
 31
0.0
  0
LINE
  5
2AE
  8
0
 39
8.4346772575699198
 10
43.271701772624219
 20
87.832490810172345
 30
0.0
 11
43.207598225466683
 21
88.017378935658257
 31
0.0
  0
LINE
  5
2AF
  8
0
 39
8.4346772575699198
 10
43.207598225466683
 20
88.017378935658257
 30
0.0
 11
43.162219661820941
 21
88.206990480408464
 31
0.0
  0
LINE
  5
2B0
  8
0
 39
8.4346772575699198
 10
43.162219661820941
 20
88.206990480408464
 30
0.0
 11
43.13033658178734
 21
88.402506299238908
 31
0.0
  0
LINE
  5
2B1
  8
0
 39
8.4346772575699198
 10
43.13033658178734
 20
88.402506299238908
 30
0.0
 11
43.119029070826151
 21
88.502112167852957
 31
0.0
  0
LINE
  5
2B6
  8
0
 39
8.4346772575699198
 10
82.279047605072364
 20
39.330803513175809
 30
0.0
 11
79.051434005690666
 21
39.330803513175809
 31
0.0
  0
LINE
  5
2B7
  8
0
 39
8.4346772575699198
 10
79.051434005690666
 20
39.330803513175809
 30
0.0
 11
79.051434005690666
 21
39.330803513175809
 31
0.0
  0
LINE
  5
2B8
  8
0
 39
8.4346772575699198
 10
79.051434005690666
 20
39.330803513175809
 30
0.0
 11
79.0637486344867
 21
39.024456035180869
 31
0.0
  0
LINE
  5
2B9
  8
0
 39
8.4346772575699198
 10
79.0637486344867
 20
39.024456035180869
 30
0.0
 11
79.10170468214578
 21
38.7140599121023
 31
0.0
  0
LINE
  5
2BA
  8
0
 39
8.4346772575699198
 10
79.10170468214578
 20
38.7140599121023
 30
0.0
 11
79.16445868094209
 21
38.40214554711735
 31
0.0
  0
LINE
  5
2BB
  8
0
 39
8.4346772575699198
 10
79.16445868094209
 20
38.40214554711735
 30
0.0
 11
79.253022792146567
 21
38.090737262767888
 31
0.0
  0
LINE
  5
2BC
  8
0
 39
8.4346772575699198
 10
79.253022792146567
 20
38.090737262767888
 30
0.0
 11
79.366384854488345
 21
37.78287154286658
 31
0.0
  0
LINE
  5
2BD
  8
0
 39
8.4346772575699198
 10
79.366384854488345
 20
37.78287154286658
 30
0.0
 11
79.505050948602772
 21
37.480235322864949
 31
0.0
  0
LINE
  5
2BE
  8
0
 39
8.4346772575699198
 10
79.505050948602772
 20
37.480235322864949
 30
0.0
 11
79.669021074489919
 21
37.185527699485469
 31
0.0
  0
LINE
  5
2BF
  8
0
 39
8.4346772575699198
 10
79.669021074489919
 20
37.185527699485469
 30
0.0
 11
79.8582952321498
 21
36.90094168881506
 31
0.0
  0
LINE
  5
2C0
  8
0
 39
8.4346772575699198
 10
79.8582952321498
 20
36.90094168881506
 30
0.0
 11
80.072367340946926
 21
36.629345081121329
 31
0.0
  0
LINE
  5
2C1
  8
0
 39
8.4346772575699198
 10
80.072367340946926
 20
36.629345081121329
 30
0.0
 11
80.311912175061906
 21
36.372593505400907
 31
0.0
  0
LINE
  5
2C2
  8
0
 39
8.4346772575699198
 10
80.311912175061906
 20
36.372593505400907
 30
0.0
 11
80.576592347404457
 21
36.133386058376203
 31
0.0
  0
LINE
  5
2C3
  8
0
 39
8.4346772575699198
 10
80.576592347404457
 20
36.133386058376203
 30
0.0
 11
80.866745245064834
 21
35.913747062589088
 31
0.0
  0
LINE
  5
2C4
  8
0
 39
8.4346772575699198
 10
80.866745245064834
 20
35.913747062589088
 30
0.0
 11
81.181696093862556
 21
35.716544308307093
 31
0.0
  0
LINE
  5
2C5
  8
0
 39
8.4346772575699198
 10
81.181696093862556
 20
35.716544308307093
 30
0.0
 11
81.522288361523181
 21
35.543633424526909
 31
0.0
  0
LINE
  5
2C6
  8
0
 39
8.4346772575699198
 10
81.522288361523181
 20
35.543633424526909
 30
0.0
 11
81.887847273866257
 21
35.397713507970927
 31
0.0
  0
LINE
  5
2C7
  8
0
 39
8.4346772575699198
 10
81.887847273866257
 20
35.397713507970927
 30
0.0
 11
82.279047605072364
 21
35.280640187635889
 31
0.0
  0
LINE
  5
2CA
  8
0
 10
38.635367156911187
 20
29.50211216785295
 30
0.0
 11
82.335559942698055
 21
29.50211216785295
 31
0.0
  0
LINE
  5
2CB
  8
0
 39
8.4346772575699198
 10
41.824648542315508
 20
66.925693629041561
 30
0.0
 11
62.470591458419392
 21
74.167132798093036
 31
0.0
  0
LINE
  5
2CC
  8
0
 39
8.4346772575699198
 10
62.470591458419392
 20
74.167132798093036
 30
0.0
 11
62.470591458419392
 21
74.167132798093036
 31
0.0
  0
LINE
  5
2CD
  8
0
 39
8.4346772575699198
 10
62.470591458419392
 20
74.167132798093036
 30
0.0
 11
63.058825850362297
 21
74.347128810769561
 31
0.0
  0
LINE
  5
2CE
  8
0
 39
8.4346772575699198
 10
63.058825850362297
 20
74.347128810769561
 30
0.0
 11
63.56237608263924
 21
74.554453177760621
 31
0.0
  0
LINE
  5
2CF
  8
0
 39
8.4346772575699198
 10
63.56237608263924
 20
74.554453177760621
 30
0.0
 11
63.981073461705023
 21
74.785394641072884
 31
0.0
  0
LINE
  5
2D0
  8
0
 39
8.4346772575699198
 10
63.981073461705023
 20
74.785394641072884
 30
0.0
 11
64.315930148830546
 21
75.035398474987275
 31
0.0
  0
LINE
  5
2D1
  8
0
 39
8.4346772575699198
 10
64.315930148830546
 20
75.035398474987275
 30
0.0
 11
64.566777450470653
 21
75.301259502145854
 31
0.0
  0
LINE
  5
2D2
  8
0
 39
8.4346772575699198
 10
64.566777450470653
 20
75.301259502145854
 30
0.0
 11
64.734627527896308
 21
75.578760383919914
 31
0.0
  0
LINE
  5
2D3
  8
0
 39
8.4346772575699198
 10
64.734627527896308
 20
75.578760383919914
 30
0.0
 11
64.819649074652602
 21
75.864189862316096
 31
0.0
  0
LINE
  5
2D4
  8
0
 39
8.4346772575699198
 10
64.819649074652602
 20
75.864189862316096
 30
0.0
 11
64.822685558465338
 21
76.153161905160431
 31
0.0
  0
LINE
  5
2D5
  8
0
 39
8.4346772575699198
 10
64.822685558465338
 20
76.153161905160431
 30
0.0
 11
64.743568285789337
 21
76.442640028640227
 31
0.0
  0
LINE
  5
2D6
  8
0
 39
8.4346772575699198
 10
64.743568285789337
 20
76.442640028640227
 30
0.0
 11
64.583646804985804
 21
76.727900813491246
 31
0.0
  0
LINE
  5
2D7
  8
0
 39
8.4346772575699198
 10
64.583646804985804
 20
76.727900813491246
 30
0.0
 11
64.342752422509591
 21
77.005570388810469
 31
0.0
  0
LINE
  5
2D8
  8
0
 39
8.4346772575699198
 10
64.342752422509591
 20
77.005570388810469
 30
0.0
 11
64.021897299631647
 21
77.271262722423899
 31
0.0
  0
LINE
  5
2D9
  8
0
 39
8.4346772575699198
 10
64.021897299631647
 20
77.271262722423899
 30
0.0
 11
63.620912742806759
 21
77.521603943428573
 31
0.0
  0
LINE
  5
2DA
  8
0
 39
8.4346772575699198
 10
63.620912742806759
 20
77.521603943428573
 30
0.0
 11
63.140979606851033
 21
77.752208019650539
 31
0.0
  0
LINE
  5
2DB
  8
0
 39
8.4346772575699198
 10
63.140979606851033
 20
77.752208019650539
 30
0.0
 11
62.581929198219314
 21
77.959532386641598
 31
0.0
  0
LINE
  5
2DC
  8
0
 39
8.4346772575699198
 10
62.581929198219314
 20
77.959532386641598
 30
0.0
 11
61.944942371727628
 21
78.139022318682706
 31
0.0
  0
LINE
  5
2DD
  8
0
 39
8.4346772575699198
 10
61.944942371727628
 20
78.139022318682706
 30
0.0
 11
42.252792759909767
 21
83.209950285933715
 31
0.0
  0
LINE
  5
2DE
  8
0
 39
8.4346772575699198
 10
42.252792759909767
 20
83.209950285933715
 30
0.0
 11
42.252792759909767
 21
83.209950285933715
 31
0.0
  0
LINE
  5
2DF
  8
0
 39
8.4346772575699198
 10
42.252792759909767
 20
83.209950285933715
 30
0.0
 11
41.390262663550651
 21
83.466195781018683
 31
0.0
  0
LINE
  5
2E0
  8
0
 39
8.4346772575699198
 10
41.390262663550651
 20
83.466195781018683
 30
0.0
 11
40.641769403713923
 21
83.852166612325107
 31
0.0
  0
LINE
  5
2E1
  8
0
 39
8.4346772575699198
 10
40.641769403713923
 20
83.852166612325107
 30
0.0
 11
40.00630081912859
 21
84.349475183431423
 31
0.0
  0
LINE
  5
2E2
  8
0
 39
8.4346772575699198
 10
40.00630081912859
 20
84.349475183431423
 30
0.0
 11
39.483688216249561
 21
84.939396510825844
 31
0.0
  0
LINE
  5
2E3
  8
0
 39
8.4346772575699198
 10
39.483688216249561
 20
84.939396510825844
 30
0.0
 11
39.073088127351049
 21
85.603880385177206
 31
0.0
  0
LINE
  5
2E4
  8
0
 39
8.4346772575699198
 10
39.073088127351049
 20
85.603880385177206
 30
0.0
 11
38.774331858887933
 21
86.323527048793096
 31
0.0
  0
LINE
  5
2E5
  8
0
 39
8.4346772575699198
 10
38.774331858887933
 20
86.323527048793096
 30
0.0
 11
38.586913330224718
 21
87.080623679432577
 31
0.0
  0
LINE
  5
2E6
  8
0
 39
8.4346772575699198
 10
38.586913330224718
 20
87.080623679432577
 30
0.0
 11
38.510326460725977
 21
87.855939212948414
 31
0.0
  0
LINE
  5
2E7
  8
0
 39
8.4346772575699198
 10
38.510326460725977
 20
87.855939212948414
 30
0.0
 11
38.543727782665968
 21
88.631760827099697
 31
0.0
  0
LINE
  5
2E8
  8
0
 39
8.4346772575699198
 10
38.543727782665968
 20
88.631760827099697
 30
0.0
 11
38.686948602499513
 21
89.388688764194001
 31
0.0
  0
LINE
  5
2E9
  8
0
 39
8.4346772575699198
 10
38.686948602499513
 20
89.388688764194001
 30
0.0
 11
38.93948283959115
 21
90.10867281490016
 31
0.0
  0
LINE
  5
2EA
  8
0
 39
8.4346772575699198
 10
38.93948283959115
 20
90.10867281490016
 30
0.0
 11
39.300993106850598
 21
90.772650608616075
 31
0.0
  0
LINE
  5
2EB
  8
0
 39
8.4346772575699198
 10
39.300993106850598
 20
90.772650608616075
 30
0.0
 11
39.770467243006919
 21
91.362909323100837
 31
0.0
  0
LINE
  5
2EC
  8
0
 39
8.4346772575699198
 10
39.770467243006919
 20
91.362909323100837
 30
0.0
 11
40.348073941605321
 21
91.859880507116827
 31
0.0
  0
LINE
  5
2ED
  8
0
 39
8.4346772575699198
 10
40.348073941605321
 20
91.859880507116827
 30
0.0
 11
41.032801041374853
 21
92.245682644878087
 31
0.0
  0
LINE
  5
2EE
  8
0
 39
8.4346772575699198
 10
41.032801041374853
 20
92.245682644878087
 30
0.0
 11
41.824648542315508
 21
92.501422059327595
 31
0.0
  0
LINE
  5
2F1
  8
0
 39
8.4346772575699198
 10
69.835559942698055
 20
114.5021121678529
 30
0.0
 11
82.335559942698055
 21
114.5021121678529
 31
0.0
  0
LINE
  5
2F4
  8
0
 39
8.4346772575699198
 10
38.635367156911187
 20
29.502112167852939
 30
0.0
 11
38.335559947949129
 21
31.090292526075139
 31
0.0
  0
LINE
  5
2F5
  8
0
 39
8.4346772575699198
 10
38.335559947949129
 20
31.090292526075139
 30
0.0
 11
38.335559947949129
 21
31.090292526075139
 31
0.0
  0
LINE
  5
2F6
  8
0
 39
8.4346772575699198
 10
38.335559947949129
 20
31.090292526075139
 30
0.0
 11
39.180714609157647
 21
31.957208654608191
 31
0.0
  0
LINE
  5
2F7
  8
0
 39
8.4346772575699198
 10
39.180714609157647
 20
31.957208654608191
 30
0.0
 11
40.085080704714308
 21
32.874058072506031
 31
0.0
  0
LINE
  5
2F8
  8
0
 39
8.4346772575699198
 10
40.085080704714308
 20
32.874058072506031
 30
0.0
 11
41.05355034742847
 21
33.835273892778702
 31
0.0
  0
LINE
  5
2F9
  8
0
 39
8.4346772575699198
 10
41.05355034742847
 20
33.835273892778702
 30
0.0
 11
42.091521730745022
 21
34.834783147800728
 31
0.0
  0
LINE
  5
2FA
  8
0
 39
8.4346772575699198
 10
42.091521730745022
 20
34.834783147800728
 30
0.0
 11
43.203549580383047
 21
35.867187644127277
 31
0.0
  0
LINE
  5
2FB
  8
0
 39
8.4346772575699198
 10
43.203549580383047
 20
35.867187644127277
 30
0.0
 11
44.395369476877669
 21
36.925908333497468
 31
0.0
  0
LINE
  5
2FC
  8
0
 39
8.4346772575699198
 10
44.395369476877669
 20
36.925908333497468
 30
0.0
 11
45.67170483949316
 21
38.005547022466438
 31
0.0
  0
LINE
  5
2FD
  8
0
 39
8.4346772575699198
 10
45.67170483949316
 20
38.005547022466438
 30
0.0
 11
47.037953861674339
 21
39.100199436953872
 31
0.0
  0
LINE
  5
2FE
  8
0
 39
8.4346772575699198
 10
47.037953861674339
 20
39.100199436953872
 30
0.0
 11
48.49850257559514
 21
40.204467383514888
 31
0.0
  0
LINE
  5
2FF
  8
0
 39
8.4346772575699198
 10
48.49850257559514
 20
40.204467383514888
 30
0.0
 11
50.059423948881033
 21
41.311434426798399
 31
0.0
  0
LINE
  5
300
  8
0
 39
8.4346772575699198
 10
50.059423948881033
 20
41.311434426798399
 30
0.0
 11
51.725272707251101
 21
42.416039760449728
 31
0.0
  0
LINE
  5
301
  8
0
 39
8.4346772575699198
 10
51.725272707251101
 20
42.416039760449728
 30
0.0
 11
54.224176197238421
 21
43.51204172329836
 31
0.0
  0
LINE
  5
302
  8
0
 39
8.4346772575699198
 10
54.224176197238421
 20
43.51204172329836
 30
0.0
 11
56.1152308383856
 21
44.594042121899442
 31
0.0
  0
LINE
  5
303
  8
0
 39
8.4346772575699198
 10
56.1152308383856
 20
44.594042121899442
 30
0.0
 11
58.126901364316019
 21
45.655461907992027
 31
0.0
  0
LINE
  5
304
  8
0
 39
8.4346772575699198
 10
58.126901364316019
 20
45.655461907992027
 30
0.0
 11
60.263911194293918
 21
46.691071581676482
 31
0.0
  0
LINE
  5
305
  8
0
 39
8.4346772575699198
 10
60.263911194293918
 20
46.691071581676482
 30
0.0
 11
62.531995908854498
 21
47.694629481782137
 31
0.0
  0
LINE
  5
306
  8
0
 39
8.4346772575699198
 10
62.531995908854498
 20
47.694629481782137
 30
0.0
 11
62.531995908854498
 21
47.694629481782137
 31
0.0
  0
LINE
  5
307
  8
0
 39
8.4346772575699198
 10
62.531995908854498
 20
47.694629481782137
 30
0.0
 11
63.06675444698444
 21
48.093083635429743
 31
0.0
  0
LINE
  5
308
  8
0
 39
8.4346772575699198
 10
63.06675444698444
 20
48.093083635429743
 30
0.0
 11
63.537409437956839
 21
48.449701789879782
 31
0.0
  0
LINE
  5
309
  8
0
 39
8.4346772575699198
 10
63.537409437956839
 20
48.449701789879782
 30
0.0
 11
63.941767865684739
 21
48.770219525667457
 31
0.0
  0
LINE
  5
30A
  8
0
 39
8.4346772575699198
 10
63.941767865684739
 20
48.770219525667457
 30
0.0
 11
64.278480181806941
 21
49.059866342692402
 31
0.0
  0
LINE
  5
30B
  8
0
 39
8.4346772575699198
 10
64.278480181806941
 20
49.059866342692402
 30
0.0
 11
64.544678596055832
 21
49.324377821489819
 31
0.0
  0
LINE
  5
30C
  8
0
 39
8.4346772575699198
 10
64.544678596055832
 20
49.324377821489819
 30
0.0
 11
64.739182253615411
 21
49.568477381323881
 31
0.0
  0
LINE
  5
30D
  8
0
 39
8.4346772575699198
 10
64.739182253615411
 20
49.568477381323881
 30
0.0
 11
64.859798138398617
 21
49.798237989820102
 31
0.0
  0
LINE
  5
30E
  8
0
 39
8.4346772575699198
 10
64.859798138398617
 20
49.798237989820102
 30
0.0
 11
64.904501927863748
 21
50.018383066242642
 31
0.0
  0
LINE
  5
30F
  8
0
 39
8.4346772575699198
 10
64.904501927863748
 20
50.018383066242642
 30
0.0
 11
64.871269299468935
 21
50.234985578217049
 31
0.0
  0
LINE
  5
310
  8
0
 39
8.4346772575699198
 10
64.871269299468935
 20
50.234985578217049
 30
0.0
 11
64.758244624217497
 21
50.452937638552662
 31
0.0
  0
LINE
  5
311
  8
0
 39
8.4346772575699198
 10
64.758244624217497
 20
50.452937638552662
 30
0.0
 11
64.563403579567634
 21
50.677806134239482
 31
0.0
  0
LINE
  5
312
  8
0
 39
8.4346772575699198
 10
64.563403579567634
 20
50.677806134239482
 30
0.0
 11
64.285227923612979
 21
50.914483178086897
 31
0.0
  0
LINE
  5
313
  8
0
 39
8.4346772575699198
 10
64.285227923612979
 20
50.914483178086897
 30
0.0
 11
63.921187253176257
 21
51.169210431265491
 31
0.0
  0
LINE
  5
314
  8
0
 39
8.4346772575699198
 10
63.921187253176257
 20
51.169210431265491
 30
0.0
 11
63.469763326351128
 21
51.446542619494402
 31
0.0
  0
LINE
  5
315
  8
0
 39
8.4346772575699198
 10
63.469763326351128
 20
51.446542619494402
 30
0.0
 11
62.928763127050573
 21
51.752384016853881
 31
0.0
  0
LINE
  5
316
  8
0
 39
8.4346772575699198
 10
62.928763127050573
 20
51.752384016853881
 30
0.0
 11
62.296668413368302
 21
52.091626736153358
 31
0.0
  0
LINE
  5
317
  8
0
 39
8.4346772575699198
 10
62.296668413368302
 20
52.091626736153358
 30
0.0
 11
42.156806132718629
 21
58.049714057355587
 31
0.0
  0
LINE
  5
318
  8
0
 39
8.4346772575699198
 10
42.156806132718629
 20
58.049714057355587
 30
0.0
 11
42.156806132718629
 21
58.049714057355587
 31
0.0
  0
LINE
  5
319
  8
0
 39
8.4346772575699198
 10
42.156806132718629
 20
58.049714057355587
 30
0.0
 11
41.339317212914942
 21
58.269015666052418
 31
0.0
  0
LINE
  5
31A
  8
0
 39
8.4346772575699198
 10
41.339317212914942
 20
58.269015666052418
 30
0.0
 11
40.63046693618876
 21
58.598980240368533
 31
0.0
  0
LINE
  5
31B
  8
0
 39
8.4346772575699198
 10
40.63046693618876
 20
58.598980240368533
 30
0.0
 11
40.029580528359482
 21
59.025606216056431
 31
0.0
  0
LINE
  5
31C
  8
0
 39
8.4346772575699198
 10
40.029580528359482
 20
59.025606216056431
 30
0.0
 11
39.536489295881942
 21
59.534554641778193
 31
0.0
  0
LINE
  5
31D
  8
0
 39
8.4346772575699198
 10
39.536489295881942
 20
59.534554641778193
 30
0.0
 11
39.150012383940101
 21
60.112330033921708
 31
0.0
  0
LINE
  5
31E
  8
0
 39
8.4346772575699198
 10
39.150012383940101
 20
60.112330033921708
 30
0.0
 11
38.870318486079071
 21
60.743918666968561
 31
0.0
  0
LINE
  5
31F
  8
0
 39
8.4346772575699198
 10
38.870318486079071
 20
60.743918666968561
 30
0.0
 11
38.696395441027988
 21
61.41548767021628
 31
0.0
  0
LINE
  5
320
  8
0
 39
8.4346772575699198
 10
38.696395441027988
 20
61.41548767021628
 30
0.0
 11
38.628411942331972
 21
62.112866785872157
 31
0.0
  0
LINE
  5
321
  8
0
 39
8.4346772575699198
 10
38.628411942331972
 20
62.112866785872157
 30
0.0
 11
38.665187135174968
 21
62.822391836778941
 31
0.0
  0
LINE
  5
322
  8
0
 39
8.4346772575699198
 10
38.665187135174968
 20
62.822391836778941
 30
0.0
 11
38.806721019557003
 21
63.529217790963287
 31
0.0
  0
LINE
  5
323
  8
0
 39
8.4346772575699198
 10
38.806721019557003
 20
63.529217790963287
 30
0.0
 11
39.052170127752277
 21
64.219511777722843
 31
0.0
  0
LINE
  5
324
  8
0
 39
8.4346772575699198
 10
39.052170127752277
 20
64.219511777722843
 30
0.0
 11
39.401534459760818
 21
64.878934845719641
 31
0.0
  0
LINE
  5
325
  8
0
 39
8.4346772575699198
 10
39.401534459760818
 20
64.878934845719641
 30
0.0
 11
39.85363316076657
 21
65.49365412425135
 31
0.0
  0
LINE
  5
326
  8
0
 39
8.4346772575699198
 10
39.85363316076657
 20
65.49365412425135
 30
0.0
 11
40.408634924314683
 21
66.048993274889739
 31
0.0
  0
LINE
  5
327
  8
0
 39
8.4346772575699198
 10
40.408634924314683
 20
66.048993274889739
 30
0.0
 11
41.065696282679383
 21
66.531119426932435
 31
0.0
  0
LINE
  5
328
  8
0
 39
8.4346772575699198
 10
41.065696282679383
 20
66.531119426932435
 30
0.0
 11
41.824648542315508
 21
66.925693629041561
 31
0.0
  0
LINE
  5
333
  8
1
 10
82.335559942698055
 20
115.34557989360989
 30
0.0
 11
82.335559942698055
 21
28.658644442095952
 31
0.0
  0
LINE
  5
338
  8
0
 39
8.4346772575699198
 10
58.144727462328667
 20
56.281476551352192
 30
0.0
 11
66.509114929343824
 21
55.228651901788758
 31
0.0
  0
LINE
  5
339
  8
0
 39
8.4346772575699198
 10
66.509114929343824
 20
55.228651901788758
 30
0.0
 11
66.509114929343824
 21
55.228651901788758
 31
0.0
  0
LINE
  5
33A
  8
0
 39
8.4346772575699198
 10
66.509114929343824
 20
55.228651901788758
 30
0.0
 11
66.697376925732826
 21
55.153920661286691
 31
0.0
  0
LINE
  5
33B
  8
0
 39
8.4346772575699198
 10
66.697376925732826
 20
55.153920661286691
 30
0.0
 11
66.848863729278776
 21
55.060127050182508
 31
0.0
  0
LINE
  5
33C
  8
0
 39
8.4346772575699198
 10
66.848863729278776
 20
55.060127050182508
 30
0.0
 11
66.965768356068693
 21
54.948789310382573
 31
0.0
  0
LINE
  5
33D
  8
0
 39
8.4346772575699198
 10
66.965768356068693
 20
54.948789310382573
 30
0.0
 11
67.051633370550775
 21
54.820750909612663
 31
0.0
  0
LINE
  5
33E
  8
0
 39
8.4346772575699198
 10
67.051633370550775
 20
54.820750909612663
 30
0.0
 11
67.108314401721628
 21
54.67769878332426
 31
0.0
  0
LINE
  5
33F
  8
0
 39
8.4346772575699198
 10
67.108314401721628
 20
54.67769878332426
 30
0.0
 11
67.13918532048433
 21
54.51997031860774
 31
0.0
  0
LINE
  5
340
  8
0
 39
8.4346772575699198
 10
67.13918532048433
 20
54.51997031860774
 30
0.0
 11
67.146776530016169
 21
54.349252450914499
 31
0.0
  0
LINE
  5
341
  8
0
 39
8.4346772575699198
 10
67.146776530016169
 20
54.349252450914499
 30
0.0
 11
67.134124514129809
 21
54.16621995442523
 31
0.0
  0
LINE
  5
342
  8
0
 39
8.4346772575699198
 10
67.134124514129809
 20
54.16621995442523
 30
0.0
 11
67.103422288912256
 21
53.972897151681728
 31
0.0
  0
LINE
  5
343
  8
0
 39
8.4346772575699198
 10
67.103422288912256
 20
53.972897151681728
 30
0.0
 11
67.058212418811664
 21
53.769452736229148
 31
0.0
  0
LINE
  5
344
  8
0
 39
8.4346772575699198
 10
67.058212418811664
 20
53.769452736229148
 30
0.0
 11
67.000519226369903
 21
53.55774233706417
 31
0.0
  0
LINE
  5
345
  8
0
 39
8.4346772575699198
 10
67.000519226369903
 20
53.55774233706417
 30
0.0
 11
66.933885276035085
 21
53.338272034822168
 31
0.0
  0
LINE
  5
346
  8
0
 39
8.4346772575699198
 10
66.933885276035085
 20
53.338272034822168
 30
0.0
 11
66.86033489034908
 21
53.11272876495476
 31
0.0
  0
LINE
  5
347
  8
0
 39
8.4346772575699198
 10
66.86033489034908
 20
53.11272876495476
 30
0.0
 11
66.783241940214879
 21
52.882124688732802
 31
0.0
  0
LINE
  5
348
  8
0
 39
8.4346772575699198
 10
66.783241940214879
 20
52.882124688732802
 30
0.0
 11
66.704799441719473
 21
52.647471967427187
 31
0.0
  0
LINE
  5
349
  8
0
 39
8.4346772575699198
 10
66.704799441719473
 20
52.647471967427187
 30
0.0
 11
66.588915793421535
 21
52.285976515878268
 31
0.0
  0
LINE
  5
605
  8
0
 10
75.585559942698069
 20
114.5021121678529
 30
0.0
 11
75.585559942698069
 21
94.502112167852943
 31
0.0
  0
LINE
  5
606
  8
0
 10
69.835559942698055
 20
114.5021121678529
 30
0.0
 11
69.835559942698055
 21
104.5021121678529
 31
0.0
  0
LINE
  5
61C
  8
0
 10
41.824648542315508
 20
92.501422059327595
 30
0.0
 11
69.835559942698055
 21
104.5021121678529
 31
0.0
  0
LINE
  5
61E
  8
0
 10
69.835559942698055
 20
94.502112167852943
 30
0.0
 11
69.835559942698055
 21
88.502112167852957
 31
0.0
  0
LINE
  5
624
  8
0
 10
69.835559942698055
 20
94.502112167852943
 30
0.0
 11
82.335559942698055
 21
94.502112167852943
 31
0.0
  0
LINE
  5
62B
  8
0
 10
51.285488635041403
 20
88.502112167852957
 30
0.0
 11
82.335559942698055
 21
88.502112167852957
 31
0.0
  0
LINE
  5
694
  8
0
 10
68.335559942698069
 20
77.451837204081343
 30
0.0
 11
68.335559942698069
 21
75.994758666263252
 31
0.0
  0
LINE
  5
69A
  8
0
 39
8.4346772575699198
 10
73.639791082893467
 20
70.870523538744379
 30
0.0
 11
60.323225379912451
 21
70.870523538744379
 31
0.0
  0
LINE
  5
69C
  8
0
 39
8.4346772575699198
 10
55.406526339587458
 20
68.870324173884271
 30
0.0
 11
71.615468541076694
 21
68.870324173884271
 31
0.0
  0
LINE
  5
69D
  8
0
 39
8.4346772575699198
 10
71.615468541076694
 20
68.870324173884271
 30
0.0
 11
71.615468541076694
 21
68.870324173884271
 31
0.0
  0
LINE
  5
69E
  8
0
 39
8.4346772575699198
 10
71.615468541076694
 20
68.870324173884271
 30
0.0
 11
71.829540649873806
 21
68.878252770506393
 31
0.0
  0
LINE
  5
69F
  8
0
 39
8.4346772575699198
 10
71.829540649873806
 20
68.878252770506393
 30
0.0
 11
72.035852855593987
 21
68.901701173282405
 31
0.0
  0
LINE
  5
6A0
  8
0
 39
8.4346772575699198
 10
72.035852855593987
 20
68.901701173282405
 30
0.0
 11
72.233392996966245
 21
68.941006769302689
 31
0.0
  0
LINE
  5
6A1
  8
0
 39
8.4346772575699198
 10
72.233392996966245
 20
68.941006769302689
 30
0.0
 11
72.421823686900382
 21
68.995494784386594
 31
0.0
  0
LINE
  5
6A2
  8
0
 39
8.4346772575699198
 10
72.421823686900382
 20
68.995494784386594
 30
0.0
 11
72.59962668348993
 21
69.066008686259892
 31
0.0
  0
LINE
  5
6A3
  8
0
 39
8.4346772575699198
 10
72.59962668348993
 20
69.066008686259892
 30
0.0
 11
72.766464599644692
 21
69.151873700741945
 31
0.0
  0
LINE
  5
6A4
  8
0
 39
8.4346772575699198
 10
72.766464599644692
 20
69.151873700741945
 30
0.0
 11
72.921156580548526
 21
69.253427214923093
 31
0.0
  0
LINE
  5
6A5
  8
0
 39
8.4346772575699198
 10
72.921156580548526
 20
69.253427214923093
 30
0.0
 11
73.063365239111135
 21
69.370500535258188
 31
0.0
  0
LINE
  5
6A6
  8
0
 39
8.4346772575699198
 10
73.063365239111135
 20
69.370500535258188
 30
0.0
 11
73.191403639881059
 21
69.50343104883747
 31
0.0
  0
LINE
  5
6A7
  8
0
 39
8.4346772575699198
 10
73.191403639881059
 20
69.50343104883747
 30
0.0
 11
73.305440476403419
 21
69.651881368570699
 31
0.0
  0
LINE
  5
6A8
  8
0
 39
8.4346772575699198
 10
73.305440476403419
 20
69.651881368570699
 30
0.0
 11
73.403957506771803
 21
69.816020188003009
 31
0.0
  0
LINE
  5
6A9
  8
0
 39
8.4346772575699198
 10
73.403957506771803
 20
69.816020188003009
 30
0.0
 11
73.486786037441149
 21
69.995510120044088
 31
0.0
  0
LINE
  5
6AA
  8
0
 39
8.4346772575699198
 10
73.486786037441149
 20
69.995510120044088
 30
0.0
 11
73.552239132959897
 21
70.191025938874603
 31
0.0
  0
LINE
  5
6AB
  8
0
 39
8.4346772575699198
 10
73.552239132959897
 20
70.191025938874603
 30
0.0
 11
73.600316793328048
 21
70.401892870313844
 31
0.0
  0
LINE
  5
6AC
  8
0
 39
8.4346772575699198
 10
73.600316793328048
 20
70.401892870313844
 30
0.0
 11
73.629669470184382
 21
70.628448301452153
 31
0.0
  0
LINE
  5
6AD
  8
0
 39
8.4346772575699198
 10
73.629669470184382
 20
70.628448301452153
 30
0.0
 11
73.639791082893467
 21
70.870523538744379
 31
0.0
  0
LINE
  5
6AE
  8
0
 39
8.4346772575699198
 10
65.334287075249847
 20
39.330803513175809
 30
0.0
 11
63.182432213298597
 21
35.55071855342328
 31
0.0
  0
LINE
  5
6AF
  8
0
 39
8.4346772575699198
 10
63.182432213298597
 20
35.55071855342328
 30
0.0
 11
67.216907039139443
 21
35.55071855342328
 31
0.0
  0
LINE
  5
6B0
  8
0
 39
8.4346772575699198
 10
67.216907039139443
 20
35.55071855342328
 30
0.0
 11
67.216907039139443
 21
35.55071855342328
 31
0.0
  0
LINE
  5
6B1
  8
0
 39
8.4346772575699198
 10
67.216907039139443
 20
35.55071855342328
 30
0.0
 11
67.429966986665661
 21
35.771369710481309
 31
0.0
  0
LINE
  5
6B2
  8
0
 39
8.4346772575699198
 10
67.429966986665661
 20
35.771369710481309
 30
0.0
 11
67.632736627937646
 21
35.993876496536011
 31
0.0
  0
LINE
  5
6B3
  8
0
 39
8.4346772575699198
 10
67.632736627937646
 20
35.993876496536011
 30
0.0
 11
67.824878575865085
 21
36.218576298677668
 31
0.0
  0
LINE
  5
6B4
  8
0
 39
8.4346772575699198
 10
67.824878575865085
 20
36.218576298677668
 30
0.0
 11
68.006898911083468
 21
36.445300423361161
 31
0.0
  0
LINE
  5
6B5
  8
0
 39
8.4346772575699198
 10
68.006898911083468
 20
36.445300423361161
 30
0.0
 11
68.177954165866964
 21
36.674554951221879
 31
0.0
  0
LINE
  5
6B6
  8
0
 39
8.4346772575699198
 10
68.177954165866964
 20
36.674554951221879
 30
0.0
 11
68.33871911439627
 21
36.905327720989
 31
0.0
  0
LINE
  5
6B7
  8
0
 39
8.4346772575699198
 10
68.33871911439627
 20
36.905327720989
 30
0.0
 11
68.488856369580986
 21
37.138630893933389
 31
0.0
  0
LINE
  5
6B8
  8
0
 39
8.4346772575699198
 10
68.488856369580986
 20
37.138630893933389
 30
0.0
 11
68.628872012056661
 21
37.373452308784117
 31
0.0
  0
LINE
  5
6B9
  8
0
 39
8.4346772575699198
 10
68.628872012056661
 20
37.373452308784117
 30
0.0
 11
68.757922574097492
 21
37.610972820357318
 31
0.0
  0
LINE
  5
6BA
  8
0
 39
8.4346772575699198
 10
68.757922574097492
 20
37.610972820357318
 30
0.0
 11
68.876682829884089
 21
37.850348960927121
 31
0.0
  0
LINE
  5
6BB
  8
0
 39
8.4346772575699198
 10
68.876682829884089
 20
37.850348960927121
 30
0.0
 11
68.984815392326126
 21
38.091918117583951
 31
0.0
  0
LINE
  5
6BC
  8
0
 39
8.4346772575699198
 10
68.984815392326126
 20
38.091918117583951
 30
0.0
 11
69.082826342059064
 21
38.335342903237397
 31
0.0
  0
LINE
  5
6BD
  8
0
 39
8.4346772575699198
 10
69.082826342059064
 20
38.335342903237397
 30
0.0
 11
69.169872211357202
 21
38.581298092068153
 31
0.0
  0
LINE
  5
6BE
  8
0
 39
8.4346772575699198
 10
69.169872211357202
 20
38.581298092068153
 30
0.0
 11
69.246627774401077
 21
38.82910890989556
 31
0.0
  0
LINE
  5
6BF
  8
0
 39
8.4346772575699198
 10
69.246627774401077
 20
38.82910890989556
 30
0.0
 11
69.312755644100434
 21
39.079112743809908
 31
0.0
  0
LINE
  5
6C0
  8
0
 39
8.4346772575699198
 10
69.312755644100434
 20
39.079112743809908
 30
0.0
 11
69.368761901090707
 21
39.330803513175809
 31
0.0
  0
LINE
  5
6C1
  8
0
 39
8.4346772575699198
 10
69.368761901090707
 20
39.330803513175809
 30
0.0
 11
65.334287075249847
 21
39.330803513175809
 31
0.0
  0
LINE
  5
6C2
  8
0
 39
8.4346772575699198
 10
55.92034378807606
 20
39.330972206720972
 30
0.0
 11
50.272315202862103
 21
35.55071855342328
 31
0.0
  0
LINE
  5
6C3
  8
0
 39
8.4346772575699198
 10
50.272315202862103
 20
35.55071855342328
 30
0.0
 11
54.844416357100442
 21
35.55071855342328
 31
0.0
  0
LINE
  5
6C4
  8
0
 39
8.4346772575699198
 10
54.844416357100442
 20
35.55071855342328
 30
0.0
 11
54.844416357100442
 21
35.55071855342328
 31
0.0
  0
LINE
  5
6C5
  8
0
 39
8.4346772575699198
 10
54.844416357100442
 20
35.55071855342328
 30
0.0
 11
55.019688950512737
 21
35.759561162320701
 31
0.0
  0
LINE
  5
6C6
  8
0
 39
8.4346772575699198
 10
55.019688950512737
 20
35.759561162320701
 30
0.0
 11
55.177248721684151
 21
35.979200158107822
 31
0.0
  0
LINE
  5
6C7
  8
0
 39
8.4346772575699198
 10
55.177248721684151
 20
35.979200158107822
 30
0.0
 11
55.317095670614663
 21
36.208454685968583
 31
0.0
  0
LINE
  5
6C8
  8
0
 39
8.4346772575699198
 10
55.317095670614663
 20
36.208454685968583
 30
0.0
 11
55.440916732755788
 21
36.445300423361161
 31
0.0
  0
LINE
  5
6C9
  8
0
 39
8.4346772575699198
 10
55.440916732755788
 20
36.445300423361161
 30
0.0
 11
55.548543214562379
 21
36.688893902559776
 31
0.0
  0
LINE
  5
6CA
  8
0
 39
8.4346772575699198
 10
55.548543214562379
 20
36.688893902559776
 30
0.0
 11
55.64132466439564
 21
36.937042107477481
 31
0.0
  0
LINE
  5
6CB
  8
0
 39
8.4346772575699198
 10
55.64132466439564
 20
36.937042107477481
 30
0.0
 11
55.71993585643618
 21
37.188395489753049
 31
0.0
  0
LINE
  5
6CC
  8
0
 39
8.4346772575699198
 10
55.71993585643618
 20
37.188395489753049
 30
0.0
 11
55.785557645500099
 21
37.441098420389856
 31
0.0
  0
LINE
  5
6CD
  8
0
 39
8.4346772575699198
 10
55.785557645500099
 20
37.441098420389856
 30
0.0
 11
55.838021338042161
 21
37.694307431662089
 31
0.0
  0
LINE
  5
6CE
  8
0
 39
8.4346772575699198
 10
55.838021338042161
 20
37.694307431662089
 30
0.0
 11
55.879013869513962
 21
37.945492120392522
 31
0.0
  0
LINE
  5
6CF
  8
0
 39
8.4346772575699198
 10
55.879013869513962
 20
37.945492120392522
 30
0.0
 11
55.908703933460622
 21
38.193640325310248
 31
0.0
  0
LINE
  5
6D0
  8
0
 39
8.4346772575699198
 10
55.908703933460622
 20
38.193640325310248
 30
0.0
 11
55.928441078243331
 21
38.436896417418552
 31
0.0
  0
LINE
  5
6D1
  8
0
 39
8.4346772575699198
 10
55.928441078243331
 20
38.436896417418552
 30
0.0
 11
55.938393997407239
 21
38.673910848356272
 31
0.0
  0
LINE
  5
6D2
  8
0
 39
8.4346772575699198
 10
55.938393997407239
 20
38.673910848356272
 30
0.0
 11
55.940080932858791
 21
38.902996682671862
 31
0.0
  0
LINE
  5
6D3
  8
0
 39
8.4346772575699198
 10
55.940080932858791
 20
38.902996682671862
 30
0.0
 11
55.933670578143008
 21
39.122635678458977
 31
0.0
  0
LINE
  5
6D4
  8
0
 39
8.4346772575699198
 10
55.933670578143008
 20
39.122635678458977
 30
0.0
 11
55.92034378807606
 21
39.330972206720972
 31
0.0
  0
LINE
  5
6D6
  8
0
 39
8.4346772575699198
 10
108.7374493072531
 20
39.122635678458977
 30
0.0
 11
108.75077609732
 21
39.330972206720972
 31
0.0
  0
LINE
  5
6D7
  8
0
 39
8.4346772575699198
 10
108.7310389525373
 20
38.902996682671862
 30
0.0
 11
108.7374493072531
 21
39.122635678458977
 31
0.0
  0
LINE
  5
6D8
  8
0
 39
8.4346772575699198
 10
108.73272588798891
 20
38.673910848356272
 30
0.0
 11
108.7310389525373
 21
38.902996682671862
 31
0.0
  0
LINE
  5
6D9
  8
0
 39
8.4346772575699198
 10
108.7426788071528
 20
38.436896417418552
 30
0.0
 11
108.73272588798891
 21
38.673910848356272
 31
0.0
  0
LINE
  5
6DA
  8
0
 39
8.4346772575699198
 10
108.76241595193549
 20
38.193640325310248
 30
0.0
 11
108.7426788071528
 21
38.436896417418552
 31
0.0
  0
LINE
  5
6DB
  8
0
 39
8.4346772575699198
 10
108.7921060158821
 20
37.945492120392522
 30
0.0
 11
108.76241595193549
 21
38.193640325310248
 31
0.0
  0
LINE
  5
6DC
  8
0
 39
8.4346772575699198
 10
108.8330985473539
 20
37.694307431662089
 30
0.0
 11
108.7921060158821
 21
37.945492120392522
 31
0.0
  0
LINE
  5
6DD
  8
0
 39
8.4346772575699198
 10
108.885562239896
 20
37.441098420389856
 30
0.0
 11
108.8330985473539
 21
37.694307431662089
 31
0.0
  0
LINE
  5
6DE
  8
0
 39
8.4346772575699198
 10
108.9511840289599
 20
37.188395489753049
 30
0.0
 11
108.885562239896
 21
37.441098420389856
 31
0.0
  0
LINE
  5
6DF
  8
0
 39
8.4346772575699198
 10
109.0297952210004
 20
36.937042107477481
 30
0.0
 11
108.9511840289599
 21
37.188395489753049
 31
0.0
  0
LINE
  5
6E0
  8
0
 39
8.4346772575699198
 10
109.12257667083369
 20
36.688893902559776
 30
0.0
 11
109.0297952210004
 21
36.937042107477481
 31
0.0
  0
LINE
  5
6E1
  8
0
 39
8.4346772575699198
 10
109.2302031526403
 20
36.445300423361161
 30
0.0
 11
109.12257667083369
 21
36.688893902559776
 31
0.0
  0
LINE
  5
6E2
  8
0
 39
8.4346772575699198
 10
109.3540242147814
 20
36.208454685968583
 30
0.0
 11
109.2302031526403
 21
36.445300423361161
 31
0.0
  0
LINE
  5
6E3
  8
0
 39
8.4346772575699198
 10
109.4938711637119
 20
35.979200158107822
 30
0.0
 11
109.3540242147814
 21
36.208454685968583
 31
0.0
  0
LINE
  5
6E4
  8
0
 39
8.4346772575699198
 10
109.65143093488329
 20
35.759561162320701
 30
0.0
 11
109.4938711637119
 21
35.979200158107822
 31
0.0
  0
LINE
  5
6E5
  8
0
 39
8.4346772575699198
 10
109.8267035282956
 20
35.55071855342328
 30
0.0
 11
109.65143093488329
 21
35.759561162320701
 31
0.0
  0
LINE
  5
6E6
  8
0
 39
8.4346772575699198
 10
109.8267035282956
 20
35.55071855342328
 30
0.0
 11
109.8267035282956
 21
35.55071855342328
 31
0.0
  0
LINE
  5
6E7
  8
0
 39
8.4346772575699198
 10
114.39880468253401
 20
35.55071855342328
 30
0.0
 11
109.8267035282956
 21
35.55071855342328
 31
0.0
  0
LINE
  5
6E8
  8
0
 39
8.4346772575699198
 10
108.75077609732
 20
39.330972206720972
 30
0.0
 11
114.39880468253401
 21
35.55071855342328
 31
0.0
  0
LINE
  5
6E9
  8
0
 39
8.4346772575699198
 10
95.302357984305445
 20
39.330803513175809
 30
0.0
 11
99.336832810146305
 21
39.330803513175809
 31
0.0
  0
LINE
  5
6EA
  8
0
 39
8.4346772575699198
 10
95.358364241295703
 20
39.079112743809908
 30
0.0
 11
95.302357984305445
 21
39.330803513175809
 31
0.0
  0
LINE
  5
6EB
  8
0
 39
8.4346772575699198
 10
95.424492110995075
 20
38.82910890989556
 30
0.0
 11
95.358364241295703
 21
39.079112743809908
 31
0.0
  0
LINE
  5
6EC
  8
0
 39
8.4346772575699198
 10
95.501247674038936
 20
38.581298092068153
 30
0.0
 11
95.424492110995075
 21
38.82910890989556
 31
0.0
  0
LINE
  5
6ED
  8
0
 39
8.4346772575699198
 10
95.588293543337073
 20
38.335342903237397
 30
0.0
 11
95.501247674038936
 21
38.581298092068153
 31
0.0
  0
LINE
  5
6EE
  8
0
 39
8.4346772575699198
 10
95.686304493070011
 20
38.091918117583951
 30
0.0
 11
95.588293543337073
 21
38.335342903237397
 31
0.0
  0
LINE
  5
6EF
  8
0
 39
8.4346772575699198
 10
95.794437055512034
 20
37.850348960927121
 30
0.0
 11
95.686304493070011
 21
38.091918117583951
 31
0.0
  0
LINE
  5
6F0
  8
0
 39
8.4346772575699198
 10
95.913197311298646
 20
37.610972820357318
 30
0.0
 11
95.794437055512034
 21
37.850348960927121
 31
0.0
  0
LINE
  5
6F1
  8
0
 39
8.4346772575699198
 10
96.042247873339477
 20
37.373452308784117
 30
0.0
 11
95.913197311298646
 21
37.610972820357318
 31
0.0
  0
LINE
  5
6F2
  8
0
 39
8.4346772575699198
 10
96.182263515815151
 20
37.138630893933389
 30
0.0
 11
96.042247873339477
 21
37.373452308784117
 31
0.0
  0
LINE
  5
6F3
  8
0
 39
8.4346772575699198
 10
96.332400770999868
 20
36.905327720989
 30
0.0
 11
96.182263515815151
 21
37.138630893933389
 31
0.0
  0
LINE
  5
6F4
  8
0
 39
8.4346772575699198
 10
96.493165719529173
 20
36.674554951221879
 30
0.0
 11
96.332400770999868
 21
36.905327720989
 31
0.0
  0
LINE
  5
6F5
  8
0
 39
8.4346772575699198
 10
96.66422097431267
 20
36.445300423361161
 30
0.0
 11
96.493165719529173
 21
36.674554951221879
 31
0.0
  0
LINE
  5
6F6
  8
0
 39
8.4346772575699198
 10
96.846241309531024
 20
36.218576298677668
 30
0.0
 11
96.66422097431267
 21
36.445300423361161
 31
0.0
  0
LINE
  5
6F7
  8
0
 39
8.4346772575699198
 10
97.038383257458491
 20
35.993876496536011
 30
0.0
 11
96.846241309531024
 21
36.218576298677668
 31
0.0
  0
LINE
  5
6F8
  8
0
 39
8.4346772575699198
 10
97.241152898730476
 20
35.771369710481309
 30
0.0
 11
97.038383257458491
 21
35.993876496536011
 31
0.0
  0
LINE
  5
6F9
  8
0
 39
8.4346772575699198
 10
97.454212846256695
 20
35.55071855342328
 30
0.0
 11
97.241152898730476
 21
35.771369710481309
 31
0.0
  0
LINE
  5
6FA
  8
0
 39
8.4346772575699198
 10
97.454212846256695
 20
35.55071855342328
 30
0.0
 11
97.454212846256695
 21
35.55071855342328
 31
0.0
  0
LINE
  5
6FB
  8
0
 39
8.4346772575699198
 10
101.4886876720975
 20
35.55071855342328
 30
0.0
 11
97.454212846256695
 21
35.55071855342328
 31
0.0
  0
LINE
  5
6FC
  8
0
 39
8.4346772575699198
 10
99.336832810146305
 20
39.330803513175809
 30
0.0
 11
101.4886876720975
 21
35.55071855342328
 31
0.0
  0
LINE
  5
6FD
  8
0
 39
8.4346772575699198
 10
91.041450415211756
 20
70.628448301452153
 30
0.0
 11
91.031328802502671
 21
70.870523538744379
 31
0.0
  0
LINE
  5
6FE
  8
0
 39
8.4346772575699198
 10
91.07080309206809
 20
70.401892870313844
 30
0.0
 11
91.041450415211756
 21
70.628448301452153
 31
0.0
  0
LINE
  5
6FF
  8
0
 39
8.4346772575699198
 10
91.118880752436255
 20
70.191025938874603
 30
0.0
 11
91.07080309206809
 21
70.401892870313844
 31
0.0
  0
LINE
  5
700
  8
0
 39
8.4346772575699198
 10
91.184333847954989
 20
69.995510120044088
 30
0.0
 11
91.118880752436255
 21
70.191025938874603
 31
0.0
  0
LINE
  5
701
  8
0
 39
8.4346772575699198
 10
91.26716237862432
 20
69.816020188003009
 30
0.0
 11
91.184333847954989
 21
69.995510120044088
 31
0.0
  0
LINE
  5
702
  8
0
 39
8.4346772575699198
 10
91.365679408992719
 20
69.651881368570699
 30
0.0
 11
91.26716237862432
 21
69.816020188003009
 31
0.0
  0
LINE
  5
703
  8
0
 39
8.4346772575699198
 10
91.479716245515064
 20
69.50343104883747
 30
0.0
 11
91.365679408992719
 21
69.651881368570699
 31
0.0
  0
LINE
  5
704
  8
0
 39
8.4346772575699198
 10
91.607754646285002
 20
69.370500535258188
 30
0.0
 11
91.479716245515064
 21
69.50343104883747
 31
0.0
  0
LINE
  5
705
  8
0
 39
8.4346772575699198
 10
91.749963304847611
 20
69.253427214923093
 30
0.0
 11
91.607754646285002
 21
69.370500535258188
 31
0.0
  0
LINE
  5
706
  8
0
 39
8.4346772575699198
 10
91.904655285751446
 20
69.151873700741945
 30
0.0
 11
91.749963304847611
 21
69.253427214923093
 31
0.0
  0
LINE
  5
707
  8
0
 39
8.4346772575699198
 10
92.071493201906208
 20
69.066008686259892
 30
0.0
 11
91.904655285751446
 21
69.151873700741945
 31
0.0
  0
LINE
  5
708
  8
0
 39
8.4346772575699198
 10
92.249296198495756
 20
68.995494784386594
 30
0.0
 11
92.071493201906208
 21
69.066008686259892
 31
0.0
  0
LINE
  5
709
  8
0
 39
8.4346772575699198
 10
92.437726888429864
 20
68.941006769302689
 30
0.0
 11
92.249296198495756
 21
68.995494784386594
 31
0.0
  0
LINE
  5
70A
  8
0
 39
8.4346772575699198
 10
92.635267029802151
 20
68.901701173282405
 30
0.0
 11
92.437726888429864
 21
68.941006769302689
 31
0.0
  0
LINE
  5
70B
  8
0
 39
8.4346772575699198
 10
92.841579235522346
 20
68.878252770506393
 30
0.0
 11
92.635267029802151
 21
68.901701173282405
 31
0.0
  0
LINE
  5
70C
  8
0
 39
8.4346772575699198
 10
93.055651344319443
 20
68.870324173884271
 30
0.0
 11
92.841579235522346
 21
68.878252770506393
 31
0.0
  0
LINE
  5
70D
  8
0
 39
8.4346772575699198
 10
93.055651344319443
 20
68.870324173884271
 30
0.0
 11
93.055651344319443
 21
68.870324173884271
 31
0.0
  0
LINE
  5
70E
  8
0
 39
8.4346772575699198
 10
109.26459354580859
 20
68.870324173884271
 30
0.0
 11
93.055651344319443
 21
68.870324173884271
 31
0.0
  0
LINE
  5
70F
  8
0
 39
8.4346772575699198
 10
91.031328802502671
 20
70.870523538744379
 30
0.0
 11
104.34789450548359
 21
70.870523538744379
 31
0.0
  0
LINE
  5
710
  8
0
 39
8.4346772575699198
 10
97.966320443676651
 20
52.647471967427187
 30
0.0
 11
98.082204091974603
 21
52.285976515878268
 31
0.0
  0
LINE
  5
711
  8
0
 39
8.4346772575699198
 10
97.887877945181259
 20
52.882124688732802
 30
0.0
 11
97.966320443676651
 21
52.647471967427187
 31
0.0
  0
LINE
  5
712
  8
0
 39
8.4346772575699198
 10
97.810784995047058
 20
53.11272876495476
 30
0.0
 11
97.887877945181259
 21
52.882124688732802
 31
0.0
  0
LINE
  5
713
  8
0
 39
8.4346772575699198
 10
97.737234609361053
 20
53.338272034822168
 30
0.0
 11
97.810784995047058
 21
53.11272876495476
 31
0.0
  0
LINE
  5
714
  8
0
 39
8.4346772575699198
 10
97.670600659026235
 20
53.55774233706417
 30
0.0
 11
97.737234609361053
 21
53.338272034822168
 31
0.0
  0
LINE
  5
715
  8
0
 39
8.4346772575699198
 10
97.612907466584446
 20
53.769452736229148
 30
0.0
 11
97.670600659026235
 21
53.55774233706417
 31
0.0
  0
LINE
  5
716
  8
0
 39
8.4346772575699198
 10
97.567697596483882
 20
53.972897151681728
 30
0.0
 11
97.612907466584446
 21
53.769452736229148
 31
0.0
  0
LINE
  5
717
  8
0
 39
8.4346772575699198
 10
97.536995371266329
 20
54.16621995442523
 30
0.0
 11
97.567697596483882
 21
53.972897151681728
 31
0.0
  0
LINE
  5
718
  8
0
 39
8.4346772575699198
 10
97.524343355379983
 20
54.349252450914499
 30
0.0
 11
97.536995371266329
 21
54.16621995442523
 31
0.0
  0
LINE
  5
719
  8
0
 39
8.4346772575699198
 10
97.531934564911822
 20
54.51997031860774
 30
0.0
 11
97.524343355379983
 21
54.349252450914499
 31
0.0
  0
LINE
  5
71A
  8
0
 39
8.4346772575699198
 10
97.562805483674509
 20
54.67769878332426
 30
0.0
 11
97.531934564911822
 21
54.51997031860774
 31
0.0
  0
LINE
  5
71B
  8
0
 39
8.4346772575699198
 10
97.619486514845363
 20
54.820750909612663
 30
0.0
 11
97.562805483674509
 21
54.67769878332426
 31
0.0
  0
LINE
  5
71C
  8
0
 39
8.4346772575699198
 10
97.705351529327444
 20
54.948789310382573
 30
0.0
 11
97.619486514845363
 21
54.820750909612663
 31
0.0
  0
LINE
  5
71D
  8
0
 39
8.4346772575699198
 10
97.822256156117362
 20
55.060127050182508
 30
0.0
 11
97.705351529327444
 21
54.948789310382573
 31
0.0
  0
LINE
  5
71E
  8
0
 39
8.4346772575699198
 10
97.973742959663312
 20
55.153920661286691
 30
0.0
 11
97.822256156117362
 21
55.060127050182508
 31
0.0
  0
LINE
  5
71F
  8
0
 39
8.4346772575699198
 10
98.1620049560523
 20
55.228651901788758
 30
0.0
 11
97.973742959663312
 21
55.153920661286691
 31
0.0
  0
LINE
  5
720
  8
0
 39
8.4346772575699198
 10
98.1620049560523
 20
55.228651901788758
 30
0.0
 11
98.1620049560523
 21
55.228651901788758
 31
0.0
  0
LINE
  5
721
  8
0
 39
8.4346772575699198
 10
106.52639242306741
 20
56.281476551352192
 30
0.0
 11
98.1620049560523
 21
55.228651901788758
 31
0.0
  0
LINE
  5
722
  8
0
 39
8.4346772575699198
 10
123.6054236027167
 20
66.531119426932435
 30
0.0
 11
122.84647134308059
 21
66.925693629041561
 31
0.0
  0
LINE
  5
723
  8
0
 39
8.4346772575699198
 10
124.2624849610814
 20
66.048993274889739
 30
0.0
 11
123.6054236027167
 21
66.531119426932435
 31
0.0
  0
LINE
  5
724
  8
0
 39
8.4346772575699198
 10
124.8174867246295
 20
65.49365412425135
 30
0.0
 11
124.2624849610814
 21
66.048993274889739
 31
0.0
  0
LINE
  5
725
  8
0
 39
8.4346772575699198
 10
125.2695854256353
 20
64.878934845719641
 30
0.0
 11
124.8174867246295
 21
65.49365412425135
 31
0.0
  0
LINE
  5
726
  8
0
 39
8.4346772575699198
 10
125.6189497576438
 20
64.219511777722843
 30
0.0
 11
125.2695854256353
 21
64.878934845719641
 31
0.0
  0
LINE
  5
727
  8
0
 39
8.4346772575699198
 10
125.86439886583911
 20
63.529217790963287
 30
0.0
 11
125.6189497576438
 21
64.219511777722843
 31
0.0
  0
LINE
  5
728
  8
0
 39
8.4346772575699198
 10
126.00593275022111
 20
62.822391836778941
 30
0.0
 11
125.86439886583911
 21
63.529217790963287
 31
0.0
  0
LINE
  5
729
  8
0
 39
8.4346772575699198
 10
126.0427079430641
 20
62.112866785872157
 30
0.0
 11
126.00593275022111
 21
62.822391836778941
 31
0.0
  0
LINE
  5
72A
  8
0
 39
8.4346772575699198
 10
125.97472444436811
 20
61.41548767021628
 30
0.0
 11
126.0427079430641
 21
62.112866785872157
 31
0.0
  0
LINE
  5
72B
  8
0
 39
8.4346772575699198
 10
125.800801399317
 20
60.743918666968561
 30
0.0
 11
125.97472444436811
 21
61.41548767021628
 31
0.0
  0
LINE
  5
72C
  8
0
 39
8.4346772575699198
 10
125.521107501456
 20
60.112330033921708
 30
0.0
 11
125.800801399317
 21
60.743918666968561
 31
0.0
  0
LINE
  5
72D
  8
0
 39
8.4346772575699198
 10
125.1346305895141
 20
59.534554641778193
 30
0.0
 11
125.521107501456
 21
60.112330033921708
 31
0.0
  0
LINE
  5
72E
  8
0
 39
8.4346772575699198
 10
124.64153935703661
 20
59.025606216056431
 30
0.0
 11
125.1346305895141
 21
59.534554641778193
 31
0.0
  0
LINE
  5
72F
  8
0
 39
8.4346772575699198
 10
124.0406529492073
 20
58.598980240368533
 30
0.0
 11
124.64153935703661
 21
59.025606216056431
 31
0.0
  0
LINE
  5
730
  8
0
 39
8.4346772575699198
 10
123.3318026724811
 20
58.269015666052418
 30
0.0
 11
124.0406529492073
 21
58.598980240368533
 31
0.0
  0
LINE
  5
731
  8
0
 39
8.4346772575699198
 10
122.5143137526775
 20
58.049714057355587
 30
0.0
 11
123.3318026724811
 21
58.269015666052418
 31
0.0
  0
LINE
  5
732
  8
0
 39
8.4346772575699198
 10
122.5143137526775
 20
58.049714057355587
 30
0.0
 11
122.5143137526775
 21
58.049714057355587
 31
0.0
  0
LINE
  5
733
  8
0
 39
8.4346772575699198
 10
102.3744514720278
 20
52.091626736153358
 30
0.0
 11
122.5143137526775
 21
58.049714057355587
 31
0.0
  0
LINE
  5
734
  8
0
 39
8.4346772575699198
 10
101.74235675834549
 20
51.752384016853881
 30
0.0
 11
102.3744514720278
 21
52.091626736153358
 31
0.0
  0
LINE
  5
735
  8
0
 39
8.4346772575699198
 10
101.201356559045
 20
51.446542619494402
 30
0.0
 11
101.74235675834549
 21
51.752384016853881
 31
0.0
  0
LINE
  5
736
  8
0
 39
8.4346772575699198
 10
100.7499326322198
 20
51.169210431265491
 30
0.0
 11
101.201356559045
 21
51.446542619494402
 31
0.0
  0
LINE
  5
737
  8
0
 39
8.4346772575699198
 10
100.3858919617831
 20
50.914483178086897
 30
0.0
 11
100.7499326322198
 21
51.169210431265491
 31
0.0
  0
LINE
  5
738
  8
0
 39
8.4346772575699198
 10
100.1077163058285
 20
50.677806134239482
 30
0.0
 11
100.3858919617831
 21
50.914483178086897
 31
0.0
  0
LINE
  5
739
  8
0
 39
8.4346772575699198
 10
99.912875261178655
 20
50.452937638552662
 30
0.0
 11
100.1077163058285
 21
50.677806134239482
 31
0.0
  0
LINE
  5
73A
  8
0
 39
8.4346772575699198
 10
99.799850585927203
 20
50.234985578217049
 30
0.0
 11
99.912875261178655
 21
50.452937638552662
 31
0.0
  0
LINE
  5
73B
  8
0
 39
8.4346772575699198
 10
99.766617957532389
 20
50.018383066242642
 30
0.0
 11
99.799850585927203
 21
50.234985578217049
 31
0.0
  0
LINE
  5
73C
  8
0
 39
8.4346772575699198
 10
99.811321746997521
 20
49.798237989820102
 30
0.0
 11
99.766617957532389
 21
50.018383066242642
 31
0.0
  0
LINE
  5
73D
  8
0
 39
8.4346772575699198
 10
99.931937631780727
 20
49.568477381323881
 30
0.0
 11
99.811321746997521
 21
49.798237989820102
 31
0.0
  0
LINE
  5
73E
  8
0
 39
8.4346772575699198
 10
100.12644128934031
 20
49.324377821489819
 30
0.0
 11
99.931937631780727
 21
49.568477381323881
 31
0.0
  0
LINE
  5
73F
  8
0
 39
8.4346772575699198
 10
100.3926397035892
 20
49.059866342692402
 30
0.0
 11
100.12644128934031
 21
49.324377821489819
 31
0.0
  0
LINE
  5
740
  8
0
 39
8.4346772575699198
 10
100.7293520197114
 20
48.770219525667457
 30
0.0
 11
100.3926397035892
 21
49.059866342692402
 31
0.0
  0
LINE
  5
741
  8
0
 39
8.4346772575699198
 10
101.1337104474393
 20
48.449701789879782
 30
0.0
 11
100.7293520197114
 21
48.770219525667457
 31
0.0
  0
LINE
  5
742
  8
0
 39
8.4346772575699198
 10
101.60436543841161
 20
48.093083635429743
 30
0.0
 11
101.1337104474393
 21
48.449701789879782
 31
0.0
  0
LINE
  5
743
  8
0
 39
8.4346772575699198
 10
102.1391239765416
 20
47.694629481782137
 30
0.0
 11
101.60436543841161
 21
48.093083635429743
 31
0.0
  0
LINE
  5
744
  8
0
 39
8.4346772575699198
 10
102.1391239765416
 20
47.694629481782137
 30
0.0
 11
102.1391239765416
 21
47.694629481782137
 31
0.0
  0
LINE
  5
745
  8
0
 39
8.4346772575699198
 10
104.4072086911022
 20
46.691071581676482
 30
0.0
 11
102.1391239765416
 21
47.694629481782137
 31
0.0
  0
LINE
  5
746
  8
0
 39
8.4346772575699198
 10
106.5442185210801
 20
45.655461907992027
 30
0.0
 11
104.4072086911022
 21
46.691071581676482
 31
0.0
  0
LINE
  5
747
  8
0
 39
8.4346772575699198
 10
108.5558890470105
 20
44.594042121899442
 30
0.0
 11
106.5442185210801
 21
45.655461907992027
 31
0.0
  0
LINE
  5
748
  8
0
 39
8.4346772575699198
 10
110.4469436881577
 20
43.51204172329836
 30
0.0
 11
108.5558890470105
 21
44.594042121899442
 31
0.0
  0
LINE
  5
749
  8
0
 39
8.4346772575699198
 10
112.945847178145
 20
42.416039760449728
 30
0.0
 11
110.4469436881577
 21
43.51204172329836
 31
0.0
  0
LINE
  5
74A
  8
0
 39
8.4346772575699198
 10
114.6116959365151
 20
41.311434426798399
 30
0.0
 11
112.945847178145
 21
42.416039760449728
 31
0.0
  0
LINE
  5
74B
  8
0
 39
8.4346772575699198
 10
116.1726173098009
 20
40.204467383514888
 30
0.0
 11
114.6116959365151
 21
41.311434426798399
 31
0.0
  0
LINE
  5
74C
  8
0
 39
8.4346772575699198
 10
117.6331660237218
 20
39.100199436953872
 30
0.0
 11
116.1726173098009
 21
40.204467383514888
 31
0.0
  0
LINE
  5
74D
  8
0
 39
8.4346772575699198
 10
118.99941504590289
 20
38.005547022466438
 30
0.0
 11
117.6331660237218
 21
39.100199436953872
 31
0.0
  0
LINE
  5
74E
  8
0
 39
8.4346772575699198
 10
120.27575040851841
 20
36.925908333497468
 30
0.0
 11
118.99941504590289
 21
38.005547022466438
 31
0.0
  0
LINE
  5
74F
  8
0
 39
8.4346772575699198
 10
121.467570305013
 20
35.867187644127277
 30
0.0
 11
120.27575040851841
 21
36.925908333497468
 31
0.0
  0
LINE
  5
750
  8
0
 39
8.4346772575699198
 10
122.57959815465109
 20
34.834783147800728
 30
0.0
 11
121.467570305013
 21
35.867187644127277
 31
0.0
  0
LINE
  5
751
  8
0
 39
8.4346772575699198
 10
123.6175695379676
 20
33.835273892778702
 30
0.0
 11
122.57959815465109
 21
34.834783147800728
 31
0.0
  0
LINE
  5
752
  8
0
 39
8.4346772575699198
 10
124.58603918068179
 20
32.874058072506031
 30
0.0
 11
123.6175695379676
 21
33.835273892778702
 31
0.0
  0
LINE
  5
753
  8
0
 39
8.4346772575699198
 10
125.49040527623841
 20
31.957208654608191
 30
0.0
 11
124.58603918068179
 21
32.874058072506031
 31
0.0
  0
LINE
  5
754
  8
0
 39
8.4346772575699198
 10
126.335559937447
 20
31.090292526075139
 30
0.0
 11
125.49040527623841
 21
31.957208654608191
 31
0.0
  0
LINE
  5
755
  8
0
 39
8.4346772575699198
 10
126.335559937447
 20
31.090292526075139
 30
0.0
 11
126.335559937447
 21
31.090292526075139
 31
0.0
  0
LINE
  5
756
  8
0
 39
8.4346772575699198
 10
126.03575272848489
 20
29.502112167852939
 30
0.0
 11
126.335559937447
 21
31.090292526075139
 31
0.0
  0
LINE
  5
757
  8
0
 39
8.4346772575699198
 10
94.835559942698055
 20
114.5021121678529
 30
0.0
 11
82.335559942698055
 21
114.5021121678529
 31
0.0
  0
LINE
  5
758
  8
0
 39
8.4346772575699198
 10
123.6383188440212
 20
92.245682644878087
 30
0.0
 11
122.84647134308059
 21
92.501422059327595
 31
0.0
  0
LINE
  5
759
  8
0
 39
8.4346772575699198
 10
124.3230459437908
 20
91.859880507116827
 30
0.0
 11
123.6383188440212
 21
92.245682644878087
 31
0.0
  0
LINE
  5
75A
  8
0
 39
8.4346772575699198
 10
124.9006526423892
 20
91.362909323100837
 30
0.0
 11
124.3230459437908
 21
91.859880507116827
 31
0.0
  0
LINE
  5
75B
  8
0
 39
8.4346772575699198
 10
125.3701267785455
 20
90.772650608616075
 30
0.0
 11
124.9006526423892
 21
91.362909323100837
 31
0.0
  0
LINE
  5
75C
  8
0
 39
8.4346772575699198
 10
125.7316370458049
 20
90.10867281490016
 30
0.0
 11
125.3701267785455
 21
90.772650608616075
 31
0.0
  0
LINE
  5
75D
  8
0
 39
8.4346772575699198
 10
125.9841712828966
 20
89.388688764194001
 30
0.0
 11
125.7316370458049
 21
90.10867281490016
 31
0.0
  0
LINE
  5
75E
  8
0
 39
8.4346772575699198
 10
126.1273921027301
 20
88.631760827099697
 30
0.0
 11
125.9841712828966
 21
89.388688764194001
 31
0.0
  0
LINE
  5
75F
  8
0
 39
8.4346772575699198
 10
126.1607934246701
 20
87.855939212948414
 30
0.0
 11
126.1273921027301
 21
88.631760827099697
 31
0.0
  0
LINE
  5
760
  8
0
 39
8.4346772575699198
 10
126.08420655517141
 20
87.080623679432577
 30
0.0
 11
126.1607934246701
 21
87.855939212948414
 31
0.0
  0
LINE
  5
761
  8
0
 39
8.4346772575699198
 10
125.8967880265082
 20
86.323527048793096
 30
0.0
 11
126.08420655517141
 21
87.080623679432577
 31
0.0
  0
LINE
  5
762
  8
0
 39
8.4346772575699198
 10
125.598031758045
 20
85.603880385177206
 30
0.0
 11
125.8967880265082
 21
86.323527048793096
 31
0.0
  0
LINE
  5
763
  8
0
 39
8.4346772575699198
 10
125.18743166914651
 20
84.939396510825844
 30
0.0
 11
125.598031758045
 21
85.603880385177206
 31
0.0
  0
LINE
  5
764
  8
0
 39
8.4346772575699198
 10
124.6648190662675
 20
84.349475183431423
 30
0.0
 11
125.18743166914651
 21
84.939396510825844
 31
0.0
  0
LINE
  5
765
  8
0
 39
8.4346772575699198
 10
124.0293504816822
 20
83.852166612325107
 30
0.0
 11
124.6648190662675
 21
84.349475183431423
 31
0.0
  0
LINE
  5
766
  8
0
 39
8.4346772575699198
 10
123.28085722184539
 20
83.466195781018683
 30
0.0
 11
124.0293504816822
 21
83.852166612325107
 31
0.0
  0
LINE
  5
767
  8
0
 39
8.4346772575699198
 10
122.4183271254863
 20
83.209950285933715
 30
0.0
 11
123.28085722184539
 21
83.466195781018683
 31
0.0
  0
LINE
  5
768
  8
0
 39
8.4346772575699198
 10
122.4183271254863
 20
83.209950285933715
 30
0.0
 11
122.4183271254863
 21
83.209950285933715
 31
0.0
  0
LINE
  5
769
  8
0
 39
8.4346772575699198
 10
102.7261775136685
 20
78.139022318682706
 30
0.0
 11
122.4183271254863
 21
83.209950285933715
 31
0.0
  0
LINE
  5
76A
  8
0
 39
8.4346772575699198
 10
102.0891906871768
 20
77.959532386641598
 30
0.0
 11
102.7261775136685
 21
78.139022318682706
 31
0.0
  0
LINE
  5
76B
  8
0
 39
8.4346772575699198
 10
101.5301402785451
 20
77.752208019650539
 30
0.0
 11
102.0891906871768
 21
77.959532386641598
 31
0.0
  0
LINE
  5
76C
  8
0
 39
8.4346772575699198
 10
101.0502071425893
 20
77.521603943428573
 30
0.0
 11
101.5301402785451
 21
77.752208019650539
 31
0.0
  0
LINE
  5
76D
  8
0
 39
8.4346772575699198
 10
100.64922258576441
 20
77.271262722423899
 30
0.0
 11
101.0502071425893
 21
77.521603943428573
 31
0.0
  0
LINE
  5
76E
  8
0
 39
8.4346772575699198
 10
100.3283674628865
 20
77.005570388810469
 30
0.0
 11
100.64922258576441
 21
77.271262722423899
 31
0.0
  0
LINE
  5
76F
  8
0
 39
8.4346772575699198
 10
100.08747308041031
 20
76.727900813491246
 30
0.0
 11
100.3283674628865
 21
77.005570388810469
 31
0.0
  0
LINE
  5
770
  8
0
 39
8.4346772575699198
 10
99.927551599606801
 20
76.442640028640227
 30
0.0
 11
100.08747308041031
 21
76.727900813491246
 31
0.0
  0
LINE
  5
771
  8
0
 39
8.4346772575699198
 10
99.848434326930814
 20
76.153161905160431
 30
0.0
 11
99.927551599606801
 21
76.442640028640227
 31
0.0
  0
LINE
  5
772
  8
0
 39
8.4346772575699198
 10
99.851470810743535
 20
75.864189862316096
 30
0.0
 11
99.848434326930814
 21
76.153161905160431
 31
0.0
  0
LINE
  5
773
  8
0
 39
8.4346772575699198
 10
99.936492357499844
 20
75.578760383919914
 30
0.0
 11
99.851470810743535
 21
75.864189862316096
 31
0.0
  0
LINE
  5
774
  8
0
 39
8.4346772575699198
 10
100.1043424349254
 20
75.301259502145854
 30
0.0
 11
99.936492357499844
 21
75.578760383919914
 31
0.0
  0
LINE
  5
775
  8
0
 39
8.4346772575699198
 10
100.35518973656551
 20
75.035398474987275
 30
0.0
 11
100.1043424349254
 21
75.301259502145854
 31
0.0
  0
LINE
  5
776
  8
0
 39
8.4346772575699198
 10
100.6900464236911
 20
74.785394641072884
 30
0.0
 11
100.35518973656551
 21
75.035398474987275
 31
0.0
  0
LINE
  5
777
  8
0
 39
8.4346772575699198
 10
101.10874380275681
 20
74.554453177760621
 30
0.0
 11
100.6900464236911
 21
74.785394641072884
 31
0.0
  0
LINE
  5
778
  8
0
 39
8.4346772575699198
 10
101.6122940350338
 20
74.347128810769561
 30
0.0
 11
101.10874380275681
 21
74.554453177760621
 31
0.0
  0
LINE
  5
779
  8
0
 39
8.4346772575699198
 10
102.2005284269767
 20
74.167132798093036
 30
0.0
 11
101.6122940350338
 21
74.347128810769561
 31
0.0
  0
LINE
  5
77A
  8
0
 39
8.4346772575699198
 10
102.2005284269767
 20
74.167132798093036
 30
0.0
 11
102.2005284269767
 21
74.167132798093036
 31
0.0
  0
LINE
  5
77B
  8
0
 39
8.4346772575699198
 10
122.84647134308059
 20
66.925693629041561
 30
0.0
 11
102.2005284269767
 21
74.167132798093036
 31
0.0
  0
LINE
  5
77C
  8
0
 39
8.4346772575699198
 10
82.783272611529881
 20
35.397713507970927
 30
0.0
 11
82.392072280323774
 21
35.280640187635889
 31
0.0
  0
LINE
  5
77D
  8
0
 39
8.4346772575699198
 10
83.148831523872957
 20
35.543633424526909
 30
0.0
 11
82.783272611529881
 21
35.397713507970927
 31
0.0
  0
LINE
  5
77E
  8
0
 39
8.4346772575699198
 10
83.489423791533596
 20
35.716544308307093
 30
0.0
 11
83.148831523872957
 21
35.543633424526909
 31
0.0
  0
LINE
  5
77F
  8
0
 39
8.4346772575699198
 10
83.804374640331275
 20
35.913747062589088
 30
0.0
 11
83.489423791533596
 21
35.716544308307093
 31
0.0
  0
LINE
  5
780
  8
0
 39
8.4346772575699198
 10
84.094527537991667
 20
36.133386058376203
 30
0.0
 11
83.804374640331275
 21
35.913747062589088
 31
0.0
  0
LINE
  5
781
  8
0
 39
8.4346772575699198
 10
84.359207710334232
 20
36.372593505400907
 30
0.0
 11
84.094527537991667
 21
36.133386058376203
 31
0.0
  0
LINE
  5
782
  8
0
 39
8.4346772575699198
 10
84.598752544449226
 20
36.629345081121329
 30
0.0
 11
84.359207710334232
 21
36.372593505400907
 31
0.0
  0
LINE
  5
783
  8
0
 39
8.4346772575699198
 10
84.812824653246338
 20
36.90094168881506
 30
0.0
 11
84.598752544449226
 21
36.629345081121329
 31
0.0
  0
LINE
  5
784
  8
0
 39
8.4346772575699198
 10
85.002098810906219
 20
37.185527699485469
 30
0.0
 11
84.812824653246338
 21
36.90094168881506
 31
0.0
  0
LINE
  5
785
  8
0
 39
8.4346772575699198
 10
85.166068936793366
 20
37.480235322864949
 30
0.0
 11
85.002098810906219
 21
37.185527699485469
 31
0.0
  0
LINE
  5
786
  8
0
 39
8.4346772575699198
 10
85.304735030907807
 20
37.78287154286658
 30
0.0
 11
85.166068936793366
 21
37.480235322864949
 31
0.0
  0
LINE
  5
787
  8
0
 39
8.4346772575699198
 10
85.418097093249557
 20
38.090737262767888
 30
0.0
 11
85.304735030907807
 21
37.78287154286658
 31
0.0
  0
LINE
  5
788
  8
0
 39
8.4346772575699198
 10
85.506661204454034
 20
38.40214554711735
 30
0.0
 11
85.418097093249557
 21
38.090737262767888
 31
0.0
  0
LINE
  5
789
  8
0
 39
8.4346772575699198
 10
85.569415203250358
 20
38.7140599121023
 30
0.0
 11
85.506661204454034
 21
38.40214554711735
 31
0.0
  0
LINE
  5
78A
  8
0
 39
8.4346772575699198
 10
85.607371250909424
 20
39.024456035180869
 30
0.0
 11
85.569415203250358
 21
38.7140599121023
 31
0.0
  0
LINE
  5
78B
  8
0
 39
8.4346772575699198
 10
85.619685879705472
 20
39.330803513175809
 30
0.0
 11
85.607371250909424
 21
39.024456035180869
 31
0.0
  0
LINE
  5
78C
  8
0
 39
8.4346772575699198
 10
85.619685879705472
 20
39.330803513175809
 30
0.0
 11
85.619685879705472
 21
39.330803513175809
 31
0.0
  0
LINE
  5
78D
  8
0
 39
8.4346772575699198
 10
82.392072280323774
 20
39.330803513175809
 30
0.0
 11
85.619685879705472
 21
39.330803513175809
 31
0.0
  0
LINE
  5
78E
  8
0
 39
8.4346772575699198
 10
121.5407833036088
 20
88.402506299238908
 30
0.0
 11
121.55209081456989
 21
88.502112167852957
 31
0.0
  0
LINE
  5
78F
  8
0
 39
8.4346772575699198
 10
121.5089002235751
 20
88.206990480408464
 30
0.0
 11
121.5407833036088
 21
88.402506299238908
 31
0.0
  0
LINE
  5
790
  8
0
 39
8.4346772575699198
 10
121.4635216599294
 20
88.017378935658257
 30
0.0
 11
121.5089002235751
 21
88.206990480408464
 31
0.0
  0
LINE
  5
791
  8
0
 39
8.4346772575699198
 10
121.3994181127719
 20
87.832490810172345
 30
0.0
 11
121.4635216599294
 21
88.017378935658257
 31
0.0
  0
LINE
  5
792
  8
0
 39
8.4346772575699198
 10
121.3123722434738
 20
87.651820023315196
 30
0.0
 11
121.3994181127719
 21
87.832490810172345
 31
0.0
  0
LINE
  5
793
  8
0
 39
8.4346772575699198
 10
121.1968171650451
 20
87.474017026725605
 30
0.0
 11
121.3123722434738
 21
87.651820023315196
 31
0.0
  0
LINE
  5
794
  8
0
 39
8.4346772575699198
 10
121.0483668453118
 20
87.29823835267787
 30
0.0
 11
121.1968171650451
 21
87.474017026725605
 31
0.0
  0
LINE
  5
795
  8
0
 39
8.4346772575699198
 10
120.8616230908292
 20
87.123134452810703
 30
0.0
 11
121.0483668453118
 21
87.29823835267787
 31
0.0
  0
LINE
  5
796
  8
0
 39
8.4346772575699198
 10
120.63236856296849
 20
86.948367940033862
 30
0.0
 11
120.8616230908292
 21
87.123134452810703
 31
0.0
  0
LINE
  5
797
  8
0
 39
8.4346772575699198
 10
120.3552050682847
 20
86.772420572440964
 30
0.0
 11
120.63236856296849
 21
86.948367940033862
 31
0.0
  0
LINE
  5
798
  8
0
 39
8.4346772575699198
 10
120.025746574604
 20
86.594617575851373
 30
0.0
 11
120.3552050682847
 21
86.772420572440964
 31
0.0
  0
LINE
  5
799
  8
0
 39
8.4346772575699198
 10
119.63859488848161
 20
86.413440708358763
 30
0.0
 11
120.025746574604
 21
86.594617575851373
 31
0.0
  0
LINE
  5
79A
  8
0
 39
8.4346772575699198
 10
119.63859488848161
 20
86.413440708358763
 30
0.0
 11
119.63859488848161
 21
86.413440708358763
 31
0.0
  0
LINE
  5
79B
  8
0
 39
8.4346772575699198
 10
97.878262413107606
 20
79.500716615144768
 30
0.0
 11
119.63859488848161
 21
86.413440708358763
 31
0.0
  0
LINE
  5
79C
  8
0
 39
8.4346772575699198
 10
97.524680742470295
 20
79.30773119949157
 30
0.0
 11
97.878262413107606
 21
79.500716615144768
 31
0.0
  0
LINE
  5
79D
  8
0
 39
8.4346772575699198
 10
97.211416829124147
 20
79.065318575109004
 30
0.0
 11
97.524680742470295
 21
79.30773119949157
 31
0.0
  0
LINE
  5
79E
  8
0
 39
8.4346772575699198
 10
96.940157608520707
 20
78.778876935441929
 30
0.0
 11
97.211416829124147
 21
79.065318575109004
 31
0.0
  0
LINE
  5
79F
  8
0
 39
8.4346772575699198
 10
96.711915241930868
 20
78.453804473935222
 30
0.0
 11
96.940157608520707
 21
78.778876935441929
 31
0.0
  0
LINE
  5
7A0
  8
0
 39
8.4346772575699198
 10
96.528882745441607
 20
78.095836771123942
 30
0.0
 11
96.711915241930868
 21
78.453804473935222
 31
0.0
  0
LINE
  5
7A1
  8
0
 39
8.4346772575699198
 10
96.391903586778653
 20
77.709697246272398
 30
0.0
 11
96.528882745441607
 21
78.095836771123942
 31
0.0
  0
LINE
  5
7A2
  8
0
 39
8.4346772575699198
 10
96.335559942698069
 20
77.4518372040814
 30
0.0
 11
96.391903586778653
 21
77.709697246272398
 31
0.0
  0
LINE
  5
7A3
  8
0
 39
8.4346772575699198
 10
96.451621101762257
 20
75.550251174789324
 30
0.0
 11
96.335559942698069
 21
75.994758666263252
 31
0.0
  0
LINE
  5
7A4
  8
0
 39
8.4346772575699198
 10
96.62233896945547
 20
75.109961021944173
 30
0.0
 11
96.451621101762257
 21
75.550251174789324
 31
0.0
  0
LINE
  5
7A5
  8
0
 39
8.4346772575699198
 10
96.849737868319536
 20
74.679623788262973
 30
0.0
 11
96.62233896945547
 21
75.109961021944173
 31
0.0
  0
LINE
  5
7A6
  8
0
 39
8.4346772575699198
 10
97.134661266080244
 20
74.26430028010023
 30
0.0
 11
96.849737868319536
 21
74.679623788262973
 31
0.0
  0
LINE
  5
7A7
  8
0
 39
8.4346772575699198
 10
97.478964791734271
 20
73.86938869090082
 30
0.0
 11
97.134661266080244
 21
74.26430028010023
 31
0.0
  0
LINE
  5
7A8
  8
0
 39
8.4346772575699198
 10
97.883660606552496
 20
73.500287214109534
 30
0.0
 11
97.478964791734271
 21
73.86938869090082
 31
0.0
  0
LINE
  5
7A9
  8
0
 39
8.4346772575699198
 10
97.883660606552496
 20
73.500287214109534
 30
0.0
 11
97.883660606552496
 21
73.500287214109534
 31
0.0
  0
LINE
  5
7AA
  8
0
 39
8.4346772575699198
 10
120.1900540875815
 20
64.425655289897847
 30
0.0
 11
97.883660606552496
 21
73.500287214109534
 31
0.0
  0
LINE
  5
7AB
  8
0
 39
8.4346772575699198
 10
120.6053775957442
 20
64.179362713976801
 30
0.0
 11
120.1900540875815
 21
64.425655289897847
 31
0.0
  0
LINE
  5
7AC
  8
0
 39
8.4346772575699198
 10
120.9658757017328
 20
63.933407525146073
 30
0.0
 11
120.6053775957442
 21
64.179362713976801
 31
0.0
  0
LINE
  5
7AD
  8
0
 39
8.4346772575699198
 10
121.2720544861826
 20
63.688633191131359
 30
0.0
 11
120.9658757017328
 21
63.933407525146073
 31
0.0
  0
LINE
  5
7AE
  8
0
 39
8.4346772575699198
 10
121.5235765620033
 20
63.444871018387609
 30
0.0
 11
121.2720544861826
 21
63.688633191131359
 31
0.0
  0
LINE
  5
7AF
  8
0
 39
8.4346772575699198
 10
121.72094800983039
 20
63.203470555275942
 30
0.0
 11
121.5235765620033
 21
63.444871018387609
 31
0.0
  0
LINE
  5
7B0
  8
0
 39
8.4346772575699198
 10
121.8634940554834
 20
62.964263108251288
 30
0.0
 11
121.72094800983039
 21
63.203470555275942
 31
0.0
  0
LINE
  5
7B1
  8
0
 39
8.4346772575699198
 10
121.9518894731427
 20
62.728092145039298
 30
0.0
 11
121.8634940554834
 21
62.964263108251288
 31
0.0
  0
LINE
  5
7B2
  8
0
 39
8.4346772575699198
 10
121.9852907950827
 20
62.495126359185242
 30
0.0
 11
121.9518894731427
 21
62.728092145039298
 31
0.0
  0
LINE
  5
7B3
  8
0
 39
8.4346772575699198
 10
121.96471018257419
 20
62.266546605505098
 30
0.0
 11
121.9852907950827
 21
62.495126359185242
 31
0.0
  0
LINE
  5
7B4
  8
0
 39
8.4346772575699198
 10
121.8893041678915
 20
62.042015496908569
 30
0.0
 11
121.96471018257419
 21
62.266546605505098
 31
0.0
  0
LINE
  5
7B5
  8
0
 39
8.4346772575699198
 10
121.7597475252153
 20
61.822545194666588
 30
0.0
 11
121.8893041678915
 21
62.042015496908569
 31
0.0
  0
LINE
  5
7B6
  8
0
 39
8.4346772575699198
 10
121.57536548036479
 20
61.608135698779201
 30
0.0
 11
121.7597475252153
 21
61.822545194666588
 31
0.0
  0
LINE
  5
7B7
  8
0
 39
8.4346772575699198
 10
121.3370015010659
 20
61.399967864062369
 30
0.0
 11
121.57536548036479
 21
61.608135698779201
 31
0.0
  0
LINE
  5
7B8
  8
0
 39
8.4346772575699198
 10
121.04364342604759
 20
61.197872996970993
 30
0.0
 11
121.3370015010659
 21
61.399967864062369
 31
0.0
  0
LINE
  5
7B9
  8
0
 39
8.4346772575699198
 10
120.6961347230357
 20
61.002694565230811
 30
0.0
 11
121.04364342604759
 21
61.197872996970993
 31
0.0
  0
LINE
  5
7BA
  8
0
 39
8.4346772575699198
 10
120.2938006178496
 20
60.814601262386986
 30
0.0
 11
120.6961347230357
 21
61.002694565230811
 31
0.0
  0
LINE
  5
7BB
  8
0
 39
8.4346772575699198
 10
120.2938006178496
 20
60.814601262386986
 30
0.0
 11
120.2938006178496
 21
60.814601262386986
 31
0.0
  0
LINE
  5
7BC
  8
0
 39
8.4346772575699198
 10
99.875762681245334
 20
54.091657407468318
 30
0.0
 11
120.2938006178496
 21
60.814601262386986
 31
0.0
  0
LINE
  5
7BD
  8
0
 39
8.4346772575699198
 10
99.292420402111773
 20
53.673297415492833
 30
0.0
 11
99.875762681245334
 21
54.091657407468318
 31
0.0
  0
LINE
  5
7BE
  8
0
 39
8.4346772575699198
 10
98.7870145408382
 20
53.21242665013925
 30
0.0
 11
99.292420402111773
 21
53.673297415492833
 31
0.0
  0
LINE
  5
7BF
  8
0
 39
8.4346772575699198
 10
98.360725952240585
 20
52.713431143581381
 30
0.0
 11
98.7870145408382
 21
53.21242665013925
 31
0.0
  0
LINE
  5
7C0
  8
0
 39
8.4346772575699198
 10
98.013385942773894
 20
52.180359540902963
 30
0.0
 11
98.360725952240585
 21
52.713431143581381
 31
0.0
  0
LINE
  5
7C1
  8
0
 39
8.4346772575699198
 10
97.746175367254082
 20
51.618441342003642
 30
0.0
 11
98.013385942773894
 21
52.180359540902963
 31
0.0
  0
LINE
  5
7C2
  8
0
 39
8.4346772575699198
 10
97.558925532136016
 20
51.031387804876807
 30
0.0
 11
97.746175367254082
 21
51.618441342003642
 31
0.0
  0
LINE
  5
7C3
  8
0
 39
8.4346772575699198
 10
97.452648598690644
 20
50.423753655241448
 30
0.0
 11
97.558925532136016
 21
51.031387804876807
 31
0.0
  0
LINE
  5
7C4
  8
0
 39
8.4346772575699198
 10
97.427175873372789
 20
49.79992492527159
 30
0.0
 11
97.452648598690644
 21
50.423753655241448
 31
0.0
  0
LINE
  5
7C5
  8
0
 39
8.4346772575699198
 10
97.483856904543615
 20
49.164793727776569
 30
0.0
 11
97.427175873372789
 21
49.79992492527159
 31
0.0
  0
LINE
  5
7C6
  8
0
 39
8.4346772575699198
 10
97.622522998658084
 20
48.522071320749738
 30
0.0
 11
97.483856904543615
 21
49.164793727776569
 31
0.0
  0
LINE
  5
7C7
  8
0
 39
8.4346772575699198
 10
97.844017623441886
 20
47.876481123455349
 30
0.0
 11
97.622522998658084
 21
48.522071320749738
 31
0.0
  0
LINE
  5
7C8
  8
0
 39
8.4346772575699198
 10
98.148509472440182
 20
47.232071780977023
 30
0.0
 11
97.844017623441886
 21
47.876481123455349
 31
0.0
  0
LINE
  5
7C9
  8
0
 39
8.4346772575699198
 10
98.536842013378674
 20
46.59390409966926
 30
0.0
 11
98.148509472440182
 21
47.232071780977023
 31
0.0
  0
LINE
  5
7CA
  8
0
 39
8.4346772575699198
 10
99.009183939802597
 20
45.965689337525447
 30
0.0
 11
98.536842013378674
 21
46.59390409966926
 31
0.0
  0
LINE
  5
7CB
  8
0
 39
8.4346772575699198
 10
99.566210025892516
 20
45.35215091380983
 30
0.0
 11
99.009183939802597
 21
45.965689337525447
 31
0.0
  0
LINE
  5
7CC
  8
0
 39
8.4346772575699198
 10
100.2080889651935
 20
44.757674860696298
 30
0.0
 11
99.566210025892516
 21
45.35215091380983
 31
0.0
  0
LINE
  5
7CD
  8
0
 39
8.4346772575699198
 10
100.2080889651935
 20
44.757674860696298
 30
0.0
 11
100.2080889651935
 21
44.757674860696298
 31
0.0
  0
LINE
  5
7CE
  8
0
 39
8.4346772575699198
 10
102.0519094136983
 20
44.11208466340188
 30
0.0
 11
100.2080889651935
 21
44.757674860696298
 31
0.0
  0
LINE
  5
7CF
  8
0
 39
8.4346772575699198
 10
103.8122265573532
 20
43.388051967612093
 30
0.0
 11
102.0519094136983
 21
44.11208466340188
 31
0.0
  0
LINE
  5
7D0
  8
0
 39
8.4346772575699198
 10
106.2223972425908
 20
42.594011450584468
 30
0.0
 11
103.8122265573532
 21
43.388051967612093
 31
0.0
  0
LINE
  5
7D1
  8
0
 39
8.4346772575699198
 10
107.847084775944
 20
41.737048241215362
 30
0.0
 11
106.2223972425908
 21
42.594011450584468
 31
0.0
  0
LINE
  5
7D2
  8
0
 39
8.4346772575699198
 10
109.41947731030019
 20
40.825765710307508
 30
0.0
 11
107.847084775944
 21
41.737048241215362
 31
0.0
  0
LINE
  5
7D3
  8
0
 39
8.4346772575699198
 10
110.949190377733
 20
39.867248986757268
 30
0.0
 11
109.41947731030019
 21
40.825765710307508
 31
0.0
  0
LINE
  5
7D4
  8
0
 39
8.4346772575699198
 10
112.4470203651323
 20
38.869932747822169
 30
0.0
 11
110.949190377733
 21
39.867248986757268
 31
0.0
  0
LINE
  5
7D5
  8
0
 39
8.4346772575699198
 10
113.9225828045716
 20
37.840902122398667
 30
0.0
 11
112.4470203651323
 21
38.869932747822169
 31
0.0
  0
LINE
  5
7D6
  8
0
 39
8.4346772575699198
 10
115.3870114700309
 20
36.789097868379692
 30
0.0
 11
113.9225828045716
 21
37.840902122398667
 31
0.0
  0
LINE
  5
7D7
  8
0
 39
8.4346772575699198
 10
116.8495845064935
 20
35.721267727571338
 30
0.0
 11
115.3870114700309
 21
36.789097868379692
 31
0.0
  0
LINE
  5
7D8
  8
0
 39
8.4346772575699198
 10
118.3210983008492
 20
34.645677683686031
 30
0.0
 11
116.8495845064935
 21
35.721267727571338
 31
0.0
  0
LINE
  5
7D9
  8
0
 39
8.4346772575699198
 10
119.8115057722618
 20
33.569918946255569
 30
0.0
 11
118.3210983008492
 21
34.645677683686031
 31
0.0
  0
LINE
  5
7DA
  8
0
 39
8.4346772575699198
 10
121.3312659205307
 20
32.50225749899235
 30
0.0
 11
119.8115057722618
 21
33.569918946255569
 31
0.0
  0
LINE
  5
7DB
  8
0
 39
8.4346772575699198
 10
122.8901629712748
 20
31.449947164337921
 30
0.0
 11
121.3312659205307
 21
32.50225749899235
 31
0.0
  0
LINE
  5
7DC
  8
0
 39
8.4346772575699198
 10
124.49882461783849
 20
30.421253926004709
 30
0.0
 11
122.8901629712748
 21
31.449947164337921
 31
0.0
  0
LINE
  5
7DD
  8
0
 39
8.4346772575699198
 10
126.03575272848489
 20
29.50211216785295
 30
0.0
 11
124.49882461783849
 21
30.421253926004709
 31
0.0
  0
LINE
  5
7DE
  8
0
 39
8.4346772575699198
 10
107.7408078424986
 20
88.502112167852957
 30
0.0
 11
82.335559942698055
 21
88.502112167852957
 31
0.0
  0
LINE
  5
7DF
  8
0
 39
8.4346772575699198
 10
108.00751233738291
 20
88.029938934974169
 30
0.0
 11
107.7408078424986
 21
88.502112167852957
 31
0.0
  0
LINE
  5
7E0
  8
0
 39
8.4346772575699198
 10
108.3059312187558
 20
87.613603265540519
 30
0.0
 11
108.00751233738291
 21
88.029938934974169
 31
0.0
  0
LINE
  5
7E1
  8
0
 39
8.4346772575699198
 10
108.6320158415334
 20
87.255129482093793
 30
0.0
 11
108.3059312187558
 21
87.613603265540519
 31
0.0
  0
LINE
  5
7E2
  8
0
 39
8.4346772575699198
 10
108.9810427864517
 20
86.955361052359763
 30
0.0
 11
108.6320158415334
 21
87.255129482093793
 31
0.0
  0
LINE
  5
7E3
  8
0
 39
8.4346772575699198
 10
109.3491321019721
 20
86.716490992425392
 30
0.0
 11
108.9810427864517
 21
86.955361052359763
 31
0.0
  0
LINE
  5
7E4
  8
0
 39
8.4346772575699198
 10
109.7313916752851
 20
86.53936277001641
 30
0.0
 11
109.3491321019721
 21
86.716490992425392
 31
0.0
  0
LINE
  5
7E5
  8
0
 39
8.4346772575699198
 10
110.12394155485239
 20
86.425832014129526
 30
0.0
 11
109.7313916752851
 21
86.53936277001641
 31
0.0
  0
LINE
  5
7E6
  8
0
 39
8.4346772575699198
 10
110.5218896278646
 20
86.377079579580766
 30
0.0
 11
110.12394155485239
 21
86.425832014129526
 31
0.0
  0
LINE
  5
7E7
  8
0
 39
8.4346772575699198
 10
110.9215246363282
 20
86.395129788911973
 30
0.0
 11
110.5218896278646
 21
86.377079579580766
 31
0.0
  0
LINE
  5
7E8
  8
0
 39
8.4346772575699198
 10
111.3177857738889
 20
86.480826109848891
 30
0.0
 11
110.9215246363282
 21
86.395129788911973
 31
0.0
  0
LINE
  5
7E9
  8
0
 39
8.4346772575699198
 10
111.706793089008
 20
86.635855477843023
 30
0.0
 11
111.3177857738889
 21
86.480826109848891
 31
0.0
  0
LINE
  5
7EA
  8
0
 39
8.4346772575699198
 10
112.0836544688762
 20
86.861567441255573
 30
0.0
 11
111.706793089008
 21
86.635855477843023
 31
0.0
  0
LINE
  5
7EB
  8
0
 39
8.4346772575699198
 10
112.44465865550021
 20
87.159817629083264
 30
0.0
 11
112.0836544688762
 21
86.861567441255573
 31
0.0
  0
LINE
  5
7EC
  8
0
 39
8.4346772575699198
 10
112.7847448425254
 20
87.531449509051811
 30
0.0
 11
112.44465865550021
 21
87.159817629083264
 31
0.0
  0
LINE
  5
7ED
  8
0
 39
8.4346772575699198
 10
113.0998643848682
 20
87.978656097248134
 30
0.0
 11
112.7847448425254
 21
87.531449509051811
 31
0.0
  0
LINE
  5
7EE
  8
0
 39
8.4346772575699198
 10
113.38563125035471
 20
88.502112167852957
 30
0.0
 11
113.0998643848682
 21
87.978656097248134
 31
0.0
  0
LINE
  5
7EF
  8
0
 39
8.4346772575699198
 10
113.38563125035471
 20
88.502112167852957
 30
0.0
 11
113.38563125035471
 21
88.502112167852957
 31
0.0
  0
LINE
  5
7F0
  8
0
 39
8.4346772575699198
 10
121.55209081456989
 20
88.502112167852957
 30
0.0
 11
113.38563125035471
 21
88.502112167852957
 31
0.0
  0
LINE
  5
7F1
  8
0
 39
8.4346772575699198
 10
103.94149181859881
 20
88.260036930560645
 30
0.0
 11
103.95127604421759
 21
88.502112167852957
 31
0.0
  0
LINE
  5
7F2
  8
0
 39
8.4346772575699198
 10
103.9121391417425
 20
88.033481499422336
 30
0.0
 11
103.94149181859881
 21
88.260036930560645
 31
0.0
  0
LINE
  5
7F3
  8
0
 39
8.4346772575699198
 10
103.8643988684646
 20
87.822614567983095
 30
0.0
 11
103.9121391417425
 21
88.033481499422336
 31
0.0
  0
LINE
  5
7F4
  8
0
 39
8.4346772575699198
 10
103.7986083858556
 20
87.627098749152623
 30
0.0
 11
103.8643988684646
 21
87.822614567983095
 31
0.0
  0
LINE
  5
7F5
  8
0
 39
8.4346772575699198
 10
103.7162859358217
 20
87.447608817111558
 30
0.0
 11
103.7986083858556
 21
87.627098749152623
 31
0.0
  0
LINE
  5
7F6
  8
0
 39
8.4346772575699198
 10
103.61743151836301
 20
87.283469997679205
 30
0.0
 11
103.7162859358217
 21
87.447608817111558
 31
0.0
  0
LINE
  5
7F7
  8
0
 39
8.4346772575699198
 10
103.5035633753858
 20
87.135019677945991
 30
0.0
 11
103.61743151836301
 21
87.283469997679205
 31
0.0
  0
LINE
  5
7F8
  8
0
 39
8.4346772575699198
 10
103.3750188939804
 20
87.00208916436668
 30
0.0
 11
103.5035633753858
 21
87.135019677945991
 31
0.0
  0
LINE
  5
7F9
  8
0
 39
8.4346772575699198
 10
103.2333163160533
 20
86.885015844031614
 30
0.0
 11
103.3750188939804
 21
87.00208916436668
 31
0.0
  0
LINE
  5
7FA
  8
0
 39
8.4346772575699198
 10
103.07845564160429
 20
86.783462329850465
 30
0.0
 11
103.2333163160533
 21
86.885015844031614
 31
0.0
  0
LINE
  5
7FB
  8
0
 39
8.4346772575699198
 10
102.9116177254495
 20
86.697597315368398
 30
0.0
 11
103.07845564160429
 21
86.783462329850465
 31
0.0
  0
LINE
  5
7FC
  8
0
 39
8.4346772575699198
 10
102.73364603531481
 20
86.627083413495157
 30
0.0
 11
102.9116177254495
 21
86.697597315368398
 31
0.0
  0
LINE
  5
7FD
  8
0
 39
8.4346772575699198
 10
102.54555273247099
 20
86.572595398411238
 30
0.0
 11
102.73364603531481
 21
86.627083413495157
 31
0.0
  0
LINE
  5
7FE
  8
0
 39
8.4346772575699198
 10
102.3478438975536
 20
86.533289802390968
 30
0.0
 11
102.54555273247099
 21
86.572595398411238
 31
0.0
  0
LINE
  5
7FF
  8
0
 39
8.4346772575699198
 10
102.14153169183341
 20
86.509841399614913
 30
0.0
 11
102.3478438975536
 21
86.533289802390968
 31
0.0
  0
LINE
  5
800
  8
0
 39
8.4346772575699198
 10
101.92695350240081
 20
86.501912802992805
 30
0.0
 11
102.14153169183341
 21
86.509841399614913
 31
0.0
  0
LINE
  5
801
  8
0
 39
8.4346772575699198
 10
101.92695350240081
 20
86.501912802992805
 30
0.0
 11
101.92695350240081
 21
86.501912802992805
 31
0.0
  0
LINE
  5
802
  8
0
 39
8.4346772575699198
 10
82.335559942698055
 20
86.501912802992805
 30
0.0
 11
101.92695350240081
 21
86.501912802992805
 31
0.0
  0
POLYLINE
  5
804
  8
0
 66
     1
 10
0.0
 20
0.0
 30
0.0
 39
8.4346772575699198
  0
VERTEX
  5
8FA
  8
0
 10
96.335559942698069
 20
76.341255208004227
 30
0.0
  0
VERTEX
  5
8FB
  8
0
 10
82.335559942698055
 20
76.341255208004227
 30
0.0
  0
SEQEND
  5
8FC
  8
0
  0
POLYLINE
  5
805
  8
0
 66
     1
 10
0.0
 20
0.0
 30
0.0
 39
8.4346772575699198
  0
VERTEX
  5
8FD
  8
0
 10
95.978267014067427
 20
53.965812022785357
 30
0.0
  0
VERTEX
  5
8FE
  8
0
 10
82.335559942698055
 20
53.965812022785357
 30
0.0
  0
SEQEND
  5
8FF
  8
0
  0
POLYLINE
  5
806
  8
0
 66
     1
 10
0.0
 20
0.0
 30
0.0
 39
8.4346772575699198
  0
VERTEX
  5
900
  8
0
 10
96.946567963236475
 20
46.189208284851077
 30
0.0
  0
VERTEX
  5
901
  8
0
 10
82.335559942698055
 20
46.189208284851077
 30
0.0
  0
SEQEND
  5
902
  8
0
  0
LINE
  5
807
  8
0
 10
113.38563125035471
 20
88.502112167852957
 30
0.0
 11
82.335559942698055
 21
88.502112167852957
 31
0.0
  0
LINE
  5
808
  8
0
 10
94.835559942698055
 20
94.502112167852943
 30
0.0
 11
82.335559942698055
 21
94.502112167852943
 31
0.0
  0
LINE
  5
809
  8
0
 10
126.03575272848489
 20
29.50211216785295
 30
0.0
 11
82.335559942698055
 21
29.50211216785295
 31
0.0
  0
LINE
  5
80A
  8
0
 10
122.84647134308059
 20
92.501422059327595
 30
0.0
 11
94.835559942698055
 21
104.5021121678529
 31
0.0
  0
LINE
  5
80B
  8
0
 10
89.085559942698069
 20
114.5021121678529
 30
0.0
 11
89.085559942698069
 21
94.502112167852943
 31
0.0
  0
LINE
  5
80C
  8
0
 10
96.335559942698069
 20
77.451837204081343
 30
0.0
 11
96.335559942698069
 21
75.994758666263252
 31
0.0
  0
LINE
  5
80D
  8
0
 10
94.835559942698055
 20
94.502112167852943
 30
0.0
 11
94.835559942698055
 21
88.502112167852957
 31
0.0
  0
LINE
  5
80E
  8
0
 10
94.835559942698055
 20
114.5021121678529
 30
0.0
 11
94.835559942698055
 21
104.5021121678529
 31
0.0
  0
DIMENSION
  5
814
  8
2
  2
*D1
 10
89.085559942698069
 20
127.8376296521144
 30
0.0
 11
82.335559942698055
 21
129.7126296521144
 31
0.0
 70
     0
  1
%%c<>
 13
75.585559942698069
 23
114.5021121678529
 33
0.0
 14
89.085559942698069
 24
114.5021121678529
 34
0.0
  0
DIMENSION
  5
821
  8
2
  2
*D2
 10
94.835559942698055
 20
134.44681943707039
 30
0.0
 11
82.335559942698055
 21
136.32181943707039
 31
0.0
 70
     0
  1
%%c<>
 13
69.835559942698055
 23
114.5021121678529
 33
0.0
 14
94.835559942698055
 24
114.5021121678529
 34
0.0
  0
DIMENSION
  5
82E
  8
2
  2
*D3
 10
147.2099256182193
 20
104.5021121678529
 30
0.0
 11
145.33492561821919
 21
109.5021121678529
 31
0.0
 70
     0
 13
94.835559942698055
 23
114.5021121678529
 33
0.0
 14
94.835559942698055
 24
104.5021121678529
 34
0.0
 50
90.0
  0
DIMENSION
  5
83B
  8
2
  2
*D4
 10
154.77355866831451
 20
94.502112167852928
 30
0.0
 11
152.89855866831451
 21
104.5021121678529
 31
0.0
 70
     0
 13
94.835559942698055
 23
114.5021121678529
 33
0.0
 14
94.835559942698055
 24
94.502112167852943
 34
0.0
 50
90.0
  0
DIMENSION
  5
848
  8
2
  2
*D5
 10
161.31626549356119
 20
88.502112167852957
 30
0.0
 11
159.44126549356119
 21
101.5021121678529
 31
0.0
 70
     0
 13
94.835559942698055
 23
114.5021121678529
 33
0.0
 14
121.55209081456989
 24
88.502112167852957
 34
0.0
 50
90.0
  0
DIMENSION
  5
856
  8
2
  2
*D6
 10
168.73982900810259
 20
29.502112167852928
 30
0.0
 11
166.86482900810259
 21
72.002112167852957
 31
0.0
 70
     0
 13
95.460559942698055
 23
114.5021121678529
 33
0.0
 14
126.03575272848489
 24
29.502112167852939
 34
0.0
 50
90.0
1001
ACAD
1000
DSTYLE
1002
{
1070
   271
1070
     6
1002
}
  0
DIMENSION
  5
86D
  8
2
  2
*D7
 10
94.835559942698055
 20
4.5603383752396658
 30
0.0
 11
82.335559942698055
 21
6.4353383752396658
 31
0.0
 70
     0
  1
%%c<>
 13
69.835559942698055
 23
88.502112167852957
 33
0.0
 14
94.835559942698055
 24
88.502112167852957
 34
0.0
  0
DIMENSION
  5
87A
  8
2
  2
*D8
 10
96.335559942698069
 20
-4.6349186988703357
 30
0.0
 11
82.335559942698055
 21
-2.7599186988703361
 31
0.0
 70
     0
  1
%%c<>
 13
68.335559942698069
 23
76.341255208004227
 33
0.0
 14
96.335559942698069
 24
76.341255208004227
 34
0.0
  0
DIMENSION
  5
887
  8
2
  2
*D9
 10
126.335559937447
 20
-13.227941501453721
 30
0.0
 11
82.335559942698055
 21
-11.352941501453721
 31
0.0
 70
     0
  1
%%c<>
 13
38.335559947949129
 23
31.090292526075139
 33
0.0
 14
126.335559937447
 24
31.090292526075139
 34
0.0
1001
ACAD
1000
DSTYLE
1002
{
1070
   271
1070
     6
1002
}
  0
TEXT
  5
8D5
  8
2
 10
64.462115840630275
 20
-37.601898038673689
 30
0.0
 40
2.5399440000000002
  1
No. 21.088.077._
 51
-0.0000015352344868
  7
\U+00C9L\U+00C9R_\U+00C2S\U+00C2V\U+00C2B\U+00C2N
  0
ENDSEC
  0
EOF
