  0
SECTION
  2
HEADER
  9
$ACADVER
  1
AC1009
  9
$INSBASE
 10
0.0
 20
0.0
 30
0.0
  9
$EXTMIN
 10
242.7923451033094
 20
150.63873802451491
 30
0.0
  9
$EXTMAX
 10
260.20910399772191
 20
170.078873449848
 30
1.639344262333333
  9
$LIMMIN
 10
0.0
 20
0.0
  9
$LIMMAX
 10
420.0
 20
297.0
  9
$ORTHOMODE
 70
     0
  9
$REGENMODE
 70
     1
  9
$FILLMODE
 70
     1
  9
$QTEXTMODE
 70
     0
  9
$MIRRTEXT
 70
     1
  9
$DRAGMODE
 70
     2
  9
$LTSCALE
 40
0.3
  9
$OSMODE
 70
    37
  9
$ATTMODE
 70
     1
  9
$TEXTSIZE
 40
2.5
  9
$TRACEWID
 40
1.0
  9
$TEXTSTYLE
  7
STANDARD
  9
$CLAYER
  8
2
  9
$CELTYPE
  6
BYLAYER
  9
$CECOLOR
 62
   256
  9
$DIMSCALE
 40
0.5
  9
$DIMASZ
 40
2.5
  9
$DIMEXO
 40
0.625
  9
$DIMDLI
 40
3.75
  9
$DIMRND
 40
0.0
  9
$DIMDLE
 40
0.0
  9
$DIMEXE
 40
1.25
  9
$DIMTP
 40
0.0
  9
$DIMTM
 40
0.0
  9
$DIMTXT
 40
2.5
  9
$DIMCEN
 40
2.5
  9
$DIMTSZ
 40
0.0
  9
$DIMTOL
 70
     0
  9
$DIMLIM
 70
     0
  9
$DIMTIH
 70
     0
  9
$DIMTOH
 70
     0
  9
$DIMSE1
 70
     0
  9
$DIMSE2
 70
     0
  9
$DIMTAD
 70
     1
  9
$DIMZIN
 70
     8
  9
$DIMBLK
  1

  9
$DIMASO
 70
     1
  9
$DIMSHO
 70
     1
  9
$DIMPOST
  1

  9
$DIMAPOST
  1

  9
$DIMALT
 70
     0
  9
$DIMALTD
 70
     3
  9
$DIMALTF
 40
0.03937007874016
  9
$DIMLFAC
 40
1.0
  9
$DIMTOFL
 70
     1
  9
$DIMTVP
 40
0.0
  9
$DIMTIX
 70
     0
  9
$DIMSOXD
 70
     0
  9
$DIMSAH
 70
     0
  9
$DIMBLK1
  1

  9
$DIMBLK2
  1

  9
$DIMSTYLE
  2
ISO-25
  9
$DIMCLRD
 70
     0
  9
$DIMCLRE
 70
     0
  9
$DIMCLRT
 70
     0
  9
$DIMTFAC
 40
1.0
  9
$DIMGAP
 40
0.625
  9
$LUNITS
 70
     2
  9
$LUPREC
 70
     4
  9
$SKETCHINC
 40
1.0
  9
$FILLETRAD
 40
10.0
  9
$AUNITS
 70
     0
  9
$AUPREC
 70
     0
  9
$MENU
  1
.
  9
$ELEVATION
 40
0.0
  9
$PELEVATION
 40
0.0
  9
$THICKNESS
 40
0.0
  9
$LIMCHECK
 70
     0
  9
$BLIPMODE
 70
     0
  9
$CHAMFERA
 40
10.0
  9
$CHAMFERB
 40
10.0
  9
$SKPOLY
 70
     0
  9
$TDCREATE
 40
2453433.9052134608
  9
$TDUPDATE
 40
2453551.8920882982
  9
$TDINDWG
 40
0.0959059491
  9
$TDUSRTIMER
 40
0.0959059491
  9
$USRTIMER
 70
     1
  9
$ANGBASE
 50
0.0
  9
$ANGDIR
 70
     0
  9
$PDMODE
 70
     0
  9
$PDSIZE
 40
0.0
  9
$PLINEWID
 40
0.0
  9
$COORDS
 70
     1
  9
$SPLFRAME
 70
     0
  9
$SPLINETYPE
 70
     6
  9
$SPLINESEGS
 70
     8
  9
$ATTDIA
 70
     0
  9
$ATTREQ
 70
     1
  9
$HANDLING
 70
-16383
  9
$HANDSEED
  5
77F
  9
$SURFTAB1
 70
     6
  9
$SURFTAB2
 70
     6
  9
$SURFTYPE
 70
     6
  9
$SURFU
 70
     6
  9
$SURFV
 70
     6
  9
$UCSNAME
  2

  9
$UCSORG
 10
0.0
 20
0.0
 30
0.0
  9
$UCSXDIR
 10
1.0
 20
0.0
 30
0.0
  9
$UCSYDIR
 10
0.0
 20
1.0
 30
0.0
  9
$PUCSNAME
  2

  9
$PUCSORG
 10
0.0
 20
0.0
 30
0.0
  9
$PUCSXDIR
 10
1.0
 20
0.0
 30
0.0
  9
$PUCSYDIR
 10
0.0
 20
1.0
 30
0.0
  9
$USERI1
 70
     0
  9
$USERI2
 70
     0
  9
$USERI3
 70
     0
  9
$USERI4
 70
     0
  9
$USERI5
 70
     0
  9
$USERR1
 40
0.0
  9
$USERR2
 40
0.0
  9
$USERR3
 40
0.0
  9
$USERR4
 40
0.0
  9
$USERR5
 40
0.0
  9
$WORLDVIEW
 70
     1
  9
$SHADEDGE
 70
     3
  9
$SHADEDIF
 70
    70
  9
$TILEMODE
 70
     1
  9
$MAXACTVP
 70
    64
  9
$PLIMCHECK
 70
     0
  9
$PEXTMIN
 10
1.0000000000000000E+020
 20
1.0000000000000000E+020
 30
1.0000000000000000E+020
  9
$PEXTMAX
 10
-1.0000000000000000E+020
 20
-1.0000000000000000E+020
 30
-1.0000000000000000E+020
  9
$PLIMMIN
 10
0.0
 20
0.0
  9
$PLIMMAX
 10
420.0
 20
297.0
  9
$UNITMODE
 70
     0
  9
$VISRETAIN
 70
     1
  9
$PLINEGEN
 70
     0
  9
$PSLTSCALE
 70
     1
  0
ENDSEC
  0
SECTION
  2
TABLES
  0
TABLE
  2
VPORT
 70
     2
  0
VPORT
  2
*ACTIVE
 70
     0
 10
0.0
 20
0.0
 11
1.0
 21
1.0
 12
263.25125286448878
 22
158.75138408931841
 13
0.0
 23
0.0
 14
10.0
 24
10.0
 15
10.0
 25
10.0
 16
0.0
 26
0.0
 36
1.0
 17
0.0
 27
0.0
 37
0.0
 40
31.974068878999219
 41
2.5392405063291141
 42
50.0
 43
0.0
 44
0.0
 50
0.0
 51
0.0
 71
     0
 72
   100
 73
     1
 74
     3
 75
     0
 76
     0
 77
     0
 78
     0
  0
ENDTAB
  0
TABLE
  2
LTYPE
 70
     3
  0
LTYPE
  2
CONTINUOUS
 70
     0
  3
Solid line
 72
    65
 73
     0
 40
0.0
  0
LTYPE
  2
CENTER2
 70
     0
  3
Center (.5x) ___ _ ___ _ ___ _ ___ _ ___ _ ___
 72
    65
 73
     4
 40
28.574999999999989
 49
19.050000000000001
 49
-3.1749999999999989
 49
3.1749999999999989
 49
-3.1749999999999989
  0
LTYPE
  2
CENTER
 70
     0
  3
Center ____ _ ____ _ ____ _ ____ _ ____ _ ____
 72
    65
 73
     4
 40
50.799999999999997
 49
31.75
 49
-6.3499999999999988
 49
6.3499999999999988
 49
-6.3499999999999988
  0
ENDTAB
  0
TABLE
  2
LAYER
 70
     4
  0
LAYER
  2
0
 70
     0
 62
     7
  6
CONTINUOUS
  0
LAYER
  2
DEFPOINTS
 70
     1
 62
     7
  6
CONTINUOUS
  0
LAYER
  2
1
 70
     0
 62
     7
  6
CENTER2
  0
LAYER
  2
2
 70
     0
 62
     7
  6
CONTINUOUS
  0
ENDTAB
  0
TABLE
  2
STYLE
 70
     3
  0
STYLE
  2
STANDARD
 70
     0
 40
0.0
 41
1.0
 50
0.0
 71
     0
 42
2.5
  3
txt
  4

  0
STYLE
  2
\U+00C9L\U+00C9R_\U+00C2S\U+00C2V\U+00C2B\U+00C2N
 70
     0
 40
1.0
 41
1.0
 50
0.0
 71
     0
 42
1.0
  3
\U+00E9l\U+00E9r \U+00E2S\U+00E2V\U+00E2b\U+00E2N
  4

  0
STYLE
  2

 70
     1
 40
0.0
 41
1.0
 50
0.0
 71
     0
 42
2.5
  3
ltypeshp.shx
  4

  0
ENDTAB
  0
TABLE
  2
VIEW
 70
     0
  0
ENDTAB
  0
TABLE
  2
UCS
 70
     0
  0
ENDTAB
  0
TABLE
  2
APPID
 70
     1
  0
APPID
  2
ACAD
 70
     0
  0
ENDTAB
  0
TABLE
  2
DIMSTYLE
 70
     2
  0
DIMSTYLE
  2
ISO-25
 70
     0
  3

  4

  5

  6

  7

 40
0.5
 41
2.5
 42
0.625
 43
3.75
 44
1.25
 45
0.0
 46
0.0
 47
0.0
 48
0.0
140
2.5
141
2.5
142
0.0
143
0.03937007874016
144
1.0
145
0.0
146
1.0
147
0.625
 71
     0
 72
     0
 73
     0
 74
     0
 75
     0
 76
     0
 77
     1
 78
     8
170
     0
171
     3
172
     1
173
     0
174
     0
175
     0
176
     0
177
     0
178
     0
  0
DIMSTYLE
  2
STANDARD
 70
     0
  3

  4

  5

  6

  7

 40
1.0
 41
0.18
 42
0.0625
 43
0.38
 44
0.18
 45
0.0
 46
0.0
 47
0.0
 48
0.0
140
0.18
141
0.09
142
0.0
143
25.399999999999999
144
1.0
145
0.0
146
1.0
147
0.09
 71
     0
 72
     0
 73
     1
 74
     1
 75
     0
 76
     0
 77
     0
 78
     0
170
     0
171
     2
172
     0
173
     0
174
     0
175
     0
176
     0
177
     0
178
     0
  0
ENDTAB
  0
ENDSEC
  0
SECTION
  2
BLOCKS
  0
BLOCK
  8
0
  2
$MODEL_SPACE
 70
     0
 10
0.0
 20
0.0
 30
0.0
  3
$MODEL_SPACE
  1

  0
ENDBLK
  5
21
  8
0
  0
BLOCK
 67
     1
  8
0
  2
$PAPER_SPACE
 70
     0
 10
0.0
 20
0.0
 30
0.0
  3
$PAPER_SPACE
  1

  0
ENDBLK
  5
1D
 67
     1
  8
0
  0
BLOCK
  8
0
  2
*D1
 70
     1
 10
0.0
 20
0.0
 30
0.0
  3
*D1
  1

  0
LINE
  5
73C
  8
2
 62
     0
 10
245.87842684573241
 20
163.93580317413179
 30
0.0
 11
245.87842684573241
 21
167.0249440889819
 31
0.0
  0
LINE
  5
73D
  8
2
 62
     0
 10
246.67842684573239
 20
163.93580317413171
 30
0.0
 11
246.67842684573239
 21
167.0249440889819
 31
0.0
  0
LINE
  5
73E
  8
2
 62
     0
 10
244.62842684573241
 20
166.3999440889819
 30
0.0
 11
243.37842684573241
 21
166.3999440889819
 31
0.0
  0
LINE
  5
73F
  8
2
 62
     0
 10
247.92842684573239
 20
166.3999440889819
 30
0.0
 11
253.34509351239899
 21
166.3999440889819
 31
0.0
  0
LINE
  5
740
  8
2
 62
     0
 10
245.87842684573241
 20
166.3999440889819
 30
0.0
 11
246.67842684573239
 21
166.3999440889819
 31
0.0
  0
SOLID
  5
741
  8
2
 62
     0
 10
244.62842684573241
 20
166.60827742231521
 30
0.0
 11
244.62842684573241
 21
166.19161075564861
 31
0.0
 12
245.87842684573241
 22
166.3999440889819
 32
0.0
 13
245.87842684573241
 23
166.3999440889819
 33
0.0
  0
SOLID
  5
742
  8
2
 62
     0
 10
247.92842684573239
 20
166.60827742231521
 30
0.0
 11
247.92842684573239
 21
166.19161075564861
 31
0.0
 12
246.67842684573239
 22
166.3999440889819
 32
0.0
 13
246.67842684573239
 23
166.3999440889819
 33
0.0
  0
INSERT
  5
743
  8
2
  2
*U7
 10
0.0
 20
0.0
 30
0.0
  0
POINT
  5
744
  8
DEFPOINTS
 62
     0
 10
245.87842684573241
 20
163.62330317413179
 30
0.0
  0
POINT
  5
745
  8
DEFPOINTS
 62
     0
 10
246.67842684573239
 20
163.62330317413171
 30
0.0
  0
POINT
  5
746
  8
DEFPOINTS
 62
     0
 10
246.67842684573239
 20
166.3999440889819
 30
0.0
  0
ENDBLK
  5
6E4
  8
0
  0
BLOCK
  8
0
  2
*D2
 70
     1
 10
0.0
 20
0.0
 30
0.0
  3
*D2
  1

  0
LINE
  5
731
  8
2
 62
     0
 10
245.67842684573239
 20
163.93580317413179
 30
0.0
 11
245.67842684573239
 21
169.141373449848
 31
0.0
  0
LINE
  5
732
  8
2
 62
     0
 10
246.87842684573241
 20
163.93580317413171
 30
0.0
 11
246.87842684573241
 21
169.141373449848
 31
0.0
  0
LINE
  5
733
  8
2
 62
     0
 10
244.42842684573239
 20
168.516373449848
 30
0.0
 11
243.17842684573239
 21
168.516373449848
 31
0.0
  0
LINE
  5
734
  8
2
 62
     0
 10
248.12842684573241
 20
168.516373449848
 30
0.0
 11
253.33676017906569
 21
168.516373449848
 31
0.0
  0
LINE
  5
735
  8
2
 62
     0
 10
245.67842684573239
 20
168.516373449848
 30
0.0
 11
246.87842684573241
 21
168.516373449848
 31
0.0
  0
SOLID
  5
736
  8
2
 62
     0
 10
244.42842684573239
 20
168.72470678318129
 30
0.0
 11
244.42842684573239
 21
168.3080401165146
 31
0.0
 12
245.67842684573239
 22
168.516373449848
 32
0.0
 13
245.67842684573239
 23
168.516373449848
 33
0.0
  0
SOLID
  5
737
  8
2
 62
     0
 10
248.12842684573241
 20
168.72470678318129
 30
0.0
 11
248.12842684573241
 21
168.3080401165146
 31
0.0
 12
246.87842684573241
 22
168.516373449848
 32
0.0
 13
246.87842684573241
 23
168.516373449848
 33
0.0
  0
INSERT
  5
738
  8
2
  2
*U6
 10
0.0
 20
0.0
 30
0.0
  0
POINT
  5
739
  8
DEFPOINTS
 62
     0
 10
245.67842684573239
 20
163.62330317413179
 30
0.0
  0
POINT
  5
73A
  8
DEFPOINTS
 62
     0
 10
246.87842684573241
 20
163.62330317413171
 30
0.0
  0
POINT
  5
73B
  8
DEFPOINTS
 62
     0
 10
246.87842684573241
 20
168.516373449848
 30
0.0
  0
ENDBLK
  5
6F3
  8
0
  0
BLOCK
  8
0
  2
*D3
 70
     1
 10
0.0
 20
0.0
 30
0.0
  3
*D3
  1

  0
LINE
  5
747
  8
2
 62
     0
 10
245.77842684573241
 20
161.71080317413171
 30
0.0
 11
245.77842684573241
 21
159.1306320361212
 31
0.0
  0
LINE
  5
748
  8
2
 62
     0
 10
246.77842684573241
 20
161.71080317413171
 30
0.0
 11
246.77842684573241
 21
159.1306320361212
 31
0.0
  0
LINE
  5
749
  8
2
 62
     0
 10
244.52842684573241
 20
159.7556320361212
 30
0.0
 11
243.27842684573241
 21
159.7556320361212
 31
0.0
  0
LINE
  5
74A
  8
2
 62
     0
 10
248.02842684573241
 20
159.7556320361212
 30
0.0
 11
251.57009351239901
 21
159.7556320361212
 31
0.0
  0
LINE
  5
74B
  8
2
 62
     0
 10
245.77842684573241
 20
159.7556320361212
 30
0.0
 11
246.77842684573241
 21
159.7556320361212
 31
0.0
  0
SOLID
  5
74C
  8
2
 62
     0
 10
244.52842684573241
 20
159.96396536945451
 30
0.0
 11
244.52842684573241
 21
159.5472987027878
 31
0.0
 12
245.77842684573241
 22
159.7556320361212
 32
0.0
 13
245.77842684573241
 23
159.7556320361212
 33
0.0
  0
SOLID
  5
74D
  8
2
 62
     0
 10
248.02842684573241
 20
159.96396536945451
 30
0.0
 11
248.02842684573241
 21
159.5472987027878
 31
0.0
 12
246.77842684573241
 22
159.7556320361212
 32
0.0
 13
246.77842684573241
 23
159.7556320361212
 33
0.0
  0
INSERT
  5
74E
  8
2
  2
*U8
 10
0.0
 20
0.0
 30
0.0
  0
POINT
  5
74F
  8
DEFPOINTS
 62
     0
 10
245.77842684573241
 20
162.02330317413171
 30
0.0
  0
POINT
  5
750
  8
DEFPOINTS
 62
     0
 10
246.77842684573241
 20
162.02330317413171
 30
0.0
  0
POINT
  5
751
  8
DEFPOINTS
 62
     0
 10
246.77842684573241
 20
159.7556320361212
 30
0.0
  0
ENDBLK
  5
702
  8
0
  0
BLOCK
  8
0
  2
*D4
 70
     1
 10
0.0
 20
0.0
 30
0.0
  3
*D4
  1

  0
LINE
  5
714
  8
2
 62
     0
 10
247.09092684573241
 20
162.02330317413171
 30
0.0
 11
255.9549286543143
 21
162.02330317413171
 31
0.0
  0
LINE
  5
715
  8
2
 62
     0
 10
246.99092684573239
 20
162.2233031741317
 30
0.0
 11
255.9549286543143
 21
162.2233031741317
 31
0.0
  0
LINE
  5
716
  8
2
 62
     0
 10
255.3299286543143
 20
160.77330317413171
 30
0.0
 11
255.3299286543143
 21
159.52330317413171
 31
0.0
  0
LINE
  5
717
  8
2
 62
     0
 10
255.3299286543143
 20
163.4733031741317
 30
0.0
 11
255.3299286543143
 21
167.63996984079839
 31
0.0
  0
LINE
  5
718
  8
2
 62
     0
 10
255.3299286543143
 20
162.02330317413171
 30
0.0
 11
255.3299286543143
 21
162.2233031741317
 31
0.0
  0
SOLID
  5
719
  8
2
 62
     0
 10
255.12159532098099
 20
160.77330317413171
 30
0.0
 11
255.5382619876477
 21
160.77330317413171
 31
0.0
 12
255.3299286543143
 22
162.02330317413171
 32
0.0
 13
255.3299286543143
 23
162.02330317413171
 33
0.0
  0
SOLID
  5
71A
  8
2
 62
     0
 10
255.12159532098099
 20
163.4733031741317
 30
0.0
 11
255.5382619876477
 21
163.4733031741317
 31
0.0
 12
255.3299286543143
 22
162.2233031741317
 32
0.0
 13
255.3299286543143
 23
162.2233031741317
 33
0.0
  0
TEXT
  5
71B
  8
2
 62
     0
 10
255.0174286543143
 20
165.0358031741317
 30
0.0
 40
1.25
  1
0.2
 50
90.0
  0
POINT
  5
71C
  8
DEFPOINTS
 62
     0
 10
246.77842684573241
 20
162.02330317413171
 30
0.0
  0
POINT
  5
71D
  8
DEFPOINTS
 62
     0
 10
246.67842684573239
 20
162.2233031741317
 30
0.0
  0
POINT
  5
71E
  8
DEFPOINTS
 62
     0
 10
255.3299286543143
 20
162.2233031741317
 30
0.0
  0
ENDBLK
  5
720
  8
0
  0
BLOCK
  8
0
  2
*D5
 70
     1
 10
0.0
 20
0.0
 30
0.0
  3
*D5
  1

  0
LINE
  5
723
  8
2
 62
     0
 10
255.6424286543143
 20
162.02330317413171
 30
0.0
 11
258.3950372686329
 21
162.02330317413171
 31
0.0
  0
LINE
  5
724
  8
2
 62
     0
 10
247.19092684573241
 20
163.62330317413171
 30
0.0
 11
258.3950372686329
 21
163.62330317413171
 31
0.0
  0
LINE
  5
725
  8
2
 62
     0
 10
257.7700372686329
 20
160.77330317413171
 30
0.0
 11
257.7700372686329
 21
159.52330317413171
 31
0.0
  0
LINE
  5
726
  8
2
 62
     0
 10
257.7700372686329
 20
164.87330317413171
 30
0.0
 11
257.7700372686329
 21
168.83163650746511
 31
0.0
  0
LINE
  5
727
  8
2
 62
     0
 10
257.7700372686329
 20
162.02330317413171
 30
0.0
 11
257.7700372686329
 21
163.62330317413171
 31
0.0
  0
SOLID
  5
728
  8
2
 62
     0
 10
257.56170393529959
 20
160.77330317413171
 30
0.0
 11
257.97837060196622
 21
160.77330317413171
 31
0.0
 12
257.7700372686329
 22
162.02330317413171
 32
0.0
 13
257.7700372686329
 23
162.02330317413171
 33
0.0
  0
SOLID
  5
729
  8
2
 62
     0
 10
257.56170393529959
 20
164.87330317413171
 30
0.0
 11
257.97837060196622
 21
164.87330317413171
 31
0.0
 12
257.7700372686329
 22
163.62330317413171
 32
0.0
 13
257.7700372686329
 23
163.62330317413171
 33
0.0
  0
TEXT
  5
72A
  8
2
 62
     0
 10
257.4575372686329
 20
166.43580317413179
 30
0.0
 40
1.25
  1
1.6
 50
90.0
  0
POINT
  5
72B
  8
DEFPOINTS
 62
     0
 10
255.3299286543143
 20
162.02330317413171
 30
0.0
  0
POINT
  5
72C
  8
DEFPOINTS
 62
     0
 10
246.87842684573241
 20
163.62330317413171
 30
0.0
  0
POINT
  5
72D
  8
DEFPOINTS
 62
     0
 10
257.7700372686329
 20
163.62330317413171
 30
0.0
  0
ENDBLK
  5
72F
  8
0
  0
BLOCK
  8
0
  2
*U6
 70
     1
 10
0.0
 20
0.0
 30
0.0
  3
*U6
  1

  0
TEXT
  5
771
  8
2
 62
     0
 10
249.69092684573241
 20
168.828873449848
 30
0.0
 40
1.25
  1
\U+2205
  0
TEXT
  5
772
  8
2
 62
     0
 10
250.94092684573241
 20
168.828873449848
 30
0.0
 40
1.25
  1
1.2
  0
ENDBLK
  5
774
  8
0
  0
BLOCK
  8
0
  2
*U7
 70
     1
 10
0.0
 20
0.0
 30
0.0
  3
*U7
  1

  0
TEXT
  5
776
  8
2
 62
     0
 10
249.49092684573239
 20
166.7124440889819
 30
0.0
 40
1.25
  1
\U+2205
  0
TEXT
  5
777
  8
2
 62
     0
 10
250.74092684573239
 20
166.7124440889819
 30
0.0
 40
1.25
  1
0.8
  0
ENDBLK
  5
779
  8
0
  0
BLOCK
  8
0
  2
*U8
 70
     1
 10
0.0
 20
0.0
 30
0.0
  3
*U8
  1

  0
TEXT
  5
77B
  8
2
 62
     0
 10
249.59092684573241
 20
160.0681320361212
 30
0.0
 40
1.25
  1
\U+2205
  0
TEXT
  5
77C
  8
2
 62
     0
 10
250.84092684573241
 20
160.0681320361212
 30
0.0
 40
1.25
  1
1
  0
ENDBLK
  5
77E
  8
0
  0
ENDSEC
  0
SECTION
  2
ENTITIES
  0
TEXT
  5
97
  8
2
 10
242.7923451373382
 20
150.75968773880061
 30
0.0
 40
1.2699720000000001
  1
No. 102.001.001._
 51
-0.0000015352344868
  7
\U+00C9L\U+00C9R_\U+00C2S\U+00C2V\U+00C2B\U+00C2N
  0
LINE
  5
440
  8
0
 39
1.639344262333333
 10
246.27842684573241
 20
163.62330317413171
 30
0.0
 11
245.67842684573239
 21
163.62330317413179
 31
0.0
  0
LINE
  5
44A
  8
1
 10
246.27842684573241
 20
163.7872376003651
 30
0.0
 11
246.27842684573241
 21
161.835434321631
 31
0.0
  0
LINE
  5
6AF
  8
0
 10
245.67842684573239
 20
163.62330317413171
 30
0.0
 11
245.67842684573239
 21
162.2233031741317
 31
0.0
  0
LINE
  5
6B3
  8
0
 10
245.77842684573241
 20
162.02330317413171
 30
0.0
 11
246.27842684573241
 21
162.02330317413171
 31
0.0
  0
LINE
  5
6B4
  8
0
 10
245.87842684573241
 20
162.2233031741317
 30
0.0
 11
245.87842684573241
 21
163.62330317413171
 31
0.0
  0
LINE
  5
6B7
  8
0
 10
245.67842684573239
 20
162.2233031741317
 30
0.0
 11
245.77842684573241
 21
162.02330317413171
 31
0.0
  0
LINE
  5
6B8
  8
0
 10
245.77842684573241
 20
162.02330317413171
 30
0.0
 11
245.87842684573241
 21
162.2233031741317
 31
0.0
  0
LINE
  5
6B9
  8
0
 10
245.87842684573241
 20
162.2233031741317
 30
0.0
 11
246.27842684573241
 21
162.2233031741317
 31
0.0
  0
LINE
  5
6BD
  8
0
 39
1.639344262333333
 10
246.27842684573241
 20
163.62330317413171
 30
0.0
 11
246.87842684573241
 21
163.62330317413171
 31
0.0
  0
LINE
  5
6BF
  8
0
 10
246.67842684573239
 20
162.2233031741317
 30
0.0
 11
246.27842684573241
 21
162.2233031741317
 31
0.0
  0
LINE
  5
6C0
  8
0
 10
246.77842684573241
 20
162.02330317413171
 30
0.0
 11
246.67842684573239
 21
162.2233031741317
 31
0.0
  0
LINE
  5
6C1
  8
0
 10
246.87842684573241
 20
162.2233031741317
 30
0.0
 11
246.77842684573241
 21
162.02330317413171
 31
0.0
  0
LINE
  5
6C2
  8
0
 10
246.67842684573239
 20
162.2233031741317
 30
0.0
 11
246.67842684573239
 21
163.62330317413171
 31
0.0
  0
LINE
  5
6C3
  8
0
 10
246.77842684573241
 20
162.02330317413171
 30
0.0
 11
246.27842684573241
 21
162.02330317413171
 31
0.0
  0
LINE
  5
6C4
  8
0
 10
246.87842684573241
 20
163.62330317413171
 30
0.0
 11
246.87842684573241
 21
162.2233031741317
 31
0.0
  0
DIMENSION
  5
6D6
  8
2
  2
*D1
 10
246.67842684573239
 20
166.3999440889819
 30
0.0
 11
251.2617601790657
 21
167.3374440889819
 31
0.0
 70
     0
  1
%%c<>
 13
245.87842684573241
 23
163.62330317413179
 33
0.0
 14
246.67842684573239
 24
163.62330317413171
 34
0.0
  0
DIMENSION
  5
6E5
  8
2
  2
*D2
 10
246.87842684573241
 20
168.516373449848
 30
0.0
 11
251.35759351239909
 21
169.453873449848
 31
0.0
 70
     0
  1
%%c<>
 13
245.67842684573239
 23
163.62330317413179
 33
0.0
 14
246.87842684573241
 24
163.62330317413171
 34
0.0
  0
DIMENSION
  5
6F4
  8
2
  2
*D3
 10
246.77842684573241
 20
159.7556320361212
 30
0.0
 11
250.4242601790657
 21
160.6931320361212
 31
0.0
 70
     0
  1
%%c<>
 13
245.77842684573241
 23
162.02330317413171
 33
0.0
 14
246.77842684573241
 24
162.02330317413171
 34
0.0
  0
DIMENSION
  5
712
  8
2
  2
*D4
 10
255.3299286543143
 20
162.2233031741317
 30
0.0
 11
254.3924286543143
 21
166.1816365074651
 31
0.0
 70
     0
 13
246.77842684573241
 23
162.02330317413171
 33
0.0
 14
246.67842684573239
 24
162.2233031741317
 34
0.0
 50
90.0
  0
DIMENSION
  5
721
  8
2
  2
*D5
 10
257.7700372686329
 20
163.62330317413171
 30
0.0
 11
256.8325372686329
 21
167.47746984079839
 31
0.0
 70
     0
 13
255.3299286543143
 23
162.02330317413171
 33
0.0
 14
246.87842684573241
 24
163.62330317413171
 34
0.0
 50
90.0
  0
ENDSEC
  0
EOF
