  0
SECTION
  2
HEADER
  9
$ACADVER
  1
AC1009
  9
$INSBASE
 10
0.0
 20
0.0
 30
0.0
  9
$EXTMIN
 10
258.76326043614603
 20
128.97814298205739
 30
0.0
  9
$EXTMAX
 10
294.0805770821139
 20
153.27076735181299
 30
0.0
  9
$LIMMIN
 10
0.0
 20
0.0
  9
$LIMMAX
 10
420.0
 20
297.0
  9
$ORTHOMODE
 70
     0
  9
$REGENMODE
 70
     1
  9
$FILLMODE
 70
     1
  9
$QTEXTMODE
 70
     0
  9
$MIRRTEXT
 70
     1
  9
$DRAGMODE
 70
     2
  9
$LTSCALE
 40
0.3
  9
$OSMODE
 70
    37
  9
$ATTMODE
 70
     1
  9
$TEXTSIZE
 40
2.5
  9
$TRACEWID
 40
1.0
  9
$TEXTSTYLE
  7
STANDARD
  9
$CLAYER
  8
2
  9
$CELTYPE
  6
BYLAYER
  9
$CECOLOR
 62
   256
  9
$DIMSCALE
 40
0.5
  9
$DIMASZ
 40
2.5
  9
$DIMEXO
 40
0.625
  9
$DIMDLI
 40
3.75
  9
$DIMRND
 40
0.0
  9
$DIMDLE
 40
0.0
  9
$DIMEXE
 40
1.25
  9
$DIMTP
 40
0.0
  9
$DIMTM
 40
0.0
  9
$DIMTXT
 40
2.5
  9
$DIMCEN
 40
2.5
  9
$DIMTSZ
 40
0.0
  9
$DIMTOL
 70
     0
  9
$DIMLIM
 70
     0
  9
$DIMTIH
 70
     0
  9
$DIMTOH
 70
     0
  9
$DIMSE1
 70
     0
  9
$DIMSE2
 70
     0
  9
$DIMTAD
 70
     1
  9
$DIMZIN
 70
     8
  9
$DIMBLK
  1

  9
$DIMASO
 70
     1
  9
$DIMSHO
 70
     1
  9
$DIMPOST
  1

  9
$DIMAPOST
  1

  9
$DIMALT
 70
     0
  9
$DIMALTD
 70
     3
  9
$DIMALTF
 40
0.03937007874016
  9
$DIMLFAC
 40
1.0
  9
$DIMTOFL
 70
     1
  9
$DIMTVP
 40
0.0
  9
$DIMTIX
 70
     0
  9
$DIMSOXD
 70
     0
  9
$DIMSAH
 70
     0
  9
$DIMBLK1
  1

  9
$DIMBLK2
  1

  9
$DIMSTYLE
  2
ISO-25
  9
$DIMCLRD
 70
     0
  9
$DIMCLRE
 70
     0
  9
$DIMCLRT
 70
     0
  9
$DIMTFAC
 40
1.0
  9
$DIMGAP
 40
0.625
  9
$LUNITS
 70
     2
  9
$LUPREC
 70
     4
  9
$SKETCHINC
 40
1.0
  9
$FILLETRAD
 40
10.0
  9
$AUNITS
 70
     0
  9
$AUPREC
 70
     0
  9
$MENU
  1
.
  9
$ELEVATION
 40
0.0
  9
$PELEVATION
 40
0.0
  9
$THICKNESS
 40
0.0
  9
$LIMCHECK
 70
     0
  9
$BLIPMODE
 70
     0
  9
$CHAMFERA
 40
10.0
  9
$CHAMFERB
 40
10.0
  9
$SKPOLY
 70
     0
  9
$TDCREATE
 40
2453433.9101951621
  9
$TDUPDATE
 40
2453551.892803669
  9
$TDINDWG
 40
0.0421885417
  9
$TDUSRTIMER
 40
0.0421885417
  9
$USRTIMER
 70
     1
  9
$ANGBASE
 50
0.0
  9
$ANGDIR
 70
     0
  9
$PDMODE
 70
     0
  9
$PDSIZE
 40
0.0
  9
$PLINEWID
 40
0.0
  9
$COORDS
 70
     1
  9
$SPLFRAME
 70
     0
  9
$SPLINETYPE
 70
     6
  9
$SPLINESEGS
 70
     8
  9
$ATTDIA
 70
     0
  9
$ATTREQ
 70
     1
  9
$HANDLING
 70
-16383
  9
$HANDSEED
  5
3B9
  9
$SURFTAB1
 70
     6
  9
$SURFTAB2
 70
     6
  9
$SURFTYPE
 70
     6
  9
$SURFU
 70
     6
  9
$SURFV
 70
     6
  9
$UCSNAME
  2

  9
$UCSORG
 10
0.0
 20
0.0
 30
0.0
  9
$UCSXDIR
 10
1.0
 20
0.0
 30
0.0
  9
$UCSYDIR
 10
0.0
 20
1.0
 30
0.0
  9
$PUCSNAME
  2

  9
$PUCSORG
 10
0.0
 20
0.0
 30
0.0
  9
$PUCSXDIR
 10
1.0
 20
0.0
 30
0.0
  9
$PUCSYDIR
 10
0.0
 20
1.0
 30
0.0
  9
$USERI1
 70
     0
  9
$USERI2
 70
     0
  9
$USERI3
 70
     0
  9
$USERI4
 70
     0
  9
$USERI5
 70
     0
  9
$USERR1
 40
0.0
  9
$USERR2
 40
0.0
  9
$USERR3
 40
0.0
  9
$USERR4
 40
0.0
  9
$USERR5
 40
0.0
  9
$WORLDVIEW
 70
     1
  9
$SHADEDGE
 70
     3
  9
$SHADEDIF
 70
    70
  9
$TILEMODE
 70
     1
  9
$MAXACTVP
 70
    64
  9
$PLIMCHECK
 70
     0
  9
$PEXTMIN
 10
1.0000000000000000E+020
 20
1.0000000000000000E+020
 30
1.0000000000000000E+020
  9
$PEXTMAX
 10
-1.0000000000000000E+020
 20
-1.0000000000000000E+020
 30
-1.0000000000000000E+020
  9
$PLIMMIN
 10
0.0
 20
0.0
  9
$PLIMMAX
 10
420.0
 20
297.0
  9
$UNITMODE
 70
     0
  9
$VISRETAIN
 70
     1
  9
$PLINEGEN
 70
     0
  9
$PSLTSCALE
 70
     1
  0
ENDSEC
  0
SECTION
  2
TABLES
  0
TABLE
  2
VPORT
 70
     2
  0
VPORT
  2
*ACTIVE
 70
     0
 10
0.0
 20
0.0
 11
1.0
 21
1.0
 12
283.18739240625769
 22
130.2607536500486
 13
0.0
 23
0.0
 14
10.0
 24
10.0
 15
10.0
 25
10.0
 16
0.0
 26
0.0
 36
1.0
 17
0.0
 27
0.0
 37
0.0
 40
62.068159407999239
 41
2.5392405063291141
 42
50.0
 43
0.0
 44
0.0
 50
0.0
 51
0.0
 71
     0
 72
   100
 73
     1
 74
     3
 75
     0
 76
     0
 77
     0
 78
     0
  0
ENDTAB
  0
TABLE
  2
LTYPE
 70
     2
  0
LTYPE
  2
CONTINUOUS
 70
     0
  3
Solid line
 72
    65
 73
     0
 40
0.0
  0
LTYPE
  2
CENTER
 70
     0
  3
Center ____ _ ____ _ ____ _ ____ _ ____ _ ____
 72
    65
 73
     4
 40
50.799999999999997
 49
31.75
 49
-6.3499999999999988
 49
6.3499999999999988
 49
-6.3499999999999988
  0
ENDTAB
  0
TABLE
  2
LAYER
 70
     4
  0
LAYER
  2
0
 70
     0
 62
     7
  6
CONTINUOUS
  0
LAYER
  2
DEFPOINTS
 70
     0
 62
     7
  6
CONTINUOUS
  0
LAYER
  2
2
 70
     0
 62
     7
  6
CONTINUOUS
  0
LAYER
  2
1
 70
     0
 62
     7
  6
CENTER
  0
ENDTAB
  0
TABLE
  2
STYLE
 70
     3
  0
STYLE
  2
STANDARD
 70
     0
 40
0.0
 41
1.0
 50
0.0
 71
     0
 42
2.5
  3
txt
  4

  0
STYLE
  2
\U+00C9L\U+00C9R_\U+00C2S\U+00C2V\U+00C2B\U+00C2N
 70
     0
 40
1.0
 41
1.0
 50
0.0
 71
     0
 42
1.0
  3
\U+00E9l\U+00E9r \U+00E2S\U+00E2V\U+00E2b\U+00E2N
  4

  0
STYLE
  2

 70
     1
 40
0.0
 41
1.0
 50
0.0
 71
     0
 42
2.5
  3
ltypeshp.shx
  4

  0
ENDTAB
  0
TABLE
  2
VIEW
 70
     0
  0
ENDTAB
  0
TABLE
  2
UCS
 70
     0
  0
ENDTAB
  0
TABLE
  2
APPID
 70
     1
  0
APPID
  2
ACAD
 70
     0
  0
ENDTAB
  0
TABLE
  2
DIMSTYLE
 70
     2
  0
DIMSTYLE
  2
ISO-25
 70
     0
  3

  4

  5

  6

  7

 40
0.5
 41
2.5
 42
0.625
 43
3.75
 44
1.25
 45
0.0
 46
0.0
 47
0.0
 48
0.0
140
2.5
141
2.5
142
0.0
143
0.03937007874016
144
1.0
145
0.0
146
1.0
147
0.625
 71
     0
 72
     0
 73
     0
 74
     0
 75
     0
 76
     0
 77
     1
 78
     8
170
     0
171
     3
172
     1
173
     0
174
     0
175
     0
176
     0
177
     0
178
     0
  0
DIMSTYLE
  2
STANDARD
 70
     0
  3

  4

  5

  6

  7

 40
1.0
 41
0.18
 42
0.0625
 43
0.38
 44
0.18
 45
0.0
 46
0.0
 47
0.0
 48
0.0
140
0.18
141
0.09
142
0.0
143
25.399999999999999
144
1.0
145
0.0
146
1.0
147
0.09
 71
     0
 72
     0
 73
     1
 74
     1
 75
     0
 76
     0
 77
     0
 78
     0
170
     0
171
     2
172
     0
173
     0
174
     0
175
     0
176
     0
177
     0
178
     0
  0
ENDTAB
  0
ENDSEC
  0
SECTION
  2
BLOCKS
  0
BLOCK
  8
0
  2
$MODEL_SPACE
 70
     0
 10
0.0
 20
0.0
 30
0.0
  3
$MODEL_SPACE
  1

  0
ENDBLK
  5
21
  8
0
  0
BLOCK
 67
     1
  8
0
  2
$PAPER_SPACE
 70
     0
 10
0.0
 20
0.0
 30
0.0
  3
$PAPER_SPACE
  1

  0
ENDBLK
  5
1D
 67
     1
  8
0
  0
BLOCK
  8
0
  2
*D1
 70
     1
 10
0.0
 20
0.0
 30
0.0
  3
*D1
  1

  0
LINE
  5
37D
  8
2
 62
     0
 10
266.30114144035161
 20
147.19357920771719
 30
0.0
 11
266.30114144035161
 21
150.24584546147071
 31
0.0
  0
LINE
  5
37E
  8
2
 62
     0
 10
267.50114144035172
 20
147.19357920771719
 30
0.0
 11
267.50114144035172
 21
150.24584546147071
 31
0.0
  0
LINE
  5
37F
  8
2
 62
     0
 10
265.05114144035161
 20
149.62084546147071
 30
0.0
 11
263.80114144035161
 21
149.62084546147071
 31
0.0
  0
LINE
  5
380
  8
2
 62
     0
 10
268.75114144035172
 20
149.62084546147071
 30
0.0
 11
273.95947477368497
 21
149.62084546147071
 31
0.0
  0
LINE
  5
381
  8
2
 62
     0
 10
266.30114144035161
 20
149.62084546147071
 30
0.0
 11
267.50114144035172
 21
149.62084546147071
 31
0.0
  0
SOLID
  5
382
  8
2
 62
     0
 10
265.05114144035161
 20
149.82917879480411
 30
0.0
 11
265.05114144035161
 21
149.41251212813739
 31
0.0
 12
266.30114144035161
 22
149.62084546147071
 32
0.0
 13
266.30114144035161
 23
149.62084546147071
 33
0.0
  0
SOLID
  5
383
  8
2
 62
     0
 10
268.75114144035172
 20
149.82917879480411
 30
0.0
 11
268.75114144035172
 21
149.41251212813739
 31
0.0
 12
267.50114144035172
 22
149.62084546147071
 32
0.0
 13
267.50114144035172
 23
149.62084546147071
 33
0.0
  0
INSERT
  5
384
  8
2
  2
*U7
 10
0.0
 20
0.0
 30
0.0
  0
POINT
  5
385
  8
DEFPOINTS
 62
     0
 10
266.30114144035161
 20
146.88107920771719
 30
0.0
  0
POINT
  5
386
  8
DEFPOINTS
 62
     0
 10
267.50114144035172
 20
146.88107920771719
 30
0.0
  0
POINT
  5
387
  8
DEFPOINTS
 62
     0
 10
267.50114144035172
 20
149.62084546147071
 30
0.0
  0
ENDBLK
  5
334
  8
0
  0
BLOCK
  8
0
  2
*D2
 70
     1
 10
0.0
 20
0.0
 30
0.0
  3
*D2
  1

  0
LINE
  5
372
  8
2
 62
     0
 10
266.00114144035172
 20
147.19357920771719
 30
0.0
 11
266.00114144035172
 21
152.33326735181299
 31
0.0
  0
LINE
  5
373
  8
2
 62
     0
 10
267.80114144035161
 20
147.19357920771719
 30
0.0
 11
267.80114144035161
 21
152.33326735181299
 31
0.0
  0
LINE
  5
374
  8
2
 62
     0
 10
264.75114144035172
 20
151.70826735181291
 30
0.0
 11
263.50114144035172
 21
151.70826735181291
 31
0.0
  0
LINE
  5
375
  8
2
 62
     0
 10
269.05114144035161
 20
151.70826735181291
 30
0.0
 11
274.25947477368487
 21
151.70826735181291
 31
0.0
  0
LINE
  5
376
  8
2
 62
     0
 10
266.00114144035172
 20
151.70826735181291
 30
0.0
 11
267.80114144035161
 21
151.70826735181291
 31
0.0
  0
SOLID
  5
377
  8
2
 62
     0
 10
264.75114144035172
 20
151.91660068514631
 30
0.0
 11
264.75114144035172
 21
151.49993401847959
 31
0.0
 12
266.00114144035172
 22
151.70826735181291
 32
0.0
 13
266.00114144035172
 23
151.70826735181291
 33
0.0
  0
SOLID
  5
378
  8
2
 62
     0
 10
269.05114144035161
 20
151.91660068514631
 30
0.0
 11
269.05114144035161
 21
151.49993401847959
 31
0.0
 12
267.80114144035161
 22
151.70826735181291
 32
0.0
 13
267.80114144035161
 23
151.70826735181291
 33
0.0
  0
INSERT
  5
379
  8
2
  2
*U6
 10
0.0
 20
0.0
 30
0.0
  0
POINT
  5
37A
  8
DEFPOINTS
 62
     0
 10
266.00114144035172
 20
146.88107920771719
 30
0.0
  0
POINT
  5
37B
  8
DEFPOINTS
 62
     0
 10
267.80114144035161
 20
146.88107920771719
 30
0.0
  0
POINT
  5
37C
  8
DEFPOINTS
 62
     0
 10
267.80114144035161
 20
151.70826735181291
 30
0.0
  0
ENDBLK
  5
343
  8
0
  0
BLOCK
  8
0
  2
*D3
 70
     1
 10
0.0
 20
0.0
 30
0.0
  3
*D3
  1

  0
LINE
  5
388
  8
2
 62
     0
 10
266.15114144035158
 20
144.06857920771719
 30
0.0
 11
266.15114144035158
 21
140.1545435586132
 31
0.0
  0
LINE
  5
389
  8
2
 62
     0
 10
267.65114144035158
 20
144.06857920771719
 30
0.0
 11
267.65114144035158
 21
140.1545435586132
 31
0.0
  0
LINE
  5
38A
  8
2
 62
     0
 10
264.90114144035169
 20
140.7795435586132
 30
0.0
 11
263.65114144035158
 21
140.7795435586132
 31
0.0
  0
LINE
  5
38B
  8
2
 62
     0
 10
268.90114144035169
 20
140.7795435586132
 30
0.0
 11
274.10947477368501
 21
140.7795435586132
 31
0.0
  0
LINE
  5
38C
  8
2
 62
     0
 10
266.15114144035158
 20
140.7795435586132
 30
0.0
 11
267.65114144035158
 21
140.7795435586132
 31
0.0
  0
SOLID
  5
38D
  8
2
 62
     0
 10
264.90114144035169
 20
140.98787689194651
 30
0.0
 11
264.90114144035169
 21
140.5712102252798
 31
0.0
 12
266.15114144035158
 22
140.7795435586132
 32
0.0
 13
266.15114144035158
 23
140.7795435586132
 33
0.0
  0
SOLID
  5
38E
  8
2
 62
     0
 10
268.90114144035169
 20
140.98787689194651
 30
0.0
 11
268.90114144035169
 21
140.5712102252798
 31
0.0
 12
267.65114144035158
 22
140.7795435586132
 32
0.0
 13
267.65114144035158
 23
140.7795435586132
 33
0.0
  0
INSERT
  5
38F
  8
2
  2
*U8
 10
0.0
 20
0.0
 30
0.0
  0
POINT
  5
390
  8
DEFPOINTS
 62
     0
 10
266.15114144035158
 20
144.38107920771719
 30
0.0
  0
POINT
  5
391
  8
DEFPOINTS
 62
     0
 10
267.65114144035158
 20
144.38107920771719
 30
0.0
  0
POINT
  5
392
  8
DEFPOINTS
 62
     0
 10
267.65114144035158
 20
140.7795435586132
 30
0.0
  0
ENDBLK
  5
352
  8
0
  0
BLOCK
  8
0
  2
*D4
 70
     1
 10
0.0
 20
0.0
 30
0.0
  3
*D4
  1

  0
LINE
  5
355
  8
2
 62
     0
 10
267.96364144035169
 20
144.38107920771719
 30
0.0
 11
276.07366582287318
 21
144.38107920771719
 31
0.0
  0
LINE
  5
356
  8
2
 62
     0
 10
268.11364144035161
 20
144.6810792077172
 30
0.0
 11
276.07366582287318
 21
144.6810792077172
 31
0.0
  0
LINE
  5
357
  8
2
 62
     0
 10
275.44866582287318
 20
143.13107920771719
 30
0.0
 11
275.44866582287318
 21
141.88107920771719
 31
0.0
  0
LINE
  5
358
  8
2
 62
     0
 10
275.44866582287318
 20
145.9310792077172
 30
0.0
 11
275.44866582287318
 21
150.09774587438389
 31
0.0
  0
LINE
  5
359
  8
2
 62
     0
 10
275.44866582287318
 20
144.38107920771719
 30
0.0
 11
275.44866582287318
 21
144.6810792077172
 31
0.0
  0
SOLID
  5
35A
  8
2
 62
     0
 10
275.24033248953992
 20
143.13107920771719
 30
0.0
 11
275.6569991562065
 21
143.13107920771719
 31
0.0
 12
275.44866582287318
 22
144.38107920771719
 32
0.0
 13
275.44866582287318
 23
144.38107920771719
 33
0.0
  0
SOLID
  5
35B
  8
2
 62
     0
 10
275.24033248953992
 20
145.9310792077172
 30
0.0
 11
275.6569991562065
 21
145.9310792077172
 31
0.0
 12
275.44866582287318
 22
144.6810792077172
 32
0.0
 13
275.44866582287318
 23
144.6810792077172
 33
0.0
  0
TEXT
  5
35C
  8
2
 62
     0
 10
275.13616582287312
 20
147.4935792077172
 30
0.0
 40
1.25
  1
0.3
 50
90.0
  0
POINT
  5
35D
  8
DEFPOINTS
 62
     0
 10
267.65114144035158
 20
144.38107920771719
 30
0.0
  0
POINT
  5
35E
  8
DEFPOINTS
 62
     0
 10
267.80114144035161
 20
144.6810792077172
 30
0.0
  0
POINT
  5
35F
  8
DEFPOINTS
 62
     0
 10
275.44866582287318
 20
144.6810792077172
 30
0.0
  0
ENDBLK
  5
361
  8
0
  0
BLOCK
  8
0
  2
*D5
 70
     1
 10
0.0
 20
0.0
 30
0.0
  3
*D5
  1

  0
LINE
  5
364
  8
2
 62
     0
 10
275.76116582287318
 20
144.38107920771719
 30
0.0
 11
278.8208216327123
 21
144.38107920771719
 31
0.0
  0
LINE
  5
365
  8
2
 62
     0
 10
267.81364144035172
 20
146.88107920771719
 30
0.0
 11
278.8208216327123
 21
146.88107920771719
 31
0.0
  0
LINE
  5
366
  8
2
 62
     0
 10
278.1958216327123
 20
143.13107920771719
 30
0.0
 11
278.1958216327123
 21
141.88107920771719
 31
0.0
  0
LINE
  5
367
  8
2
 62
     0
 10
278.1958216327123
 20
148.13107920771719
 30
0.0
 11
278.1958216327123
 21
152.50607920771719
 31
0.0
  0
LINE
  5
368
  8
2
 62
     0
 10
278.1958216327123
 20
144.38107920771719
 30
0.0
 11
278.1958216327123
 21
146.88107920771719
 31
0.0
  0
SOLID
  5
369
  8
2
 62
     0
 10
277.98748829937898
 20
143.13107920771719
 30
0.0
 11
278.40415496604561
 21
143.13107920771719
 31
0.0
 12
278.1958216327123
 22
144.38107920771719
 32
0.0
 13
278.1958216327123
 23
144.38107920771719
 33
0.0
  0
SOLID
  5
36A
  8
2
 62
     0
 10
277.98748829937898
 20
148.13107920771719
 30
0.0
 11
278.40415496604561
 21
148.13107920771719
 31
0.0
 12
278.1958216327123
 22
146.88107920771719
 32
0.0
 13
278.1958216327123
 23
146.88107920771719
 33
0.0
  0
TEXT
  5
36B
  8
2
 62
     0
 10
277.88332163271218
 20
149.69357920771719
 30
0.0
 40
1.25
  1
2.5
 50
90.0
  0
POINT
  5
36C
  8
DEFPOINTS
 62
     0
 10
275.44866582287318
 20
144.38107920771719
 30
0.0
  0
POINT
  5
36D
  8
DEFPOINTS
 62
     0
 10
267.50114144035172
 20
146.88107920771719
 30
0.0
  0
POINT
  5
36E
  8
DEFPOINTS
 62
     0
 10
278.1958216327123
 20
146.88107920771719
 30
0.0
  0
ENDBLK
  5
370
  8
0
  0
BLOCK
  8
0
  2
*U6
 70
     1
 10
0.0
 20
0.0
 30
0.0
  3
*U6
  1

  0
TEXT
  5
3AB
  8
2
 62
     0
 10
270.61364144035161
 20
152.02076735181299
 30
0.0
 40
1.25
  1
\U+2205
  0
TEXT
  5
3AC
  8
2
 62
     0
 10
271.86364144035161
 20
152.02076735181299
 30
0.0
 40
1.25
  1
1.8
  0
ENDBLK
  5
3AE
  8
0
  0
BLOCK
  8
0
  2
*U7
 70
     1
 10
0.0
 20
0.0
 30
0.0
  3
*U7
  1

  0
TEXT
  5
3B0
  8
2
 62
     0
 10
270.31364144035172
 20
149.93334546147071
 30
0.0
 40
1.25
  1
\U+2205
  0
TEXT
  5
3B1
  8
2
 62
     0
 10
271.56364144035172
 20
149.93334546147071
 30
0.0
 40
1.25
  1
1.2
  0
ENDBLK
  5
3B3
  8
0
  0
BLOCK
  8
0
  2
*U8
 70
     1
 10
0.0
 20
0.0
 30
0.0
  3
*U8
  1

  0
TEXT
  5
3B5
  8
2
 62
     0
 10
270.46364144035169
 20
141.0920435586132
 30
0.0
 40
1.25
  1
\U+2205
  0
TEXT
  5
3B6
  8
2
 62
     0
 10
271.71364144035158
 20
141.0920435586132
 30
0.0
 40
1.25
  1
1.5
  0
ENDBLK
  5
3B8
  8
0
  0
ENDSEC
  0
SECTION
  2
ENTITIES
  0
TEXT
  5
96
  8
2
 10
258.76326050420352
 20
129.22004241062879
 30
0.0
 40
2.5399440000000002
  1
No. 102.001.002._
 51
-0.0000015352344868
  7
\U+00C9L\U+00C9R_\U+00C2S\U+00C2V\U+00C2B\U+00C2N
  0
LINE
  5
30C
  8
1
 10
266.90114144035169
 20
147.1810792077172
 30
0.0
 11
266.90114144035169
 21
144.08107920771721
 31
0.0
  0
LINE
  5
30E
  8
0
 10
266.00114144035172
 20
146.88107920771719
 30
0.0
 11
266.00114144035172
 21
144.6810792077172
 31
0.0
  0
LINE
  5
310
  8
0
 10
266.30114144035161
 20
146.88107920771719
 30
0.0
 11
266.30114144035161
 21
144.6810792077172
 31
0.0
  0
LINE
  5
313
  8
0
 10
266.00114144035172
 20
144.6810792077172
 30
0.0
 11
266.90114144035169
 21
144.6810792077172
 31
0.0
  0
LINE
  5
315
  8
0
 10
266.00114144035172
 20
146.88107920771719
 30
0.0
 11
266.90114144035169
 21
146.88107920771719
 31
0.0
  0
LINE
  5
316
  8
0
 10
266.00114144035172
 20
144.6810792077172
 30
0.0
 11
266.15114144035158
 21
144.38107920771719
 31
0.0
  0
LINE
  5
317
  8
0
 10
266.15114144035158
 20
144.38107920771719
 30
0.0
 11
266.30114144035161
 21
144.6810792077172
 31
0.0
  0
LINE
  5
319
  8
0
 10
266.15114144035158
 20
144.38107920771719
 30
0.0
 11
266.90114144035169
 21
144.38107920771719
 31
0.0
  0
LINE
  5
31E
  8
0
 10
267.65114144035158
 20
144.38107920771719
 30
0.0
 11
266.90114144035169
 21
144.38107920771719
 31
0.0
  0
LINE
  5
31F
  8
0
 10
267.65114144035158
 20
144.38107920771719
 30
0.0
 11
267.50114144035172
 21
144.6810792077172
 31
0.0
  0
LINE
  5
320
  8
0
 10
267.80114144035161
 20
144.6810792077172
 30
0.0
 11
267.65114144035158
 21
144.38107920771719
 31
0.0
  0
LINE
  5
321
  8
0
 10
267.80114144035161
 20
146.88107920771719
 30
0.0
 11
266.90114144035169
 21
146.88107920771719
 31
0.0
  0
LINE
  5
322
  8
0
 10
267.80114144035161
 20
144.6810792077172
 30
0.0
 11
266.90114144035169
 21
144.6810792077172
 31
0.0
  0
LINE
  5
323
  8
0
 10
267.50114144035172
 20
146.88107920771719
 30
0.0
 11
267.50114144035172
 21
144.6810792077172
 31
0.0
  0
LINE
  5
324
  8
0
 10
267.80114144035161
 20
146.88107920771719
 30
0.0
 11
267.80114144035161
 21
144.6810792077172
 31
0.0
  0
DIMENSION
  5
326
  8
2
  2
*D1
 10
267.50114144035172
 20
149.62084546147071
 30
0.0
 11
271.9803081070184
 21
150.55834546147071
 31
0.0
 70
     0
  1
%%c<>
 13
266.30114144035161
 23
146.88107920771719
 33
0.0
 14
267.50114144035172
 24
146.88107920771719
 34
0.0
  0
DIMENSION
  5
335
  8
2
  2
*D2
 10
267.80114144035161
 20
151.70826735181291
 30
0.0
 11
272.2803081070183
 21
152.64576735181291
 31
0.0
 70
     0
  1
%%c<>
 13
266.00114144035172
 23
146.88107920771719
 33
0.0
 14
267.80114144035161
 24
146.88107920771719
 34
0.0
  0
DIMENSION
  5
344
  8
2
  2
*D3
 10
267.65114144035158
 20
140.7795435586132
 30
0.0
 11
272.13030810701832
 21
141.7170435586132
 31
0.0
 70
     0
  1
%%c<>
 13
266.15114144035158
 23
144.38107920771719
 33
0.0
 14
267.65114144035158
 24
144.38107920771719
 34
0.0
  0
DIMENSION
  5
353
  8
2
  2
*D4
 10
275.44866582287318
 20
144.6810792077172
 30
0.0
 11
274.51116582287318
 21
148.6394125410506
 31
0.0
 70
     0
 13
267.65114144035158
 23
144.38107920771719
 33
0.0
 14
267.80114144035161
 24
144.6810792077172
 34
0.0
 50
90.0
  0
DIMENSION
  5
362
  8
2
  2
*D5
 10
278.1958216327123
 20
146.88107920771719
 30
0.0
 11
277.25832163271218
 21
150.94357920771719
 31
0.0
 70
     0
 13
275.44866582287318
 23
144.38107920771719
 33
0.0
 14
267.50114144035172
 24
146.88107920771719
 34
0.0
 50
90.0
  0
ENDSEC
  0
EOF
