  0
SECTION
  2
HEADER
  9
$ACADVER
  1
AC1009
  9
$INSBASE
 10
0.0
 20
0.0
 30
0.0
  9
$EXTMIN
 10
248.16731901775159
 20
175.6358975882913
 30
0.0
  9
$EXTMAX
 10
269.52266242667793
 20
201.243523540399
 30
2.5412960600000001
  9
$LIMMIN
 10
0.0
 20
0.0
  9
$LIMMAX
 10
420.0
 20
297.0
  9
$ORTHOMODE
 70
     0
  9
$REGENMODE
 70
     1
  9
$FILLMODE
 70
     1
  9
$QTEXTMODE
 70
     0
  9
$MIRRTEXT
 70
     1
  9
$DRAGMODE
 70
     2
  9
$LTSCALE
 40
0.3
  9
$OSMODE
 70
    37
  9
$ATTMODE
 70
     1
  9
$TEXTSIZE
 40
2.5
  9
$TRACEWID
 40
1.0
  9
$TEXTSTYLE
  7
STANDARD
  9
$CLAYER
  8
2
  9
$CELTYPE
  6
BYLAYER
  9
$CECOLOR
 62
   256
  9
$DIMSCALE
 40
0.5
  9
$DIMASZ
 40
2.5
  9
$DIMEXO
 40
0.625
  9
$DIMDLI
 40
3.75
  9
$DIMRND
 40
0.0
  9
$DIMDLE
 40
0.0
  9
$DIMEXE
 40
1.25
  9
$DIMTP
 40
0.0
  9
$DIMTM
 40
0.0
  9
$DIMTXT
 40
2.5
  9
$DIMCEN
 40
2.5
  9
$DIMTSZ
 40
0.0
  9
$DIMTOL
 70
     0
  9
$DIMLIM
 70
     0
  9
$DIMTIH
 70
     0
  9
$DIMTOH
 70
     0
  9
$DIMSE1
 70
     0
  9
$DIMSE2
 70
     0
  9
$DIMTAD
 70
     1
  9
$DIMZIN
 70
     8
  9
$DIMBLK
  1

  9
$DIMASO
 70
     1
  9
$DIMSHO
 70
     1
  9
$DIMPOST
  1

  9
$DIMAPOST
  1

  9
$DIMALT
 70
     0
  9
$DIMALTD
 70
     3
  9
$DIMALTF
 40
0.03937007874016
  9
$DIMLFAC
 40
1.0
  9
$DIMTOFL
 70
     1
  9
$DIMTVP
 40
0.0
  9
$DIMTIX
 70
     0
  9
$DIMSOXD
 70
     0
  9
$DIMSAH
 70
     0
  9
$DIMBLK1
  1

  9
$DIMBLK2
  1

  9
$DIMSTYLE
  2
ISO-25
  9
$DIMCLRD
 70
     0
  9
$DIMCLRE
 70
     0
  9
$DIMCLRT
 70
     0
  9
$DIMTFAC
 40
1.0
  9
$DIMGAP
 40
0.625
  9
$LUNITS
 70
     2
  9
$LUPREC
 70
     4
  9
$SKETCHINC
 40
1.0
  9
$FILLETRAD
 40
10.0
  9
$AUNITS
 70
     0
  9
$AUPREC
 70
     0
  9
$MENU
  1
.
  9
$ELEVATION
 40
0.0
  9
$PELEVATION
 40
0.0
  9
$THICKNESS
 40
0.0
  9
$LIMCHECK
 70
     0
  9
$BLIPMODE
 70
     0
  9
$CHAMFERA
 40
10.0
  9
$CHAMFERB
 40
10.0
  9
$SKPOLY
 70
     0
  9
$TDCREATE
 40
2453433.9121819329
  9
$TDUPDATE
 40
2453551.8933568979
  9
$TDINDWG
 40
0.0907295486
  9
$TDUSRTIMER
 40
0.0907295486
  9
$USRTIMER
 70
     1
  9
$ANGBASE
 50
0.0
  9
$ANGDIR
 70
     0
  9
$PDMODE
 70
     0
  9
$PDSIZE
 40
0.0
  9
$PLINEWID
 40
0.0
  9
$COORDS
 70
     1
  9
$SPLFRAME
 70
     0
  9
$SPLINETYPE
 70
     6
  9
$SPLINESEGS
 70
     8
  9
$ATTDIA
 70
     0
  9
$ATTREQ
 70
     1
  9
$HANDLING
 70
-16383
  9
$HANDSEED
  5
A3D
  9
$SURFTAB1
 70
     6
  9
$SURFTAB2
 70
     6
  9
$SURFTYPE
 70
     6
  9
$SURFU
 70
     6
  9
$SURFV
 70
     6
  9
$UCSNAME
  2

  9
$UCSORG
 10
0.0
 20
0.0
 30
0.0
  9
$UCSXDIR
 10
1.0
 20
0.0
 30
0.0
  9
$UCSYDIR
 10
0.0
 20
1.0
 30
0.0
  9
$PUCSNAME
  2

  9
$PUCSORG
 10
0.0
 20
0.0
 30
0.0
  9
$PUCSXDIR
 10
1.0
 20
0.0
 30
0.0
  9
$PUCSYDIR
 10
0.0
 20
1.0
 30
0.0
  9
$USERI1
 70
     0
  9
$USERI2
 70
     0
  9
$USERI3
 70
     0
  9
$USERI4
 70
     0
  9
$USERI5
 70
     0
  9
$USERR1
 40
0.0
  9
$USERR2
 40
0.0
  9
$USERR3
 40
0.0
  9
$USERR4
 40
0.0
  9
$USERR5
 40
0.0
  9
$WORLDVIEW
 70
     1
  9
$SHADEDGE
 70
     3
  9
$SHADEDIF
 70
    70
  9
$TILEMODE
 70
     1
  9
$MAXACTVP
 70
    64
  9
$PLIMCHECK
 70
     0
  9
$PEXTMIN
 10
1.0000000000000000E+020
 20
1.0000000000000000E+020
 30
1.0000000000000000E+020
  9
$PEXTMAX
 10
-1.0000000000000000E+020
 20
-1.0000000000000000E+020
 30
-1.0000000000000000E+020
  9
$PLIMMIN
 10
0.0
 20
0.0
  9
$PLIMMAX
 10
420.0
 20
297.0
  9
$UNITMODE
 70
     0
  9
$VISRETAIN
 70
     1
  9
$PLINEGEN
 70
     0
  9
$PSLTSCALE
 70
     1
  0
ENDSEC
  0
SECTION
  2
TABLES
  0
TABLE
  2
VPORT
 70
     2
  0
VPORT
  2
*ACTIVE
 70
     0
 10
0.0
 20
0.0
 11
1.0
 21
1.0
 12
255.0616601546464
 22
184.84330257245651
 13
0.0
 23
0.0
 14
10.0
 24
10.0
 15
10.0
 25
10.0
 16
0.0
 26
0.0
 36
1.0
 17
0.0
 27
0.0
 37
0.0
 40
45.1219915665163
 41
2.5392405063291141
 42
50.0
 43
0.0
 44
0.0
 50
0.0
 51
0.0
 71
     0
 72
   100
 73
     1
 74
     3
 75
     0
 76
     0
 77
     0
 78
     0
  0
ENDTAB
  0
TABLE
  2
LTYPE
 70
     2
  0
LTYPE
  2
CONTINUOUS
 70
     0
  3
Solid line
 72
    65
 73
     0
 40
0.0
  0
LTYPE
  2
CENTER
 70
     0
  3
Center ____ _ ____ _ ____ _ ____ _ ____ _ ____
 72
    65
 73
     4
 40
50.799999999999997
 49
31.75
 49
-6.3499999999999988
 49
6.3499999999999988
 49
-6.3499999999999988
  0
ENDTAB
  0
TABLE
  2
LAYER
 70
     4
  0
LAYER
  2
0
 70
     0
 62
     7
  6
CONTINUOUS
  0
LAYER
  2
1
 70
     0
 62
     7
  6
CENTER
  0
LAYER
  2
2
 70
     0
 62
     7
  6
CONTINUOUS
  0
LAYER
  2
DEFPOINTS
 70
     0
 62
     7
  6
CONTINUOUS
  0
ENDTAB
  0
TABLE
  2
STYLE
 70
     3
  0
STYLE
  2
STANDARD
 70
     0
 40
0.0
 41
1.0
 50
0.0
 71
     0
 42
2.5
  3
txt
  4

  0
STYLE
  2
\U+00C9L\U+00C9R_\U+00C2S\U+00C2V\U+00C2B\U+00C2N
 70
     0
 40
1.0
 41
1.0
 50
0.0
 71
     0
 42
1.0
  3
\U+00E9l\U+00E9r \U+00E2S\U+00E2V\U+00E2b\U+00E2N
  4

  0
STYLE
  2

 70
     1
 40
0.0
 41
1.0
 50
0.0
 71
     0
 42
2.5
  3
ltypeshp.shx
  4

  0
ENDTAB
  0
TABLE
  2
VIEW
 70
     0
  0
ENDTAB
  0
TABLE
  2
UCS
 70
     0
  0
ENDTAB
  0
TABLE
  2
APPID
 70
     1
  0
APPID
  2
ACAD
 70
     0
  0
ENDTAB
  0
TABLE
  2
DIMSTYLE
 70
     2
  0
DIMSTYLE
  2
ISO-25
 70
     0
  3

  4

  5

  6

  7

 40
0.5
 41
2.5
 42
0.625
 43
3.75
 44
1.25
 45
0.0
 46
0.0
 47
0.0
 48
0.0
140
2.5
141
2.5
142
0.0
143
0.03937007874016
144
1.0
145
0.0
146
1.0
147
0.625
 71
     0
 72
     0
 73
     0
 74
     0
 75
     0
 76
     0
 77
     1
 78
     8
170
     0
171
     3
172
     1
173
     0
174
     0
175
     0
176
     0
177
     0
178
     0
  0
DIMSTYLE
  2
STANDARD
 70
     0
  3

  4

  5

  6

  7

 40
1.0
 41
0.18
 42
0.0625
 43
0.38
 44
0.18
 45
0.0
 46
0.0
 47
0.0
 48
0.0
140
0.18
141
0.09
142
0.0
143
25.399999999999999
144
1.0
145
0.0
146
1.0
147
0.09
 71
     0
 72
     0
 73
     1
 74
     1
 75
     0
 76
     0
 77
     0
 78
     0
170
     0
171
     2
172
     0
173
     0
174
     0
175
     0
176
     0
177
     0
178
     0
  0
ENDTAB
  0
ENDSEC
  0
SECTION
  2
BLOCKS
  0
BLOCK
  8
0
  2
$MODEL_SPACE
 70
     0
 10
0.0
 20
0.0
 30
0.0
  3
$MODEL_SPACE
  1

  0
ENDBLK
  5
21
  8
0
  0
BLOCK
 67
     1
  8
0
  2
$PAPER_SPACE
 70
     0
 10
0.0
 20
0.0
 30
0.0
  3
$PAPER_SPACE
  1

  0
ENDBLK
  5
1D
 67
     1
  8
0
  0
BLOCK
  8
0
  2
*D1
 70
     1
 10
0.0
 20
0.0
 30
0.0
  3
*D1
  1

  0
LINE
  5
9D1
  8
2
 62
     0
 10
255.2060234233185
 20
192.81611750653479
 30
0.0
 11
255.2060234233185
 21
195.7804213440813
 31
0.0
  0
LINE
  5
9D2
  8
2
 62
     0
 10
257.20602342331853
 20
192.81611750653479
 30
0.0
 11
257.20602342331853
 21
195.7804213440813
 31
0.0
  0
LINE
  5
9D3
  8
2
 62
     0
 10
253.9560234233185
 20
195.1554213440813
 30
0.0
 11
252.7060234233185
 21
195.1554213440813
 31
0.0
  0
LINE
  5
9D4
  8
2
 62
     0
 10
258.45602342331853
 20
195.1554213440813
 30
0.0
 11
262.4143567566519
 21
195.1554213440813
 31
0.0
  0
LINE
  5
9D5
  8
2
 62
     0
 10
255.2060234233185
 20
195.1554213440813
 30
0.0
 11
257.20602342331853
 21
195.1554213440813
 31
0.0
  0
SOLID
  5
9D6
  8
2
 62
     0
 10
253.9560234233185
 20
195.36375467741459
 30
0.0
 11
253.9560234233185
 21
194.94708801074799
 31
0.0
 12
255.2060234233185
 22
195.1554213440813
 32
0.0
 13
255.2060234233185
 23
195.1554213440813
 33
0.0
  0
SOLID
  5
9D7
  8
2
 62
     0
 10
258.45602342331853
 20
195.36375467741459
 30
0.0
 11
258.45602342331853
 21
194.94708801074799
 31
0.0
 12
257.20602342331853
 22
195.1554213440813
 32
0.0
 13
257.20602342331853
 23
195.1554213440813
 33
0.0
  0
INSERT
  5
9D8
  8
2
  2
*U12
 10
0.0
 20
0.0
 30
0.0
  0
POINT
  5
9D9
  8
DEFPOINTS
 62
     0
 10
255.2060234233185
 20
192.50361750653479
 30
0.0
  0
POINT
  5
9DA
  8
DEFPOINTS
 62
     0
 10
257.20602342331853
 20
192.50361750653479
 30
0.0
  0
POINT
  5
9DB
  8
DEFPOINTS
 62
     0
 10
257.20602342331853
 20
195.1554213440813
 30
0.0
  0
ENDBLK
  5
908
  8
0
  0
BLOCK
  8
0
  2
*D2
 70
     1
 10
0.0
 20
0.0
 30
0.0
  3
*D2
  1

  0
LINE
  5
9DC
  8
2
 62
     0
 10
255.70602342331861
 20
188.5911175065348
 30
0.0
 11
255.70602342331861
 21
184.89248991993691
 31
0.0
  0
LINE
  5
9DD
  8
2
 62
     0
 10
256.70602342331853
 20
188.5911175065348
 30
0.0
 11
256.70602342331853
 21
184.89248991993691
 31
0.0
  0
LINE
  5
9DE
  8
2
 62
     0
 10
254.4560234233185
 20
185.51748991993691
 30
0.0
 11
253.2060234233185
 21
185.51748991993691
 31
0.0
  0
LINE
  5
9DF
  8
2
 62
     0
 10
257.95602342331858
 20
185.51748991993691
 30
0.0
 11
261.49769008998521
 21
185.51748991993691
 31
0.0
  0
LINE
  5
9E0
  8
2
 62
     0
 10
255.70602342331861
 20
185.51748991993691
 30
0.0
 11
256.70602342331853
 21
185.51748991993691
 31
0.0
  0
SOLID
  5
9E1
  8
2
 62
     0
 10
254.4560234233185
 20
185.72582325327019
 30
0.0
 11
254.4560234233185
 21
185.30915658660351
 31
0.0
 12
255.70602342331861
 22
185.51748991993691
 32
0.0
 13
255.70602342331861
 23
185.51748991993691
 33
0.0
  0
SOLID
  5
9E2
  8
2
 62
     0
 10
257.95602342331858
 20
185.72582325327019
 30
0.0
 11
257.95602342331858
 21
185.30915658660351
 31
0.0
 12
256.70602342331853
 22
185.51748991993691
 32
0.0
 13
256.70602342331853
 23
185.51748991993691
 33
0.0
  0
INSERT
  5
9E3
  8
2
  2
*U13
 10
0.0
 20
0.0
 30
0.0
  0
POINT
  5
9E4
  8
DEFPOINTS
 62
     0
 10
255.70602342331861
 20
188.9036175065348
 30
0.0
  0
POINT
  5
9E5
  8
DEFPOINTS
 62
     0
 10
256.70602342331853
 20
188.9036175065348
 30
0.0
  0
POINT
  5
9E6
  8
DEFPOINTS
 62
     0
 10
256.70602342331853
 20
185.51748991993691
 30
0.0
  0
ENDBLK
  5
93E
  8
0
  0
BLOCK
  8
0
  2
*D3
 70
     1
 10
0.0
 20
0.0
 30
0.0
  3
*D3
  1

  0
LINE
  5
9E7
  8
2
 62
     0
 10
255.2060234233185
 20
188.29439577841319
 30
0.0
 11
255.2060234233185
 21
182.48300629966661
 31
0.0
  0
LINE
  5
9E8
  8
2
 62
     0
 10
257.20602342331853
 20
188.29439577841319
 30
0.0
 11
257.20602342331853
 21
182.48300629966661
 31
0.0
  0
LINE
  5
9E9
  8
2
 62
     0
 10
253.9560234233185
 20
183.10800629966661
 30
0.0
 11
252.7060234233185
 21
183.10800629966661
 31
0.0
  0
LINE
  5
9EA
  8
2
 62
     0
 10
258.45602342331853
 20
183.10800629966661
 30
0.0
 11
262.4143567566519
 21
183.10800629966661
 31
0.0
  0
LINE
  5
9EB
  8
2
 62
     0
 10
255.2060234233185
 20
183.10800629966661
 30
0.0
 11
257.20602342331853
 21
183.10800629966661
 31
0.0
  0
SOLID
  5
9EC
  8
2
 62
     0
 10
253.9560234233185
 20
183.3163396329999
 30
0.0
 11
253.9560234233185
 21
182.89967296633321
 31
0.0
 12
255.2060234233185
 22
183.10800629966661
 32
0.0
 13
255.2060234233185
 23
183.10800629966661
 33
0.0
  0
SOLID
  5
9ED
  8
2
 62
     0
 10
258.45602342331853
 20
183.3163396329999
 30
0.0
 11
258.45602342331853
 21
182.89967296633321
 31
0.0
 12
257.20602342331853
 22
183.10800629966661
 32
0.0
 13
257.20602342331853
 23
183.10800629966661
 33
0.0
  0
INSERT
  5
9EE
  8
2
  2
*U14
 10
0.0
 20
0.0
 30
0.0
  0
POINT
  5
9EF
  8
DEFPOINTS
 62
     0
 10
255.2060234233185
 20
188.60689577841319
 30
0.0
  0
POINT
  5
9F0
  8
DEFPOINTS
 62
     0
 10
257.20602342331853
 20
188.60689577841319
 30
0.0
  0
POINT
  5
9F1
  8
DEFPOINTS
 62
     0
 10
257.20602342331853
 20
183.10800629966661
 30
0.0
  0
ENDBLK
  5
94D
  8
0
  0
BLOCK
  8
0
  2
*D4
 70
     1
 10
0.0
 20
0.0
 30
0.0
  3
*D4
  1

  0
LINE
  5
9F3
  8
2
 62
     0
 10
258.51852342331853
 20
192.50361750653479
 30
0.0
 11
264.51178222141237
 21
192.50361750653479
 31
0.0
  0
LINE
  5
9F4
  8
2
 62
     0
 10
258.01852342331853
 20
191.00361750653479
 30
0.0
 11
264.51178222141237
 21
191.00361750653479
 31
0.0
  0
LINE
  5
9F5
  8
2
 62
     0
 10
263.88678222141237
 20
193.75361750653479
 30
0.0
 11
263.88678222141237
 21
195.00361750653479
 31
0.0
  0
LINE
  5
9F6
  8
2
 62
     0
 10
263.88678222141237
 20
189.75361750653479
 30
0.0
 11
263.88678222141237
 21
185.79528417320151
 31
0.0
  0
LINE
  5
9F7
  8
2
 62
     0
 10
263.88678222141237
 20
192.50361750653479
 30
0.0
 11
263.88678222141237
 21
191.00361750653479
 31
0.0
  0
SOLID
  5
9F8
  8
2
 62
     0
 10
263.67844888807912
 20
193.75361750653479
 30
0.0
 11
264.09511555474569
 21
193.75361750653479
 31
0.0
 12
263.88678222141237
 22
192.50361750653479
 32
0.0
 13
263.88678222141237
 23
192.50361750653479
 33
0.0
  0
SOLID
  5
9F9
  8
2
 62
     0
 10
263.67844888807912
 20
189.75361750653479
 30
0.0
 11
264.09511555474569
 21
189.75361750653479
 31
0.0
 12
263.88678222141237
 22
191.00361750653479
 32
0.0
 13
263.88678222141237
 23
191.00361750653479
 33
0.0
  0
TEXT
  5
9FA
  8
2
 62
     0
 10
263.57428222141232
 20
186.10778417320151
 30
0.0
 40
1.25
  1
1.5
 50
90.0
  0
POINT
  5
9FB
  8
DEFPOINTS
 62
     0
 10
258.20602342331853
 20
192.50361750653479
 30
0.0
  0
POINT
  5
9FC
  8
DEFPOINTS
 62
     0
 10
257.70602342331858
 20
191.00361750653479
 30
0.0
  0
POINT
  5
9FD
  8
DEFPOINTS
 62
     0
 10
263.88678222141237
 20
191.00361750653479
 30
0.0
  0
ENDBLK
  5
95C
  8
0
  0
BLOCK
  8
0
  2
*D5
 70
     1
 10
0.0
 20
0.0
 30
0.0
  3
*D5
  1

  0
LINE
  5
95F
  8
2
 62
     0
 10
258.83102342331858
 20
192.50361750653479
 30
0.0
 11
267.10663479173388
 21
192.50361750653479
 31
0.0
  0
LINE
  5
960
  8
2
 62
     0
 10
258.01852342331853
 20
190.00361750653479
 30
0.0
 11
267.10663479173388
 21
190.00361750653479
 31
0.0
  0
LINE
  5
961
  8
2
 62
     0
 10
266.48163479173388
 20
193.75361750653479
 30
0.0
 11
266.48163479173388
 21
195.00361750653479
 31
0.0
  0
LINE
  5
962
  8
2
 62
     0
 10
266.48163479173388
 20
188.75361750653479
 30
0.0
 11
266.48163479173388
 21
184.37861750653479
 31
0.0
  0
LINE
  5
963
  8
2
 62
     0
 10
266.48163479173388
 20
192.50361750653479
 30
0.0
 11
266.48163479173388
 21
190.00361750653479
 31
0.0
  0
SOLID
  5
964
  8
2
 62
     0
 10
266.27330145840062
 20
193.75361750653479
 30
0.0
 11
266.68996812506731
 21
193.75361750653479
 31
0.0
 12
266.48163479173388
 22
192.50361750653479
 32
0.0
 13
266.48163479173388
 23
192.50361750653479
 33
0.0
  0
SOLID
  5
965
  8
2
 62
     0
 10
266.27330145840062
 20
188.75361750653479
 30
0.0
 11
266.68996812506731
 21
188.75361750653479
 31
0.0
 12
266.48163479173388
 22
190.00361750653479
 32
0.0
 13
266.48163479173388
 23
190.00361750653479
 33
0.0
  0
TEXT
  5
966
  8
2
 62
     0
 10
266.16913479173388
 20
184.69111750653491
 30
0.0
 40
1.25
  1
2.5
 50
90.0
  0
POINT
  5
967
  8
DEFPOINTS
 62
     0
 10
258.51852342331853
 20
192.50361750653479
 30
0.0
  0
POINT
  5
968
  8
DEFPOINTS
 62
     0
 10
257.70602342331858
 20
190.00361750653479
 30
0.0
  0
POINT
  5
969
  8
DEFPOINTS
 62
     0
 10
266.48163479173388
 20
190.00361750653479
 30
0.0
  0
ENDBLK
  5
96B
  8
0
  0
BLOCK
  8
0
  2
*D6
 70
     1
 10
0.0
 20
0.0
 30
0.0
  3
*D6
  1

  0
LINE
  5
96E
  8
2
 62
     0
 10
258.51852342331853
 20
192.50361750653479
 30
0.0
 11
269.52266242667793
 21
192.50361750653479
 31
0.0
  0
LINE
  5
96F
  8
2
 62
     0
 10
257.41524515144022
 20
188.50361750653479
 30
0.0
 11
269.52266242667793
 21
188.50361750653479
 31
0.0
  0
LINE
  5
970
  8
2
 62
     0
 10
268.89766242667793
 20
191.25361750653479
 30
0.0
 11
268.89766242667793
 21
189.75361750653479
 31
0.0
  0
SOLID
  5
971
  8
2
 62
     0
 10
268.68932909334461
 20
191.25361750653479
 30
0.0
 11
269.10599576001118
 21
191.25361750653479
 31
0.0
 12
268.89766242667793
 22
192.50361750653479
 32
0.0
 13
268.89766242667793
 23
192.50361750653479
 33
0.0
  0
SOLID
  5
972
  8
2
 62
     0
 10
268.68932909334461
 20
189.75361750653479
 30
0.0
 11
269.10599576001118
 21
189.75361750653479
 31
0.0
 12
268.89766242667793
 22
188.50361750653479
 32
0.0
 13
268.89766242667793
 23
188.50361750653479
 33
0.0
  0
TEXT
  5
973
  8
2
 62
     0
 10
268.58516242667781
 20
190.08695083986819
 30
0.0
 40
1.25
  1
4
 50
90.0
  0
POINT
  5
974
  8
DEFPOINTS
 62
     0
 10
258.20602342331853
 20
192.50361750653479
 30
0.0
  0
POINT
  5
975
  8
DEFPOINTS
 62
     0
 10
257.10274515144022
 20
188.50361750653479
 30
0.0
  0
POINT
  5
976
  8
DEFPOINTS
 62
     0
 10
268.89766242667793
 20
188.50361750653479
 30
0.0
  0
ENDBLK
  5
978
  8
0
  0
BLOCK
  8
0
  2
*D7
 70
     1
 10
0.0
 20
0.0
 30
0.0
  3
*D7
  1

  0
LINE
  5
97B
  8
2
 62
     0
 10
254.99680169519689
 20
188.50361750653479
 30
0.0
 11
249.10481901775159
 21
188.50361750653479
 31
0.0
  0
LINE
  5
97C
  8
2
 62
     0
 10
255.3935234233185
 20
188.9036175065348
 30
0.0
 11
249.10481901775159
 21
188.9036175065348
 31
0.0
  0
LINE
  5
97D
  8
2
 62
     0
 10
249.72981901775159
 20
187.25361750653479
 30
0.0
 11
249.72981901775159
 21
186.00361750653479
 31
0.0
  0
LINE
  5
97E
  8
2
 62
     0
 10
249.72981901775159
 20
190.1536175065348
 30
0.0
 11
249.72981901775159
 21
194.32028417320149
 31
0.0
  0
LINE
  5
97F
  8
2
 62
     0
 10
249.72981901775159
 20
188.50361750653479
 30
0.0
 11
249.72981901775159
 21
188.9036175065348
 31
0.0
  0
SOLID
  5
980
  8
2
 62
     0
 10
249.5214856844182
 20
187.25361750653479
 30
0.0
 11
249.93815235108491
 21
187.25361750653479
 31
0.0
 12
249.72981901775159
 22
188.50361750653479
 32
0.0
 13
249.72981901775159
 23
188.50361750653479
 33
0.0
  0
SOLID
  5
981
  8
2
 62
     0
 10
249.5214856844182
 20
190.1536175065348
 30
0.0
 11
249.93815235108491
 21
190.1536175065348
 31
0.0
 12
249.72981901775159
 22
188.9036175065348
 32
0.0
 13
249.72981901775159
 23
188.9036175065348
 33
0.0
  0
TEXT
  5
982
  8
2
 62
     0
 10
249.41731901775159
 20
191.71611750653491
 30
0.0
 40
1.25
  1
0.4
 50
90.0
  0
POINT
  5
983
  8
DEFPOINTS
 62
     0
 10
255.30930169519689
 20
188.50361750653479
 30
0.0
  0
POINT
  5
984
  8
DEFPOINTS
 62
     0
 10
255.70602342331861
 20
188.9036175065348
 30
0.0
  0
POINT
  5
985
  8
DEFPOINTS
 62
     0
 10
249.72981901775159
 20
188.9036175065348
 30
0.0
  0
ENDBLK
  5
987
  8
0
  0
BLOCK
  8
0
  2
*D8
 70
     1
 10
0.0
 20
0.0
 30
0.0
  3
*D8
  1

  0
LINE
  5
9C6
  8
2
 62
     0
 10
254.7060234233185
 20
191.31611750653479
 30
0.0
 11
254.7060234233185
 21
198.01491062299959
 31
0.0
  0
LINE
  5
9C7
  8
2
 62
     0
 10
257.70602342331858
 20
191.31611750653479
 30
0.0
 11
257.70602342331858
 21
198.01491062299959
 31
0.0
  0
LINE
  5
9C8
  8
2
 62
     0
 10
253.45602342331861
 20
197.38991062299959
 30
0.0
 11
252.2060234233185
 21
197.38991062299959
 31
0.0
  0
LINE
  5
9C9
  8
2
 62
     0
 10
258.95602342331853
 20
197.38991062299959
 30
0.0
 11
260.20602342331853
 21
197.38991062299959
 31
0.0
  0
LINE
  5
9CA
  8
2
 62
     0
 10
254.7060234233185
 20
197.38991062299959
 30
0.0
 11
257.70602342331858
 21
197.38991062299959
 31
0.0
  0
SOLID
  5
9CB
  8
2
 62
     0
 10
253.45602342331861
 20
197.59824395633299
 30
0.0
 11
253.45602342331861
 21
197.18157728966631
 31
0.0
 12
254.7060234233185
 22
197.38991062299959
 32
0.0
 13
254.7060234233185
 23
197.38991062299959
 33
0.0
  0
SOLID
  5
9CC
  8
2
 62
     0
 10
258.95602342331853
 20
197.59824395633299
 30
0.0
 11
258.95602342331853
 21
197.18157728966631
 31
0.0
 12
257.70602342331858
 22
197.38991062299959
 32
0.0
 13
257.70602342331858
 23
197.38991062299959
 33
0.0
  0
INSERT
  5
9CD
  8
2
  2
*U11
 10
0.0
 20
0.0
 30
0.0
  0
POINT
  5
9CE
  8
DEFPOINTS
 62
     0
 10
254.7060234233185
 20
191.00361750653479
 30
0.0
  0
POINT
  5
9CF
  8
DEFPOINTS
 62
     0
 10
257.70602342331858
 20
191.00361750653479
 30
0.0
  0
POINT
  5
9D0
  8
DEFPOINTS
 62
     0
 10
257.70602342331858
 20
197.38991062299959
 30
0.0
  0
ENDBLK
  5
99A
  8
0
  0
BLOCK
  8
0
  2
*D9
 70
     1
 10
0.0
 20
0.0
 30
0.0
  3
*D9
  1

  0
LINE
  5
9BD
  8
2
 62
     0
 10
254.2060234233185
 20
192.81611750653479
 30
0.0
 11
254.2060234233185
 21
200.30602354039911
 31
0.0
  0
LINE
  5
9BE
  8
2
 62
     0
 10
258.20602342331853
 20
192.81611750653479
 30
0.0
 11
258.20602342331853
 21
200.30602354039911
 31
0.0
  0
LINE
  5
9BF
  8
2
 62
     0
 10
255.4560234233185
 20
199.68102354039911
 30
0.0
 11
256.95602342331853
 21
199.68102354039911
 31
0.0
  0
SOLID
  5
9C0
  8
2
 62
     0
 10
255.4560234233185
 20
199.8893568737324
 30
0.0
 11
255.4560234233185
 21
199.47269020706571
 31
0.0
 12
254.2060234233185
 22
199.68102354039911
 32
0.0
 13
254.2060234233185
 23
199.68102354039911
 33
0.0
  0
SOLID
  5
9C1
  8
2
 62
     0
 10
256.95602342331853
 20
199.8893568737324
 30
0.0
 11
256.95602342331853
 21
199.47269020706571
 31
0.0
 12
258.20602342331853
 22
199.68102354039911
 32
0.0
 13
258.20602342331853
 23
199.68102354039911
 33
0.0
  0
INSERT
  5
9C2
  8
2
  2
*U10
 10
0.0
 20
0.0
 30
0.0
  0
POINT
  5
9C3
  8
DEFPOINTS
 62
     0
 10
254.2060234233185
 20
192.50361750653479
 30
0.0
  0
POINT
  5
9C4
  8
DEFPOINTS
 62
     0
 10
258.20602342331853
 20
192.50361750653479
 30
0.0
  0
POINT
  5
9C5
  8
DEFPOINTS
 62
     0
 10
258.20602342331853
 20
199.68102354039911
 30
0.0
  0
ENDBLK
  5
9A7
  8
0
  0
BLOCK
  8
0
  2
*U10
 70
     1
 10
0.0
 20
0.0
 30
0.0
  3
*U10
  1

  0
TEXT
  5
A25
  8
2
 62
     0
 10
255.1643567566519
 20
199.99352354039911
 30
0.0
 40
1.25
  1
\U+2205
  0
TEXT
  5
A26
  8
2
 62
     0
 10
256.4143567566519
 20
199.99352354039911
 30
0.0
 40
1.25
  1
4
  0
ENDBLK
  5
A28
  8
0
  0
BLOCK
  8
0
  2
*U11
 70
     1
 10
0.0
 20
0.0
 30
0.0
  3
*U11
  1

  0
TEXT
  5
A2A
  8
2
 62
     0
 10
255.1643567566519
 20
197.70241062299959
 30
0.0
 40
1.25
  1
\U+2205
  0
TEXT
  5
A2B
  8
2
 62
     0
 10
256.4143567566519
 20
197.70241062299959
 30
0.0
 40
1.25
  1
3
  0
ENDBLK
  5
A2D
  8
0
  0
BLOCK
  8
0
  2
*U12
 70
     1
 10
0.0
 20
0.0
 30
0.0
  3
*U12
  1

  0
TEXT
  5
A2F
  8
2
 62
     0
 10
260.01852342331853
 20
195.4679213440813
 30
0.0
 40
1.25
  1
\U+2205
  0
TEXT
  5
A30
  8
2
 62
     0
 10
261.26852342331858
 20
195.4679213440813
 30
0.0
 40
1.25
  1
2
  0
ENDBLK
  5
A32
  8
0
  0
BLOCK
  8
0
  2
*U13
 70
     1
 10
0.0
 20
0.0
 30
0.0
  3
*U13
  1

  0
TEXT
  5
A34
  8
2
 62
     0
 10
259.51852342331858
 20
185.82998991993691
 30
0.0
 40
1.25
  1
\U+2205
  0
TEXT
  5
A35
  8
2
 62
     0
 10
260.76852342331853
 20
185.82998991993691
 30
0.0
 40
1.25
  1
1
  0
ENDBLK
  5
A37
  8
0
  0
BLOCK
  8
0
  2
*U14
 70
     1
 10
0.0
 20
0.0
 30
0.0
  3
*U14
  1

  0
TEXT
  5
A39
  8
2
 62
     0
 10
260.01852342331853
 20
183.42050629966661
 30
0.0
 40
1.25
  1
\U+2205
  0
TEXT
  5
A3A
  8
2
 62
     0
 10
261.26852342331858
 20
183.42050629966661
 30
0.0
 40
1.25
  1
2
  0
ENDBLK
  5
A3C
  8
0
  0
ENDSEC
  0
SECTION
  2
ENTITIES
  0
TEXT
  5
CA
  8
2
 10
249.72423832713591
 20
175.756847302577
 30
0.0
 40
1.2699720000000001
  1
No. 102.002.004._
 51
-0.0000015352344868
  7
\U+00C9L\U+00C9R_\U+00C2S\U+00C2V\U+00C2B\U+00C2N
  0
LINE
  5
159
  8
0
 39
2.5412960600000001
 10
256.20602342331853
 20
188.50361750653479
 30
0.0
 11
255.30930169519689
 21
188.50361750653479
 31
0.0
  0
LINE
  5
15A
  8
0
 39
2.5412960600000001
 10
255.30930169519689
 20
188.50361750653479
 30
0.0
 11
255.2060234233185
 21
188.60689577841319
 31
0.0
  0
LINE
  5
15B
  8
0
 39
2.5412960600000001
 10
255.2060234233185
 20
188.60689577841319
 30
0.0
 11
255.4642191030145
 21
189.21365562569881
 31
0.0
  0
LINE
  5
15C
  8
0
 39
2.5412960600000001
 10
255.4642191030145
 20
189.21365562569881
 30
0.0
 11
255.4642191030145
 21
189.21365562569881
 31
0.0
  0
LINE
  5
15D
  8
0
 39
2.5412960600000001
 10
255.4642191030145
 20
189.21365562569881
 30
0.0
 11
255.46899673960729
 21
189.2426264007828
 31
0.0
  0
LINE
  5
15E
  8
0
 39
2.5412960600000001
 10
255.46899673960729
 20
189.2426264007828
 30
0.0
 11
255.4687426100013
 21
189.2714955240244
 31
0.0
  0
LINE
  5
15F
  8
0
 39
2.5412960600000001
 10
255.4687426100013
 20
189.2714955240244
 30
0.0
 11
255.46376166972379
 21
189.29995803989641
 31
0.0
  0
LINE
  5
160
  8
0
 39
2.5412960600000001
 10
255.46376166972379
 20
189.29995803989641
 30
0.0
 11
255.4540030928533
 21
189.3433887901468
 31
0.0
  0
LINE
  5
161
  8
0
 39
2.5412960600000001
 10
255.4540030928533
 20
189.3433887901468
 30
0.0
 11
255.43987348675969
 21
189.37063148390999
 31
0.0
  0
LINE
  5
162
  8
0
 39
2.5412960600000001
 10
255.43987348675969
 20
189.37063148390999
 30
0.0
 11
255.4214236773642
 21
189.3971117888552
 31
0.0
  0
LINE
  5
163
  8
0
 39
2.5412960600000001
 10
255.4214236773642
 20
189.3971117888552
 30
0.0
 11
255.39885696835131
 21
189.42252474945519
 31
0.0
  0
LINE
  5
164
  8
0
 39
2.5412960600000001
 10
255.39885696835131
 20
189.42252474945519
 30
0.0
 11
255.37227501156369
 21
189.44687036571
 31
0.0
  0
LINE
  5
165
  8
0
 39
2.5412960600000001
 10
255.37227501156369
 20
189.44687036571
 30
0.0
 11
255.34203358844979
 21
189.4696912043288
 31
0.0
  0
LINE
  5
166
  8
0
 39
2.5412960600000001
 10
255.34203358844979
 20
189.4696912043288
 30
0.0
 11
255.3080818730881
 21
189.49103809123281
 31
0.0
  0
LINE
  5
167
  8
0
 39
2.5412960600000001
 10
255.3080818730881
 20
189.49103809123281
 30
0.0
 11
255.2707248210061
 21
189.51070772273729
 31
0.0
  0
LINE
  5
168
  8
0
 39
2.5412960600000001
 10
255.2707248210061
 20
189.51070772273729
 30
0.0
 11
255.23006408404621
 21
189.52849679515731
 31
0.0
  0
LINE
  5
169
  8
0
 39
2.5412960600000001
 10
255.23006408404621
 20
189.52849679515731
 30
0.0
 11
255.18635379181421
 21
189.544202004808
 31
0.0
  0
LINE
  5
16A
  8
0
 39
2.5412960600000001
 10
255.18635379181421
 20
189.544202004808
 30
0.0
 11
255.13969559615251
 21
189.5577725257684
 31
0.0
  0
LINE
  5
16B
  8
0
 39
2.5412960600000001
 10
255.13969559615251
 20
189.5577725257684
 30
0.0
 11
255.09029280074611
 21
189.56890340251121
 31
0.0
  0
LINE
  5
16C
  8
0
 39
2.5412960600000001
 10
255.09029280074611
 20
189.56890340251121
 30
0.0
 11
255.03819623151611
 21
189.57759463503641
 31
0.0
  0
LINE
  5
16D
  8
0
 39
2.5412960600000001
 10
255.03819623151611
 20
189.57759463503641
 30
0.0
 11
254.5158582389538
 21
189.6808729069148
 31
0.0
  0
LINE
  5
16E
  8
0
 39
2.5412960600000001
 10
254.5158582389538
 20
189.6808729069148
 30
0.0
 11
254.5158582389538
 21
189.6808729069148
 31
0.0
  0
LINE
  5
16F
  8
0
 39
2.5412960600000001
 10
254.5158582389538
 20
189.6808729069148
 30
0.0
 11
254.4933423558621
 21
189.6961206832749
 31
0.0
  0
LINE
  5
170
  8
0
 39
2.5412960600000001
 10
254.4933423558621
 20
189.6961206832749
 30
0.0
 11
254.4692508692134
 21
189.7131473668768
 31
0.0
  0
LINE
  5
171
  8
0
 39
2.5412960600000001
 10
254.4692508692134
 20
189.7131473668768
 30
0.0
 11
254.4441936900617
 21
189.73210543548441
 31
0.0
  0
LINE
  5
172
  8
0
 39
2.5412960600000001
 10
254.4441936900617
 20
189.73210543548441
 30
0.0
 11
254.41847577393449
 21
189.7532490187036
 31
0.0
  0
LINE
  5
173
  8
0
 39
2.5412960600000001
 10
254.41847577393449
 20
189.7532490187036
 30
0.0
 11
254.3926053800437
 21
189.7766289424556
 31
0.0
  0
LINE
  5
174
  8
0
 39
2.5412960600000001
 10
254.3926053800437
 20
189.7766289424556
 30
0.0
 11
254.36683663799531
 21
189.80265181411011
 31
0.0
  0
LINE
  5
175
  8
0
 39
2.5412960600000001
 10
254.36683663799531
 20
189.80265181411011
 30
0.0
 11
254.3416778070013
 21
189.83136845958799
 31
0.0
  0
LINE
  5
176
  8
0
 39
2.5412960600000001
 10
254.3416778070013
 20
189.83136845958799
 30
0.0
 11
254.31738301666769
 21
189.8631854862592
 31
0.0
  0
LINE
  5
177
  8
0
 39
2.5412960600000001
 10
254.31738301666769
 20
189.8631854862592
 30
0.0
 11
254.29461300397011
 21
189.8980012422812
 31
0.0
  0
LINE
  5
178
  8
0
 39
2.5412960600000001
 10
254.29461300397011
 20
189.8980012422812
 30
0.0
 11
254.27352024667221
 21
189.936323986866
 31
0.0
  0
LINE
  5
179
  8
0
 39
2.5412960600000001
 10
254.27352024667221
 20
189.936323986866
 30
0.0
 11
254.2546130039857
 21
189.9782045459348
 31
0.0
  0
LINE
  5
17A
  8
0
 39
2.5412960600000001
 10
254.2546130039857
 20
189.9782045459348
 30
0.0
 11
254.238145405517
 21
190.02394787501481
 31
0.0
  0
LINE
  5
17B
  8
0
 39
2.5412960600000001
 10
254.238145405517
 20
190.02394787501481
 30
0.0
 11
254.22477818824129
 21
190.07355397410601
 31
0.0
  0
LINE
  5
17C
  8
0
 39
2.5412960600000001
 10
254.22477818824129
 20
190.07355397410601
 30
0.0
 11
254.21461300400131
 21
190.12753110242039
 31
0.0
  0
LINE
  5
17D
  8
0
 39
2.5412960600000001
 10
254.21461300400131
 20
190.12753110242039
 30
0.0
 11
254.20825976385129
 21
190.435879259958
 31
0.0
  0
LINE
  5
17E
  8
0
 39
2.5412960600000001
 10
254.20825976385129
 20
190.435879259958
 30
0.0
 11
254.2060234233185
 21
190.49890340224599
 31
0.0
  0
LINE
  5
17F
  8
0
 39
2.5412960600000001
 10
254.2060234233185
 20
190.49890340224599
 30
0.0
 11
254.2060234233185
 21
192.50361750653479
 31
0.0
  0
LINE
  5
180
  8
0
 39
2.5412960600000001
 10
254.2060234233185
 20
192.50361750653479
 30
0.0
 11
256.20602342331853
 21
192.50361750653479
 31
0.0
  0
LINE
  5
182
  8
0
 39
2.5412960600000001
 10
255.30930169519689
 20
188.50361750653479
 30
0.0
 11
256.20602342331853
 21
188.50361750653479
 31
0.0
  0
LINE
  5
185
  8
0
 39
2.5412960600000001
 10
255.70602342331861
 20
190.00361750653479
 30
0.0
 11
256.20602342331853
 21
190.00361750653479
 31
0.0
  0
LINE
  5
188
  8
0
 39
2.5412960600000001
 10
255.70602342331861
 20
188.9036175065348
 30
0.0
 11
255.70602342331861
 21
190.00361750653479
 31
0.0
  0
LINE
  5
189
  8
0
 39
2.5412960600000001
 10
254.7060234233185
 20
191.00361750653479
 30
0.0
 11
256.20602342331853
 21
191.00361750653479
 31
0.0
  0
LINE
  5
18B
  8
0
 39
2.5412960600000001
 10
256.20602342331853
 20
190.00361750653479
 30
0.0
 11
254.7060234233185
 21
190.00361750653479
 31
0.0
  0
LINE
  5
18C
  8
0
 39
2.5412960600000001
 10
254.7060234233185
 20
190.00361750653479
 30
0.0
 11
254.7060234233185
 21
191.00361750653479
 31
0.0
  0
LINE
  5
18D
  8
0
 39
2.5412960600000001
 10
255.2060234233185
 20
192.50361750653479
 30
0.0
 11
256.20602342331853
 21
192.50361750653479
 31
0.0
  0
LINE
  5
18F
  8
0
 39
2.5412960600000001
 10
256.20602342331853
 20
191.00361750653479
 30
0.0
 11
255.2060234233185
 21
191.00361750653479
 31
0.0
  0
LINE
  5
190
  8
0
 39
2.5412960600000001
 10
255.2060234233185
 20
191.00361750653479
 30
0.0
 11
255.2060234233185
 21
192.50361750653479
 31
0.0
  0
LINE
  5
627
  8
0
 10
256.20602342331853
 20
188.9036175065348
 30
0.0
 11
255.70602342331861
 21
188.9036175065348
 31
0.0
  0
LINE
  5
629
  8
0
 10
255.70602342331861
 20
188.9036175065348
 30
0.0
 11
255.30930169519689
 21
188.50361750653479
 31
0.0
  0
LINE
  5
62C
  8
1
 10
256.20602342331853
 20
192.75361750653479
 30
0.0
 11
256.20602342331853
 21
188.25361750653479
 31
0.0
  0
LINE
  5
62E
  8
0
 39
2.5412960600000001
 10
256.70602342331853
 20
188.9036175065348
 30
0.0
 11
256.70602342331853
 21
190.00361750653479
 31
0.0
  0
LINE
  5
62F
  8
0
 39
2.5412960600000001
 10
257.70602342331858
 20
191.00361750653479
 30
0.0
 11
256.20602342331853
 21
191.00361750653479
 31
0.0
  0
LINE
  5
630
  8
0
 39
2.5412960600000001
 10
256.20602342331853
 20
191.00361750653479
 30
0.0
 11
257.20602342331853
 21
191.00361750653479
 31
0.0
  0
LINE
  5
631
  8
0
 39
2.5412960600000001
 10
257.20602342331853
 20
191.00361750653479
 30
0.0
 11
257.20602342331853
 21
192.50361750653479
 31
0.0
  0
LINE
  5
632
  8
0
 39
2.5412960600000001
 10
258.20602342331853
 20
190.49890340224599
 30
0.0
 11
258.20602342331853
 21
192.50361750653479
 31
0.0
  0
LINE
  5
633
  8
0
 39
2.5412960600000001
 10
257.70602342331858
 20
190.00361750653479
 30
0.0
 11
257.70602342331858
 21
191.00361750653479
 31
0.0
  0
LINE
  5
634
  8
0
 39
2.5412960600000001
 10
258.1974338426358
 20
190.12753110242039
 30
0.0
 11
258.20378708278571
 21
190.435879259958
 31
0.0
  0
LINE
  5
635
  8
0
 39
2.5412960600000001
 10
258.20378708278571
 20
190.435879259958
 30
0.0
 11
258.20602342331853
 21
190.49890340224599
 31
0.0
  0
LINE
  5
636
  8
0
 39
2.5412960600000001
 10
256.94305010702971
 20
189.2426264007828
 30
0.0
 11
256.9433042366357
 21
189.2714955240244
 31
0.0
  0
LINE
  5
637
  8
0
 39
2.5412960600000001
 10
256.9433042366357
 20
189.2714955240244
 30
0.0
 11
256.94828517691332
 21
189.29995803989641
 31
0.0
  0
LINE
  5
638
  8
0
 39
2.5412960600000001
 10
257.10274515144022
 20
188.50361750653479
 30
0.0
 11
257.20602342331853
 21
188.60689577841319
 31
0.0
  0
LINE
  5
639
  8
0
 39
2.5412960600000001
 10
256.20602342331853
 20
188.50361750653479
 30
0.0
 11
257.10274515144022
 21
188.50361750653479
 31
0.0
  0
LINE
  5
63A
  8
0
 39
2.5412960600000001
 10
257.10274515144022
 20
188.50361750653479
 30
0.0
 11
256.20602342331853
 21
188.50361750653479
 31
0.0
  0
LINE
  5
63B
  8
0
 39
2.5412960600000001
 10
257.20602342331853
 20
188.60689577841319
 30
0.0
 11
256.94782774362261
 21
189.21365562569881
 31
0.0
  0
LINE
  5
63C
  8
0
 39
2.5412960600000001
 10
256.94782774362261
 20
189.21365562569881
 30
0.0
 11
256.94782774362261
 21
189.21365562569881
 31
0.0
  0
LINE
  5
63D
  8
0
 39
2.5412960600000001
 10
256.94828517691332
 20
189.29995803989641
 30
0.0
 11
256.95804375378373
 21
189.3433887901468
 31
0.0
  0
LINE
  5
63E
  8
0
 39
2.5412960600000001
 10
256.94782774362261
 20
189.21365562569881
 30
0.0
 11
256.94305010702971
 21
189.2426264007828
 31
0.0
  0
LINE
  5
63F
  8
0
 39
2.5412960600000001
 10
258.18726865839568
 20
190.07355397410601
 30
0.0
 11
258.1974338426358
 21
190.12753110242039
 31
0.0
  0
LINE
  5
640
  8
0
 39
2.5412960600000001
 10
258.17390144112011
 20
190.02394787501481
 30
0.0
 11
258.18726865839568
 21
190.07355397410601
 31
0.0
  0
LINE
  5
641
  8
0
 39
2.5412960600000001
 10
258.1574338426513
 20
189.9782045459348
 30
0.0
 11
258.17390144112011
 21
190.02394787501481
 31
0.0
  0
LINE
  5
642
  8
0
 39
2.5412960600000001
 10
258.13852659996491
 20
189.936323986866
 30
0.0
 11
258.1574338426513
 21
189.9782045459348
 31
0.0
  0
LINE
  5
643
  8
0
 39
2.5412960600000001
 10
258.11743384266691
 20
189.8980012422812
 30
0.0
 11
258.13852659996491
 21
189.936323986866
 31
0.0
  0
LINE
  5
644
  8
0
 39
2.5412960600000001
 10
258.09466382996931
 20
189.8631854862592
 30
0.0
 11
258.11743384266691
 21
189.8980012422812
 31
0.0
  0
LINE
  5
645
  8
0
 39
2.5412960600000001
 10
258.07036903963581
 20
189.83136845958799
 30
0.0
 11
258.09466382996931
 21
189.8631854862592
 31
0.0
  0
LINE
  5
646
  8
0
 39
2.5412960600000001
 10
258.04521020864172
 20
189.80265181411011
 30
0.0
 11
258.07036903963581
 21
189.83136845958799
 31
0.0
  0
LINE
  5
647
  8
0
 39
2.5412960600000001
 10
258.01944146659332
 20
189.7766289424556
 30
0.0
 11
258.04521020864172
 21
189.80265181411011
 31
0.0
  0
LINE
  5
648
  8
0
 39
2.5412960600000001
 10
257.99357107270248
 20
189.7532490187036
 30
0.0
 11
258.01944146659332
 21
189.7766289424556
 31
0.0
  0
LINE
  5
649
  8
0
 39
2.5412960600000001
 10
257.9678531565753
 20
189.73210543548441
 30
0.0
 11
257.99357107270248
 21
189.7532490187036
 31
0.0
  0
LINE
  5
64A
  8
0
 39
2.5412960600000001
 10
257.94279597742371
 20
189.7131473668768
 30
0.0
 11
257.9678531565753
 21
189.73210543548441
 31
0.0
  0
LINE
  5
64B
  8
0
 39
2.5412960600000001
 10
257.91870449077499
 20
189.6961206832749
 30
0.0
 11
257.94279597742371
 21
189.7131473668768
 31
0.0
  0
LINE
  5
64C
  8
0
 39
2.5412960600000001
 10
257.89618860768331
 20
189.6808729069148
 30
0.0
 11
257.91870449077499
 21
189.6961206832749
 31
0.0
  0
LINE
  5
64D
  8
0
 39
2.5412960600000001
 10
257.37385061512089
 20
189.57759463503641
 30
0.0
 11
257.89618860768331
 21
189.6808729069148
 31
0.0
  0
LINE
  5
64E
  8
0
 39
2.5412960600000001
 10
257.89618860768331
 20
189.6808729069148
 30
0.0
 11
257.89618860768331
 21
189.6808729069148
 31
0.0
  0
LINE
  5
64F
  8
0
 39
2.5412960600000001
 10
256.20602342331853
 20
190.00361750653479
 30
0.0
 11
257.70602342331858
 21
190.00361750653479
 31
0.0
  0
LINE
  5
650
  8
0
 39
2.5412960600000001
 10
257.321754045891
 20
189.56890340251121
 30
0.0
 11
257.37385061512089
 21
189.57759463503641
 31
0.0
  0
LINE
  5
651
  8
0
 39
2.5412960600000001
 10
257.27235125048452
 20
189.5577725257684
 30
0.0
 11
257.321754045891
 21
189.56890340251121
 31
0.0
  0
LINE
  5
652
  8
0
 39
2.5412960600000001
 10
257.2256930548229
 20
189.544202004808
 30
0.0
 11
257.27235125048452
 21
189.5577725257684
 31
0.0
  0
LINE
  5
653
  8
0
 39
2.5412960600000001
 10
257.18198276259091
 20
189.52849679515731
 30
0.0
 11
257.2256930548229
 21
189.544202004808
 31
0.0
  0
LINE
  5
654
  8
0
 39
2.5412960600000001
 10
257.14132202563093
 20
189.51070772273729
 30
0.0
 11
257.18198276259091
 21
189.52849679515731
 31
0.0
  0
LINE
  5
655
  8
0
 39
2.5412960600000001
 10
257.1039649735489
 20
189.49103809123281
 30
0.0
 11
257.14132202563093
 21
189.51070772273729
 31
0.0
  0
LINE
  5
656
  8
0
 39
2.5412960600000001
 10
257.07001325818732
 20
189.4696912043288
 30
0.0
 11
257.1039649735489
 21
189.49103809123281
 31
0.0
  0
LINE
  5
657
  8
0
 39
2.5412960600000001
 10
257.03977183507328
 20
189.44687036571
 30
0.0
 11
257.07001325818732
 21
189.4696912043288
 31
0.0
  0
LINE
  5
658
  8
0
 39
2.5412960600000001
 10
257.01318987828569
 20
189.42252474945519
 30
0.0
 11
257.03977183507328
 21
189.44687036571
 31
0.0
  0
LINE
  5
659
  8
0
 39
2.5412960600000001
 10
256.99062316927291
 20
189.3971117888552
 30
0.0
 11
257.01318987828569
 21
189.42252474945519
 31
0.0
  0
LINE
  5
65A
  8
0
 39
2.5412960600000001
 10
256.97217335987739
 20
189.37063148390999
 30
0.0
 11
256.99062316927291
 21
189.3971117888552
 31
0.0
  0
LINE
  5
65B
  8
0
 39
2.5412960600000001
 10
256.95804375378373
 20
189.3433887901468
 30
0.0
 11
256.97217335987739
 21
189.37063148390999
 31
0.0
  0
LINE
  5
65C
  8
0
 39
2.5412960600000001
 10
256.70602342331853
 20
190.00361750653479
 30
0.0
 11
256.20602342331853
 21
190.00361750653479
 31
0.0
  0
LINE
  5
65D
  8
0
 39
2.5412960600000001
 10
258.20602342331853
 20
192.50361750653479
 30
0.0
 11
256.20602342331853
 21
192.50361750653479
 31
0.0
  0
LINE
  5
65E
  8
0
 39
2.5412960600000001
 10
257.20602342331853
 20
192.50361750653479
 30
0.0
 11
256.20602342331853
 21
192.50361750653479
 31
0.0
  0
LINE
  5
65F
  8
0
 10
256.70602342331853
 20
188.9036175065348
 30
0.0
 11
257.10274515144022
 21
188.50361750653479
 31
0.0
  0
LINE
  5
660
  8
0
 10
256.20602342331853
 20
188.9036175065348
 30
0.0
 11
256.70602342331853
 21
188.9036175065348
 31
0.0
  0
DIMENSION
  5
8FA
  8
2
  2
*D1
 10
257.20602342331853
 20
195.1554213440813
 30
0.0
 11
261.06019008998521
 21
196.0929213440813
 31
0.0
 70
     0
  1
%%c<>
 13
255.2060234233185
 23
192.50361750653479
 33
0.0
 14
257.20602342331853
 24
192.50361750653479
 34
0.0
  0
DIMENSION
  5
930
  8
2
  2
*D2
 10
256.70602342331853
 20
185.51748991993691
 30
0.0
 11
260.35185675665178
 21
186.45498991993691
 31
0.0
 70
     0
  1
%%c<>
 13
255.70602342331861
 23
188.9036175065348
 33
0.0
 14
256.70602342331853
 24
188.9036175065348
 34
0.0
  0
DIMENSION
  5
93F
  8
2
  2
*D3
 10
257.20602342331853
 20
183.10800629966661
 30
0.0
 11
261.06019008998521
 21
184.04550629966661
 31
0.0
 70
     0
  1
%%c<>
 13
255.2060234233185
 23
188.60689577841319
 33
0.0
 14
257.20602342331853
 24
188.60689577841319
 34
0.0
  0
DIMENSION
  5
94E
  8
2
  2
*D4
 10
263.88678222141237
 20
191.00361750653479
 30
0.0
 11
262.94928222141232
 21
187.14945083986819
 31
0.0
 70
     0
  1
<>
 13
258.20602342331853
 23
192.50361750653479
 33
0.0
 14
257.70602342331858
 24
191.00361750653479
 34
0.0
 50
90.0
  0
DIMENSION
  5
95D
  8
2
  2
*D5
 10
266.48163479173388
 20
190.00361750653479
 30
0.0
 11
265.54413479173388
 21
185.94111750653479
 31
0.0
 70
     0
 13
258.51852342331853
 23
192.50361750653479
 33
0.0
 14
257.70602342331858
 24
190.00361750653479
 34
0.0
 50
90.0
  0
DIMENSION
  5
96C
  8
2
  2
*D6
 10
268.89766242667793
 20
188.50361750653479
 30
0.0
 11
267.96016242667781
 21
190.50361750653491
 31
0.0
 70
     0
 13
258.20602342331853
 23
192.50361750653479
 33
0.0
 14
257.10274515144022
 24
188.50361750653479
 34
0.0
 50
90.0
  0
DIMENSION
  5
979
  8
2
  2
*D7
 10
249.72981901775159
 20
188.9036175065348
 30
0.0
 11
248.79231901775159
 21
192.8619508398682
 31
0.0
 70
     0
 13
255.30930169519689
 23
188.50361750653479
 33
0.0
 14
255.70602342331861
 24
188.9036175065348
 34
0.0
 50
90.0
  0
DIMENSION
  5
98C
  8
2
  2
*D8
 10
257.70602342331858
 20
197.38991062299959
 30
0.0
 11
256.20602342331853
 21
198.32741062299959
 31
0.0
 70
     0
  1
%%c<>
 13
254.7060234233185
 23
191.00361750653479
 33
0.0
 14
257.70602342331858
 24
191.00361750653479
 34
0.0
  0
DIMENSION
  5
99B
  8
2
  2
*D9
 10
258.20602342331853
 20
199.68102354039911
 30
0.0
 11
256.20602342331853
 21
200.61852354039911
 31
0.0
 70
     0
  1
%%c<>
 13
254.2060234233185
 23
192.50361750653479
 33
0.0
 14
258.20602342331853
 24
192.50361750653479
 34
0.0
  0
ENDSEC
  0
EOF
