  0
SECTION
  2
HEADER
  9
$ACADVER
  1
AC1009
  9
$INSBASE
 10
0.0
 20
0.0
 30
0.0
  9
$EXTMIN
 10
76.625253913961814
 20
80.714117507040882
 30
0.0
  9
$EXTMAX
 10
98.535701794172184
 20
105.21781715706111
 30
2.5
  9
$LIMMIN
 10
0.0
 20
0.0
  9
$LIMMAX
 10
420.0
 20
297.0
  9
$ORTHOMODE
 70
     0
  9
$REGENMODE
 70
     1
  9
$FILLMODE
 70
     1
  9
$QTEXTMODE
 70
     0
  9
$MIRRTEXT
 70
     1
  9
$DRAGMODE
 70
     2
  9
$LTSCALE
 40
0.3
  9
$OSMODE
 70
    37
  9
$ATTMODE
 70
     1
  9
$TEXTSIZE
 40
2.5
  9
$TRACEWID
 40
1.0
  9
$TEXTSTYLE
  7
STANDARD
  9
$CLAYER
  8
0
  9
$CELTYPE
  6
BYLAYER
  9
$CECOLOR
 62
   256
  9
$DIMSCALE
 40
0.5
  9
$DIMASZ
 40
2.5
  9
$DIMEXO
 40
0.625
  9
$DIMDLI
 40
3.75
  9
$DIMRND
 40
0.0
  9
$DIMDLE
 40
0.0
  9
$DIMEXE
 40
1.25
  9
$DIMTP
 40
0.0
  9
$DIMTM
 40
0.0
  9
$DIMTXT
 40
2.5
  9
$DIMCEN
 40
2.5
  9
$DIMTSZ
 40
0.0
  9
$DIMTOL
 70
     0
  9
$DIMLIM
 70
     0
  9
$DIMTIH
 70
     0
  9
$DIMTOH
 70
     0
  9
$DIMSE1
 70
     0
  9
$DIMSE2
 70
     0
  9
$DIMTAD
 70
     1
  9
$DIMZIN
 70
     8
  9
$DIMBLK
  1

  9
$DIMASO
 70
     1
  9
$DIMSHO
 70
     1
  9
$DIMPOST
  1

  9
$DIMAPOST
  1

  9
$DIMALT
 70
     0
  9
$DIMALTD
 70
     3
  9
$DIMALTF
 40
0.03937007874016
  9
$DIMLFAC
 40
1.0
  9
$DIMTOFL
 70
     1
  9
$DIMTVP
 40
0.0
  9
$DIMTIX
 70
     0
  9
$DIMSOXD
 70
     0
  9
$DIMSAH
 70
     0
  9
$DIMBLK1
  1

  9
$DIMBLK2
  1

  9
$DIMSTYLE
  2
ISO-25
  9
$DIMCLRD
 70
     0
  9
$DIMCLRE
 70
     0
  9
$DIMCLRT
 70
     0
  9
$DIMTFAC
 40
1.0
  9
$DIMGAP
 40
0.625
  9
$LUNITS
 70
     2
  9
$LUPREC
 70
     4
  9
$SKETCHINC
 40
1.0
  9
$FILLETRAD
 40
10.0
  9
$AUNITS
 70
     0
  9
$AUPREC
 70
     0
  9
$MENU
  1
.
  9
$ELEVATION
 40
0.0
  9
$PELEVATION
 40
0.0
  9
$THICKNESS
 40
0.0
  9
$LIMCHECK
 70
     0
  9
$BLIPMODE
 70
     0
  9
$CHAMFERA
 40
10.0
  9
$CHAMFERB
 40
10.0
  9
$SKPOLY
 70
     0
  9
$TDCREATE
 40
2453511.938992315
  9
$TDUPDATE
 40
2453551.894119109
  9
$TDINDWG
 40
0.0029024421
  9
$TDUSRTIMER
 40
0.0029024421
  9
$USRTIMER
 70
     1
  9
$ANGBASE
 50
0.0
  9
$ANGDIR
 70
     0
  9
$PDMODE
 70
     0
  9
$PDSIZE
 40
0.0
  9
$PLINEWID
 40
0.0
  9
$COORDS
 70
     1
  9
$SPLFRAME
 70
     0
  9
$SPLINETYPE
 70
     6
  9
$SPLINESEGS
 70
     8
  9
$ATTDIA
 70
     0
  9
$ATTREQ
 70
     1
  9
$HANDLING
 70
-16383
  9
$HANDSEED
  5
31D
  9
$SURFTAB1
 70
     6
  9
$SURFTAB2
 70
     6
  9
$SURFTYPE
 70
     6
  9
$SURFU
 70
     6
  9
$SURFV
 70
     6
  9
$UCSNAME
  2

  9
$UCSORG
 10
0.0
 20
0.0
 30
0.0
  9
$UCSXDIR
 10
1.0
 20
0.0
 30
0.0
  9
$UCSYDIR
 10
0.0
 20
1.0
 30
0.0
  9
$PUCSNAME
  2

  9
$PUCSORG
 10
0.0
 20
0.0
 30
0.0
  9
$PUCSXDIR
 10
1.0
 20
0.0
 30
0.0
  9
$PUCSYDIR
 10
0.0
 20
1.0
 30
0.0
  9
$USERI1
 70
     0
  9
$USERI2
 70
     0
  9
$USERI3
 70
     0
  9
$USERI4
 70
     0
  9
$USERI5
 70
     0
  9
$USERR1
 40
0.0
  9
$USERR2
 40
0.0
  9
$USERR3
 40
0.0
  9
$USERR4
 40
0.0
  9
$USERR5
 40
0.0
  9
$WORLDVIEW
 70
     1
  9
$SHADEDGE
 70
     3
  9
$SHADEDIF
 70
    70
  9
$TILEMODE
 70
     1
  9
$MAXACTVP
 70
    64
  9
$PLIMCHECK
 70
     0
  9
$PEXTMIN
 10
1.0000000000000000E+020
 20
1.0000000000000000E+020
 30
1.0000000000000000E+020
  9
$PEXTMAX
 10
-1.0000000000000000E+020
 20
-1.0000000000000000E+020
 30
-1.0000000000000000E+020
  9
$PLIMMIN
 10
0.0
 20
0.0
  9
$PLIMMAX
 10
420.0
 20
297.0
  9
$UNITMODE
 70
     0
  9
$VISRETAIN
 70
     1
  9
$PLINEGEN
 70
     0
  9
$PSLTSCALE
 70
     1
  0
ENDSEC
  0
SECTION
  2
TABLES
  0
TABLE
  2
VPORT
 70
     2
  0
VPORT
  2
*ACTIVE
 70
     0
 10
0.0
 20
0.0
 11
1.0
 21
1.0
 12
77.633902911612182
 22
86.431421876662185
 13
0.0
 23
0.0
 14
10.0
 24
10.0
 15
10.0
 25
10.0
 16
0.0
 26
0.0
 36
1.0
 17
0.0
 27
0.0
 37
0.0
 40
38.976398599383238
 41
2.5392405063291141
 42
50.0
 43
0.0
 44
0.0
 50
0.0
 51
0.0
 71
     0
 72
   100
 73
     1
 74
     3
 75
     0
 76
     0
 77
     0
 78
     0
  0
ENDTAB
  0
TABLE
  2
LTYPE
 70
     2
  0
LTYPE
  2
CONTINUOUS
 70
     0
  3
Solid line
 72
    65
 73
     0
 40
0.0
  0
LTYPE
  2
CENTER
 70
     0
  3
Center ____ _ ____ _ ____ _ ____ _ ____ _ ____
 72
    65
 73
     4
 40
50.799999999999997
 49
31.75
 49
-6.3499999999999988
 49
6.3499999999999988
 49
-6.3499999999999988
  0
ENDTAB
  0
TABLE
  2
LAYER
 70
     4
  0
LAYER
  2
0
 70
     0
 62
     7
  6
CONTINUOUS
  0
LAYER
  2
1
 70
     0
 62
     7
  6
CENTER
  0
LAYER
  2
2
 70
     0
 62
     7
  6
CONTINUOUS
  0
LAYER
  2
DEFPOINTS
 70
     0
 62
     7
  6
CONTINUOUS
  0
ENDTAB
  0
TABLE
  2
STYLE
 70
     2
  0
STYLE
  2
STANDARD
 70
     0
 40
0.0
 41
1.0
 50
0.0
 71
     0
 42
2.5
  3
txt
  4

  0
STYLE
  2
\U+00C9L\U+00C9R_\U+00C2S\U+00C2V\U+00C2B\U+00C2N
 70
     0
 40
1.0
 41
1.0
 50
0.0
 71
     0
 42
1.0
  3
\U+00E9l\U+00E9r \U+00E2S\U+00E2V\U+00E2b\U+00E2N
  4

  0
ENDTAB
  0
TABLE
  2
VIEW
 70
     0
  0
ENDTAB
  0
TABLE
  2
UCS
 70
     0
  0
ENDTAB
  0
TABLE
  2
APPID
 70
     1
  0
APPID
  2
ACAD
 70
     0
  0
ENDTAB
  0
TABLE
  2
DIMSTYLE
 70
     1
  0
DIMSTYLE
  2
ISO-25
 70
     0
  3

  4

  5

  6

  7

 40
0.5
 41
2.5
 42
0.625
 43
3.75
 44
1.25
 45
0.0
 46
0.0
 47
0.0
 48
0.0
140
2.5
141
2.5
142
0.0
143
0.03937007874016
144
1.0
145
0.0
146
1.0
147
0.625
 71
     0
 72
     0
 73
     0
 74
     0
 75
     0
 76
     0
 77
     1
 78
     8
170
     0
171
     3
172
     1
173
     0
174
     0
175
     0
176
     0
177
     0
178
     0
  0
ENDTAB
  0
ENDSEC
  0
SECTION
  2
BLOCKS
  0
BLOCK
  8
0
  2
$MODEL_SPACE
 70
     0
 10
0.0
 20
0.0
 30
0.0
  3
$MODEL_SPACE
  1

  0
ENDBLK
  5
21
  8
0
  0
BLOCK
 67
     1
  8
0
  2
$PAPER_SPACE
 70
     0
 10
0.0
 20
0.0
 30
0.0
  3
$PAPER_SPACE
  1

  0
ENDBLK
  5
1D
 67
     1
  8
0
  0
BLOCK
  8
0
  2
*D1
 70
     1
 10
0.0
 20
0.0
 30
0.0
  3
*D1
  1

  0
LINE
  5
260
  8
2
 62
     0
 10
82.307737754118421
 20
92.724990339677561
 30
0.0
 11
82.307737754118421
 21
85.952852046691049
 31
0.0
  0
LINE
  5
261
  8
2
 62
     0
 10
85.807737754118421
 20
92.724990339677561
 30
0.0
 11
85.807737754118421
 21
85.952852046691049
 31
0.0
  0
LINE
  5
262
  8
2
 62
     0
 10
83.557737754118421
 20
86.577852046691049
 30
0.0
 11
84.557737754118421
 21
86.577852046691049
 31
0.0
  0
LINE
  5
263
  8
2
 62
     0
 10
85.807737754118421
 20
86.577852046691049
 30
0.0
 11
91.432737754118421
 21
86.577852046691049
 31
0.0
  0
SOLID
  5
264
  8
2
 62
     0
 10
83.557737754118421
 20
86.786185380024364
 30
0.0
 11
83.557737754118421
 21
86.369518713357735
 31
0.0
 12
82.307737754118421
 22
86.577852046691049
 32
0.0
 13
82.307737754118421
 23
86.577852046691049
 33
0.0
  0
SOLID
  5
265
  8
2
 62
     0
 10
84.557737754118421
 20
86.786185380024364
 30
0.0
 11
84.557737754118421
 21
86.369518713357735
 31
0.0
 12
85.807737754118421
 22
86.577852046691049
 32
0.0
 13
85.807737754118421
 23
86.577852046691049
 33
0.0
  0
INSERT
  5
266
  8
0
  2
*U10
 10
0.0
 20
0.0
 30
0.0
  0
POINT
  5
267
  8
DEFPOINTS
 62
     0
 10
82.307737754118421
 20
93.037490339677561
 30
0.0
  0
POINT
  5
268
  8
DEFPOINTS
 62
     0
 10
85.807737754118421
 20
93.037490339677561
 30
0.0
  0
POINT
  5
269
  8
DEFPOINTS
 62
     0
 10
85.807737754118421
 20
86.577852046691049
 30
0.0
  0
ENDBLK
  5
18C
  8
0
  0
BLOCK
  8
0
  2
*D2
 70
     1
 10
0.0
 20
0.0
 30
0.0
  3
*D2
  1

  0
LINE
  5
2D4
  8
2
 62
     0
 10
86.370237754118421
 20
96.885090339677561
 30
0.0
 11
98.535701794172184
 21
96.885090339677546
 31
0.0
  0
LINE
  5
2D5
  8
2
 62
     0
 10
86.005937754118406
 20
92.885090339677561
 30
0.0
 11
98.535701794172184
 21
92.885090339677546
 31
0.0
  0
LINE
  5
2D6
  8
2
 62
     0
 10
97.910701794172184
 20
98.135090339677546
 30
0.0
 11
97.910701794172184
 21
99.385090339677546
 31
0.0
  0
LINE
  5
2D7
  8
2
 62
     0
 10
97.910701794172184
 20
91.635090339677546
 30
0.0
 11
97.910701794172184
 21
90.385090339677546
 31
0.0
  0
LINE
  5
2D8
  8
2
 62
     0
 10
97.910701794172184
 20
96.885090339677546
 30
0.0
 11
97.910701794172184
 21
92.885090339677546
 31
0.0
  0
SOLID
  5
2D9
  8
2
 62
     0
 10
97.702368460838855
 20
98.135090339677546
 30
0.0
 11
98.119035127505526
 21
98.135090339677546
 31
0.0
 12
97.910701794172184
 22
96.885090339677546
 32
0.0
 13
97.910701794172184
 23
96.885090339677546
 33
0.0
  0
SOLID
  5
2DA
  8
2
 62
     0
 10
97.702368460838841
 20
91.635090339677546
 30
0.0
 11
98.119035127505498
 21
91.635090339677546
 31
0.0
 12
97.910701794172184
 22
92.885090339677546
 32
0.0
 13
97.910701794172184
 23
92.885090339677546
 33
0.0
  0
TEXT
  5
2DB
  8
0
 62
     0
 10
97.598201794172155
 20
94.271985366727975
 30
0.0
 40
1.25
  1
4
 50
90.0
  0
POINT
  5
2DC
  8
DEFPOINTS
 62
     0
 10
86.057737754118421
 20
96.885090339677561
 30
0.0
  0
POINT
  5
2DD
  8
DEFPOINTS
 62
     0
 10
85.693437754118406
 20
92.885090339677561
 30
0.0
  0
POINT
  5
2DE
  8
DEFPOINTS
 62
     0
 10
97.910701794172184
 20
92.885090339677546
 30
0.0
  0
ENDBLK
  5
19A
  8
0
  0
BLOCK
  8
0
  2
*D3
 70
     1
 10
0.0
 20
0.0
 30
0.0
  3
*D3
  1

  0
LINE
  5
2C9
  8
2
 62
     0
 10
86.370237754118421
 20
96.885090339677561
 30
0.0
 11
95.666233941166666
 21
96.885090339677561
 31
0.0
  0
LINE
  5
2CA
  8
2
 62
     0
 10
85.870237754118406
 20
94.385090339677561
 30
0.0
 11
95.666233941166666
 21
94.385090339677561
 31
0.0
  0
LINE
  5
2CB
  8
2
 62
     0
 10
95.041233941166666
 20
98.135090339677561
 30
0.0
 11
95.041233941166666
 21
99.385090339677561
 31
0.0
  0
LINE
  5
2CC
  8
2
 62
     0
 10
95.041233941166666
 20
93.135090339677561
 30
0.0
 11
95.041233941166666
 21
88.588997499925284
 31
0.0
  0
LINE
  5
2CD
  8
2
 62
     0
 10
95.041233941166666
 20
96.885090339677561
 30
0.0
 11
95.041233941166666
 21
94.385090339677561
 31
0.0
  0
SOLID
  5
2CE
  8
2
 62
     0
 10
94.832900607833338
 20
98.135090339677561
 30
0.0
 11
95.249567274499995
 21
98.135090339677561
 31
0.0
 12
95.041233941166666
 22
96.885090339677561
 32
0.0
 13
95.041233941166666
 23
96.885090339677561
 33
0.0
  0
SOLID
  5
2CF
  8
2
 62
     0
 10
94.832900607833324
 20
93.135090339677561
 30
0.0
 11
95.249567274499981
 21
93.135090339677561
 31
0.0
 12
95.041233941166666
 22
94.385090339677561
 32
0.0
 13
95.041233941166666
 23
94.385090339677561
 33
0.0
  0
TEXT
  5
2D0
  8
0
 62
     0
 10
94.728733941166638
 20
88.901497499925313
 30
0.0
 40
1.25
  1
2.5
 50
90.0
  0
POINT
  5
2D1
  8
DEFPOINTS
 62
     0
 10
86.057737754118421
 20
96.885090339677561
 30
0.0
  0
POINT
  5
2D2
  8
DEFPOINTS
 62
     0
 10
85.557737754118406
 20
94.385090339677561
 30
0.0
  0
POINT
  5
2D3
  8
DEFPOINTS
 62
     0
 10
95.041233941166666
 20
94.385090339677561
 30
0.0
  0
ENDBLK
  5
1A8
  8
0
  0
BLOCK
  8
0
  2
*D4
 70
     1
 10
0.0
 20
0.0
 30
0.0
  3
*D4
  1

  0
LINE
  5
2EA
  8
2
 62
     0
 10
83.557737754118421
 20
93.072590339677561
 30
0.0
 11
83.557737754118421
 21
88.790208927522031
 31
0.0
  0
LINE
  5
2EB
  8
2
 62
     0
 10
84.557737754118421
 20
93.072590339677561
 30
0.0
 11
84.557737754118421
 21
88.790208927522031
 31
0.0
  0
LINE
  5
2EC
  8
2
 62
     0
 10
82.307737754118421
 20
89.415208927522031
 30
0.0
 11
81.057737754118421
 21
89.415208927522031
 31
0.0
  0
LINE
  5
2ED
  8
2
 62
     0
 10
85.807737754118421
 20
89.415208927522031
 30
0.0
 11
89.349404420785092
 21
89.415208927522031
 31
0.0
  0
LINE
  5
2EE
  8
2
 62
     0
 10
83.557737754118421
 20
89.415208927522031
 30
0.0
 11
84.557737754118421
 21
89.415208927522031
 31
0.0
  0
SOLID
  5
2EF
  8
2
 62
     0
 10
82.307737754118421
 20
89.623542260855345
 30
0.0
 11
82.307737754118421
 21
89.206875594188716
 31
0.0
 12
83.557737754118421
 22
89.415208927522031
 32
0.0
 13
83.557737754118421
 23
89.415208927522031
 33
0.0
  0
SOLID
  5
2F0
  8
2
 62
     0
 10
85.807737754118421
 20
89.623542260855345
 30
0.0
 11
85.807737754118421
 21
89.206875594188716
 31
0.0
 12
84.557737754118421
 22
89.415208927522031
 32
0.0
 13
84.557737754118421
 23
89.415208927522031
 33
0.0
  0
INSERT
  5
2F1
  8
0
  2
*U14
 10
0.0
 20
0.0
 30
0.0
  0
POINT
  5
2F2
  8
DEFPOINTS
 62
     0
 10
83.557737754118421
 20
93.385090339677561
 30
0.0
  0
POINT
  5
2F3
  8
DEFPOINTS
 62
     0
 10
84.557737754118421
 20
93.385090339677561
 30
0.0
  0
POINT
  5
2F4
  8
DEFPOINTS
 62
     0
 10
84.557737754118421
 20
89.415208927522031
 30
0.0
  0
ENDBLK
  5
1B6
  8
0
  0
BLOCK
  8
0
  2
*D5
 70
     1
 10
0.0
 20
0.0
 30
0.0
  3
*D5
  1

  0
LINE
  5
2DF
  8
2
 62
     0
 10
86.370237754118421
 20
96.885090339677561
 30
0.0
 11
92.247625675591834
 21
96.885090339677561
 31
0.0
  0
LINE
  5
2E0
  8
2
 62
     0
 10
85.870237754118406
 20
95.385090339677561
 30
0.0
 11
92.24762567559182
 21
95.385090339677561
 31
0.0
  0
LINE
  5
2E1
  8
2
 62
     0
 10
91.622625675591834
 20
98.135090339677561
 30
0.0
 11
91.622625675591834
 21
99.385090339677561
 31
0.0
  0
LINE
  5
2E2
  8
2
 62
     0
 10
91.62262567559182
 20
94.135090339677561
 30
0.0
 11
91.62262567559182
 21
90.176757006344232
 31
0.0
  0
LINE
  5
2E3
  8
2
 62
     0
 10
91.622625675591834
 20
96.885090339677561
 30
0.0
 11
91.62262567559182
 21
95.385090339677561
 31
0.0
  0
SOLID
  5
2E4
  8
2
 62
     0
 10
91.414292342258506
 20
98.135090339677561
 30
0.0
 11
91.830959008925149
 21
98.135090339677561
 31
0.0
 12
91.622625675591834
 22
96.885090339677561
 32
0.0
 13
91.622625675591834
 23
96.885090339677561
 33
0.0
  0
SOLID
  5
2E5
  8
2
 62
     0
 10
91.414292342258491
 20
94.135090339677561
 30
0.0
 11
91.830959008925149
 21
94.135090339677561
 31
0.0
 12
91.62262567559182
 22
95.385090339677561
 32
0.0
 13
91.62262567559182
 23
95.385090339677561
 33
0.0
  0
TEXT
  5
2E6
  8
0
 62
     0
 10
91.310125675591806
 20
90.489257006344232
 30
0.0
 40
1.25
  1
1.5
 50
90.0
  0
POINT
  5
2E7
  8
DEFPOINTS
 62
     0
 10
86.057737754118421
 20
96.885090339677561
 30
0.0
  0
POINT
  5
2E8
  8
DEFPOINTS
 62
     0
 10
85.557737754118406
 20
95.385090339677561
 30
0.0
  0
POINT
  5
2E9
  8
DEFPOINTS
 62
     0
 10
91.62262567559182
 20
95.385090339677561
 30
0.0
  0
ENDBLK
  5
1C4
  8
0
  0
BLOCK
  8
0
  2
*D6
 70
     1
 10
0.0
 20
0.0
 30
0.0
  3
*D6
  1

  0
LINE
  5
294
  8
2
 62
     0
 10
82.057737754118421
 20
97.197590339677561
 30
0.0
 11
82.057737754118421
 21
104.28031715706111
 31
0.0
  0
LINE
  5
295
  8
2
 62
     0
 10
86.057737754118421
 20
97.197590339677561
 30
0.0
 11
86.057737754118421
 21
104.28031715706111
 31
0.0
  0
LINE
  5
296
  8
2
 62
     0
 10
83.307737754118421
 20
103.65531715706111
 30
0.0
 11
84.807737754118421
 21
103.65531715706111
 31
0.0
  0
SOLID
  5
297
  8
2
 62
     0
 10
83.307737754118421
 20
103.86365049039441
 30
0.0
 11
83.307737754118421
 21
103.44698382372781
 31
0.0
 12
82.057737754118421
 22
103.65531715706111
 32
0.0
 13
82.057737754118421
 23
103.65531715706111
 33
0.0
  0
SOLID
  5
298
  8
2
 62
     0
 10
84.807737754118421
 20
103.86365049039441
 30
0.0
 11
84.807737754118421
 21
103.44698382372781
 31
0.0
 12
86.057737754118421
 22
103.65531715706111
 32
0.0
 13
86.057737754118421
 23
103.65531715706111
 33
0.0
  0
INSERT
  5
299
  8
0
  2
*U11
 10
0.0
 20
0.0
 30
0.0
  0
POINT
  5
29A
  8
DEFPOINTS
 62
     0
 10
82.057737754118421
 20
96.885090339677561
 30
0.0
  0
POINT
  5
29B
  8
DEFPOINTS
 62
     0
 10
86.057737754118421
 20
96.885090339677561
 30
0.0
  0
POINT
  5
29C
  8
DEFPOINTS
 62
     0
 10
86.057737754118421
 20
103.65531715706111
 30
0.0
  0
ENDBLK
  5
1D2
  8
0
  0
BLOCK
  8
0
  2
*D7
 70
     1
 10
0.0
 20
0.0
 30
0.0
  3
*D7
  1

  0
LINE
  5
29D
  8
2
 62
     0
 10
82.557737754118421
 20
95.697590339677561
 30
0.0
 11
82.557737754118421
 21
102.1532308554073
 31
0.0
  0
LINE
  5
29E
  8
2
 62
     0
 10
85.557737754118406
 20
95.697590339677561
 30
0.0
 11
85.557737754118406
 21
102.1532308554073
 31
0.0
  0
LINE
  5
29F
  8
2
 62
     0
 10
81.307737754118421
 20
101.5282308554073
 30
0.0
 11
80.057737754118421
 21
101.5282308554073
 31
0.0
  0
LINE
  5
2A0
  8
2
 62
     0
 10
86.807737754118406
 20
101.5282308554073
 30
0.0
 11
88.057737754118406
 21
101.5282308554073
 31
0.0
  0
LINE
  5
2A1
  8
2
 62
     0
 10
82.557737754118421
 20
101.5282308554073
 30
0.0
 11
85.557737754118406
 21
101.5282308554073
 31
0.0
  0
SOLID
  5
2A2
  8
2
 62
     0
 10
81.307737754118421
 20
101.7365641887406
 30
0.0
 11
81.307737754118421
 21
101.3198975220739
 31
0.0
 12
82.557737754118421
 22
101.5282308554073
 32
0.0
 13
82.557737754118421
 23
101.5282308554073
 33
0.0
  0
SOLID
  5
2A3
  8
2
 62
     0
 10
86.807737754118406
 20
101.7365641887406
 30
0.0
 11
86.807737754118406
 21
101.3198975220739
 31
0.0
 12
85.557737754118406
 22
101.5282308554073
 32
0.0
 13
85.557737754118406
 23
101.5282308554073
 33
0.0
  0
INSERT
  5
2A4
  8
0
  2
*U12
 10
0.0
 20
0.0
 30
0.0
  0
POINT
  5
2A5
  8
DEFPOINTS
 62
     0
 10
82.557737754118421
 20
95.385090339677561
 30
0.0
  0
POINT
  5
2A6
  8
DEFPOINTS
 62
     0
 10
85.557737754118406
 20
95.385090339677561
 30
0.0
  0
POINT
  5
2A7
  8
DEFPOINTS
 62
     0
 10
85.557737754118406
 20
101.5282308554073
 30
0.0
  0
ENDBLK
  5
1E0
  8
0
  0
BLOCK
  8
0
  2
*D8
 70
     1
 10
0.0
 20
0.0
 30
0.0
  3
*D8
  1

  0
LINE
  5
2BE
  8
2
 62
     0
 10
83.057737754118406
 20
97.197590339677561
 30
0.0
 11
83.057737754118406
 21
99.957918597297805
 31
0.0
  0
LINE
  5
2BF
  8
2
 62
     0
 10
85.057737754118421
 20
97.197590339677561
 30
0.0
 11
85.057737754118421
 21
99.957918597297805
 31
0.0
  0
LINE
  5
2C0
  8
2
 62
     0
 10
81.807737754118406
 20
99.332918597297805
 30
0.0
 11
80.557737754118406
 21
99.332918597297805
 31
0.0
  0
LINE
  5
2C1
  8
2
 62
     0
 10
86.307737754118421
 20
99.332918597297805
 30
0.0
 11
90.266071087451735
 21
99.332918597297805
 31
0.0
  0
LINE
  5
2C2
  8
2
 62
     0
 10
83.057737754118406
 20
99.332918597297805
 30
0.0
 11
85.057737754118421
 21
99.332918597297805
 31
0.0
  0
SOLID
  5
2C3
  8
2
 62
     0
 10
81.807737754118406
 20
99.541251930631134
 30
0.0
 11
81.807737754118406
 21
99.124585263964491
 31
0.0
 12
83.057737754118406
 22
99.332918597297805
 32
0.0
 13
83.057737754118406
 23
99.332918597297805
 33
0.0
  0
SOLID
  5
2C4
  8
2
 62
     0
 10
86.307737754118421
 20
99.541251930631134
 30
0.0
 11
86.307737754118421
 21
99.124585263964491
 31
0.0
 12
85.057737754118421
 22
99.332918597297805
 32
0.0
 13
85.057737754118421
 23
99.332918597297805
 33
0.0
  0
INSERT
  5
2C5
  8
0
  2
*U13
 10
0.0
 20
0.0
 30
0.0
  0
POINT
  5
2C6
  8
DEFPOINTS
 62
     0
 10
83.057737754118406
 20
96.885090339677561
 30
0.0
  0
POINT
  5
2C7
  8
DEFPOINTS
 62
     0
 10
85.057737754118421
 20
96.885090339677561
 30
0.0
  0
POINT
  5
2C8
  8
DEFPOINTS
 62
     0
 10
85.057737754118421
 20
99.332918597297805
 30
0.0
  0
ENDBLK
  5
1EE
  8
0
  0
BLOCK
  8
0
  2
*D9
 70
     1
 10
0.0
 20
0.0
 30
0.0
  3
*D9
  1

  0
LINE
  5
2B3
  8
2
 62
     0
 10
82.109537754118435
 20
92.885090339677561
 30
0.0
 11
78.272255358445193
 21
92.885090339677561
 31
0.0
  0
LINE
  5
2B4
  8
2
 62
     0
 10
83.245237754118421
 20
93.385090339677561
 30
0.0
 11
78.272255358445193
 21
93.385090339677561
 31
0.0
  0
LINE
  5
2B5
  8
2
 62
     0
 10
78.897255358445193
 20
91.635090339677561
 30
0.0
 11
78.897255358445193
 21
90.385090339677561
 31
0.0
  0
LINE
  5
2B6
  8
2
 62
     0
 10
78.897255358445193
 20
94.635090339677561
 30
0.0
 11
78.897255358445207
 21
98.801757006344246
 31
0.0
  0
LINE
  5
2B7
  8
2
 62
     0
 10
78.897255358445193
 20
92.885090339677561
 30
0.0
 11
78.897255358445193
 21
93.385090339677561
 31
0.0
  0
SOLID
  5
2B8
  8
2
 62
     0
 10
78.688922025111864
 20
91.635090339677561
 30
0.0
 11
79.105588691778522
 21
91.635090339677561
 31
0.0
 12
78.897255358445193
 22
92.885090339677561
 32
0.0
 13
78.897255358445193
 23
92.885090339677561
 33
0.0
  0
SOLID
  5
2B9
  8
2
 62
     0
 10
78.688922025111864
 20
94.635090339677561
 30
0.0
 11
79.105588691778522
 21
94.635090339677561
 31
0.0
 12
78.897255358445193
 22
93.385090339677561
 32
0.0
 13
78.897255358445193
 23
93.385090339677561
 33
0.0
  0
TEXT
  5
2BA
  8
0
 62
     0
 10
78.584755358445179
 20
96.197590339677575
 30
0.0
 40
1.25
  1
0.5
 50
90.0
  0
POINT
  5
2BB
  8
DEFPOINTS
 62
     0
 10
82.422037754118435
 20
92.885090339677561
 30
0.0
  0
POINT
  5
2BC
  8
DEFPOINTS
 62
     0
 10
83.557737754118421
 20
93.385090339677561
 30
0.0
  0
POINT
  5
2BD
  8
DEFPOINTS
 62
     0
 10
78.897255358445193
 20
93.385090339677561
 30
0.0
  0
ENDBLK
  5
1FC
  8
0
  0
BLOCK
  8
0
  2
*U10
 70
     1
 10
0.0
 20
0.0
 30
0.0
  3
*U10
  1

  0
TEXT
  5
305
  8
0
 62
     0
 10
87.370237754118421
 20
86.890352046691049
 30
0.0
 40
1.25
  1
\U+2205
  0
TEXT
  5
306
  8
0
 62
     0
 10
88.620237754118421
 20
86.890352046691049
 30
0.0
 40
1.25
  1
3.5
  0
ENDBLK
  5
308
  8
0
  0
BLOCK
  8
0
  2
*U11
 70
     1
 10
0.0
 20
0.0
 30
0.0
  3
*U11
  1

  0
TEXT
  5
30A
  8
0
 62
     0
 10
83.016071087451749
 20
103.96781715706111
 30
0.0
 40
1.25
  1
\U+2205
  0
TEXT
  5
30B
  8
0
 62
     0
 10
84.266071087451749
 20
103.96781715706111
 30
0.0
 40
1.25
  1
4
  0
ENDBLK
  5
30D
  8
0
  0
BLOCK
  8
0
  2
*U12
 70
     1
 10
0.0
 20
0.0
 30
0.0
  3
*U12
  1

  0
TEXT
  5
30F
  8
0
 62
     0
 10
83.016071087451749
 20
101.8407308554073
 30
0.0
 40
1.25
  1
\U+2205
  0
TEXT
  5
310
  8
0
 62
     0
 10
84.266071087451749
 20
101.8407308554073
 30
0.0
 40
1.25
  1
3
  0
ENDBLK
  5
312
  8
0
  0
BLOCK
  8
0
  2
*U13
 70
     1
 10
0.0
 20
0.0
 30
0.0
  3
*U13
  1

  0
TEXT
  5
314
  8
0
 62
     0
 10
87.870237754118421
 20
99.645418597297805
 30
0.0
 40
1.25
  1
\U+2205
  0
TEXT
  5
315
  8
0
 62
     0
 10
89.120237754118421
 20
99.645418597297805
 30
0.0
 40
1.25
  1
2
  0
ENDBLK
  5
317
  8
0
  0
BLOCK
  8
0
  2
*U14
 70
     1
 10
0.0
 20
0.0
 30
0.0
  3
*U14
  1

  0
TEXT
  5
319
  8
0
 62
     0
 10
87.370237754118421
 20
89.727708927522031
 30
0.0
 40
1.25
  1
\U+2205
  0
TEXT
  5
31A
  8
0
 62
     0
 10
88.620237754118421
 20
89.727708927522031
 30
0.0
 40
1.25
  1
1
  0
ENDBLK
  5
31C
  8
0
  0
ENDSEC
  0
SECTION
  2
ENTITIES
  0
LINE
  5
117
  8
0
 39
2.5
 10
85.838687754118425
 20
94.138890339677573
 30
0.0
 11
85.865187754118409
 21
94.161990339677573
 31
0.0
  0
LINE
  5
118
  8
0
 39
2.5
 10
85.810787754118422
 20
94.118140339677581
 30
0.0
 11
85.838687754118425
 21
94.138890339677573
 31
0.0
  0
LINE
  5
119
  8
0
 39
2.5
 10
85.781887754118429
 20
94.099490339677573
 30
0.0
 11
85.810787754118422
 21
94.118140339677581
 31
0.0
  0
LINE
  5
11A
  8
0
 39
2.5
 10
85.751987754118431
 20
94.082740339677571
 30
0.0
 11
85.781887754118429
 21
94.099490339677573
 31
0.0
  0
LINE
  5
11B
  8
0
 39
2.5
 10
85.721437754118426
 20
94.067590339677565
 30
0.0
 11
85.751987754118431
 21
94.082740339677571
 31
0.0
  0
LINE
  5
11C
  8
0
 39
2.5
 10
85.721437754118426
 20
94.067590339677565
 30
0.0
 11
85.721437754118426
 21
94.067590339677565
 31
0.0
  0
LINE
  5
11D
  8
0
 39
2.5
 10
85.226137754118412
 20
93.90249033967757
 30
0.0
 11
85.721437754118426
 21
94.067590339677565
 31
0.0
  0
LINE
  5
11E
  8
0
 39
2.5
 10
85.190637754118427
 20
93.867840339677571
 30
0.0
 11
85.226137754118412
 21
93.90249033967757
 31
0.0
  0
LINE
  5
11F
  8
0
 39
2.5
 10
85.160437754118419
 20
93.834940339677544
 30
0.0
 11
85.190637754118427
 21
93.867840339677571
 31
0.0
  0
LINE
  5
120
  8
0
 39
2.5
 10
85.135237754118407
 20
93.803640339677557
 30
0.0
 11
85.160437754118419
 21
93.834940339677544
 31
0.0
  0
LINE
  5
121
  8
0
 39
2.5
 10
85.115137754118422
 20
93.773540339677567
 30
0.0
 11
85.135237754118407
 21
93.803640339677557
 31
0.0
  0
LINE
  5
122
  8
0
 39
2.5
 10
85.09978775411841
 20
93.744590339677558
 30
0.0
 11
85.115137754118422
 21
93.773540339677567
 31
0.0
  0
LINE
  5
123
  8
0
 39
2.5
 10
85.089187754118413
 20
93.716340339677558
 30
0.0
 11
85.09978775411841
 21
93.744590339677558
 31
0.0
  0
LINE
  5
124
  8
0
 39
2.5
 10
85.083187754118399
 20
93.688690339677535
 30
0.0
 11
85.089187754118413
 21
93.716340339677558
 31
0.0
  0
LINE
  5
125
  8
0
 39
2.5
 10
85.081637754118418
 20
93.661240339677548
 30
0.0
 11
85.083187754118399
 21
93.688690339677535
 31
0.0
  0
LINE
  5
126
  8
0
 39
2.5
 10
85.084337754118437
 20
93.633890339677535
 30
0.0
 11
85.081637754118418
 21
93.661240339677548
 31
0.0
  0
LINE
  5
127
  8
0
 39
2.5
 10
85.091237754118424
 20
93.60614033967758
 30
0.0
 11
85.084337754118437
 21
93.633890339677535
 31
0.0
  0
LINE
  5
128
  8
0
 39
2.5
 10
85.102187754118404
 20
93.577990339677555
 30
0.0
 11
85.091237754118424
 21
93.60614033967758
 31
0.0
  0
LINE
  5
129
  8
0
 39
2.5
 10
84.057737754118435
 20
95.385090339677561
 30
0.0
 11
85.035637754118426
 21
95.385090339677561
 31
0.0
  0
LINE
  5
12A
  8
0
 39
2.5
 10
85.557737754118406
 20
95.385090339677561
 30
0.0
 11
84.057737754118435
 21
95.385090339677561
 31
0.0
  0
LINE
  5
12B
  8
0
 39
2.5
 10
84.057737754118435
 20
94.385090339677561
 30
0.0
 11
85.557737754118406
 21
94.385090339677561
 31
0.0
  0
LINE
  5
12C
  8
0
 39
2.5
 10
86.057737754118449
 20
94.584691403508415
 30
0.0
 11
86.057737754118421
 21
96.885090339677561
 31
0.0
  0
LINE
  5
12D
  8
0
 39
2.5
 10
85.865187754118409
 20
94.161990339677573
 30
0.0
 11
85.921887754118416
 21
94.187540339677554
 31
0.0
  0
LINE
  5
12E
  8
0
 39
2.5
 10
86.057737754118421
 20
96.885090339677561
 30
0.0
 11
84.057737754118435
 21
96.885090339677561
 31
0.0
  0
LINE
  5
12F
  8
0
 39
2.5
 10
86.051387754118437
 20
94.507140339677562
 30
0.0
 11
86.057737754118421
 21
94.584691403508145
 31
0.0
  0
LINE
  5
130
  8
0
 39
2.5
 10
85.921887754118416
 20
94.187540339677554
 30
0.0
 11
85.945387754118428
 21
94.215840339677555
 31
0.0
  0
LINE
  5
131
  8
0
 39
2.5
 10
85.945387754118428
 20
94.215840339677555
 30
0.0
 11
85.967237754118401
 21
94.246990339677581
 31
0.0
  0
LINE
  5
132
  8
0
 39
2.5
 10
85.967237754118401
 20
94.246990339677581
 30
0.0
 11
85.986987754118417
 21
94.281390339677557
 31
0.0
  0
LINE
  5
133
  8
0
 39
2.5
 10
85.986987754118417
 20
94.281390339677557
 30
0.0
 11
86.004737754118423
 21
94.319040339677571
 31
0.0
  0
LINE
  5
134
  8
0
 39
2.5
 10
86.004737754118423
 20
94.319040339677571
 30
0.0
 11
86.020187754118396
 21
94.360290339677562
 31
0.0
  0
LINE
  5
135
  8
0
 39
2.5
 10
86.020187754118396
 20
94.360290339677562
 30
0.0
 11
86.033287754118419
 21
94.405190339677574
 31
0.0
  0
LINE
  5
136
  8
0
 39
2.5
 10
86.033287754118419
 20
94.405190339677574
 30
0.0
 11
86.043687754118423
 21
94.454140339677565
 31
0.0
  0
LINE
  5
137
  8
0
 39
2.5
 10
86.043687754118423
 20
94.454140339677565
 30
0.0
 11
86.051387754118437
 21
94.507140339677562
 31
0.0
  0
LINE
  5
138
  8
0
 39
2.5
 10
85.091537754118406
 20
93.548940339677557
 30
0.0
 11
85.102187754118404
 21
93.577990339677555
 31
0.0
  0
LINE
  5
139
  8
0
 39
2.5
 10
85.693437754118406
 20
92.885090339677561
 30
0.0
 11
85.807737754118421
 21
93.037490339677561
 31
0.0
  0
LINE
  5
13A
  8
0
 39
2.5
 10
85.807737754118421
 20
93.037490339677561
 30
0.0
 11
85.187837754118419
 21
93.419890339677536
 31
0.0
  0
LINE
  5
13B
  8
0
 39
2.5
 10
85.187837754118419
 20
93.419890339677536
 30
0.0
 11
85.187837754118419
 21
93.419890339677536
 31
0.0
  0
LINE
  5
13C
  8
0
 39
2.5
 10
85.187837754118419
 20
93.419890339677536
 30
0.0
 11
85.158487754118426
 21
93.454690339677569
 31
0.0
  0
LINE
  5
13D
  8
0
 39
2.5
 10
85.158487754118426
 20
93.454690339677569
 30
0.0
 11
85.132587754118404
 21
93.487590339677553
 31
0.0
  0
LINE
  5
13E
  8
0
 39
2.5
 10
85.132587754118404
 20
93.487590339677553
 30
0.0
 11
85.110187754118414
 21
93.518940339677556
 31
0.0
  0
LINE
  5
13F
  8
0
 39
2.5
 10
85.110187754118414
 20
93.518940339677556
 30
0.0
 11
85.091537754118406
 21
93.548940339677557
 31
0.0
  0
LINE
  5
140
  8
0
 39
2.5
 10
84.057737754118435
 20
92.885090339677561
 30
0.0
 11
85.693437754118406
 21
92.885090339677561
 31
0.0
  0
LINE
  5
141
  8
0
 39
2.5
 10
84.057737754118435
 20
94.385090339677561
 30
0.0
 11
82.557737754118421
 21
94.385090339677561
 31
0.0
  0
LINE
  5
142
  8
0
 39
2.5
 10
82.557737754118421
 20
95.385090339677561
 30
0.0
 11
84.057737754118435
 21
95.385090339677561
 31
0.0
  0
LINE
  5
143
  8
0
 39
2.5
 10
84.057737754118435
 20
95.385090339677561
 30
0.0
 11
83.079837754118415
 21
95.385090339677561
 31
0.0
  0
LINE
  5
144
  8
0
 39
2.5
 10
82.057737754118421
 20
96.885090339677561
 30
0.0
 11
84.057737754118435
 21
96.885090339677561
 31
0.0
  0
LINE
  5
145
  8
0
 39
2.5
 10
82.057737754118406
 20
94.584691403508415
 30
0.0
 11
82.057737754118421
 21
96.885090339677561
 31
0.0
  0
LINE
  5
146
  8
0
 39
2.5
 10
82.064087754118418
 20
94.507140339677562
 30
0.0
 11
82.057737754118421
 21
94.584691403508145
 31
0.0
  0
LINE
  5
147
  8
0
 39
2.5
 10
82.071787754118418
 20
94.454140339677565
 30
0.0
 11
82.064087754118418
 21
94.507140339677562
 31
0.0
  0
LINE
  5
148
  8
0
 39
2.5
 10
82.082187754118408
 20
94.405190339677574
 30
0.0
 11
82.071787754118418
 21
94.454140339677565
 31
0.0
  0
LINE
  5
149
  8
0
 39
2.5
 10
82.095287754118431
 20
94.360290339677562
 30
0.0
 11
82.082187754118408
 21
94.405190339677574
 31
0.0
  0
LINE
  5
14A
  8
0
 39
2.5
 10
82.110737754118418
 20
94.319040339677571
 30
0.0
 11
82.095287754118431
 21
94.360290339677562
 31
0.0
  0
LINE
  5
14B
  8
0
 39
2.5
 10
82.128487754118424
 20
94.281390339677557
 30
0.0
 11
82.110737754118418
 21
94.319040339677571
 31
0.0
  0
LINE
  5
14C
  8
0
 39
2.5
 10
82.148237754118441
 20
94.246990339677581
 30
0.0
 11
82.128487754118424
 21
94.281390339677557
 31
0.0
  0
LINE
  5
14D
  8
0
 39
2.5
 10
82.170087754118413
 20
94.215840339677555
 30
0.0
 11
82.148237754118441
 21
94.246990339677581
 31
0.0
  0
LINE
  5
14E
  8
0
 39
2.5
 10
82.193587754118425
 20
94.187540339677554
 30
0.0
 11
82.170087754118413
 21
94.215840339677555
 31
0.0
  0
LINE
  5
14F
  8
0
 39
2.5
 10
82.250287754118432
 20
94.161990339677573
 30
0.0
 11
82.193587754118425
 21
94.187540339677554
 31
0.0
  0
LINE
  5
150
  8
0
 39
2.5
 10
82.276787754118445
 20
94.138890339677573
 30
0.0
 11
82.250287754118432
 21
94.161990339677573
 31
0.0
  0
LINE
  5
151
  8
0
 39
2.5
 10
82.304687754118405
 20
94.118140339677581
 30
0.0
 11
82.276787754118445
 21
94.138890339677573
 31
0.0
  0
LINE
  5
152
  8
0
 39
2.5
 10
82.333587754118426
 20
94.099490339677573
 30
0.0
 11
82.304687754118405
 21
94.118140339677581
 31
0.0
  0
LINE
  5
153
  8
0
 39
2.5
 10
82.363487754118395
 20
94.082740339677571
 30
0.0
 11
82.333587754118426
 21
94.099490339677573
 31
0.0
  0
LINE
  5
154
  8
0
 39
2.5
 10
82.394037754118415
 20
94.067590339677565
 30
0.0
 11
82.363487754118395
 21
94.082740339677571
 31
0.0
  0
LINE
  5
155
  8
0
 39
2.5
 10
82.394037754118415
 20
94.067590339677565
 30
0.0
 11
82.394037754118415
 21
94.067590339677565
 31
0.0
  0
LINE
  5
156
  8
0
 39
2.5
 10
82.889337754118429
 20
93.90249033967757
 30
0.0
 11
82.394037754118415
 21
94.067590339677565
 31
0.0
  0
LINE
  5
157
  8
0
 39
2.5
 10
82.924837754118414
 20
93.867840339677571
 30
0.0
 11
82.889337754118429
 21
93.90249033967757
 31
0.0
  0
LINE
  5
158
  8
0
 39
2.5
 10
82.955037754118436
 20
93.834940339677544
 30
0.0
 11
82.924837754118414
 21
93.867840339677571
 31
0.0
  0
LINE
  5
159
  8
0
 39
2.5
 10
82.980237754118434
 20
93.803640339677557
 30
0.0
 11
82.955037754118436
 21
93.834940339677544
 31
0.0
  0
LINE
  5
15A
  8
0
 39
2.5
 10
83.000337754118419
 20
93.773540339677567
 30
0.0
 11
82.980237754118434
 21
93.803640339677557
 31
0.0
  0
LINE
  5
15B
  8
0
 39
2.5
 10
83.015687754118417
 20
93.744590339677558
 30
0.0
 11
83.000337754118419
 21
93.773540339677567
 31
0.0
  0
LINE
  5
15C
  8
0
 39
2.5
 10
83.026287754118414
 20
93.716340339677558
 30
0.0
 11
83.015687754118417
 21
93.744590339677558
 31
0.0
  0
LINE
  5
15D
  8
0
 39
2.5
 10
83.032287754118428
 20
93.688690339677535
 30
0.0
 11
83.026287754118414
 21
93.716340339677558
 31
0.0
  0
LINE
  5
15E
  8
0
 39
2.5
 10
83.033837754118423
 20
93.661240339677548
 30
0.0
 11
83.032287754118428
 21
93.688690339677535
 31
0.0
  0
LINE
  5
15F
  8
0
 39
2.5
 10
83.031137754118419
 20
93.633890339677535
 30
0.0
 11
83.033837754118423
 21
93.661240339677548
 31
0.0
  0
LINE
  5
160
  8
0
 39
2.5
 10
83.024237754118417
 20
93.60614033967758
 30
0.0
 11
83.031137754118419
 21
93.633890339677535
 31
0.0
  0
LINE
  5
161
  8
0
 39
2.5
 10
83.013287754118437
 20
93.577990339677555
 30
0.0
 11
83.024237754118417
 21
93.60614033967758
 31
0.0
  0
LINE
  5
162
  8
0
 39
2.5
 10
83.023937754118435
 20
93.548940339677557
 30
0.0
 11
83.013287754118437
 21
93.577990339677555
 31
0.0
  0
LINE
  5
163
  8
0
 39
2.5
 10
83.005287754118427
 20
93.518940339677556
 30
0.0
 11
83.023937754118435
 21
93.548940339677557
 31
0.0
  0
LINE
  5
164
  8
0
 39
2.5
 10
82.982887754118423
 20
93.487590339677553
 30
0.0
 11
83.005287754118427
 21
93.518940339677556
 31
0.0
  0
LINE
  5
165
  8
0
 39
2.5
 10
82.956987754118416
 20
93.454690339677569
 30
0.0
 11
82.982887754118423
 21
93.487590339677553
 31
0.0
  0
LINE
  5
166
  8
0
 39
2.5
 10
82.927637754118422
 20
93.419890339677536
 30
0.0
 11
82.956987754118416
 21
93.454690339677569
 31
0.0
  0
LINE
  5
167
  8
0
 39
2.5
 10
82.927637754118422
 20
93.419890339677536
 30
0.0
 11
82.927637754118422
 21
93.419890339677536
 31
0.0
  0
LINE
  5
168
  8
0
 39
2.5
 10
82.307737754118421
 20
93.037490339677561
 30
0.0
 11
82.927637754118422
 21
93.419890339677536
 31
0.0
  0
LINE
  5
169
  8
0
 39
2.5
 10
82.422037754118435
 20
92.885090339677561
 30
0.0
 11
82.307737754118421
 21
93.037490339677561
 31
0.0
  0
LINE
  5
16A
  8
0
 39
2.5
 10
84.057737754118435
 20
92.885090339677561
 30
0.0
 11
82.422037754118435
 21
92.885090339677561
 31
0.0
  0
DIMENSION
  5
16B
  8
2
  2
*D1
 10
85.807737754118421
 20
86.577852046691049
 30
0.0
 11
89.245237754118421
 21
87.515352046691049
 31
0.0
 70
     0
  1
%%c<>
 13
82.307737754118421
 23
93.037490339677561
 33
0.0
 14
85.807737754118421
 24
93.037490339677561
 34
0.0
1001
ACAD
1000
DSTYLE
1002
{
1070
   271
1070
     6
1002
}
  0
TEXT
  5
16C
  8
2
 10
76.625253947990586
 20
80.835067221326526
 30
0.0
 40
1.2699720000000001
  1
No. 102.003.005._
 41
1.000000005314831
 51
-0.0000015352344868
  7
\U+00C9L\U+00C9R_\U+00C2S\U+00C2V\U+00C2B\U+00C2N
  0
DIMENSION
  5
16D
  8
2
  2
*D2
 10
97.910701794172184
 20
92.885090339677546
 30
0.0
 11
97.910701794172155
 21
94.688652033394646
 31
0.0
 70
   128
 13
86.057737754118421
 23
96.885090339677561
 33
0.0
 14
85.693437754118406
 24
92.885090339677561
 34
0.0
 50
90.0
1001
ACAD
1000
DSTYLE
1002
{
1070
   271
1070
     6
1002
}
  0
DIMENSION
  5
16E
  8
2
  2
*D3
 10
95.041233941166666
 20
94.385090339677561
 30
0.0
 11
95.041233941166638
 21
90.151497499925313
 31
0.0
 70
   128
 13
86.057737754118421
 23
96.885090339677561
 33
0.0
 14
85.557737754118406
 24
94.385090339677561
 34
0.0
 50
90.0
1001
ACAD
1000
DSTYLE
1002
{
1070
   271
1070
     6
1002
}
  0
DIMENSION
  5
16F
  8
2
  2
*D4
 10
84.557737754118421
 20
89.415208927522031
 30
0.0
 11
88.203571087451749
 21
89.415208927522031
 31
0.0
 70
   128
  1
%%c<>
 13
83.557737754118421
 23
93.385090339677561
 33
0.0
 14
84.557737754118421
 24
93.385090339677561
 34
0.0
1001
ACAD
1000
DSTYLE
1002
{
1070
   271
1070
     6
1002
}
  0
DIMENSION
  5
170
  8
2
  2
*D5
 10
91.62262567559182
 20
95.385090339677561
 30
0.0
 11
91.622625675591806
 21
91.530923673010889
 31
0.0
 70
   128
 13
86.057737754118421
 23
96.885090339677561
 33
0.0
 14
85.557737754118406
 24
95.385090339677561
 34
0.0
 50
90.0
1001
ACAD
1000
DSTYLE
1002
{
1070
   271
1070
     6
1002
}
  0
DIMENSION
  5
171
  8
2
  2
*D6
 10
86.057737754118421
 20
103.65531715706111
 30
0.0
 11
84.057737754118435
 21
104.59281715706111
 31
0.0
 70
     0
  1
%%c<>
 13
82.057737754118421
 23
96.885090339677561
 33
0.0
 14
86.057737754118421
 24
96.885090339677561
 34
0.0
1001
ACAD
1000
DSTYLE
1002
{
1070
   271
1070
     6
1002
}
  0
DIMENSION
  5
172
  8
2
  2
*D7
 10
85.557737754118406
 20
101.5282308554073
 30
0.0
 11
84.057737754118435
 21
102.4657308554073
 31
0.0
 70
     0
  1
%%c<>
 13
82.557737754118421
 23
95.385090339677561
 33
0.0
 14
85.557737754118406
 24
95.385090339677561
 34
0.0
1001
ACAD
1000
DSTYLE
1002
{
1070
   271
1070
     6
1002
}
  0
DIMENSION
  5
173
  8
2
  2
*D8
 10
85.057737754118421
 20
99.332918597297805
 30
0.0
 11
88.911904420785078
 21
99.332918597297805
 31
0.0
 70
   128
  1
%%c<>
 13
83.057737754118406
 23
96.885090339677561
 33
0.0
 14
85.057737754118421
 24
96.885090339677561
 34
0.0
1001
ACAD
1000
DSTYLE
1002
{
1070
   271
1070
     6
1002
}
  0
DIMENSION
  5
174
  8
2
  2
*D9
 10
78.897255358445193
 20
93.385090339677561
 30
0.0
 11
77.959755358445179
 21
97.343423673010903
 31
0.0
 70
     0
 13
82.422037754118435
 23
92.885090339677561
 33
0.0
 14
83.557737754118421
 24
93.385090339677561
 34
0.0
 50
90.0
1001
ACAD
1000
DSTYLE
1002
{
1070
   271
1070
     6
1002
}
  0
LINE
  5
175
  8
1
 10
84.057737754118435
 20
97.385090339677575
 30
0.0
 11
84.057737754118435
 21
92.385090339677575
 31
0.0
  0
LINE
  5
176
  8
0
 10
84.557737754118421
 20
93.385090339677561
 30
0.0
 11
85.693437754118406
 21
92.885090339677561
 31
0.0
  0
LINE
  5
177
  8
0
 10
83.557737754118421
 20
93.385090339677561
 30
0.0
 11
82.422037754118435
 21
92.885090339677561
 31
0.0
  0
LINE
  5
178
  8
0
 10
84.557737754118421
 20
93.385090339677561
 30
0.0
 11
83.557737754118421
 21
93.385090339677561
 31
0.0
  0
LINE
  5
179
  8
0
 10
85.057737754118421
 20
96.885090339677561
 30
0.0
 11
85.057737754118421
 21
95.385090339677561
 31
0.0
  0
LINE
  5
17A
  8
0
 10
83.057737754118406
 20
96.885090339677561
 30
0.0
 11
83.057737754118406
 21
95.385090339677561
 31
0.0
  0
LINE
  5
17B
  8
0
 10
85.557737754118406
 20
95.385090339677561
 30
0.0
 11
85.557737754118406
 21
94.385090339677561
 31
0.0
  0
LINE
  5
17C
  8
0
 10
84.557737754118421
 20
93.385090339677561
 30
0.0
 11
84.557737754118421
 21
94.385090339677561
 31
0.0
  0
LINE
  5
17D
  8
0
 10
83.557737754118421
 20
93.385090339677561
 30
0.0
 11
83.557737754118421
 21
94.385090339677561
 31
0.0
  0
LINE
  5
17E
  8
0
 10
82.557737754118421
 20
95.385090339677561
 30
0.0
 11
82.557737754118421
 21
94.385090339677561
 31
0.0
  0
ENDSEC
  0
EOF
