  0
SECTION
  2
HEADER
  9
$ACADVER
  1
AC1009
  9
$INSBASE
 10
0.0
 20
0.0
 30
0.0
  9
$EXTMIN
 10
111.6139560017176
 20
95.389411430262484
 30
0.0
  9
$EXTMAX
 10
152.79482171707551
 20
145.0942473935398
 30
2.5
  9
$LIMMIN
 10
0.0
 20
0.0
  9
$LIMMAX
 10
420.0
 20
297.0
  9
$ORTHOMODE
 70
     0
  9
$REGENMODE
 70
     1
  9
$FILLMODE
 70
     1
  9
$QTEXTMODE
 70
     0
  9
$MIRRTEXT
 70
     1
  9
$DRAGMODE
 70
     2
  9
$LTSCALE
 40
0.3
  9
$OSMODE
 70
    37
  9
$ATTMODE
 70
     1
  9
$TEXTSIZE
 40
2.5
  9
$TRACEWID
 40
1.0
  9
$TEXTSTYLE
  7
STANDARD
  9
$CLAYER
  8
2
  9
$CELTYPE
  6
BYLAYER
  9
$CECOLOR
 62
   256
  9
$DIMSCALE
 40
1.0
  9
$DIMASZ
 40
2.5
  9
$DIMEXO
 40
0.625
  9
$DIMDLI
 40
3.75
  9
$DIMRND
 40
0.0
  9
$DIMDLE
 40
0.0
  9
$DIMEXE
 40
1.25
  9
$DIMTP
 40
0.0
  9
$DIMTM
 40
0.0
  9
$DIMTXT
 40
2.5
  9
$DIMCEN
 40
2.5
  9
$DIMTSZ
 40
0.0
  9
$DIMTOL
 70
     0
  9
$DIMLIM
 70
     0
  9
$DIMTIH
 70
     0
  9
$DIMTOH
 70
     0
  9
$DIMSE1
 70
     0
  9
$DIMSE2
 70
     0
  9
$DIMTAD
 70
     1
  9
$DIMZIN
 70
     8
  9
$DIMBLK
  1

  9
$DIMASO
 70
     1
  9
$DIMSHO
 70
     1
  9
$DIMPOST
  1

  9
$DIMAPOST
  1

  9
$DIMALT
 70
     0
  9
$DIMALTD
 70
     3
  9
$DIMALTF
 40
0.03937007874016
  9
$DIMLFAC
 40
1.0
  9
$DIMTOFL
 70
     1
  9
$DIMTVP
 40
0.0
  9
$DIMTIX
 70
     0
  9
$DIMSOXD
 70
     0
  9
$DIMSAH
 70
     0
  9
$DIMBLK1
  1

  9
$DIMBLK2
  1

  9
$DIMSTYLE
  2
ISO-25
  9
$DIMCLRD
 70
     0
  9
$DIMCLRE
 70
     0
  9
$DIMCLRT
 70
     0
  9
$DIMTFAC
 40
1.0
  9
$DIMGAP
 40
0.625
  9
$LUNITS
 70
     2
  9
$LUPREC
 70
     4
  9
$SKETCHINC
 40
1.0
  9
$FILLETRAD
 40
10.0
  9
$AUNITS
 70
     0
  9
$AUPREC
 70
     0
  9
$MENU
  1
.
  9
$ELEVATION
 40
0.0
  9
$PELEVATION
 40
0.0
  9
$THICKNESS
 40
0.0
  9
$LIMCHECK
 70
     0
  9
$BLIPMODE
 70
     0
  9
$CHAMFERA
 40
10.0
  9
$CHAMFERB
 40
10.0
  9
$SKPOLY
 70
     0
  9
$TDCREATE
 40
2453511.9366115849
  9
$TDUPDATE
 40
2453551.894576597
  9
$TDINDWG
 40
0.0023011111
  9
$TDUSRTIMER
 40
0.0023011111
  9
$USRTIMER
 70
     1
  9
$ANGBASE
 50
0.0
  9
$ANGDIR
 70
     0
  9
$PDMODE
 70
     0
  9
$PDSIZE
 40
0.0
  9
$PLINEWID
 40
0.0
  9
$COORDS
 70
     1
  9
$SPLFRAME
 70
     0
  9
$SPLINETYPE
 70
     6
  9
$SPLINESEGS
 70
     8
  9
$ATTDIA
 70
     0
  9
$ATTREQ
 70
     1
  9
$HANDLING
 70
-16383
  9
$HANDSEED
  5
2D3
  9
$SURFTAB1
 70
     6
  9
$SURFTAB2
 70
     6
  9
$SURFTYPE
 70
     6
  9
$SURFU
 70
     6
  9
$SURFV
 70
     6
  9
$UCSNAME
  2

  9
$UCSORG
 10
0.0
 20
0.0
 30
0.0
  9
$UCSXDIR
 10
1.0
 20
0.0
 30
0.0
  9
$UCSYDIR
 10
0.0
 20
1.0
 30
0.0
  9
$PUCSNAME
  2

  9
$PUCSORG
 10
0.0
 20
0.0
 30
0.0
  9
$PUCSXDIR
 10
1.0
 20
0.0
 30
0.0
  9
$PUCSYDIR
 10
0.0
 20
1.0
 30
0.0
  9
$USERI1
 70
     0
  9
$USERI2
 70
     0
  9
$USERI3
 70
     0
  9
$USERI4
 70
     0
  9
$USERI5
 70
     0
  9
$USERR1
 40
0.0
  9
$USERR2
 40
0.0
  9
$USERR3
 40
0.0
  9
$USERR4
 40
0.0
  9
$USERR5
 40
0.0
  9
$WORLDVIEW
 70
     1
  9
$SHADEDGE
 70
     3
  9
$SHADEDIF
 70
    70
  9
$TILEMODE
 70
     1
  9
$MAXACTVP
 70
    64
  9
$PLIMCHECK
 70
     0
  9
$PEXTMIN
 10
1.0000000000000000E+020
 20
1.0000000000000000E+020
 30
1.0000000000000000E+020
  9
$PEXTMAX
 10
-1.0000000000000000E+020
 20
-1.0000000000000000E+020
 30
-1.0000000000000000E+020
  9
$PLIMMIN
 10
0.0
 20
0.0
  9
$PLIMMAX
 10
420.0
 20
297.0
  9
$UNITMODE
 70
     0
  9
$VISRETAIN
 70
     1
  9
$PLINEGEN
 70
     0
  9
$PSLTSCALE
 70
     1
  0
ENDSEC
  0
SECTION
  2
TABLES
  0
TABLE
  2
VPORT
 70
     2
  0
VPORT
  2
*ACTIVE
 70
     0
 10
0.0
 20
0.0
 11
1.0
 21
1.0
 12
164.20139286969231
 22
120.8994168962189
 13
0.0
 23
0.0
 14
10.0
 24
10.0
 15
10.0
 25
10.0
 16
0.0
 26
0.0
 36
1.0
 17
0.0
 27
0.0
 37
0.0
 40
64.252296829260757
 41
2.5392405063291141
 42
50.0
 43
0.0
 44
0.0
 50
0.0
 51
0.0
 71
     0
 72
   100
 73
     1
 74
     3
 75
     0
 76
     0
 77
     0
 78
     0
  0
ENDTAB
  0
TABLE
  2
LTYPE
 70
     2
  0
LTYPE
  2
CONTINUOUS
 70
     0
  3
Solid line
 72
    65
 73
     0
 40
0.0
  0
LTYPE
  2
CENTER
 70
     0
  3
Center ____ _ ____ _ ____ _ ____ _ ____ _ ____
 72
    65
 73
     4
 40
50.799999999999997
 49
31.75
 49
-6.3499999999999988
 49
6.3499999999999988
 49
-6.3499999999999988
  0
ENDTAB
  0
TABLE
  2
LAYER
 70
     4
  0
LAYER
  2
0
 70
     0
 62
     7
  6
CONTINUOUS
  0
LAYER
  2
1
 70
     0
 62
     7
  6
CENTER
  0
LAYER
  2
DEFPOINTS
 70
     0
 62
     7
  6
CONTINUOUS
  0
LAYER
  2
2
 70
     0
 62
     7
  6
CONTINUOUS
  0
ENDTAB
  0
TABLE
  2
STYLE
 70
     2
  0
STYLE
  2
STANDARD
 70
     0
 40
0.0
 41
1.0
 50
0.0
 71
     0
 42
2.5
  3
txt
  4

  0
STYLE
  2
\U+00C9L\U+00C9R_\U+00C2S\U+00C2V\U+00C2B\U+00C2N
 70
     0
 40
1.0
 41
1.0
 50
0.0
 71
     0
 42
1.0
  3
\U+00E9l\U+00E9r \U+00E2S\U+00E2V\U+00E2b\U+00E2N
  4

  0
ENDTAB
  0
TABLE
  2
VIEW
 70
     0
  0
ENDTAB
  0
TABLE
  2
UCS
 70
     0
  0
ENDTAB
  0
TABLE
  2
APPID
 70
     1
  0
APPID
  2
ACAD
 70
     0
  0
ENDTAB
  0
TABLE
  2
DIMSTYLE
 70
     1
  0
DIMSTYLE
  2
ISO-25
 70
     0
  3

  4

  5

  6

  7

 40
1.0
 41
2.5
 42
0.625
 43
3.75
 44
1.25
 45
0.0
 46
0.0
 47
0.0
 48
0.0
140
2.5
141
2.5
142
0.0
143
0.03937007874016
144
1.0
145
0.0
146
1.0
147
0.625
 71
     0
 72
     0
 73
     0
 74
     0
 75
     0
 76
     0
 77
     1
 78
     8
170
     0
171
     3
172
     1
173
     0
174
     0
175
     0
176
     0
177
     0
178
     0
  0
ENDTAB
  0
ENDSEC
  0
SECTION
  2
BLOCKS
  0
BLOCK
  8
0
  2
$MODEL_SPACE
 70
     0
 10
0.0
 20
0.0
 30
0.0
  3
$MODEL_SPACE
  1

  0
ENDBLK
  5
21
  8
0
  0
BLOCK
 67
     1
  8
0
  2
$PAPER_SPACE
 70
     0
 10
0.0
 20
0.0
 30
0.0
  3
$PAPER_SPACE
  1

  0
ENDBLK
  5
1D
 67
     1
  8
0
  0
BLOCK
  8
0
  2
*D1
 70
     1
 10
0.0
 20
0.0
 30
0.0
  3
*D1
  1

  0
LINE
  5
247
  8
2
 62
     0
 10
122.8094698078407
 20
129.08345121849439
 30
0.0
 11
122.8094698078407
 21
143.2192473935398
 31
0.0
  0
LINE
  5
248
  8
2
 62
     0
 10
130.30946980784071
 20
128.983984551828
 30
0.0
 11
130.30946980784071
 21
143.2192473935398
 31
0.0
  0
LINE
  5
249
  8
2
 62
     0
 10
125.3094698078407
 20
141.9692473935398
 30
0.0
 11
127.8094698078407
 21
141.9692473935398
 31
0.0
  0
LINE
  5
24A
  8
2
 62
     0
 10
130.30946980784071
 20
141.9692473935398
 30
0.0
 11
141.55946980784071
 21
141.9692473935398
 31
0.0
  0
SOLID
  5
24B
  8
2
 62
     0
 10
125.3094698078407
 20
142.3859140602064
 30
0.0
 11
125.3094698078407
 21
141.55258072687309
 31
0.0
 12
122.8094698078407
 22
141.9692473935398
 32
0.0
 13
122.8094698078407
 23
141.9692473935398
 33
0.0
  0
SOLID
  5
24C
  8
2
 62
     0
 10
127.8094698078407
 20
142.3859140602064
 30
0.0
 11
127.8094698078407
 21
141.55258072687309
 31
0.0
 12
130.30946980784071
 22
141.9692473935398
 32
0.0
 13
130.30946980784071
 23
141.9692473935398
 33
0.0
  0
INSERT
  5
24D
  8
2
  2
*U10
 10
0.0
 20
0.0
 30
0.0
  0
POINT
  5
24E
  8
DEFPOINTS
 62
     0
 10
122.8094698078407
 20
128.45845121849439
 30
0.0
  0
POINT
  5
24F
  8
DEFPOINTS
 62
     0
 10
130.30946980784071
 20
128.358984551828
 30
0.0
  0
POINT
  5
250
  8
DEFPOINTS
 62
     0
 10
130.30946980784071
 20
141.9692473935398
 30
0.0
  0
ENDBLK
  5
1D8
  8
0
  0
BLOCK
  8
0
  2
*D2
 70
     1
 10
0.0
 20
0.0
 30
0.0
  3
*D2
  1

  0
LINE
  5
251
  8
2
 62
     0
 10
123.5594698078407
 20
127.44291788516109
 30
0.0
 11
123.5594698078407
 21
138.8236535662752
 31
0.0
  0
LINE
  5
252
  8
2
 62
     0
 10
129.55946980784071
 20
127.44291788516109
 30
0.0
 11
129.55946980784071
 21
138.8236535662752
 31
0.0
  0
LINE
  5
253
  8
2
 62
     0
 10
121.0594698078407
 20
137.5736535662752
 30
0.0
 11
118.5594698078407
 21
137.5736535662752
 31
0.0
  0
LINE
  5
254
  8
2
 62
     0
 10
132.05946980784071
 20
137.5736535662752
 30
0.0
 11
139.9761364745074
 21
137.5736535662752
 31
0.0
  0
LINE
  5
255
  8
2
 62
     0
 10
123.5594698078407
 20
137.5736535662752
 30
0.0
 11
129.55946980784071
 21
137.5736535662752
 31
0.0
  0
SOLID
  5
256
  8
2
 62
     0
 10
121.0594698078407
 20
137.99032023294191
 30
0.0
 11
121.0594698078407
 21
137.1569868996086
 31
0.0
 12
123.5594698078407
 22
137.5736535662752
 32
0.0
 13
123.5594698078407
 23
137.5736535662752
 33
0.0
  0
SOLID
  5
257
  8
2
 62
     0
 10
132.05946980784071
 20
137.99032023294191
 30
0.0
 11
132.05946980784071
 21
137.1569868996086
 31
0.0
 12
129.55946980784071
 22
137.5736535662752
 32
0.0
 13
129.55946980784071
 23
137.5736535662752
 33
0.0
  0
INSERT
  5
258
  8
2
  2
*U11
 10
0.0
 20
0.0
 30
0.0
  0
POINT
  5
259
  8
DEFPOINTS
 62
     0
 10
123.5594698078407
 20
126.81791788516109
 30
0.0
  0
POINT
  5
25A
  8
DEFPOINTS
 62
     0
 10
129.55946980784071
 20
126.81791788516109
 30
0.0
  0
POINT
  5
25B
  8
DEFPOINTS
 62
     0
 10
129.55946980784071
 20
137.5736535662752
 30
0.0
  0
ENDBLK
  5
1E6
  8
0
  0
BLOCK
  8
0
  2
*D3
 70
     1
 10
0.0
 20
0.0
 30
0.0
  3
*D3
  1

  0
LINE
  5
25C
  8
2
 62
     0
 10
124.5594698078407
 20
129.44291788516111
 30
0.0
 11
124.5594698078407
 21
134.97090867634699
 31
0.0
  0
LINE
  5
25D
  8
2
 62
     0
 10
128.55946980784071
 20
129.44291788516111
 30
0.0
 11
128.55946980784071
 21
134.97090867634699
 31
0.0
  0
LINE
  5
25E
  8
2
 62
     0
 10
122.0594698078407
 20
133.72090867634699
 30
0.0
 11
119.5594698078407
 21
133.72090867634699
 31
0.0
  0
LINE
  5
25F
  8
2
 62
     0
 10
131.05946980784071
 20
133.72090867634699
 30
0.0
 11
138.9761364745074
 21
133.72090867634699
 31
0.0
  0
LINE
  5
260
  8
2
 62
     0
 10
124.5594698078407
 20
133.72090867634699
 30
0.0
 11
128.55946980784071
 21
133.72090867634699
 31
0.0
  0
SOLID
  5
261
  8
2
 62
     0
 10
122.0594698078407
 20
134.13757534301371
 30
0.0
 11
122.0594698078407
 21
133.30424200968039
 31
0.0
 12
124.5594698078407
 22
133.72090867634699
 32
0.0
 13
124.5594698078407
 23
133.72090867634699
 33
0.0
  0
SOLID
  5
262
  8
2
 62
     0
 10
131.05946980784071
 20
134.13757534301371
 30
0.0
 11
131.05946980784071
 21
133.30424200968039
 31
0.0
 12
128.55946980784071
 22
133.72090867634699
 32
0.0
 13
128.55946980784071
 23
133.72090867634699
 33
0.0
  0
INSERT
  5
263
  8
2
  2
*U12
 10
0.0
 20
0.0
 30
0.0
  0
POINT
  5
264
  8
DEFPOINTS
 62
     0
 10
124.5594698078407
 20
128.81791788516111
 30
0.0
  0
POINT
  5
265
  8
DEFPOINTS
 62
     0
 10
128.55946980784071
 20
128.81791788516111
 30
0.0
  0
POINT
  5
266
  8
DEFPOINTS
 62
     0
 10
128.55946980784071
 20
133.72090867634699
 30
0.0
  0
ENDBLK
  5
1F4
  8
0
  0
BLOCK
  8
0
  2
*D4
 70
     1
 10
0.0
 20
0.0
 30
0.0
  3
*D4
  1

  0
LINE
  5
267
  8
2
 62
     0
 10
124.0594698078407
 20
121.9325178851611
 30
0.0
 11
124.0594698078407
 21
107.0842012437159
 31
0.0
  0
LINE
  5
268
  8
2
 62
     0
 10
129.05946980784071
 20
121.9325178851611
 30
0.0
 11
129.05946980784071
 21
107.0842012437159
 31
0.0
  0
LINE
  5
269
  8
2
 62
     0
 10
121.5594698078407
 20
108.3342012437159
 30
0.0
 11
119.0594698078407
 21
108.3342012437159
 31
0.0
  0
LINE
  5
26A
  8
2
 62
     0
 10
131.55946980784071
 20
108.3342012437159
 30
0.0
 11
139.4761364745074
 21
108.3342012437159
 31
0.0
  0
LINE
  5
26B
  8
2
 62
     0
 10
124.0594698078407
 20
108.3342012437159
 30
0.0
 11
129.05946980784071
 21
108.3342012437159
 31
0.0
  0
SOLID
  5
26C
  8
2
 62
     0
 10
121.5594698078407
 20
108.7508679103825
 30
0.0
 11
121.5594698078407
 21
107.9175345770492
 31
0.0
 12
124.0594698078407
 22
108.3342012437159
 32
0.0
 13
124.0594698078407
 23
108.3342012437159
 33
0.0
  0
SOLID
  5
26D
  8
2
 62
     0
 10
131.55946980784071
 20
108.7508679103825
 30
0.0
 11
131.55946980784071
 21
107.9175345770492
 31
0.0
 12
129.05946980784071
 22
108.3342012437159
 32
0.0
 13
129.05946980784071
 23
108.3342012437159
 33
0.0
  0
INSERT
  5
26E
  8
2
  2
*U13
 10
0.0
 20
0.0
 30
0.0
  0
POINT
  5
26F
  8
DEFPOINTS
 62
     0
 10
124.0594698078407
 20
122.5575178851611
 30
0.0
  0
POINT
  5
270
  8
DEFPOINTS
 62
     0
 10
129.05946980784071
 20
122.5575178851611
 30
0.0
  0
POINT
  5
271
  8
DEFPOINTS
 62
     0
 10
129.05946980784071
 20
108.3342012437159
 30
0.0
  0
ENDBLK
  5
202
  8
0
  0
BLOCK
  8
0
  2
*D5
 70
     1
 10
0.0
 20
0.0
 30
0.0
  3
*D5
  1

  0
LINE
  5
272
  8
2
 62
     0
 10
125.8094698078407
 20
122.5929178851611
 30
0.0
 11
125.8094698078407
 21
111.9237761789453
 31
0.0
  0
LINE
  5
273
  8
2
 62
     0
 10
127.3094698078407
 20
122.5929178851611
 30
0.0
 11
127.3094698078407
 21
111.9237761789453
 31
0.0
  0
LINE
  5
274
  8
2
 62
     0
 10
123.3094698078407
 20
113.1737761789453
 30
0.0
 11
120.8094698078407
 21
113.1737761789453
 31
0.0
  0
LINE
  5
275
  8
2
 62
     0
 10
129.80946980784071
 20
113.1737761789453
 30
0.0
 11
140.2261364745074
 21
113.1737761789453
 31
0.0
  0
LINE
  5
276
  8
2
 62
     0
 10
125.8094698078407
 20
113.1737761789453
 30
0.0
 11
127.3094698078407
 21
113.1737761789453
 31
0.0
  0
SOLID
  5
277
  8
2
 62
     0
 10
123.3094698078407
 20
113.590442845612
 30
0.0
 11
123.3094698078407
 21
112.7571095122787
 31
0.0
 12
125.8094698078407
 22
113.1737761789453
 32
0.0
 13
125.8094698078407
 23
113.1737761789453
 33
0.0
  0
SOLID
  5
278
  8
2
 62
     0
 10
129.80946980784071
 20
113.590442845612
 30
0.0
 11
129.80946980784071
 21
112.7571095122787
 31
0.0
 12
127.3094698078407
 22
113.1737761789453
 32
0.0
 13
127.3094698078407
 23
113.1737761789453
 33
0.0
  0
INSERT
  5
279
  8
2
  2
*U14
 10
0.0
 20
0.0
 30
0.0
  0
POINT
  5
27A
  8
DEFPOINTS
 62
     0
 10
125.8094698078407
 20
123.2179178851611
 30
0.0
  0
POINT
  5
27B
  8
DEFPOINTS
 62
     0
 10
127.3094698078407
 20
123.2179178851611
 30
0.0
  0
POINT
  5
27C
  8
DEFPOINTS
 62
     0
 10
127.3094698078407
 20
113.1737761789453
 30
0.0
  0
ENDBLK
  5
210
  8
0
  0
BLOCK
  8
0
  2
*D6
 70
     1
 10
0.0
 20
0.0
 30
0.0
  3
*D6
  1

  0
LINE
  5
27D
  8
2
 62
     0
 10
123.6122698078407
 20
122.31791788516109
 30
0.0
 11
113.5106123619565
 21
122.31791788516109
 31
0.0
  0
LINE
  5
27E
  8
2
 62
     0
 10
125.1844698078407
 20
123.2179178851611
 30
0.0
 11
113.5106123619565
 21
123.2179178851611
 31
0.0
  0
LINE
  5
27F
  8
2
 62
     0
 10
114.7606123619565
 20
119.81791788516109
 30
0.0
 11
114.7606123619565
 21
117.31791788516109
 31
0.0
  0
LINE
  5
280
  8
2
 62
     0
 10
114.7606123619565
 20
125.7179178851611
 30
0.0
 11
114.7606123619565
 21
134.05125121849451
 31
0.0
  0
LINE
  5
281
  8
2
 62
     0
 10
114.7606123619565
 20
122.31791788516109
 30
0.0
 11
114.7606123619565
 21
123.2179178851611
 31
0.0
  0
SOLID
  5
282
  8
2
 62
     0
 10
114.3439456952899
 20
119.81791788516109
 30
0.0
 11
115.1772790286232
 21
119.81791788516109
 31
0.0
 12
114.7606123619565
 22
122.31791788516109
 32
0.0
 13
114.7606123619565
 23
122.31791788516109
 33
0.0
  0
SOLID
  5
283
  8
2
 62
     0
 10
114.3439456952899
 20
125.7179178851611
 30
0.0
 11
115.1772790286232
 21
125.7179178851611
 31
0.0
 12
114.7606123619565
 22
123.2179178851611
 32
0.0
 13
114.7606123619565
 23
123.2179178851611
 33
0.0
  0
TEXT
  5
284
  8
2
 62
     0
 10
114.1356123619565
 20
128.8429178851612
 30
0.0
 40
2.5
  1
0.9
 50
90.0
  0
POINT
  5
285
  8
DEFPOINTS
 62
     0
 10
124.2372698078407
 20
122.31791788516109
 30
0.0
  0
POINT
  5
286
  8
DEFPOINTS
 62
     0
 10
125.8094698078407
 20
123.2179178851611
 30
0.0
  0
POINT
  5
287
  8
DEFPOINTS
 62
     0
 10
114.7606123619565
 20
123.2179178851611
 30
0.0
  0
ENDBLK
  5
21E
  8
0
  0
BLOCK
  8
0
  2
*D7
 70
     1
 10
0.0
 20
0.0
 30
0.0
  3
*D7
  1

  0
LINE
  5
288
  8
2
 62
     0
 10
130.5229698078407
 20
128.81791788516111
 30
0.0
 11
152.79482171707551
 21
128.81791788516111
 31
0.0
  0
LINE
  5
289
  8
2
 62
     0
 10
129.50666980784069
 20
122.31791788516109
 30
0.0
 11
152.79482171707551
 21
122.31791788516109
 31
0.0
  0
LINE
  5
28A
  8
2
 62
     0
 10
151.54482171707551
 20
126.31791788516109
 30
0.0
 11
151.54482171707551
 21
124.81791788516109
 31
0.0
  0
SOLID
  5
28B
  8
2
 62
     0
 10
151.12815505040879
 20
126.31791788516109
 30
0.0
 11
151.96148838374211
 21
126.31791788516109
 31
0.0
 12
151.54482171707551
 22
128.81791788516111
 32
0.0
 13
151.54482171707551
 23
128.81791788516111
 33
0.0
  0
SOLID
  5
28C
  8
2
 62
     0
 10
151.12815505040879
 20
124.81791788516109
 30
0.0
 11
151.96148838374211
 21
124.81791788516109
 31
0.0
 12
151.54482171707551
 22
122.31791788516109
 32
0.0
 13
151.54482171707551
 23
122.31791788516109
 33
0.0
  0
TEXT
  5
28D
  8
2
 62
     0
 10
150.91982171707551
 20
123.06791788516109
 30
0.0
 40
2.5
  1
6.5
 50
90.0
  0
POINT
  5
28E
  8
DEFPOINTS
 62
     0
 10
129.8979698078407
 20
128.81791788516111
 30
0.0
  0
POINT
  5
28F
  8
DEFPOINTS
 62
     0
 10
128.88166980784069
 20
122.31791788516109
 30
0.0
  0
POINT
  5
290
  8
DEFPOINTS
 62
     0
 10
151.54482171707551
 20
122.31791788516109
 30
0.0
  0
ENDBLK
  5
22A
  8
0
  0
BLOCK
  8
0
  2
*D8
 70
     1
 10
0.0
 20
0.0
 30
0.0
  3
*D8
  1

  0
LINE
  5
291
  8
2
 62
     0
 10
130.5229698078407
 20
128.81791788516111
 30
0.0
 11
147.4274248250791
 21
128.81791788516111
 31
0.0
  0
LINE
  5
292
  8
2
 62
     0
 10
130.18446980784071
 20
124.81791788516109
 30
0.0
 11
147.4274248250791
 21
124.81791788516109
 31
0.0
  0
LINE
  5
293
  8
2
 62
     0
 10
146.1774248250791
 20
131.31791788516111
 30
0.0
 11
146.1774248250791
 21
133.81791788516111
 31
0.0
  0
LINE
  5
294
  8
2
 62
     0
 10
146.1774248250791
 20
122.31791788516109
 30
0.0
 11
146.1774248250791
 21
119.81791788516109
 31
0.0
  0
LINE
  5
295
  8
2
 62
     0
 10
146.1774248250791
 20
128.81791788516111
 30
0.0
 11
146.1774248250791
 21
124.81791788516109
 31
0.0
  0
SOLID
  5
296
  8
2
 62
     0
 10
145.7607581584125
 20
131.31791788516111
 30
0.0
 11
146.59409149174579
 21
131.31791788516111
 31
0.0
 12
146.1774248250791
 22
128.81791788516111
 32
0.0
 13
146.1774248250791
 23
128.81791788516111
 33
0.0
  0
SOLID
  5
297
  8
2
 62
     0
 10
145.7607581584125
 20
122.31791788516109
 30
0.0
 11
146.59409149174579
 21
122.31791788516109
 31
0.0
 12
146.1774248250791
 22
124.81791788516109
 32
0.0
 13
146.1774248250791
 23
124.81791788516109
 33
0.0
  0
TEXT
  5
298
  8
2
 62
     0
 10
145.5524248250791
 20
125.98458455182779
 30
0.0
 40
2.5
  1
4
 50
90.0
  0
POINT
  5
299
  8
DEFPOINTS
 62
     0
 10
129.8979698078407
 20
128.81791788516111
 30
0.0
  0
POINT
  5
29A
  8
DEFPOINTS
 62
     0
 10
129.55946980784071
 20
124.81791788516109
 30
0.0
  0
POINT
  5
29B
  8
DEFPOINTS
 62
     0
 10
146.1774248250791
 20
124.81791788516109
 30
0.0
  0
ENDBLK
  5
238
  8
0
  0
BLOCK
  8
0
  2
*D9
 70
     1
 10
0.0
 20
0.0
 30
0.0
  3
*D9
  1

  0
LINE
  5
29C
  8
2
 62
     0
 10
130.5229698078407
 20
128.81791788516111
 30
0.0
 11
142.59329439664899
 21
128.81791788516111
 31
0.0
  0
LINE
  5
29D
  8
2
 62
     0
 10
130.18446980784071
 20
126.81791788516109
 30
0.0
 11
142.59329439664899
 21
126.81791788516109
 31
0.0
  0
LINE
  5
29E
  8
2
 62
     0
 10
141.34329439664899
 20
131.31791788516111
 30
0.0
 11
141.34329439664899
 21
133.81791788516111
 31
0.0
  0
LINE
  5
29F
  8
2
 62
     0
 10
141.34329439664899
 20
124.31791788516109
 30
0.0
 11
141.34329439664899
 21
118.90125121849439
 31
0.0
  0
LINE
  5
2A0
  8
2
 62
     0
 10
141.34329439664899
 20
128.81791788516111
 30
0.0
 11
141.34329439664899
 21
126.81791788516109
 31
0.0
  0
SOLID
  5
2A1
  8
2
 62
     0
 10
140.92662772998241
 20
131.31791788516111
 30
0.0
 11
141.7599610633157
 21
131.31791788516111
 31
0.0
 12
141.34329439664899
 22
128.81791788516111
 32
0.0
 13
141.34329439664899
 23
128.81791788516111
 33
0.0
  0
SOLID
  5
2A2
  8
2
 62
     0
 10
140.92662772998241
 20
124.31791788516109
 30
0.0
 11
141.7599610633157
 21
124.31791788516109
 31
0.0
 12
141.34329439664899
 22
126.81791788516109
 32
0.0
 13
141.34329439664899
 23
126.81791788516109
 33
0.0
  0
TEXT
  5
2A3
  8
2
 62
     0
 10
140.71829439664899
 20
119.52625121849449
 30
0.0
 40
2.5
  1
2
 50
90.0
  0
POINT
  5
2A4
  8
DEFPOINTS
 62
     0
 10
129.8979698078407
 20
128.81791788516111
 30
0.0
  0
POINT
  5
2A5
  8
DEFPOINTS
 62
     0
 10
129.55946980784071
 20
126.81791788516109
 30
0.0
  0
POINT
  5
2A6
  8
DEFPOINTS
 62
     0
 10
141.34329439664899
 20
126.81791788516109
 30
0.0
  0
ENDBLK
  5
246
  8
0
  0
BLOCK
  8
0
  2
*U10
 70
     1
 10
0.0
 20
0.0
 30
0.0
  3
*U10
  1

  0
TEXT
  5
2BB
  8
2
 62
     0
 10
133.43446980784071
 20
142.5942473935398
 30
0.0
 40
2.5
  1
\U+2205
  0
TEXT
  5
2BC
  8
2
 62
     0
 10
135.93446980784071
 20
142.5942473935398
 30
0.0
 40
2.5
  1
7.5
  0
ENDBLK
  5
2BE
  8
0
  0
BLOCK
  8
0
  2
*U11
 70
     1
 10
0.0
 20
0.0
 30
0.0
  3
*U11
  1

  0
TEXT
  5
2C0
  8
2
 62
     0
 10
135.18446980784071
 20
138.1986535662752
 30
0.0
 40
2.5
  1
\U+2205
  0
TEXT
  5
2C1
  8
2
 62
     0
 10
137.68446980784071
 20
138.1986535662752
 30
0.0
 40
2.5
  1
6
  0
ENDBLK
  5
2C3
  8
0
  0
BLOCK
  8
0
  2
*U12
 70
     1
 10
0.0
 20
0.0
 30
0.0
  3
*U12
  1

  0
TEXT
  5
2C5
  8
2
 62
     0
 10
134.18446980784071
 20
134.34590867634699
 30
0.0
 40
2.5
  1
\U+2205
  0
TEXT
  5
2C6
  8
2
 62
     0
 10
136.68446980784071
 20
134.34590867634699
 30
0.0
 40
2.5
  1
4
  0
ENDBLK
  5
2C8
  8
0
  0
BLOCK
  8
0
  2
*U13
 70
     1
 10
0.0
 20
0.0
 30
0.0
  3
*U13
  1

  0
TEXT
  5
2CA
  8
2
 62
     0
 10
134.68446980784071
 20
108.9592012437159
 30
0.0
 40
2.5
  1
\U+2205
  0
TEXT
  5
2CB
  8
2
 62
     0
 10
137.18446980784071
 20
108.9592012437159
 30
0.0
 40
2.5
  1
5
  0
ENDBLK
  5
2CD
  8
0
  0
BLOCK
  8
0
  2
*U14
 70
     1
 10
0.0
 20
0.0
 30
0.0
  3
*U14
  1

  0
TEXT
  5
2CF
  8
2
 62
     0
 10
132.93446980784071
 20
113.7987761789454
 30
0.0
 40
2.5
  1
\U+2205
  0
TEXT
  5
2D0
  8
2
 62
     0
 10
135.43446980784071
 20
113.7987761789454
 30
0.0
 40
2.5
  1
1.5
  0
ENDBLK
  5
2D2
  8
0
  0
ENDSEC
  0
SECTION
  2
ENTITIES
  0
LINE
  5
13E
  8
0
 39
2.5
 10
128.5307698078407
 20
126.81791788516109
 30
0.0
 11
126.5848698078407
 21
126.81791788516109
 31
0.0
  0
LINE
  5
13F
  8
0
 39
2.5
 10
128.5307698078407
 20
126.81791788516109
 30
0.0
 11
128.5307698078407
 21
126.81791788516109
 31
0.0
  0
LINE
  5
140
  8
0
 39
2.5
 10
129.55946980784071
 20
124.81791788516109
 30
0.0
 11
126.57216980784069
 21
124.81791788516109
 31
0.0
  0
LINE
  5
141
  8
0
 39
2.5
 10
126.57216980784069
 20
126.81791788516109
 30
0.0
 11
129.55946980784071
 21
126.81791788516109
 31
0.0
  0
LINE
  5
142
  8
0
 39
2.5
 10
129.49256980784071
 20
124.81791788516109
 30
0.0
 11
129.49256980784071
 21
124.81791788516109
 31
0.0
  0
LINE
  5
143
  8
0
 39
2.5
 10
126.5848698078407
 20
124.81786788516111
 30
0.0
 11
127.4738698078407
 21
124.81786788516111
 31
0.0
  0
LINE
  5
144
  8
0
 39
2.5
 10
126.5594698078407
 20
128.81791788516111
 30
0.0
 11
129.8979698078407
 21
128.81791788516111
 31
0.0
  0
LINE
  5
145
  8
0
 39
2.5
 10
129.8979698078407
 20
128.81791788516111
 30
0.0
 11
129.8979698078407
 21
128.81791788516111
 31
0.0
  0
LINE
  5
146
  8
0
 39
2.5
 10
129.8979698078407
 20
128.81791788516111
 30
0.0
 11
129.94026980784071
 21
128.81416788516111
 31
0.0
  0
LINE
  5
147
  8
0
 39
2.5
 10
129.94026980784071
 20
128.81416788516111
 30
0.0
 11
129.98111980784071
 21
128.80781788516111
 31
0.0
  0
LINE
  5
148
  8
0
 39
2.5
 10
129.98111980784071
 20
128.80781788516111
 30
0.0
 11
130.02036980784069
 21
128.79886788516109
 31
0.0
  0
LINE
  5
149
  8
0
 39
2.5
 10
130.02036980784069
 20
128.79886788516109
 30
0.0
 11
130.05776980784071
 21
128.78746788516111
 31
0.0
  0
LINE
  5
14A
  8
0
 39
2.5
 10
130.05776980784071
 20
128.78746788516111
 30
0.0
 11
130.09321980784071
 21
128.77351788516111
 31
0.0
  0
LINE
  5
14B
  8
0
 39
2.5
 10
130.09321980784071
 20
128.77351788516111
 30
0.0
 11
130.1264198078407
 21
128.75731788516109
 31
0.0
  0
LINE
  5
14C
  8
0
 39
2.5
 10
130.1264198078407
 20
128.75731788516109
 30
0.0
 11
130.1572198078407
 21
128.73871788516109
 31
0.0
  0
LINE
  5
14D
  8
0
 39
2.5
 10
130.1572198078407
 20
128.73871788516109
 30
0.0
 11
130.1853198078407
 21
128.7178678851611
 31
0.0
  0
LINE
  5
14E
  8
0
 39
2.5
 10
130.1853198078407
 20
128.7178678851611
 30
0.0
 11
130.21076980784071
 21
128.6946678851611
 31
0.0
  0
LINE
  5
14F
  8
0
 39
2.5
 10
130.21076980784071
 20
128.6946678851611
 30
0.0
 11
130.23306980784071
 21
128.66936788516111
 31
0.0
  0
LINE
  5
150
  8
0
 39
2.5
 10
130.23306980784071
 20
128.66936788516111
 30
0.0
 11
130.25216980784069
 21
128.64191788516109
 31
0.0
  0
LINE
  5
151
  8
0
 39
2.5
 10
130.25216980784069
 20
128.64191788516109
 30
0.0
 11
130.26771980784071
 21
128.6124678851611
 31
0.0
  0
LINE
  5
152
  8
0
 39
2.5
 10
130.26771980784071
 20
128.6124678851611
 30
0.0
 11
130.27976980784069
 21
128.58091788516111
 31
0.0
  0
LINE
  5
153
  8
0
 39
2.5
 10
130.27976980784069
 20
128.58091788516111
 30
0.0
 11
130.28786980784071
 21
128.54751788516111
 31
0.0
  0
LINE
  5
154
  8
0
 39
2.5
 10
130.28786980784071
 20
128.54751788516111
 30
0.0
 11
130.30946980784071
 21
128.358984551828
 31
0.0
  0
LINE
  5
155
  8
0
 39
2.5
 10
130.29191980784071
 20
128.51216788516109
 30
0.0
 11
130.29166980784069
 21
128.47501788516109
 31
0.0
  0
LINE
  5
156
  8
0
 39
2.5
 10
130.30946980784071
 20
125.106439071602
 30
0.0
 11
130.27151980784069
 21
124.8665178851611
 31
0.0
  0
LINE
  5
157
  8
0
 39
2.5
 10
130.27151980784069
 20
124.8665178851611
 30
0.0
 11
130.26406980784071
 21
124.83201788516109
 31
0.0
  0
LINE
  5
158
  8
0
 39
2.5
 10
130.26406980784071
 20
124.83201788516109
 30
0.0
 11
130.25501980784071
 21
124.8000678851611
 31
0.0
  0
LINE
  5
159
  8
0
 39
2.5
 10
130.25501980784071
 20
124.8000678851611
 30
0.0
 11
130.2440698078407
 21
124.7704678851611
 31
0.0
  0
LINE
  5
15A
  8
0
 39
2.5
 10
130.2440698078407
 20
124.7704678851611
 30
0.0
 11
130.2311698078407
 21
124.7428178851611
 31
0.0
  0
LINE
  5
15B
  8
0
 39
2.5
 10
130.2311698078407
 20
124.7428178851611
 30
0.0
 11
130.2158698078407
 21
124.7171178851611
 31
0.0
  0
LINE
  5
15C
  8
0
 39
2.5
 10
130.2158698078407
 20
124.7171178851611
 30
0.0
 11
130.19801980784069
 21
124.6930178851611
 31
0.0
  0
LINE
  5
15D
  8
0
 39
2.5
 10
130.19801980784069
 20
124.6930178851611
 30
0.0
 11
130.17741980784069
 21
124.6704178851611
 31
0.0
  0
LINE
  5
15E
  8
0
 39
2.5
 10
130.17741980784069
 20
124.6704178851611
 30
0.0
 11
130.15391980784071
 21
124.6489178851611
 31
0.0
  0
LINE
  5
15F
  8
0
 39
2.5
 10
130.15391980784071
 20
124.6489178851611
 30
0.0
 11
130.1271198078407
 21
124.6284178851611
 31
0.0
  0
LINE
  5
160
  8
0
 39
2.5
 10
130.1271198078407
 20
124.6284178851611
 30
0.0
 11
130.09696980784071
 21
124.6086678851611
 31
0.0
  0
LINE
  5
161
  8
0
 39
2.5
 10
130.09696980784071
 20
124.6086678851611
 30
0.0
 11
130.06306980784069
 21
124.5895178851611
 31
0.0
  0
LINE
  5
162
  8
0
 39
2.5
 10
130.06306980784069
 20
124.5895178851611
 30
0.0
 11
128.58956980784069
 21
123.9799178851611
 31
0.0
  0
LINE
  5
163
  8
0
 39
2.5
 10
128.58956980784069
 20
123.9799178851611
 30
0.0
 11
128.58956980784069
 21
123.9799178851611
 31
0.0
  0
LINE
  5
164
  8
0
 39
2.5
 10
128.58956980784069
 20
123.9799178851611
 30
0.0
 11
128.55836980784071
 21
123.9417678851611
 31
0.0
  0
LINE
  5
165
  8
0
 39
2.5
 10
128.55836980784071
 20
123.9417678851611
 30
0.0
 11
128.5313198078407
 21
123.9036678851611
 31
0.0
  0
LINE
  5
166
  8
0
 39
2.5
 10
128.5313198078407
 20
123.9036678851611
 30
0.0
 11
128.5085698078407
 21
123.8654678851611
 31
0.0
  0
LINE
  5
167
  8
0
 39
2.5
 10
128.5085698078407
 20
123.8654678851611
 30
0.0
 11
128.4900198078407
 21
123.82731788516109
 31
0.0
  0
LINE
  5
168
  8
0
 39
2.5
 10
128.4900198078407
 20
123.82731788516109
 30
0.0
 11
128.4758698078407
 21
123.7889678851611
 31
0.0
  0
LINE
  5
169
  8
0
 39
2.5
 10
128.4758698078407
 20
123.7889678851611
 30
0.0
 11
128.46596980784071
 21
123.75061788516111
 31
0.0
  0
LINE
  5
16A
  8
0
 39
2.5
 10
128.46596980784071
 20
123.75061788516111
 30
0.0
 11
128.4604698078407
 21
123.71211788516111
 31
0.0
  0
LINE
  5
16B
  8
0
 39
2.5
 10
128.4604698078407
 20
123.71211788516111
 30
0.0
 11
128.4594198078407
 21
123.6735178851611
 31
0.0
  0
LINE
  5
16C
  8
0
 39
2.5
 10
128.4594198078407
 20
123.6735178851611
 30
0.0
 11
128.46286980784069
 21
123.63471788516109
 31
0.0
  0
LINE
  5
16D
  8
0
 39
2.5
 10
128.46286980784069
 20
123.63471788516109
 30
0.0
 11
128.47081980784071
 21
123.5957678851611
 31
0.0
  0
LINE
  5
16E
  8
0
 39
2.5
 10
128.47081980784071
 20
123.5957678851611
 30
0.0
 11
128.4833198078407
 21
123.5566178851611
 31
0.0
  0
LINE
  5
16F
  8
0
 39
2.5
 10
128.4833198078407
 20
123.5566178851611
 30
0.0
 11
128.5003198078407
 21
123.51731788516111
 31
0.0
  0
LINE
  5
170
  8
0
 39
2.5
 10
128.5003198078407
 20
123.51731788516111
 30
0.0
 11
128.52201980784071
 21
123.4777178851611
 31
0.0
  0
LINE
  5
171
  8
0
 39
2.5
 10
128.52201980784071
 20
123.4777178851611
 30
0.0
 11
128.54826980784071
 21
123.4379178851611
 31
0.0
  0
LINE
  5
172
  8
0
 39
2.5
 10
128.54826980784071
 20
123.4379178851611
 30
0.0
 11
128.57926980784069
 21
123.39786788516111
 31
0.0
  0
LINE
  5
173
  8
0
 39
2.5
 10
128.57926980784069
 20
123.39786788516111
 30
0.0
 11
128.61496980784071
 21
123.3576178851611
 31
0.0
  0
LINE
  5
174
  8
0
 39
2.5
 10
128.61496980784071
 20
123.3576178851611
 30
0.0
 11
129.05946980784071
 21
122.5575178851611
 31
0.0
  0
LINE
  5
175
  8
0
 39
2.5
 10
124.5039698078407
 20
123.3576178851611
 30
0.0
 11
124.0594698078407
 21
122.5575178851611
 31
0.0
  0
LINE
  5
176
  8
0
 39
2.5
 10
124.5396698078407
 20
123.39786788516111
 30
0.0
 11
124.5039698078407
 21
123.3576178851611
 31
0.0
  0
LINE
  5
177
  8
0
 39
2.5
 10
124.5706698078407
 20
123.4379178851611
 30
0.0
 11
124.5396698078407
 21
123.39786788516111
 31
0.0
  0
LINE
  5
178
  8
0
 39
2.5
 10
124.59691980784071
 20
123.4777178851611
 30
0.0
 11
124.5706698078407
 21
123.4379178851611
 31
0.0
  0
LINE
  5
179
  8
0
 39
2.5
 10
124.6186198078407
 20
123.51731788516111
 30
0.0
 11
124.59691980784071
 21
123.4777178851611
 31
0.0
  0
LINE
  5
17A
  8
0
 39
2.5
 10
124.6356198078407
 20
123.5566178851611
 30
0.0
 11
124.6186198078407
 21
123.51731788516111
 31
0.0
  0
LINE
  5
17B
  8
0
 39
2.5
 10
124.6481198078407
 20
123.5957678851611
 30
0.0
 11
124.6356198078407
 21
123.5566178851611
 31
0.0
  0
LINE
  5
17C
  8
0
 39
2.5
 10
124.65606980784069
 20
123.63471788516109
 30
0.0
 11
124.6481198078407
 21
123.5957678851611
 31
0.0
  0
LINE
  5
17D
  8
0
 39
2.5
 10
124.6595198078407
 20
123.6735178851611
 30
0.0
 11
124.65606980784069
 21
123.63471788516109
 31
0.0
  0
LINE
  5
17E
  8
0
 39
2.5
 10
124.6584698078407
 20
123.71211788516111
 30
0.0
 11
124.6595198078407
 21
123.6735178851611
 31
0.0
  0
LINE
  5
17F
  8
0
 39
2.5
 10
124.65296980784071
 20
123.75061788516111
 30
0.0
 11
124.6584698078407
 21
123.71211788516111
 31
0.0
  0
LINE
  5
180
  8
0
 39
2.5
 10
124.6430698078407
 20
123.7889678851611
 30
0.0
 11
124.65296980784071
 21
123.75061788516111
 31
0.0
  0
LINE
  5
181
  8
0
 39
2.5
 10
124.6289198078407
 20
123.82731788516109
 30
0.0
 11
124.6430698078407
 21
123.7889678851611
 31
0.0
  0
LINE
  5
182
  8
0
 39
2.5
 10
124.6103698078407
 20
123.8654678851611
 30
0.0
 11
124.6289198078407
 21
123.82731788516109
 31
0.0
  0
LINE
  5
183
  8
0
 39
2.5
 10
124.5876198078407
 20
123.9036678851611
 30
0.0
 11
124.6103698078407
 21
123.8654678851611
 31
0.0
  0
LINE
  5
184
  8
0
 39
2.5
 10
124.56056980784069
 20
123.9417678851611
 30
0.0
 11
124.5876198078407
 21
123.9036678851611
 31
0.0
  0
LINE
  5
185
  8
0
 39
2.5
 10
124.52936980784069
 20
123.9799178851611
 30
0.0
 11
124.56056980784069
 21
123.9417678851611
 31
0.0
  0
LINE
  5
186
  8
0
 39
2.5
 10
124.52936980784069
 20
123.9799178851611
 30
0.0
 11
124.52936980784069
 21
123.9799178851611
 31
0.0
  0
LINE
  5
187
  8
0
 39
2.5
 10
123.05586980784069
 20
124.5895178851611
 30
0.0
 11
124.52936980784069
 21
123.9799178851611
 31
0.0
  0
LINE
  5
188
  8
0
 39
2.5
 10
123.0219698078407
 20
124.6086678851611
 30
0.0
 11
123.05586980784069
 21
124.5895178851611
 31
0.0
  0
LINE
  5
189
  8
0
 39
2.5
 10
122.9918198078407
 20
124.6284178851611
 30
0.0
 11
123.0219698078407
 21
124.6086678851611
 31
0.0
  0
LINE
  5
18A
  8
0
 39
2.5
 10
122.9650198078407
 20
124.6489178851611
 30
0.0
 11
122.9918198078407
 21
124.6284178851611
 31
0.0
  0
LINE
  5
18B
  8
0
 39
2.5
 10
122.94151980784071
 20
124.6704178851611
 30
0.0
 11
122.9650198078407
 21
124.6489178851611
 31
0.0
  0
LINE
  5
18C
  8
0
 39
2.5
 10
122.9209198078407
 20
124.6930178851611
 30
0.0
 11
122.94151980784071
 21
124.6704178851611
 31
0.0
  0
LINE
  5
18D
  8
0
 39
2.5
 10
122.90306980784069
 20
124.7171178851611
 30
0.0
 11
122.9209198078407
 21
124.6930178851611
 31
0.0
  0
LINE
  5
18E
  8
0
 39
2.5
 10
122.8877698078407
 20
124.7428178851611
 30
0.0
 11
122.90306980784069
 21
124.7171178851611
 31
0.0
  0
LINE
  5
18F
  8
0
 39
2.5
 10
122.8748698078407
 20
124.7704678851611
 30
0.0
 11
122.8877698078407
 21
124.7428178851611
 31
0.0
  0
LINE
  5
190
  8
0
 39
2.5
 10
122.8639198078407
 20
124.8000678851611
 30
0.0
 11
122.8748698078407
 21
124.7704678851611
 31
0.0
  0
LINE
  5
191
  8
0
 39
2.5
 10
122.8548698078407
 20
124.83201788516109
 30
0.0
 11
122.8639198078407
 21
124.8000678851611
 31
0.0
  0
LINE
  5
192
  8
0
 39
2.5
 10
122.84741980784069
 20
124.8665178851611
 30
0.0
 11
122.8548698078407
 21
124.83201788516109
 31
0.0
  0
LINE
  5
193
  8
0
 39
2.5
 10
122.8415198078407
 20
124.9038178851611
 30
0.0
 11
122.84741980784069
 21
124.8665178851611
 31
0.0
  0
LINE
  5
194
  8
0
 39
2.5
 10
122.83666980784071
 20
124.9439678851611
 30
0.0
 11
122.8415198078407
 21
124.9038178851611
 31
0.0
  0
LINE
  5
195
  8
0
 39
2.5
 10
122.83281980784071
 20
124.98741788516109
 30
0.0
 11
122.83666980784071
 21
124.9439678851611
 31
0.0
  0
LINE
  5
196
  8
0
 39
2.5
 10
122.8297198078407
 20
125.0342678851611
 30
0.0
 11
122.83281980784071
 21
124.98741788516109
 31
0.0
  0
LINE
  5
197
  8
0
 39
2.5
 10
122.8094698078407
 20
125.45207910965171
 30
0.0
 11
122.8297198078407
 21
125.0342678851611
 31
0.0
  0
LINE
  5
198
  8
0
 39
2.5
 10
122.82726980784069
 20
125.0848178851611
 30
0.0
 11
122.82726980784069
 21
125.0848178851611
 31
0.0
  0
LINE
  5
199
  8
0
 39
2.5
 10
122.8270198078407
 20
128.51216788516109
 30
0.0
 11
122.82726980784069
 21
128.47501788516109
 31
0.0
  0
LINE
  5
19A
  8
0
 39
2.5
 10
122.83106980784071
 20
128.54751788516111
 30
0.0
 11
122.8270198078407
 21
128.51216788516109
 31
0.0
  0
LINE
  5
19B
  8
0
 39
2.5
 10
122.8391698078407
 20
128.58091788516111
 30
0.0
 11
122.8094698078407
 21
128.45845121849439
 31
0.0
  0
LINE
  5
19C
  8
0
 39
2.5
 10
122.85121980784071
 20
128.6124678851611
 30
0.0
 11
122.8391698078407
 21
128.58091788516111
 31
0.0
  0
LINE
  5
19D
  8
0
 39
2.5
 10
122.8667698078407
 20
128.64191788516109
 30
0.0
 11
122.85121980784071
 21
128.6124678851611
 31
0.0
  0
LINE
  5
19E
  8
0
 39
2.5
 10
122.88586980784071
 20
128.66936788516111
 30
0.0
 11
122.8667698078407
 21
128.64191788516109
 31
0.0
  0
LINE
  5
19F
  8
0
 39
2.5
 10
122.90816980784069
 20
128.6946678851611
 30
0.0
 11
122.88586980784071
 21
128.66936788516111
 31
0.0
  0
LINE
  5
1A0
  8
0
 39
2.5
 10
122.9336198078407
 20
128.7178678851611
 30
0.0
 11
122.90816980784069
 21
128.6946678851611
 31
0.0
  0
LINE
  5
1A1
  8
0
 39
2.5
 10
122.96171980784069
 20
128.73871788516109
 30
0.0
 11
122.9336198078407
 21
128.7178678851611
 31
0.0
  0
LINE
  5
1A2
  8
0
 39
2.5
 10
122.99251980784069
 20
128.75731788516109
 30
0.0
 11
122.96171980784069
 21
128.73871788516109
 31
0.0
  0
LINE
  5
1A3
  8
0
 39
2.5
 10
123.0257198078407
 20
128.77351788516111
 30
0.0
 11
122.99251980784069
 21
128.75731788516109
 31
0.0
  0
LINE
  5
1A4
  8
0
 39
2.5
 10
123.0611698078407
 20
128.78746788516111
 30
0.0
 11
123.0257198078407
 21
128.77351788516111
 31
0.0
  0
LINE
  5
1A5
  8
0
 39
2.5
 10
123.0985698078407
 20
128.79886788516109
 30
0.0
 11
123.0611698078407
 21
128.78746788516111
 31
0.0
  0
LINE
  5
1A6
  8
0
 39
2.5
 10
123.1378198078407
 20
128.80781788516111
 30
0.0
 11
123.0985698078407
 21
128.79886788516109
 31
0.0
  0
LINE
  5
1A7
  8
0
 39
2.5
 10
123.17866980784071
 20
128.81416788516111
 30
0.0
 11
123.1378198078407
 21
128.80781788516111
 31
0.0
  0
LINE
  5
1A8
  8
0
 39
2.5
 10
123.2209698078407
 20
128.81791788516111
 30
0.0
 11
123.17866980784071
 21
128.81416788516111
 31
0.0
  0
LINE
  5
1A9
  8
0
 39
2.5
 10
123.2209698078407
 20
128.81791788516111
 30
0.0
 11
123.2209698078407
 21
128.81791788516111
 31
0.0
  0
LINE
  5
1AA
  8
0
 39
2.5
 10
126.5594698078407
 20
128.81791788516111
 30
0.0
 11
123.2209698078407
 21
128.81791788516111
 31
0.0
  0
LINE
  5
1AB
  8
0
 39
2.5
 10
126.53406980784069
 20
124.81786788516111
 30
0.0
 11
125.6450698078407
 21
124.81786788516111
 31
0.0
  0
LINE
  5
1AC
  8
0
 39
2.5
 10
123.6263698078407
 20
124.81791788516109
 30
0.0
 11
123.6263698078407
 21
124.81791788516109
 31
0.0
  0
LINE
  5
1AD
  8
0
 39
2.5
 10
126.5467698078407
 20
126.81791788516109
 30
0.0
 11
123.5594698078407
 21
126.81791788516109
 31
0.0
  0
LINE
  5
1AE
  8
0
 39
2.5
 10
123.5594698078407
 20
124.81791788516109
 30
0.0
 11
126.5467698078407
 21
124.81791788516109
 31
0.0
  0
LINE
  5
1AF
  8
0
 39
2.5
 10
124.5881698078407
 20
126.81791788516109
 30
0.0
 11
124.5881698078407
 21
126.81791788516109
 31
0.0
  0
LINE
  5
1B0
  8
0
 39
2.5
 10
124.5881698078407
 20
126.81791788516109
 30
0.0
 11
126.53406980784069
 21
126.81791788516109
 31
0.0
  0
DIMENSION
  5
1B1
  8
2
  2
*D1
 10
130.30946980784071
 20
141.9692473935398
 30
0.0
 11
137.18446980784071
 21
143.8442473935398
 31
0.0
 70
     0
  1
%%c<>
 13
122.8094698078407
 23
128.45845121849439
 33
0.0
 14
130.30946980784071
 24
128.358984551828
 34
0.0
1001
ACAD
1000
DSTYLE
1002
{
1070
   271
1070
     6
1002
}
  0
DIMENSION
  5
1B2
  8
2
  2
*D2
 10
129.55946980784071
 20
137.5736535662752
 30
0.0
 11
137.26780314117411
 21
137.5736535662752
 31
0.0
 70
   128
  1
%%c<>
 13
123.5594698078407
 23
126.81791788516109
 33
0.0
 14
129.55946980784071
 24
126.81791788516109
 34
0.0
  0
DIMENSION
  5
1B3
  8
2
  2
*D3
 10
128.55946980784071
 20
133.72090867634699
 30
0.0
 11
136.26780314117411
 21
135.59590867634699
 31
0.0
 70
     0
  1
%%c<>
 13
124.5594698078407
 23
128.81791788516111
 33
0.0
 14
128.55946980784071
 24
128.81791788516111
 34
0.0
  0
DIMENSION
  5
1B4
  8
2
  2
*D4
 10
129.05946980784071
 20
108.3342012437159
 30
0.0
 11
136.76780314117411
 21
108.3342012437159
 31
0.0
 70
   128
  1
%%c<>
 13
124.0594698078407
 23
122.5575178851611
 33
0.0
 14
129.05946980784071
 24
122.5575178851611
 34
0.0
1001
ACAD
1000
DSTYLE
1002
{
1070
   271
1070
     6
1002
}
  0
DIMENSION
  5
1B5
  8
2
  2
*D5
 10
127.3094698078407
 20
113.1737761789453
 30
0.0
 11
136.26780314117411
 21
113.1737761789453
 31
0.0
 70
   128
  1
%%c<>
 13
125.8094698078407
 23
123.2179178851611
 33
0.0
 14
127.3094698078407
 24
123.2179178851611
 34
0.0
  0
LINE
  5
1B6
  8
0
 10
128.88166980784069
 20
122.31791788516109
 30
0.0
 11
126.5594698078407
 21
122.31791788516109
 31
0.0
  0
LINE
  5
1B7
  8
0
 10
127.3094698078407
 20
123.2179178851611
 30
0.0
 11
128.88166980784069
 21
122.31791788516109
 31
0.0
  0
TEXT
  5
1B8
  8
2
 10
111.6139560697751
 20
95.631310858833885
 30
0.0
 40
2.5399440000000002
  1
No. 102.005.009._
 51
-0.0000015352344868
  7
\U+00C9L\U+00C9R_\U+00C2S\U+00C2V\U+00C2B\U+00C2N
  0
DIMENSION
  5
1B9
  8
2
  2
*D6
 10
114.7606123619565
 20
123.2179178851611
 30
0.0
 11
112.8856123619565
 21
131.1345845518278
 31
0.0
 70
     0
 13
124.2372698078407
 23
122.31791788516109
 33
0.0
 14
125.8094698078407
 24
123.2179178851611
 34
0.0
 50
90.0
1001
ACAD
1000
DSTYLE
1002
{
1070
   271
1070
     6
1002
}
  0
LINE
  5
1BA
  8
0
 10
127.3094698078407
 20
124.81791788516109
 30
0.0
 11
127.3094698078407
 21
123.2179178851611
 31
0.0
  0
LINE
  5
1BB
  8
0
 10
125.8094698078407
 20
124.81791788516109
 30
0.0
 11
125.8094698078407
 21
123.2179178851611
 31
0.0
  0
LINE
  5
1BC
  8
1
 10
126.5594698078407
 20
129.31791788516111
 30
0.0
 11
126.5594698078407
 21
121.81791788516109
 31
0.0
  0
LINE
  5
1BD
  8
0
 10
124.2372698078407
 20
122.31791788516109
 30
0.0
 11
124.0594698078407
 21
122.5575178851611
 31
0.0
  0
LINE
  5
1BE
  8
0
 10
126.5594698078407
 20
123.2179178851611
 30
0.0
 11
127.3094698078407
 21
123.2179178851611
 31
0.0
  0
LINE
  5
1BF
  8
0
 10
125.8094698078407
 20
123.2179178851611
 30
0.0
 11
124.2372698078407
 21
122.31791788516109
 31
0.0
  0
LINE
  5
1C0
  8
0
 10
124.2372698078407
 20
122.31791788516109
 30
0.0
 11
126.5594698078407
 21
122.31791788516109
 31
0.0
  0
LINE
  5
1C1
  8
0
 10
126.5594698078407
 20
123.2179178851611
 30
0.0
 11
125.8094698078407
 21
123.2179178851611
 31
0.0
  0
LINE
  5
1C2
  8
0
 10
122.8094698078407
 20
128.45845121849439
 30
0.0
 11
122.8094698078407
 21
125.45207910965171
 31
0.0
  0
LINE
  5
1C3
  8
0
 10
123.5594698078407
 20
126.81791788516109
 30
0.0
 11
123.5594698078407
 21
124.81791788516109
 31
0.0
  0
LINE
  5
1C4
  8
0
 10
124.5594698078407
 20
128.81791788516111
 30
0.0
 11
124.5594698078407
 21
126.81791788516109
 31
0.0
  0
DIMENSION
  5
1C5
  8
2
  2
*D7
 10
151.54482171707551
 20
122.31791788516109
 30
0.0
 11
149.66982171707551
 21
125.56791788516109
 31
0.0
 70
     0
 13
129.8979698078407
 23
128.81791788516111
 33
0.0
 14
128.88166980784069
 24
122.31791788516109
 34
0.0
 50
90.0
1001
ACAD
1000
DSTYLE
1002
{
1070
   271
1070
     6
1002
}
  0
DIMENSION
  5
1C6
  8
2
  2
*D8
 10
146.1774248250791
 20
124.81791788516109
 30
0.0
 11
144.3024248250791
 21
126.81791788516109
 31
0.0
 70
     0
 13
129.8979698078407
 23
128.81791788516111
 33
0.0
 14
129.55946980784071
 24
124.81791788516109
 34
0.0
 50
90.0
  0
DIMENSION
  5
1C7
  8
2
  2
*D9
 10
141.34329439664899
 20
126.81791788516109
 30
0.0
 11
139.46829439664899
 21
120.35958455182779
 31
0.0
 70
     0
 13
129.8979698078407
 23
128.81791788516111
 33
0.0
 14
129.55946980784071
 24
126.81791788516109
 34
0.0
 50
90.0
  0
LINE
  5
1C8
  8
0
 10
128.88166980784069
 20
122.31791788516109
 30
0.0
 11
129.05946980784071
 21
122.5575178851611
 31
0.0
  0
LINE
  5
1C9
  8
0
 10
130.30946980784071
 20
125.106439071602
 30
0.0
 11
130.30946980784071
 21
128.358984551828
 31
0.0
  0
LINE
  5
1CA
  8
0
 10
128.55946980784071
 20
128.81791788516111
 30
0.0
 11
128.55946980784071
 21
126.81791788516109
 31
0.0
  0
LINE
  5
1CB
  8
0
 10
129.55946980784071
 20
126.81791788516109
 30
0.0
 11
129.55946980784071
 21
124.81791788516109
 31
0.0
  0
ENDSEC
  0
EOF
