  0
SECTION
  2
HEADER
  9
$ACADVER
  1
AC1009
  9
$INSBASE
 10
0.0
 20
0.0
 30
0.0
  9
$EXTMIN
 10
90.788120145926896
 20
64.134675734978046
 30
0.0
  9
$EXTMAX
 10
115.9327464748221
 20
90.938634588206824
 30
2.5
  9
$LIMMIN
 10
0.0
 20
0.0
  9
$LIMMAX
 10
420.0
 20
297.0
  9
$ORTHOMODE
 70
     0
  9
$REGENMODE
 70
     1
  9
$FILLMODE
 70
     1
  9
$QTEXTMODE
 70
     0
  9
$MIRRTEXT
 70
     1
  9
$DRAGMODE
 70
     2
  9
$LTSCALE
 40
0.3
  9
$OSMODE
 70
    37
  9
$ATTMODE
 70
     1
  9
$TEXTSIZE
 40
2.5
  9
$TRACEWID
 40
1.0
  9
$TEXTSTYLE
  7
STANDARD
  9
$CLAYER
  8
2
  9
$CELTYPE
  6
BYLAYER
  9
$CECOLOR
 62
   256
  9
$DIMSCALE
 40
0.5
  9
$DIMASZ
 40
2.5
  9
$DIMEXO
 40
0.625
  9
$DIMDLI
 40
3.75
  9
$DIMRND
 40
0.0
  9
$DIMDLE
 40
0.0
  9
$DIMEXE
 40
1.25
  9
$DIMTP
 40
0.0
  9
$DIMTM
 40
0.0
  9
$DIMTXT
 40
2.5
  9
$DIMCEN
 40
2.5
  9
$DIMTSZ
 40
0.0
  9
$DIMTOL
 70
     0
  9
$DIMLIM
 70
     0
  9
$DIMTIH
 70
     0
  9
$DIMTOH
 70
     0
  9
$DIMSE1
 70
     0
  9
$DIMSE2
 70
     0
  9
$DIMTAD
 70
     1
  9
$DIMZIN
 70
     8
  9
$DIMBLK
  1

  9
$DIMASO
 70
     1
  9
$DIMSHO
 70
     1
  9
$DIMPOST
  1

  9
$DIMAPOST
  1

  9
$DIMALT
 70
     0
  9
$DIMALTD
 70
     3
  9
$DIMALTF
 40
0.03937007874016
  9
$DIMLFAC
 40
1.0
  9
$DIMTOFL
 70
     1
  9
$DIMTVP
 40
0.0
  9
$DIMTIX
 70
     0
  9
$DIMSOXD
 70
     0
  9
$DIMSAH
 70
     0
  9
$DIMBLK1
  1

  9
$DIMBLK2
  1

  9
$DIMSTYLE
  2
ISO-25
  9
$DIMCLRD
 70
     0
  9
$DIMCLRE
 70
     0
  9
$DIMCLRT
 70
     0
  9
$DIMTFAC
 40
1.0
  9
$DIMGAP
 40
0.625
  9
$LUNITS
 70
     2
  9
$LUPREC
 70
     4
  9
$SKETCHINC
 40
1.0
  9
$FILLETRAD
 40
10.0
  9
$AUNITS
 70
     0
  9
$AUPREC
 70
     0
  9
$MENU
  1
.
  9
$ELEVATION
 40
0.0
  9
$PELEVATION
 40
0.0
  9
$THICKNESS
 40
0.0
  9
$LIMCHECK
 70
     0
  9
$BLIPMODE
 70
     0
  9
$CHAMFERA
 40
10.0
  9
$CHAMFERB
 40
10.0
  9
$SKPOLY
 70
     0
  9
$TDCREATE
 40
2453434.3831730322
  9
$TDUPDATE
 40
2453551.8951985529
  9
$TDINDWG
 40
0.0388767361
  9
$TDUSRTIMER
 40
0.0388766204
  9
$USRTIMER
 70
     1
  9
$ANGBASE
 50
0.0
  9
$ANGDIR
 70
     0
  9
$PDMODE
 70
     0
  9
$PDSIZE
 40
0.0
  9
$PLINEWID
 40
0.0
  9
$COORDS
 70
     1
  9
$SPLFRAME
 70
     0
  9
$SPLINETYPE
 70
     6
  9
$SPLINESEGS
 70
     8
  9
$ATTDIA
 70
     0
  9
$ATTREQ
 70
     1
  9
$HANDLING
 70
-16383
  9
$HANDSEED
  5
600
  9
$SURFTAB1
 70
     6
  9
$SURFTAB2
 70
     6
  9
$SURFTYPE
 70
     6
  9
$SURFU
 70
     6
  9
$SURFV
 70
     6
  9
$UCSNAME
  2

  9
$UCSORG
 10
0.0
 20
0.0
 30
0.0
  9
$UCSXDIR
 10
1.0
 20
0.0
 30
0.0
  9
$UCSYDIR
 10
0.0
 20
1.0
 30
0.0
  9
$PUCSNAME
  2

  9
$PUCSORG
 10
0.0
 20
0.0
 30
0.0
  9
$PUCSXDIR
 10
1.0
 20
0.0
 30
0.0
  9
$PUCSYDIR
 10
0.0
 20
1.0
 30
0.0
  9
$USERI1
 70
     0
  9
$USERI2
 70
     0
  9
$USERI3
 70
     0
  9
$USERI4
 70
     0
  9
$USERI5
 70
     0
  9
$USERR1
 40
0.0
  9
$USERR2
 40
0.0
  9
$USERR3
 40
0.0
  9
$USERR4
 40
0.0
  9
$USERR5
 40
0.0
  9
$WORLDVIEW
 70
     1
  9
$SHADEDGE
 70
     3
  9
$SHADEDIF
 70
    70
  9
$TILEMODE
 70
     1
  9
$MAXACTVP
 70
    64
  9
$PLIMCHECK
 70
     0
  9
$PEXTMIN
 10
1.0000000000000000E+020
 20
1.0000000000000000E+020
 30
1.0000000000000000E+020
  9
$PEXTMAX
 10
-1.0000000000000000E+020
 20
-1.0000000000000000E+020
 30
-1.0000000000000000E+020
  9
$PLIMMIN
 10
0.0
 20
0.0
  9
$PLIMMAX
 10
420.0
 20
297.0
  9
$UNITMODE
 70
     0
  9
$VISRETAIN
 70
     1
  9
$PLINEGEN
 70
     0
  9
$PSLTSCALE
 70
     1
  0
ENDSEC
  0
SECTION
  2
TABLES
  0
TABLE
  2
VPORT
 70
     2
  0
VPORT
  2
*ACTIVE
 70
     0
 10
0.0
 20
0.0
 11
1.0
 21
1.0
 12
118.6067176451939
 22
74.870200294727439
 13
0.0
 23
0.0
 14
10.0
 24
10.0
 15
10.0
 25
10.0
 16
0.0
 26
0.0
 36
1.0
 17
0.0
 27
0.0
 37
0.0
 40
38.072426950847976
 41
2.5392405063291141
 42
50.0
 43
0.0
 44
0.0
 50
0.0
 51
0.0
 71
     0
 72
   100
 73
     1
 74
     3
 75
     0
 76
     0
 77
     0
 78
     0
  0
ENDTAB
  0
TABLE
  2
LTYPE
 70
     2
  0
LTYPE
  2
CONTINUOUS
 70
     0
  3
Solid line
 72
    65
 73
     0
 40
0.0
  0
LTYPE
  2
CENTER
 70
     0
  3
Center ____ _ ____ _ ____ _ ____ _ ____ _ ____
 72
    65
 73
     4
 40
50.799999999999997
 49
31.75
 49
-6.3499999999999988
 49
6.3499999999999988
 49
-6.3499999999999988
  0
ENDTAB
  0
TABLE
  2
LAYER
 70
     4
  0
LAYER
  2
0
 70
     0
 62
     7
  6
CONTINUOUS
  0
LAYER
  2
1
 70
     0
 62
     7
  6
CENTER
  0
LAYER
  2
2
 70
     0
 62
     7
  6
CONTINUOUS
  0
LAYER
  2
DEFPOINTS
 70
     0
 62
     7
  6
CONTINUOUS
  0
ENDTAB
  0
TABLE
  2
STYLE
 70
     3
  0
STYLE
  2
STANDARD
 70
     0
 40
0.0
 41
1.0
 50
0.0
 71
     0
 42
2.5
  3
txt
  4

  0
STYLE
  2
\U+00C9L\U+00C9R_\U+00C2S\U+00C2V\U+00C2B\U+00C2N
 70
     0
 40
1.0
 41
1.0
 50
0.0
 71
     0
 42
1.0
  3
\U+00E9l\U+00E9r \U+00E2S\U+00E2V\U+00E2b\U+00E2N
  4

  0
STYLE
  2

 70
     1
 40
0.0
 41
1.0
 50
0.0
 71
     0
 42
2.5
  3
ltypeshp.shx
  4

  0
ENDTAB
  0
TABLE
  2
VIEW
 70
     0
  0
ENDTAB
  0
TABLE
  2
UCS
 70
     0
  0
ENDTAB
  0
TABLE
  2
APPID
 70
     1
  0
APPID
  2
ACAD
 70
     0
  0
ENDTAB
  0
TABLE
  2
DIMSTYLE
 70
     2
  0
DIMSTYLE
  2
ISO-25
 70
     0
  3

  4

  5

  6

  7

 40
0.5
 41
2.5
 42
0.625
 43
3.75
 44
1.25
 45
0.0
 46
0.0
 47
0.0
 48
0.0
140
2.5
141
2.5
142
0.0
143
0.03937007874016
144
1.0
145
0.0
146
1.0
147
0.625
 71
     0
 72
     0
 73
     0
 74
     0
 75
     0
 76
     0
 77
     1
 78
     8
170
     0
171
     3
172
     1
173
     0
174
     0
175
     0
176
     0
177
     0
178
     0
  0
DIMSTYLE
  2
STANDARD
 70
     0
  3

  4

  5

  6

  7

 40
1.0
 41
0.18
 42
0.0625
 43
0.38
 44
0.18
 45
0.0
 46
0.0
 47
0.0
 48
0.0
140
0.18
141
0.09
142
0.0
143
25.399999999999999
144
1.0
145
0.0
146
1.0
147
0.09
 71
     0
 72
     0
 73
     1
 74
     1
 75
     0
 76
     0
 77
     0
 78
     0
170
     0
171
     2
172
     0
173
     0
174
     0
175
     0
176
     0
177
     0
178
     0
  0
ENDTAB
  0
ENDSEC
  0
SECTION
  2
BLOCKS
  0
BLOCK
  8
0
  2
$MODEL_SPACE
 70
     0
 10
0.0
 20
0.0
 30
0.0
  3
$MODEL_SPACE
  1

  0
ENDBLK
  5
21
  8
0
  0
BLOCK
 67
     1
  8
0
  2
$PAPER_SPACE
 70
     0
 10
0.0
 20
0.0
 30
0.0
  3
$PAPER_SPACE
  1

  0
ENDBLK
  5
1D
 67
     1
  8
0
  0
BLOCK
  8
0
  2
*D1
 70
     1
 10
0.0
 20
0.0
 30
0.0
  3
*D1
  1

  0
LINE
  5
598
  8
2
 62
     0
 10
98.027279095484758
 20
82.175980124899795
 30
0.0
 11
98.027279095484758
 21
85.876597377119637
 31
0.0
  0
LINE
  5
599
  8
2
 62
     0
 10
102.0272790954847
 20
82.175980124899795
 30
0.0
 11
102.0272790954847
 21
85.876597377119637
 31
0.0
  0
LINE
  5
59A
  8
2
 62
     0
 10
99.277279095484758
 20
85.251597377119637
 30
0.0
 11
100.7772790954847
 21
85.251597377119637
 31
0.0
  0
SOLID
  5
59B
  8
2
 62
     0
 10
99.277279095484758
 20
85.45993071045298
 30
0.0
 11
99.277279095484758
 21
85.043264043786323
 31
0.0
 12
98.027279095484758
 22
85.251597377119637
 32
0.0
 13
98.027279095484758
 23
85.251597377119637
 33
0.0
  0
SOLID
  5
59C
  8
2
 62
     0
 10
100.7772790954847
 20
85.45993071045298
 30
0.0
 11
100.7772790954847
 21
85.043264043786323
 31
0.0
 12
102.0272790954847
 22
85.251597377119637
 32
0.0
 13
102.0272790954847
 23
85.251597377119637
 33
0.0
  0
INSERT
  5
59D
  8
2
  2
*U12
 10
0.0
 20
0.0
 30
0.0
  0
POINT
  5
59E
  8
DEFPOINTS
 62
     0
 10
98.027279095484758
 20
81.863480124899795
 30
0.0
  0
POINT
  5
59F
  8
DEFPOINTS
 62
     0
 10
102.0272790954847
 20
81.863480124899795
 30
0.0
  0
POINT
  5
5A0
  8
DEFPOINTS
 62
     0
 10
102.0272790954847
 20
85.251597377119637
 30
0.0
  0
ENDBLK
  5
50D
  8
0
  0
BLOCK
  8
0
  2
*D2
 70
     1
 10
0.0
 20
0.0
 30
0.0
  3
*D2
  1

  0
LINE
  5
58F
  8
2
 62
     0
 10
97.027279095484758
 20
80.175980124899795
 30
0.0
 11
97.027279095484758
 21
87.787882038554116
 31
0.0
  0
LINE
  5
590
  8
2
 62
     0
 10
103.0272790954847
 20
80.175980124899795
 30
0.0
 11
103.0272790954847
 21
87.787882038554116
 31
0.0
  0
LINE
  5
591
  8
2
 62
     0
 10
98.277279095484758
 20
87.162882038554116
 30
0.0
 11
101.7772790954847
 21
87.162882038554116
 31
0.0
  0
SOLID
  5
592
  8
2
 62
     0
 10
98.277279095484758
 20
87.37121537188743
 30
0.0
 11
98.277279095484758
 21
86.954548705220773
 31
0.0
 12
97.027279095484758
 22
87.162882038554116
 32
0.0
 13
97.027279095484758
 23
87.162882038554116
 33
0.0
  0
SOLID
  5
593
  8
2
 62
     0
 10
101.7772790954847
 20
87.37121537188743
 30
0.0
 11
101.7772790954847
 21
86.954548705220773
 31
0.0
 12
103.0272790954847
 22
87.162882038554116
 32
0.0
 13
103.0272790954847
 23
87.162882038554116
 33
0.0
  0
INSERT
  5
594
  8
2
  2
*U11
 10
0.0
 20
0.0
 30
0.0
  0
POINT
  5
595
  8
DEFPOINTS
 62
     0
 10
97.027279095484758
 20
79.863480124899795
 30
0.0
  0
POINT
  5
596
  8
DEFPOINTS
 62
     0
 10
103.0272790954847
 20
79.863480124899795
 30
0.0
  0
POINT
  5
597
  8
DEFPOINTS
 62
     0
 10
103.0272790954847
 20
87.162882038554116
 30
0.0
  0
ENDBLK
  5
523
  8
0
  0
BLOCK
  8
0
  2
*D3
 70
     1
 10
0.0
 20
0.0
 30
0.0
  3
*D3
  1

  0
LINE
  5
586
  8
2
 62
     0
 10
96.277279095484744
 20
81.868205443371224
 30
0.0
 11
96.277279095484744
 21
90.001134588206824
 31
0.0
  0
LINE
  5
587
  8
2
 62
     0
 10
103.7772790954847
 20
81.868205443371224
 30
0.0
 11
103.7772790954847
 21
90.001134588206824
 31
0.0
  0
LINE
  5
588
  8
2
 62
     0
 10
97.527279095484744
 20
89.376134588206824
 30
0.0
 11
102.5272790954847
 21
89.376134588206824
 31
0.0
  0
SOLID
  5
589
  8
2
 62
     0
 10
97.527279095484744
 20
89.584467921540167
 30
0.0
 11
97.527279095484744
 21
89.16780125487351
 31
0.0
 12
96.277279095484744
 22
89.376134588206824
 32
0.0
 13
96.277279095484744
 23
89.376134588206824
 33
0.0
  0
SOLID
  5
58A
  8
2
 62
     0
 10
102.5272790954847
 20
89.584467921540167
 30
0.0
 11
102.5272790954847
 21
89.16780125487351
 31
0.0
 12
103.7772790954847
 22
89.376134588206824
 32
0.0
 13
103.7772790954847
 23
89.376134588206824
 33
0.0
  0
INSERT
  5
58B
  8
2
  2
*U10
 10
0.0
 20
0.0
 30
0.0
  0
POINT
  5
58C
  8
DEFPOINTS
 62
     0
 10
96.277279095484744
 20
81.555705443371224
 30
0.0
  0
POINT
  5
58D
  8
DEFPOINTS
 62
     0
 10
103.7772790954847
 20
81.555705443371224
 30
0.0
  0
POINT
  5
58E
  8
DEFPOINTS
 62
     0
 10
103.7772790954847
 20
89.376134588206824
 30
0.0
  0
ENDBLK
  5
530
  8
0
  0
BLOCK
  8
0
  2
*D4
 70
     1
 10
0.0
 20
0.0
 30
0.0
  3
*D4
  1

  0
LINE
  5
5A1
  8
2
 62
     0
 10
99.027279095484758
 20
76.050980124899795
 30
0.0
 11
99.027279095484758
 21
70.279598459284017
 31
0.0
  0
LINE
  5
5A2
  8
2
 62
     0
 10
101.0272790954847
 20
76.050980124899795
 30
0.0
 11
101.0272790954847
 21
70.279598459284017
 31
0.0
  0
LINE
  5
5A3
  8
2
 62
     0
 10
97.777279095484758
 20
70.904598459284017
 30
0.0
 11
96.527279095484758
 21
70.904598459284017
 31
0.0
  0
LINE
  5
5A4
  8
2
 62
     0
 10
102.2772790954847
 20
70.904598459284017
 30
0.0
 11
106.235612428818
 21
70.904598459284017
 31
0.0
  0
LINE
  5
5A5
  8
2
 62
     0
 10
99.027279095484758
 20
70.904598459284017
 30
0.0
 11
101.0272790954847
 21
70.904598459284017
 31
0.0
  0
SOLID
  5
5A6
  8
2
 62
     0
 10
97.777279095484758
 20
71.112931792617346
 30
0.0
 11
97.777279095484758
 21
70.696265125950688
 31
0.0
 12
99.027279095484758
 22
70.904598459284017
 32
0.0
 13
99.027279095484758
 23
70.904598459284017
 33
0.0
  0
SOLID
  5
5A7
  8
2
 62
     0
 10
102.2772790954847
 20
71.112931792617346
 30
0.0
 11
102.2772790954847
 21
70.696265125950688
 31
0.0
 12
101.0272790954847
 22
70.904598459284017
 32
0.0
 13
101.0272790954847
 23
70.904598459284017
 33
0.0
  0
INSERT
  5
5A8
  8
2
  2
*U13
 10
0.0
 20
0.0
 30
0.0
  0
POINT
  5
5A9
  8
DEFPOINTS
 62
     0
 10
99.027279095484758
 20
76.363480124899795
 30
0.0
  0
POINT
  5
5AA
  8
DEFPOINTS
 62
     0
 10
101.0272790954847
 20
76.363480124899795
 30
0.0
  0
POINT
  5
5AB
  8
DEFPOINTS
 62
     0
 10
101.0272790954847
 20
70.904598459284017
 30
0.0
  0
ENDBLK
  5
53F
  8
0
  0
BLOCK
  8
0
  2
*D5
 70
     1
 10
0.0
 20
0.0
 30
0.0
  3
*D5
  1

  0
LINE
  5
5AC
  8
2
 62
     0
 10
97.027279095484758
 20
75.40658012489979
 30
0.0
 11
97.027279095484758
 21
67.79403558019672
 31
0.0
  0
LINE
  5
5AD
  8
2
 62
     0
 10
103.0272790954847
 20
75.40658012489979
 30
0.0
 11
103.0272790954847
 21
67.79403558019672
 31
0.0
  0
LINE
  5
5AE
  8
2
 62
     0
 10
98.277279095484758
 20
68.41903558019672
 30
0.0
 11
101.7772790954847
 21
68.41903558019672
 31
0.0
  0
SOLID
  5
5AF
  8
2
 62
     0
 10
98.277279095484758
 20
68.627368913530049
 30
0.0
 11
98.277279095484758
 21
68.210702246863391
 31
0.0
 12
97.027279095484758
 22
68.41903558019672
 32
0.0
 13
97.027279095484758
 23
68.41903558019672
 33
0.0
  0
SOLID
  5
5B0
  8
2
 62
     0
 10
101.7772790954847
 20
68.627368913530049
 30
0.0
 11
101.7772790954847
 21
68.210702246863391
 31
0.0
 12
103.0272790954847
 22
68.41903558019672
 32
0.0
 13
103.0272790954847
 23
68.41903558019672
 33
0.0
  0
INSERT
  5
5B1
  8
2
  2
*U14
 10
0.0
 20
0.0
 30
0.0
  0
POINT
  5
5B2
  8
DEFPOINTS
 62
     0
 10
97.027279095484758
 20
75.71908012489979
 30
0.0
  0
POINT
  5
5B3
  8
DEFPOINTS
 62
     0
 10
103.0272790954847
 20
75.71908012489979
 30
0.0
  0
POINT
  5
5B4
  8
DEFPOINTS
 62
     0
 10
103.0272790954847
 20
68.41903558019672
 30
0.0
  0
ENDBLK
  5
54C
  8
0
  0
BLOCK
  8
0
  2
*D6
 70
     1
 10
0.0
 20
0.0
 30
0.0
  3
*D6
  1

  0
LINE
  5
54F
  8
2
 62
     0
 10
103.3397790954847
 20
81.863480124899795
 30
0.0
 11
110.280179765775
 21
81.863480124899795
 31
0.0
  0
LINE
  5
550
  8
2
 62
     0
 10
103.3397790954847
 20
79.863480124899795
 30
0.0
 11
110.280179765775
 21
79.863480124899795
 31
0.0
  0
LINE
  5
551
  8
2
 62
     0
 10
109.655179765775
 20
83.113480124899795
 30
0.0
 11
109.655179765775
 21
84.363480124899795
 31
0.0
  0
LINE
  5
552
  8
2
 62
     0
 10
109.655179765775
 20
78.613480124899795
 30
0.0
 11
109.655179765775
 21
77.363480124899795
 31
0.0
  0
LINE
  5
553
  8
2
 62
     0
 10
109.655179765775
 20
81.863480124899795
 30
0.0
 11
109.655179765775
 21
79.863480124899795
 31
0.0
  0
SOLID
  5
554
  8
2
 62
     0
 10
109.4468464324416
 20
83.113480124899795
 30
0.0
 11
109.8635130991083
 21
83.113480124899795
 31
0.0
 12
109.655179765775
 22
81.863480124899795
 32
0.0
 13
109.655179765775
 23
81.863480124899795
 33
0.0
  0
SOLID
  5
555
  8
2
 62
     0
 10
109.4468464324416
 20
78.613480124899795
 30
0.0
 11
109.8635130991083
 21
78.613480124899795
 31
0.0
 12
109.655179765775
 22
79.863480124899795
 32
0.0
 13
109.655179765775
 23
79.863480124899795
 33
0.0
  0
TEXT
  5
556
  8
2
 62
     0
 10
109.342679765775
 20
80.446813458233152
 30
0.0
 40
1.25
  1
2
 50
90.0
  0
POINT
  5
557
  8
DEFPOINTS
 62
     0
 10
103.0272790954847
 20
81.863480124899795
 30
0.0
  0
POINT
  5
558
  8
DEFPOINTS
 62
     0
 10
103.0272790954847
 20
79.863480124899795
 30
0.0
  0
POINT
  5
559
  8
DEFPOINTS
 62
     0
 10
109.655179765775
 20
79.863480124899795
 30
0.0
  0
ENDBLK
  5
55B
  8
0
  0
BLOCK
  8
0
  2
*D7
 70
     1
 10
0.0
 20
0.0
 30
0.0
  3
*D7
  1

  0
LINE
  5
55E
  8
2
 62
     0
 10
103.3397790954847
 20
81.863480124899795
 30
0.0
 11
112.8879794156942
 21
81.863480124899795
 31
0.0
  0
LINE
  5
55F
  8
2
 62
     0
 10
103.3397790954847
 20
77.863480124899795
 30
0.0
 11
112.8879794156942
 21
77.863480124899795
 31
0.0
  0
LINE
  5
560
  8
2
 62
     0
 10
112.2629794156942
 20
80.613480124899795
 30
0.0
 11
112.2629794156942
 21
79.113480124899795
 31
0.0
  0
SOLID
  5
561
  8
2
 62
     0
 10
112.0546460823609
 20
80.613480124899795
 30
0.0
 11
112.4713127490275
 21
80.613480124899795
 31
0.0
 12
112.2629794156942
 22
81.863480124899795
 32
0.0
 13
112.2629794156942
 23
81.863480124899795
 33
0.0
  0
SOLID
  5
562
  8
2
 62
     0
 10
112.0546460823609
 20
79.113480124899795
 30
0.0
 11
112.4713127490275
 21
79.113480124899795
 31
0.0
 12
112.2629794156942
 22
77.863480124899795
 32
0.0
 13
112.2629794156942
 23
77.863480124899795
 33
0.0
  0
TEXT
  5
563
  8
2
 62
     0
 10
111.9504794156942
 20
79.446813458233152
 30
0.0
 40
1.25
  1
4
 50
90.0
  0
POINT
  5
564
  8
DEFPOINTS
 62
     0
 10
103.0272790954847
 20
81.863480124899795
 30
0.0
  0
POINT
  5
565
  8
DEFPOINTS
 62
     0
 10
103.0272790954847
 20
77.863480124899795
 30
0.0
  0
POINT
  5
566
  8
DEFPOINTS
 62
     0
 10
112.2629794156942
 20
77.863480124899795
 30
0.0
  0
ENDBLK
  5
568
  8
0
  0
BLOCK
  8
0
  2
*D8
 70
     1
 10
0.0
 20
0.0
 30
0.0
  3
*D8
  1

  0
LINE
  5
56B
  8
2
 62
     0
 10
103.3397790954847
 20
81.863480124899795
 30
0.0
 11
115.9327464748221
 21
81.863480124899795
 31
0.0
  0
LINE
  5
56C
  8
2
 62
     0
 10
103.0632013177069
 20
75.363480124899795
 30
0.0
 11
115.9327464748221
 21
75.363480124899795
 31
0.0
  0
LINE
  5
56D
  8
2
 62
     0
 10
115.3077464748221
 20
80.613480124899795
 30
0.0
 11
115.3077464748221
 21
76.613480124899795
 31
0.0
  0
SOLID
  5
56E
  8
2
 62
     0
 10
115.0994131414887
 20
80.613480124899795
 30
0.0
 11
115.5160798081554
 21
80.613480124899795
 31
0.0
 12
115.3077464748221
 22
81.863480124899795
 32
0.0
 13
115.3077464748221
 23
81.863480124899795
 33
0.0
  0
SOLID
  5
56F
  8
2
 62
     0
 10
115.0994131414887
 20
76.613480124899795
 30
0.0
 11
115.5160798081554
 21
76.613480124899795
 31
0.0
 12
115.3077464748221
 22
75.363480124899795
 32
0.0
 13
115.3077464748221
 23
75.363480124899795
 33
0.0
  0
TEXT
  5
570
  8
2
 62
     0
 10
114.9952464748221
 20
77.363480124899823
 30
0.0
 40
1.25
  1
6.5
 50
90.0
  0
POINT
  5
571
  8
DEFPOINTS
 62
     0
 10
103.0272790954847
 20
81.863480124899795
 30
0.0
  0
POINT
  5
572
  8
DEFPOINTS
 62
     0
 10
102.7507013177069
 20
75.363480124899795
 30
0.0
  0
POINT
  5
573
  8
DEFPOINTS
 62
     0
 10
115.3077464748221
 20
75.363480124899795
 30
0.0
  0
ENDBLK
  5
575
  8
0
  0
BLOCK
  8
0
  2
*D9
 70
     1
 10
0.0
 20
0.0
 30
0.0
  3
*D9
  1

  0
LINE
  5
578
  8
2
 62
     0
 10
96.991356873262546
 20
75.363480124899795
 30
0.0
 11
91.945212592632402
 21
75.363480124899795
 31
0.0
  0
LINE
  5
579
  8
2
 62
     0
 10
98.714779095484758
 20
76.363480124899795
 30
0.0
 11
91.945212592632402
 21
76.363480124899809
 31
0.0
  0
LINE
  5
57A
  8
2
 62
     0
 10
92.570212592632402
 20
74.113480124899795
 30
0.0
 11
92.570212592632402
 21
72.863480124899795
 31
0.0
  0
LINE
  5
57B
  8
2
 62
     0
 10
92.570212592632402
 20
77.613480124899809
 30
0.0
 11
92.570212592632402
 21
79.90514679156648
 31
0.0
  0
LINE
  5
57C
  8
2
 62
     0
 10
92.570212592632402
 20
75.363480124899795
 30
0.0
 11
92.570212592632402
 21
76.363480124899809
 31
0.0
  0
SOLID
  5
57D
  8
2
 62
     0
 10
92.361879259299073
 20
74.113480124899795
 30
0.0
 11
92.778545925965744
 21
74.113480124899795
 31
0.0
 12
92.570212592632402
 22
75.363480124899795
 32
0.0
 13
92.570212592632402
 23
75.363480124899795
 33
0.0
  0
SOLID
  5
57E
  8
2
 62
     0
 10
92.361879259299073
 20
77.613480124899809
 30
0.0
 11
92.778545925965744
 21
77.613480124899809
 31
0.0
 12
92.570212592632402
 22
76.363480124899809
 32
0.0
 13
92.570212592632402
 23
76.363480124899809
 33
0.0
  0
TEXT
  5
57F
  8
2
 62
     0
 10
92.257712592632373
 20
79.175980124899823
 30
0.0
 40
1.25
  1
1
 50
90.0
  0
POINT
  5
580
  8
DEFPOINTS
 62
     0
 10
97.303856873262546
 20
75.363480124899795
 30
0.0
  0
POINT
  5
581
  8
DEFPOINTS
 62
     0
 10
99.027279095484758
 20
76.363480124899795
 30
0.0
  0
POINT
  5
582
  8
DEFPOINTS
 62
     0
 10
92.570212592632402
 20
76.363480124899809
 30
0.0
  0
ENDBLK
  5
584
  8
0
  0
BLOCK
  8
0
  2
*U10
 70
     1
 10
0.0
 20
0.0
 30
0.0
  3
*U10
  1

  0
TEXT
  5
5E8
  8
2
 62
     0
 10
98.152279095484744
 20
89.688634588206824
 30
0.0
 40
1.25
  1
\U+2205
  0
TEXT
  5
5E9
  8
2
 62
     0
 10
99.402279095484744
 20
89.688634588206824
 30
0.0
 40
1.25
  1
7.5
  0
ENDBLK
  5
5EB
  8
0
  0
BLOCK
  8
0
  2
*U11
 70
     1
 10
0.0
 20
0.0
 30
0.0
  3
*U11
  1

  0
TEXT
  5
5ED
  8
2
 62
     0
 10
98.985612428818087
 20
87.475382038554116
 30
0.0
 40
1.25
  1
\U+2205
  0
TEXT
  5
5EE
  8
2
 62
     0
 10
100.235612428818
 20
87.475382038554116
 30
0.0
 40
1.25
  1
6
  0
ENDBLK
  5
5F0
  8
0
  0
BLOCK
  8
0
  2
*U12
 70
     1
 10
0.0
 20
0.0
 30
0.0
  3
*U12
  1

  0
TEXT
  5
5F2
  8
2
 62
     0
 10
98.985612428818087
 20
85.564097377119637
 30
0.0
 40
1.25
  1
\U+2205
  0
TEXT
  5
5F3
  8
2
 62
     0
 10
100.235612428818
 20
85.564097377119637
 30
0.0
 40
1.25
  1
4
  0
ENDBLK
  5
5F5
  8
0
  0
BLOCK
  8
0
  2
*U13
 70
     1
 10
0.0
 20
0.0
 30
0.0
  3
*U13
  1

  0
TEXT
  5
5F7
  8
2
 62
     0
 10
103.8397790954847
 20
71.217098459284017
 30
0.0
 40
1.25
  1
\U+2205
  0
TEXT
  5
5F8
  8
2
 62
     0
 10
105.0897790954847
 20
71.217098459284017
 30
0.0
 40
1.25
  1
2
  0
ENDBLK
  5
5FA
  8
0
  0
BLOCK
  8
0
  2
*U14
 70
     1
 10
0.0
 20
0.0
 30
0.0
  3
*U14
  1

  0
TEXT
  5
5FC
  8
2
 62
     0
 10
98.985612428818087
 20
68.73153558019672
 30
0.0
 40
1.25
  1
\U+2205
  0
TEXT
  5
5FD
  8
2
 62
     0
 10
100.235612428818
 20
68.73153558019672
 30
0.0
 40
1.25
  1
6
  0
ENDBLK
  5
5FF
  8
0
  0
ENDSEC
  0
SECTION
  2
ENTITIES
  0
TEXT
  5
D0
  8
2
 10
90.788120179955683
 20
64.255625449263704
 30
0.0
 40
1.2699720000000001
  1
No. 102.006.013._
 51
-0.0000015352344868
  7
\U+00C9L\U+00C9R_\U+00C2S\U+00C2V\U+00C2B\U+00C2N
  0
LINE
  5
1AA
  8
0
 39
2.5
 10
97.051679095484758
 20
77.883280124899798
 30
0.0
 11
97.051679095484758
 21
77.883280124899798
 31
0.0
  0
LINE
  5
1B1
  8
0
 10
100.0272790954847
 20
75.363480124899795
 30
0.0
 11
97.303856873262546
 21
75.363480124899795
 31
0.0
  0
LINE
  5
1B2
  8
0
 39
2.5
 10
100.0272790954847
 20
81.863480124899795
 30
0.0
 11
96.701479095484757
 21
81.863480124899795
 31
0.0
  0
LINE
  5
1B3
  8
0
 39
2.5
 10
96.701479095484757
 20
81.863480124899795
 30
0.0
 11
96.701479095484757
 21
81.863480124899795
 31
0.0
  0
LINE
  5
1B4
  8
0
 39
2.5
 10
96.701479095484757
 20
81.863480124899795
 30
0.0
 11
96.659329095484765
 21
81.859730124899784
 31
0.0
  0
LINE
  5
1B5
  8
0
 39
2.5
 10
96.659329095484765
 20
81.859730124899784
 30
0.0
 11
96.618479095484773
 21
81.853380124899786
 31
0.0
  0
LINE
  5
1B6
  8
0
 39
2.5
 10
96.618479095484773
 20
81.853380124899786
 30
0.0
 11
96.579229095484735
 21
81.844430124899773
 31
0.0
  0
LINE
  5
1B7
  8
0
 39
2.5
 10
96.579229095484735
 20
81.844430124899773
 30
0.0
 11
96.541779095484756
 21
81.833030124899793
 31
0.0
  0
LINE
  5
1B8
  8
0
 39
2.5
 10
96.541779095484756
 20
81.833030124899793
 30
0.0
 11
96.506429095484748
 21
81.819080124899799
 31
0.0
  0
LINE
  5
1B9
  8
0
 39
2.5
 10
96.506429095484748
 20
81.819080124899799
 30
0.0
 11
96.473179095484767
 21
81.802880124899787
 31
0.0
  0
LINE
  5
1BA
  8
0
 39
2.5
 10
96.473179095484767
 20
81.802880124899787
 30
0.0
 11
96.442379095484768
 21
81.784280124899794
 31
0.0
  0
LINE
  5
1BB
  8
0
 39
2.5
 10
96.442379095484768
 20
81.784280124899794
 30
0.0
 11
96.414179095484755
 21
81.763430124899784
 31
0.0
  0
LINE
  5
1BC
  8
0
 39
2.5
 10
96.414179095484755
 20
81.763430124899784
 30
0.0
 11
96.388879095484754
 21
81.740230124899796
 31
0.0
  0
LINE
  5
1BD
  8
0
 39
2.5
 10
96.388879095484754
 20
81.740230124899796
 30
0.0
 11
96.366579095484752
 21
81.714930124899794
 31
0.0
  0
LINE
  5
1BE
  8
0
 39
2.5
 10
96.366579095484752
 20
81.714930124899794
 30
0.0
 11
96.347529095484759
 21
81.687480124899793
 31
0.0
  0
LINE
  5
1BF
  8
0
 39
2.5
 10
96.347529095484759
 20
81.687480124899793
 30
0.0
 11
96.277279095484744
 21
81.555705443371224
 31
0.0
  0
LINE
  5
1C8
  8
0
 39
2.5
 10
96.277279095484744
 20
78.435585253103156
 30
0.0
 11
96.317379095484753
 21
77.988830124899806
 31
0.0
  0
LINE
  5
1C9
  8
0
 39
2.5
 10
96.317379095484753
 20
77.988830124899806
 30
0.0
 11
96.322129095484783
 21
77.948680124899795
 31
0.0
  0
LINE
  5
1CA
  8
0
 39
2.5
 10
96.322129095484783
 20
77.948680124899795
 30
0.0
 11
96.328179095484757
 21
77.911380124899793
 31
0.0
  0
LINE
  5
1CB
  8
0
 39
2.5
 10
96.328179095484757
 20
77.911380124899793
 30
0.0
 11
96.335529095484773
 21
77.876880124899785
 31
0.0
  0
LINE
  5
1CC
  8
0
 39
2.5
 10
96.335529095484773
 20
77.876880124899785
 30
0.0
 11
96.344579095484761
 21
77.844930124899804
 31
0.0
  0
LINE
  5
1CD
  8
0
 39
2.5
 10
96.344579095484761
 20
77.844930124899804
 30
0.0
 11
96.355429095484766
 21
77.815330124899788
 31
0.0
  0
LINE
  5
1CE
  8
0
 39
2.5
 10
96.355429095484766
 20
77.815330124899788
 30
0.0
 11
96.368479095484759
 21
77.787680124899794
 31
0.0
  0
LINE
  5
1CF
  8
0
 39
2.5
 10
96.368479095484759
 20
77.787680124899794
 30
0.0
 11
96.383779095484755
 21
77.761980124899793
 31
0.0
  0
LINE
  5
1D0
  8
0
 39
2.5
 10
96.383779095484755
 20
77.761980124899793
 30
0.0
 11
96.401629095484765
 21
77.737880124899789
 31
0.0
  0
LINE
  5
1D1
  8
0
 39
2.5
 10
96.401629095484765
 20
77.737880124899789
 30
0.0
 11
96.422129095484763
 21
77.715280124899806
 31
0.0
  0
LINE
  5
1D2
  8
0
 39
2.5
 10
96.422129095484763
 20
77.715280124899806
 30
0.0
 11
96.445729095484751
 21
77.693780124899803
 31
0.0
  0
LINE
  5
1D3
  8
0
 39
2.5
 10
96.445729095484751
 20
77.693780124899803
 30
0.0
 11
96.472429095484756
 21
77.673280124899804
 31
0.0
  0
LINE
  5
1D4
  8
0
 39
2.5
 10
96.472429095484756
 20
77.673280124899804
 30
0.0
 11
96.502629095484764
 21
77.653530124899788
 31
0.0
  0
LINE
  5
1D5
  8
0
 39
2.5
 10
96.502629095484764
 20
77.653530124899788
 30
0.0
 11
96.536379095484776
 21
77.634380124899792
 31
0.0
  0
LINE
  5
1D6
  8
0
 39
2.5
 10
96.536379095484776
 20
77.634380124899792
 30
0.0
 11
97.893679095484757
 21
77.024780124899792
 31
0.0
  0
LINE
  5
1D7
  8
0
 39
2.5
 10
97.893679095484757
 20
77.024780124899792
 30
0.0
 11
97.893679095484757
 21
77.024780124899792
 31
0.0
  0
LINE
  5
1D8
  8
0
 39
2.5
 10
97.893679095484757
 20
77.024780124899792
 30
0.0
 11
97.925029095484746
 21
76.98663012489979
 31
0.0
  0
LINE
  5
1D9
  8
0
 39
2.5
 10
97.925029095484746
 20
76.98663012489979
 30
0.0
 11
97.952029095484775
 21
76.948530124899804
 31
0.0
  0
LINE
  5
1DA
  8
0
 39
2.5
 10
97.952029095484775
 20
76.948530124899804
 30
0.0
 11
97.974829095484765
 21
76.910330124899787
 31
0.0
  0
LINE
  5
1DB
  8
0
 39
2.5
 10
97.974829095484765
 20
76.910330124899787
 30
0.0
 11
97.993329095484768
 21
76.872180124899799
 31
0.0
  0
LINE
  5
1DC
  8
0
 39
2.5
 10
97.993329095484768
 20
76.872180124899799
 30
0.0
 11
98.007629095484759
 21
76.833830124899805
 31
0.0
  0
LINE
  5
1DD
  8
0
 39
2.5
 10
98.007629095484759
 20
76.833830124899805
 30
0.0
 11
98.017429095484758
 21
76.795480124899797
 31
0.0
  0
LINE
  5
1DE
  8
0
 39
2.5
 10
98.017429095484758
 20
76.795480124899797
 30
0.0
 11
98.022929095484756
 21
76.756980124899798
 31
0.0
  0
LINE
  5
1DF
  8
0
 39
2.5
 10
98.022929095484756
 20
76.756980124899798
 30
0.0
 11
98.023879095484745
 21
76.718380124899795
 31
0.0
  0
LINE
  5
1E0
  8
0
 39
2.5
 10
98.023879095484745
 20
76.718380124899795
 30
0.0
 11
98.020479095484745
 21
76.679580124899786
 31
0.0
  0
LINE
  5
1E1
  8
0
 39
2.5
 10
98.020479095484745
 20
76.679580124899786
 30
0.0
 11
98.012529095484751
 21
76.640630124899786
 31
0.0
  0
LINE
  5
1E2
  8
0
 39
2.5
 10
98.012529095484751
 20
76.640630124899786
 30
0.0
 11
98.000079095484764
 21
76.601480124899794
 31
0.0
  0
LINE
  5
1E3
  8
0
 39
2.5
 10
98.000079095484764
 20
76.601480124899794
 30
0.0
 11
97.942079095484743
 21
76.562180124899797
 31
0.0
  0
LINE
  5
1E4
  8
0
 39
2.5
 10
97.942079095484743
 20
76.562180124899797
 30
0.0
 11
97.920479095484737
 21
76.522580124899804
 31
0.0
  0
LINE
  5
1E5
  8
0
 39
2.5
 10
97.920479095484737
 20
76.522580124899804
 30
0.0
 11
97.894129095484757
 21
76.48278012489979
 31
0.0
  0
LINE
  5
1E6
  8
0
 39
2.5
 10
97.894129095484757
 20
76.48278012489979
 30
0.0
 11
97.863179095484739
 21
76.442730124899796
 31
0.0
  0
LINE
  5
1E7
  8
0
 39
2.5
 10
97.863179095484739
 20
76.442730124899796
 30
0.0
 11
97.827379095484744
 21
76.402480124899796
 31
0.0
  0
LINE
  5
1E8
  8
0
 39
2.5
 10
97.827379095484744
 20
76.402480124899796
 30
0.0
 11
97.027279095484758
 21
75.71908012489979
 31
0.0
  0
LINE
  5
1E9
  8
0
 39
2.5
 10
97.027279095484758
 20
75.71908012489979
 30
0.0
 11
97.303856873262546
 21
75.363480124899795
 31
0.0
  0
LINE
  5
3A5
  8
1
 10
100.0272790954847
 20
82.363480124899795
 30
0.0
 11
100.0272790954847
 21
74.863480124899795
 31
0.0
  0
LINE
  5
3AB
  8
0
 10
100.0272790954847
 20
79.863480124899795
 30
0.0
 11
97.027279095484758
 21
79.863480124899795
 31
0.0
  0
LINE
  5
3AC
  8
0
 10
97.027279095484758
 20
77.863480124899795
 30
0.0
 11
100.0272790954847
 21
77.863480124899795
 31
0.0
  0
LINE
  5
3AE
  8
0
 10
98.027279095484758
 20
81.863480124899795
 30
0.0
 11
98.027279095484758
 21
79.863480124899795
 31
0.0
  0
LINE
  5
3AF
  8
0
 10
97.027279095484758
 20
79.863480124899795
 30
0.0
 11
97.027279095484758
 21
77.863480124899795
 31
0.0
  0
LINE
  5
3B0
  8
0
 10
99.027279095484758
 20
77.863480124899795
 30
0.0
 11
99.027279095484758
 21
76.363480124899795
 31
0.0
  0
LINE
  5
3B2
  8
0
 10
99.027279095484758
 20
76.363480124899795
 30
0.0
 11
100.0272790954847
 21
76.363480124899795
 31
0.0
  0
LINE
  5
3B4
  8
0
 10
99.027279095484758
 20
76.363480124899795
 30
0.0
 11
97.303856873262546
 21
75.363480124899795
 31
0.0
  0
LINE
  5
3C3
  8
0
 10
96.277279095484744
 20
78.435585253103156
 30
0.0
 11
96.277279095484744
 21
81.555705443371224
 31
0.0
  0
LINE
  5
4C2
  8
0
 39
2.5
 10
103.7772790954847
 20
78.435585253103156
 30
0.0
 11
103.73717909548471
 21
77.988830124899806
 31
0.0
  0
LINE
  5
4C3
  8
0
 39
2.5
 10
103.7070290954847
 20
81.687480124899793
 30
0.0
 11
103.7772790954847
 21
81.555705443371224
 31
0.0
  0
LINE
  5
4C4
  8
0
 39
2.5
 10
102.19137909548471
 20
76.442730124899796
 30
0.0
 11
102.2271790954847
 21
76.402480124899796
 31
0.0
  0
LINE
  5
4C5
  8
0
 39
2.5
 10
102.1604290954847
 20
76.48278012489979
 30
0.0
 11
102.19137909548471
 21
76.442730124899796
 31
0.0
  0
LINE
  5
4C6
  8
0
 39
2.5
 10
102.13407909548469
 20
76.522580124899804
 30
0.0
 11
102.1604290954847
 21
76.48278012489979
 31
0.0
  0
LINE
  5
4C7
  8
0
 39
2.5
 10
102.1124790954847
 20
76.562180124899797
 30
0.0
 11
102.13407909548469
 21
76.522580124899804
 31
0.0
  0
LINE
  5
4C8
  8
0
 39
2.5
 10
102.2271790954847
 20
76.402480124899796
 30
0.0
 11
103.0272790954847
 21
75.71908012489979
 31
0.0
  0
LINE
  5
4C9
  8
0
 39
2.5
 10
102.05447909548469
 20
76.601480124899794
 30
0.0
 11
102.1124790954847
 21
76.562180124899797
 31
0.0
  0
LINE
  5
4CA
  8
0
 39
2.5
 10
103.0272790954847
 20
75.71908012489979
 30
0.0
 11
102.7507013177069
 21
75.363480124899795
 31
0.0
  0
LINE
  5
4CB
  8
0
 39
2.5
 10
103.0028790954847
 20
77.883280124899798
 30
0.0
 11
103.0028790954847
 21
77.883280124899798
 31
0.0
  0
LINE
  5
4CC
  8
0
 39
2.5
 10
103.3530790954847
 20
81.863480124899795
 30
0.0
 11
103.3530790954847
 21
81.863480124899795
 31
0.0
  0
LINE
  5
4CD
  8
0
 39
2.5
 10
103.3530790954847
 20
81.863480124899795
 30
0.0
 11
103.39522909548469
 21
81.859730124899784
 31
0.0
  0
LINE
  5
4CE
  8
0
 39
2.5
 10
103.39522909548469
 20
81.859730124899784
 30
0.0
 11
103.4360790954847
 21
81.853380124899786
 31
0.0
  0
LINE
  5
4CF
  8
0
 39
2.5
 10
103.4360790954847
 20
81.853380124899786
 30
0.0
 11
103.4753290954847
 21
81.844430124899773
 31
0.0
  0
LINE
  5
4D0
  8
0
 39
2.5
 10
103.4753290954847
 20
81.844430124899773
 30
0.0
 11
103.5127790954847
 21
81.833030124899793
 31
0.0
  0
LINE
  5
4D1
  8
0
 39
2.5
 10
103.5127790954847
 20
81.833030124899793
 30
0.0
 11
103.5481290954847
 21
81.819080124899799
 31
0.0
  0
LINE
  5
4D2
  8
0
 39
2.5
 10
103.5481290954847
 20
81.819080124899799
 30
0.0
 11
103.58137909548471
 21
81.802880124899787
 31
0.0
  0
LINE
  5
4D3
  8
0
 39
2.5
 10
103.58137909548471
 20
81.802880124899787
 30
0.0
 11
103.61217909548471
 21
81.784280124899794
 31
0.0
  0
LINE
  5
4D4
  8
0
 39
2.5
 10
103.61217909548471
 20
81.784280124899794
 30
0.0
 11
103.6403790954847
 21
81.763430124899784
 31
0.0
  0
LINE
  5
4D5
  8
0
 39
2.5
 10
103.6403790954847
 20
81.763430124899784
 30
0.0
 11
103.66567909548471
 21
81.740230124899796
 31
0.0
  0
LINE
  5
4D6
  8
0
 39
2.5
 10
103.66567909548471
 20
81.740230124899796
 30
0.0
 11
103.68797909548471
 21
81.714930124899794
 31
0.0
  0
LINE
  5
4D7
  8
0
 39
2.5
 10
103.68797909548471
 20
81.714930124899794
 30
0.0
 11
103.7070290954847
 21
81.687480124899793
 31
0.0
  0
LINE
  5
4D8
  8
0
 39
2.5
 10
103.73717909548471
 20
77.988830124899806
 30
0.0
 11
103.7324290954847
 21
77.948680124899795
 31
0.0
  0
LINE
  5
4D9
  8
0
 39
2.5
 10
103.7324290954847
 20
77.948680124899795
 30
0.0
 11
103.7263790954847
 21
77.911380124899793
 31
0.0
  0
LINE
  5
4DA
  8
0
 39
2.5
 10
103.7263790954847
 20
77.911380124899793
 30
0.0
 11
103.7190290954847
 21
77.876880124899785
 31
0.0
  0
LINE
  5
4DB
  8
0
 39
2.5
 10
103.7190290954847
 20
77.876880124899785
 30
0.0
 11
103.7099790954847
 21
77.844930124899804
 31
0.0
  0
LINE
  5
4DC
  8
0
 39
2.5
 10
103.7099790954847
 20
77.844930124899804
 30
0.0
 11
103.69912909548469
 21
77.815330124899788
 31
0.0
  0
LINE
  5
4DD
  8
0
 39
2.5
 10
103.69912909548469
 20
77.815330124899788
 30
0.0
 11
103.6860790954847
 21
77.787680124899794
 31
0.0
  0
LINE
  5
4DE
  8
0
 39
2.5
 10
103.6860790954847
 20
77.787680124899794
 30
0.0
 11
103.6707790954847
 21
77.761980124899793
 31
0.0
  0
LINE
  5
4DF
  8
0
 39
2.5
 10
103.6707790954847
 20
77.761980124899793
 30
0.0
 11
103.65292909548469
 21
77.737880124899789
 31
0.0
  0
LINE
  5
4E0
  8
0
 39
2.5
 10
103.65292909548469
 20
77.737880124899789
 30
0.0
 11
103.6324290954847
 21
77.715280124899806
 31
0.0
  0
LINE
  5
4E1
  8
0
 39
2.5
 10
103.6324290954847
 20
77.715280124899806
 30
0.0
 11
103.60882909548469
 21
77.693780124899803
 31
0.0
  0
LINE
  5
4E2
  8
0
 39
2.5
 10
103.60882909548469
 20
77.693780124899803
 30
0.0
 11
103.5821290954847
 21
77.673280124899804
 31
0.0
  0
LINE
  5
4E3
  8
0
 39
2.5
 10
103.5821290954847
 20
77.673280124899804
 30
0.0
 11
103.5519290954847
 21
77.653530124899788
 31
0.0
  0
LINE
  5
4E4
  8
0
 39
2.5
 10
103.5519290954847
 20
77.653530124899788
 30
0.0
 11
103.5181790954847
 21
77.634380124899792
 31
0.0
  0
LINE
  5
4E5
  8
0
 39
2.5
 10
103.5181790954847
 20
77.634380124899792
 30
0.0
 11
102.1608790954847
 21
77.024780124899792
 31
0.0
  0
LINE
  5
4E6
  8
0
 39
2.5
 10
102.1608790954847
 20
77.024780124899792
 30
0.0
 11
102.1608790954847
 21
77.024780124899792
 31
0.0
  0
LINE
  5
4E7
  8
0
 39
2.5
 10
102.1608790954847
 20
77.024780124899792
 30
0.0
 11
102.1295290954847
 21
76.98663012489979
 31
0.0
  0
LINE
  5
4E8
  8
0
 39
2.5
 10
102.1295290954847
 20
76.98663012489979
 30
0.0
 11
102.1025290954847
 21
76.948530124899804
 31
0.0
  0
LINE
  5
4E9
  8
0
 39
2.5
 10
102.1025290954847
 20
76.948530124899804
 30
0.0
 11
102.07972909548469
 21
76.910330124899787
 31
0.0
  0
LINE
  5
4EA
  8
0
 39
2.5
 10
102.07972909548469
 20
76.910330124899787
 30
0.0
 11
102.06122909548471
 21
76.872180124899799
 31
0.0
  0
LINE
  5
4EB
  8
0
 39
2.5
 10
102.06122909548471
 20
76.872180124899799
 30
0.0
 11
102.0469290954847
 21
76.833830124899805
 31
0.0
  0
LINE
  5
4EC
  8
0
 39
2.5
 10
102.0469290954847
 20
76.833830124899805
 30
0.0
 11
102.0371290954847
 21
76.795480124899797
 31
0.0
  0
LINE
  5
4ED
  8
0
 39
2.5
 10
102.0371290954847
 20
76.795480124899797
 30
0.0
 11
102.0316290954847
 21
76.756980124899798
 31
0.0
  0
LINE
  5
4EE
  8
0
 39
2.5
 10
102.0316290954847
 20
76.756980124899798
 30
0.0
 11
102.0306790954847
 21
76.718380124899795
 31
0.0
  0
LINE
  5
4EF
  8
0
 39
2.5
 10
102.0306790954847
 20
76.718380124899795
 30
0.0
 11
102.0340790954847
 21
76.679580124899786
 31
0.0
  0
LINE
  5
4F0
  8
0
 39
2.5
 10
102.0340790954847
 20
76.679580124899786
 30
0.0
 11
102.04202909548469
 21
76.640630124899786
 31
0.0
  0
LINE
  5
4F1
  8
0
 39
2.5
 10
102.04202909548469
 20
76.640630124899786
 30
0.0
 11
102.05447909548469
 21
76.601480124899794
 31
0.0
  0
LINE
  5
4F2
  8
0
 39
2.5
 10
100.0272790954847
 20
81.863480124899795
 30
0.0
 11
103.3530790954847
 21
81.863480124899795
 31
0.0
  0
LINE
  5
4F3
  8
0
 10
103.7772790954847
 20
78.435585253103156
 30
0.0
 11
103.7772790954847
 21
81.555705443371224
 31
0.0
  0
LINE
  5
4F4
  8
0
 10
103.0272790954847
 20
79.863480124899795
 30
0.0
 11
103.0272790954847
 21
77.863480124899795
 31
0.0
  0
LINE
  5
4F5
  8
0
 10
100.0272790954847
 20
75.363480124899795
 30
0.0
 11
102.7507013177069
 21
75.363480124899795
 31
0.0
  0
LINE
  5
4F6
  8
0
 10
101.0272790954847
 20
76.363480124899795
 30
0.0
 11
100.0272790954847
 21
76.363480124899795
 31
0.0
  0
LINE
  5
4F7
  8
0
 10
103.0272790954847
 20
77.863480124899795
 30
0.0
 11
100.0272790954847
 21
77.863480124899795
 31
0.0
  0
LINE
  5
4F8
  8
0
 10
101.0272790954847
 20
76.363480124899795
 30
0.0
 11
102.7507013177069
 21
75.363480124899795
 31
0.0
  0
LINE
  5
4F9
  8
0
 10
101.0272790954847
 20
77.863480124899795
 30
0.0
 11
101.0272790954847
 21
76.363480124899795
 31
0.0
  0
LINE
  5
4FA
  8
0
 10
100.0272790954847
 20
79.863480124899795
 30
0.0
 11
103.0272790954847
 21
79.863480124899795
 31
0.0
  0
LINE
  5
4FB
  8
0
 10
102.0272790954847
 20
81.863480124899795
 30
0.0
 11
102.0272790954847
 21
79.863480124899795
 31
0.0
  0
DIMENSION
  5
501
  8
2
  2
*D1
 10
102.0272790954847
 20
85.251597377119637
 30
0.0
 11
100.0272790954847
 21
86.189097377119637
 31
0.0
 70
     0
  1
%%c<>
 13
98.027279095484758
 23
81.863480124899795
 33
0.0
 14
102.0272790954847
 24
81.863480124899795
 34
0.0
  0
DIMENSION
  5
517
  8
2
  2
*D2
 10
103.0272790954847
 20
87.162882038554116
 30
0.0
 11
100.0272790954847
 21
88.100382038554116
 31
0.0
 70
     0
  1
%%c<>
 13
97.027279095484758
 23
79.863480124899795
 33
0.0
 14
103.0272790954847
 24
79.863480124899795
 34
0.0
  0
DIMENSION
  5
524
  8
2
  2
*D3
 10
103.7772790954847
 20
89.376134588206824
 30
0.0
 11
100.0272790954847
 21
90.313634588206824
 31
0.0
 70
     0
  1
%%c<>
 13
96.277279095484744
 23
81.555705443371224
 33
0.0
 14
103.7772790954847
 24
81.555705443371224
 34
0.0
  0
DIMENSION
  5
531
  8
2
  2
*D4
 10
101.0272790954847
 20
70.904598459284017
 30
0.0
 11
104.8814457621514
 21
71.842098459284017
 31
0.0
 70
     0
  1
%%c<>
 13
99.027279095484758
 23
76.363480124899795
 33
0.0
 14
101.0272790954847
 24
76.363480124899795
 34
0.0
  0
DIMENSION
  5
540
  8
2
  2
*D5
 10
103.0272790954847
 20
68.41903558019672
 30
0.0
 11
100.0272790954847
 21
69.35653558019672
 31
0.0
 70
     0
  1
%%c<>
 13
97.027279095484758
 23
75.71908012489979
 33
0.0
 14
103.0272790954847
 24
75.71908012489979
 34
0.0
  0
DIMENSION
  5
54D
  8
2
  2
*D6
 10
109.655179765775
 20
79.863480124899795
 30
0.0
 11
108.7176797657749
 21
80.863480124899823
 31
0.0
 70
     0
 13
103.0272790954847
 23
81.863480124899795
 33
0.0
 14
103.0272790954847
 24
79.863480124899795
 34
0.0
 50
90.0
  0
DIMENSION
  5
55C
  8
2
  2
*D7
 10
112.2629794156942
 20
77.863480124899795
 30
0.0
 11
111.3254794156942
 21
79.863480124899823
 31
0.0
 70
     0
 13
103.0272790954847
 23
81.863480124899795
 33
0.0
 14
103.0272790954847
 24
77.863480124899795
 34
0.0
 50
90.0
  0
DIMENSION
  5
569
  8
2
  2
*D8
 10
115.3077464748221
 20
75.363480124899795
 30
0.0
 11
114.3702464748221
 21
78.613480124899823
 31
0.0
 70
     0
 13
103.0272790954847
 23
81.863480124899795
 33
0.0
 14
102.7507013177069
 24
75.363480124899795
 34
0.0
 50
90.0
  0
DIMENSION
  5
576
  8
2
  2
*D9
 10
92.570212592632402
 20
76.363480124899809
 30
0.0
 11
91.632712592632373
 21
79.384313458233152
 31
0.0
 70
     0
 13
97.303856873262546
 23
75.363480124899795
 33
0.0
 14
99.027279095484758
 24
76.363480124899795
 34
0.0
 50
90.0
  0
ENDSEC
  0
EOF
