  0
SECTION
  2
HEADER
  9
$ACADVER
  1
AC1009
  9
$INSBASE
 10
0.0
 20
0.0
 30
0.0
  9
$EXTMIN
 10
60.931794245241683
 20
31.0383882396562
 30
0.0
  9
$EXTMAX
 10
100.484665036788
 20
78.571673589025778
 30
2.5
  9
$LIMMIN
 10
0.0
 20
0.0
  9
$LIMMAX
 10
420.0
 20
297.0
  9
$ORTHOMODE
 70
     0
  9
$REGENMODE
 70
     1
  9
$FILLMODE
 70
     1
  9
$QTEXTMODE
 70
     0
  9
$MIRRTEXT
 70
     1
  9
$DRAGMODE
 70
     2
  9
$LTSCALE
 40
0.3
  9
$OSMODE
 70
    37
  9
$ATTMODE
 70
     1
  9
$TEXTSIZE
 40
2.5
  9
$TRACEWID
 40
1.0
  9
$TEXTSTYLE
  7
STANDARD
  9
$CLAYER
  8
2
  9
$CELTYPE
  6
BYLAYER
  9
$CECOLOR
 62
   256
  9
$DIMSCALE
 40
1.0
  9
$DIMASZ
 40
2.5
  9
$DIMEXO
 40
0.625
  9
$DIMDLI
 40
3.75
  9
$DIMRND
 40
0.0
  9
$DIMDLE
 40
0.0
  9
$DIMEXE
 40
1.25
  9
$DIMTP
 40
0.0
  9
$DIMTM
 40
0.0
  9
$DIMTXT
 40
2.5
  9
$DIMCEN
 40
2.5
  9
$DIMTSZ
 40
0.0
  9
$DIMTOL
 70
     0
  9
$DIMLIM
 70
     0
  9
$DIMTIH
 70
     0
  9
$DIMTOH
 70
     0
  9
$DIMSE1
 70
     0
  9
$DIMSE2
 70
     0
  9
$DIMTAD
 70
     1
  9
$DIMZIN
 70
     8
  9
$DIMBLK
  1

  9
$DIMASO
 70
     1
  9
$DIMSHO
 70
     1
  9
$DIMPOST
  1

  9
$DIMAPOST
  1

  9
$DIMALT
 70
     0
  9
$DIMALTD
 70
     3
  9
$DIMALTF
 40
0.03937007874016
  9
$DIMLFAC
 40
1.0
  9
$DIMTOFL
 70
     1
  9
$DIMTVP
 40
0.0
  9
$DIMTIX
 70
     0
  9
$DIMSOXD
 70
     0
  9
$DIMSAH
 70
     0
  9
$DIMBLK1
  1

  9
$DIMBLK2
  1

  9
$DIMSTYLE
  2
ISO-25
  9
$DIMCLRD
 70
     0
  9
$DIMCLRE
 70
     0
  9
$DIMCLRT
 70
     0
  9
$DIMTFAC
 40
1.0
  9
$DIMGAP
 40
0.625
  9
$LUNITS
 70
     2
  9
$LUPREC
 70
     4
  9
$SKETCHINC
 40
1.0
  9
$FILLETRAD
 40
10.0
  9
$AUNITS
 70
     0
  9
$AUPREC
 70
     0
  9
$MENU
  1
.
  9
$ELEVATION
 40
0.0
  9
$PELEVATION
 40
0.0
  9
$THICKNESS
 40
0.0
  9
$LIMCHECK
 70
     0
  9
$BLIPMODE
 70
     0
  9
$CHAMFERA
 40
10.0
  9
$CHAMFERB
 40
10.0
  9
$SKPOLY
 70
     0
  9
$TDCREATE
 40
2453434.413099166
  9
$TDUPDATE
 40
2453551.8956525568
  9
$TDINDWG
 40
0.0327411458
  9
$TDUSRTIMER
 40
0.0327411458
  9
$USRTIMER
 70
     1
  9
$ANGBASE
 50
0.0
  9
$ANGDIR
 70
     0
  9
$PDMODE
 70
     0
  9
$PDSIZE
 40
0.0
  9
$PLINEWID
 40
0.0
  9
$COORDS
 70
     1
  9
$SPLFRAME
 70
     0
  9
$SPLINETYPE
 70
     6
  9
$SPLINESEGS
 70
     8
  9
$ATTDIA
 70
     0
  9
$ATTREQ
 70
     1
  9
$HANDLING
 70
-16383
  9
$HANDSEED
  5
5C0
  9
$SURFTAB1
 70
     6
  9
$SURFTAB2
 70
     6
  9
$SURFTYPE
 70
     6
  9
$SURFU
 70
     6
  9
$SURFV
 70
     6
  9
$UCSNAME
  2

  9
$UCSORG
 10
0.0
 20
0.0
 30
0.0
  9
$UCSXDIR
 10
1.0
 20
0.0
 30
0.0
  9
$UCSYDIR
 10
0.0
 20
1.0
 30
0.0
  9
$PUCSNAME
  2

  9
$PUCSORG
 10
0.0
 20
0.0
 30
0.0
  9
$PUCSXDIR
 10
1.0
 20
0.0
 30
0.0
  9
$PUCSYDIR
 10
0.0
 20
1.0
 30
0.0
  9
$USERI1
 70
     0
  9
$USERI2
 70
     0
  9
$USERI3
 70
     0
  9
$USERI4
 70
     0
  9
$USERI5
 70
     0
  9
$USERR1
 40
0.0
  9
$USERR2
 40
0.0
  9
$USERR3
 40
0.0
  9
$USERR4
 40
0.0
  9
$USERR5
 40
0.0
  9
$WORLDVIEW
 70
     1
  9
$SHADEDGE
 70
     3
  9
$SHADEDIF
 70
    70
  9
$TILEMODE
 70
     1
  9
$MAXACTVP
 70
    64
  9
$PLIMCHECK
 70
     0
  9
$PEXTMIN
 10
1.0000000000000000E+020
 20
1.0000000000000000E+020
 30
1.0000000000000000E+020
  9
$PEXTMAX
 10
-1.0000000000000000E+020
 20
-1.0000000000000000E+020
 30
-1.0000000000000000E+020
  9
$PLIMMIN
 10
0.0
 20
0.0
  9
$PLIMMAX
 10
420.0
 20
297.0
  9
$UNITMODE
 70
     0
  9
$VISRETAIN
 70
     1
  9
$PLINEGEN
 70
     0
  9
$PSLTSCALE
 70
     1
  0
ENDSEC
  0
SECTION
  2
TABLES
  0
TABLE
  2
VPORT
 70
     2
  0
VPORT
  2
*ACTIVE
 70
     0
 10
0.0
 20
0.0
 11
1.0
 21
1.0
 12
124.4005789087837
 22
49.77416714375299
 13
0.0
 23
0.0
 14
10.0
 24
10.0
 15
10.0
 25
10.0
 16
0.0
 26
0.0
 36
1.0
 17
0.0
 27
0.0
 37
0.0
 40
67.128562869550507
 41
2.5392405063291141
 42
50.0
 43
0.0
 44
0.0
 50
0.0
 51
0.0
 71
     0
 72
   100
 73
     1
 74
     3
 75
     0
 76
     0
 77
     0
 78
     0
  0
ENDTAB
  0
TABLE
  2
LTYPE
 70
     2
  0
LTYPE
  2
CONTINUOUS
 70
     0
  3
Solid line
 72
    65
 73
     0
 40
0.0
  0
LTYPE
  2
CENTER
 70
     0
  3
Center ____ _ ____ _ ____ _ ____ _ ____ _ ____
 72
    65
 73
     4
 40
50.799999999999997
 49
31.75
 49
-6.3499999999999988
 49
6.3499999999999988
 49
-6.3499999999999988
  0
ENDTAB
  0
TABLE
  2
LAYER
 70
     4
  0
LAYER
  2
0
 70
     0
 62
     7
  6
CONTINUOUS
  0
LAYER
  2
1
 70
     0
 62
     7
  6
CENTER
  0
LAYER
  2
DEFPOINTS
 70
     0
 62
     7
  6
CONTINUOUS
  0
LAYER
  2
2
 70
     0
 62
     7
  6
CONTINUOUS
  0
ENDTAB
  0
TABLE
  2
STYLE
 70
     3
  0
STYLE
  2
STANDARD
 70
     0
 40
0.0
 41
1.0
 50
0.0
 71
     0
 42
2.5
  3
txt
  4

  0
STYLE
  2
\U+00C9L\U+00C9R_\U+00C2S\U+00C2V\U+00C2B\U+00C2N
 70
     0
 40
1.0
 41
1.0
 50
0.0
 71
     0
 42
1.0
  3
\U+00E9l\U+00E9r \U+00E2S\U+00E2V\U+00E2b\U+00E2N
  4

  0
STYLE
  2

 70
     1
 40
0.0
 41
1.0
 50
0.0
 71
     0
 42
2.5
  3
ltypeshp.shx
  4

  0
ENDTAB
  0
TABLE
  2
VIEW
 70
     0
  0
ENDTAB
  0
TABLE
  2
UCS
 70
     0
  0
ENDTAB
  0
TABLE
  2
APPID
 70
     1
  0
APPID
  2
ACAD
 70
     0
  0
ENDTAB
  0
TABLE
  2
DIMSTYLE
 70
     2
  0
DIMSTYLE
  2
ISO-25
 70
     0
  3

  4

  5

  6

  7

 40
1.0
 41
2.5
 42
0.625
 43
3.75
 44
1.25
 45
0.0
 46
0.0
 47
0.0
 48
0.0
140
2.5
141
2.5
142
0.0
143
0.03937007874016
144
1.0
145
0.0
146
1.0
147
0.625
 71
     0
 72
     0
 73
     0
 74
     0
 75
     0
 76
     0
 77
     1
 78
     8
170
     0
171
     3
172
     1
173
     0
174
     0
175
     0
176
     0
177
     0
178
     0
  0
DIMSTYLE
  2
STANDARD
 70
     0
  3

  4

  5

  6

  7

 40
1.0
 41
0.18
 42
0.0625
 43
0.38
 44
0.18
 45
0.0
 46
0.0
 47
0.0
 48
0.0
140
0.18
141
0.09
142
0.0
143
25.399999999999999
144
1.0
145
0.0
146
1.0
147
0.09
 71
     0
 72
     0
 73
     1
 74
     1
 75
     0
 76
     0
 77
     0
 78
     0
170
     0
171
     2
172
     0
173
     0
174
     0
175
     0
176
     0
177
     0
178
     0
  0
ENDTAB
  0
ENDSEC
  0
SECTION
  2
BLOCKS
  0
BLOCK
  8
0
  2
$MODEL_SPACE
 70
     0
 10
0.0
 20
0.0
 30
0.0
  3
$MODEL_SPACE
  1

  0
ENDBLK
  5
21
  8
0
  0
BLOCK
 67
     1
  8
0
  2
$PAPER_SPACE
 70
     0
 10
0.0
 20
0.0
 30
0.0
  3
$PAPER_SPACE
  1

  0
ENDBLK
  5
1D
 67
     1
  8
0
  0
BLOCK
  8
0
  2
*D1
 70
     1
 10
0.0
 20
0.0
 30
0.0
  3
*D1
  1

  0
LINE
  5
4E3
  8
2
 62
     0
 10
72.467519968953596
 20
63.458671704326541
 30
0.0
 11
72.467519968953596
 21
69.214342329160331
 31
0.0
  0
LINE
  5
4E4
  8
2
 62
     0
 10
76.467519968953596
 20
63.458671704326541
 30
0.0
 11
76.467519968953596
 21
69.214342329160331
 31
0.0
  0
LINE
  5
4E5
  8
2
 62
     0
 10
69.967519968953596
 20
67.964342329160331
 30
0.0
 11
67.467519968953596
 21
67.964342329160331
 31
0.0
  0
LINE
  5
4E6
  8
2
 62
     0
 10
78.967519968953596
 20
67.964342329160331
 30
0.0
 11
86.884186635620267
 21
67.964342329160331
 31
0.0
  0
LINE
  5
4E7
  8
2
 62
     0
 10
72.467519968953596
 20
67.964342329160331
 30
0.0
 11
76.467519968953596
 21
67.964342329160331
 31
0.0
  0
SOLID
  5
4E8
  8
2
 62
     0
 10
69.967519968953596
 20
68.381008995827003
 30
0.0
 11
69.967519968953596
 21
67.54767566249366
 31
0.0
 12
72.467519968953596
 22
67.964342329160331
 32
0.0
 13
72.467519968953596
 23
67.964342329160331
 33
0.0
  0
SOLID
  5
4E9
  8
2
 62
     0
 10
78.967519968953596
 20
68.381008995827003
 30
0.0
 11
78.967519968953596
 21
67.54767566249366
 31
0.0
 12
76.467519968953596
 22
67.964342329160331
 32
0.0
 13
76.467519968953596
 23
67.964342329160331
 33
0.0
  0
INSERT
  5
4EA
  8
2
  2
*U11
 10
0.0
 20
0.0
 30
0.0
  0
POINT
  5
4EB
  8
DEFPOINTS
 62
     0
 10
72.467519968953596
 20
62.833671704326541
 30
0.0
  0
POINT
  5
4EC
  8
DEFPOINTS
 62
     0
 10
76.467519968953596
 20
62.833671704326541
 30
0.0
  0
POINT
  5
4ED
  8
DEFPOINTS
 62
     0
 10
76.467519968953596
 20
67.964342329160331
 30
0.0
  0
ENDBLK
  5
461
  8
0
  0
BLOCK
  8
0
  2
*D2
 70
     1
 10
0.0
 20
0.0
 30
0.0
  3
*D2
  1

  0
LINE
  5
4D8
  8
2
 62
     0
 10
71.467519968953596
 20
61.458671704326548
 30
0.0
 11
71.467519968953596
 21
72.783223485559517
 31
0.0
  0
LINE
  5
4D9
  8
2
 62
     0
 10
77.467519968953596
 20
61.458671704326548
 30
0.0
 11
77.467519968953596
 21
72.783223485559517
 31
0.0
  0
LINE
  5
4DA
  8
2
 62
     0
 10
68.967519968953596
 20
71.533223485559517
 30
0.0
 11
66.467519968953596
 21
71.533223485559517
 31
0.0
  0
LINE
  5
4DB
  8
2
 62
     0
 10
79.967519968953596
 20
71.533223485559517
 30
0.0
 11
82.467519968953596
 21
71.533223485559517
 31
0.0
  0
LINE
  5
4DC
  8
2
 62
     0
 10
71.467519968953596
 20
71.533223485559517
 30
0.0
 11
77.467519968953596
 21
71.533223485559517
 31
0.0
  0
SOLID
  5
4DD
  8
2
 62
     0
 10
68.967519968953596
 20
71.949890152226189
 30
0.0
 11
68.967519968953596
 21
71.116556818892846
 31
0.0
 12
71.467519968953596
 22
71.533223485559517
 32
0.0
 13
71.467519968953596
 23
71.533223485559517
 33
0.0
  0
SOLID
  5
4DE
  8
2
 62
     0
 10
79.967519968953596
 20
71.949890152226189
 30
0.0
 11
79.967519968953596
 21
71.116556818892846
 31
0.0
 12
77.467519968953596
 22
71.533223485559517
 32
0.0
 13
77.467519968953596
 23
71.533223485559517
 33
0.0
  0
INSERT
  5
4DF
  8
2
  2
*U10
 10
0.0
 20
0.0
 30
0.0
  0
POINT
  5
4E0
  8
DEFPOINTS
 62
     0
 10
71.467519968953596
 20
60.833671704326548
 30
0.0
  0
POINT
  5
4E1
  8
DEFPOINTS
 62
     0
 10
77.467519968953596
 20
60.833671704326548
 30
0.0
  0
POINT
  5
4E2
  8
DEFPOINTS
 62
     0
 10
77.467519968953596
 20
71.533223485559517
 30
0.0
  0
ENDBLK
  5
470
  8
0
  0
BLOCK
  8
0
  2
*D3
 70
     1
 10
0.0
 20
0.0
 30
0.0
  3
*D3
  1

  0
LINE
  5
569
  8
2
 62
     0
 10
70.467519968953596
 20
63.157854384064933
 30
0.0
 11
70.467519968953596
 21
76.69667358902575
 31
0.0
  0
LINE
  5
56A
  8
2
 62
     0
 10
78.467519968953596
 20
63.157854384064933
 30
0.0
 11
78.467519968953596
 21
76.69667358902575
 31
0.0
  0
LINE
  5
56B
  8
2
 62
     0
 10
72.967519968953596
 20
75.44667358902575
 30
0.0
 11
75.967519968953596
 21
75.44667358902575
 31
0.0
  0
SOLID
  5
56C
  8
2
 62
     0
 10
72.967519968953596
 20
75.863340255692421
 30
0.0
 11
72.967519968953596
 21
75.030006922359064
 31
0.0
 12
70.467519968953596
 22
75.44667358902575
 32
0.0
 13
70.467519968953596
 23
75.44667358902575
 33
0.0
  0
SOLID
  5
56D
  8
2
 62
     0
 10
75.967519968953596
 20
75.863340255692421
 30
0.0
 11
75.967519968953596
 21
75.030006922359064
 31
0.0
 12
78.467519968953596
 22
75.44667358902575
 32
0.0
 13
78.467519968953596
 23
75.44667358902575
 33
0.0
  0
INSERT
  5
56E
  8
2
  2
*U14
 10
0.0
 20
0.0
 30
0.0
  0
POINT
  5
56F
  8
DEFPOINTS
 62
     0
 10
70.467519968953596
 20
62.532854384064933
 30
0.0
  0
POINT
  5
570
  8
DEFPOINTS
 62
     0
 10
78.467519968953596
 20
62.532854384064933
 30
0.0
  0
POINT
  5
571
  8
DEFPOINTS
 62
     0
 10
78.467519968953596
 20
75.44667358902575
 30
0.0
  0
ENDBLK
  5
47D
  8
0
  0
BLOCK
  8
0
  2
*D4
 70
     1
 10
0.0
 20
0.0
 30
0.0
  3
*D4
  1

  0
LINE
  5
4EE
  8
2
 62
     0
 10
73.467519968953596
 20
56.608671704326547
 30
0.0
 11
73.467519968953596
 21
48.657427816721281
 31
0.0
  0
LINE
  5
4EF
  8
2
 62
     0
 10
75.467519968953596
 20
56.608671704326547
 30
0.0
 11
75.467519968953596
 21
48.657427816721281
 31
0.0
  0
LINE
  5
4F0
  8
2
 62
     0
 10
70.967519968953596
 20
49.907427816721281
 30
0.0
 11
68.467519968953596
 21
49.907427816721281
 31
0.0
  0
LINE
  5
4F1
  8
2
 62
     0
 10
77.967519968953596
 20
49.907427816721281
 30
0.0
 11
85.884186635620267
 21
49.907427816721281
 31
0.0
  0
LINE
  5
4F2
  8
2
 62
     0
 10
73.467519968953596
 20
49.907427816721281
 30
0.0
 11
75.467519968953596
 21
49.907427816721281
 31
0.0
  0
SOLID
  5
4F3
  8
2
 62
     0
 10
70.967519968953596
 20
50.324094483387938
 30
0.0
 11
70.967519968953596
 21
49.49076115005461
 31
0.0
 12
73.467519968953596
 22
49.907427816721281
 32
0.0
 13
73.467519968953596
 23
49.907427816721281
 33
0.0
  0
SOLID
  5
4F4
  8
2
 62
     0
 10
77.967519968953596
 20
50.324094483387938
 30
0.0
 11
77.967519968953596
 21
49.49076115005461
 31
0.0
 12
75.467519968953596
 22
49.907427816721281
 32
0.0
 13
75.467519968953596
 23
49.907427816721281
 33
0.0
  0
INSERT
  5
4F5
  8
2
  2
*U12
 10
0.0
 20
0.0
 30
0.0
  0
POINT
  5
4F6
  8
DEFPOINTS
 62
     0
 10
73.467519968953596
 20
57.233671704326547
 30
0.0
  0
POINT
  5
4F7
  8
DEFPOINTS
 62
     0
 10
75.467519968953596
 20
57.233671704326547
 30
0.0
  0
POINT
  5
4F8
  8
DEFPOINTS
 62
     0
 10
75.467519968953596
 20
49.907427816721281
 30
0.0
  0
ENDBLK
  5
48E
  8
0
  0
BLOCK
  8
0
  2
*D5
 70
     1
 10
0.0
 20
0.0
 30
0.0
  3
*D5
  1

  0
LINE
  5
4F9
  8
2
 62
     0
 10
70.467519968953596
 20
55.488071704326551
 30
0.0
 11
70.467519968953596
 21
43.312736836315707
 31
0.0
  0
LINE
  5
4FA
  8
2
 62
     0
 10
78.467519968953596
 20
55.488071704326551
 30
0.0
 11
78.467519968953596
 21
43.312736836315707
 31
0.0
  0
LINE
  5
4FB
  8
2
 62
     0
 10
72.967519968953596
 20
44.562736836315707
 30
0.0
 11
75.967519968953596
 21
44.562736836315707
 31
0.0
  0
SOLID
  5
4FC
  8
2
 62
     0
 10
72.967519968953596
 20
44.979403502982372
 30
0.0
 11
72.967519968953596
 21
44.146070169649043
 31
0.0
 12
70.467519968953596
 22
44.562736836315707
 32
0.0
 13
70.467519968953596
 23
44.562736836315707
 33
0.0
  0
SOLID
  5
4FD
  8
2
 62
     0
 10
75.967519968953596
 20
44.979403502982372
 30
0.0
 11
75.967519968953596
 21
44.146070169649043
 31
0.0
 12
78.467519968953596
 22
44.562736836315707
 32
0.0
 13
78.467519968953596
 23
44.562736836315707
 33
0.0
  0
INSERT
  5
4FE
  8
2
  2
*U13
 10
0.0
 20
0.0
 30
0.0
  0
POINT
  5
4FF
  8
DEFPOINTS
 62
     0
 10
70.467519968953596
 20
56.113071704326551
 30
0.0
  0
POINT
  5
500
  8
DEFPOINTS
 62
     0
 10
78.467519968953596
 20
56.113071704326551
 30
0.0
  0
POINT
  5
501
  8
DEFPOINTS
 62
     0
 10
78.467519968953596
 20
44.562736836315707
 30
0.0
  0
ENDBLK
  5
49B
  8
0
  0
BLOCK
  8
0
  2
*D6
 70
     1
 10
0.0
 20
0.0
 30
0.0
  3
*D6
  1

  0
LINE
  5
55E
  8
2
 62
     0
 10
78.092519968953596
 20
62.833671704326541
 30
0.0
 11
90.867686483497806
 21
62.833671704326541
 31
0.0
  0
LINE
  5
55F
  8
2
 62
     0
 10
78.092519968953596
 20
60.833671704326548
 30
0.0
 11
90.867686483497806
 21
60.833671704326541
 31
0.0
  0
LINE
  5
560
  8
2
 62
     0
 10
89.617686483497806
 20
65.333671704326534
 30
0.0
 11
89.617686483497806
 21
67.833671704326534
 31
0.0
  0
LINE
  5
561
  8
2
 62
     0
 10
89.617686483497806
 20
58.333671704326541
 30
0.0
 11
89.617686483497806
 21
52.756541894860021
 31
0.0
  0
LINE
  5
562
  8
2
 62
     0
 10
89.617686483497806
 20
62.833671704326541
 30
0.0
 11
89.617686483497806
 21
60.833671704326541
 31
0.0
  0
SOLID
  5
563
  8
2
 62
     0
 10
89.201019816831121
 20
65.333671704326534
 30
0.0
 11
90.034353150164463
 21
65.333671704326534
 31
0.0
 12
89.617686483497806
 22
62.833671704326541
 32
0.0
 13
89.617686483497806
 23
62.833671704326541
 33
0.0
  0
SOLID
  5
564
  8
2
 62
     0
 10
89.201019816831121
 20
58.333671704326541
 30
0.0
 11
90.034353150164463
 21
58.333671704326541
 31
0.0
 12
89.617686483497806
 22
60.833671704326541
 32
0.0
 13
89.617686483497806
 23
60.833671704326541
 33
0.0
  0
TEXT
  5
565
  8
2
 62
     0
 10
88.992686483497778
 20
53.381541894860028
 30
0.0
 40
2.5
  1
2
 50
90.0
  0
POINT
  5
566
  8
DEFPOINTS
 62
     0
 10
77.467519968953596
 20
62.833671704326541
 30
0.0
  0
POINT
  5
567
  8
DEFPOINTS
 62
     0
 10
77.467519968953596
 20
60.833671704326548
 30
0.0
  0
POINT
  5
568
  8
DEFPOINTS
 62
     0
 10
89.617686483497806
 20
60.833671704326541
 30
0.0
  0
ENDBLK
  5
4AA
  8
0
  0
BLOCK
  8
0
  2
*D7
 70
     1
 10
0.0
 20
0.0
 30
0.0
  3
*D7
  1

  0
LINE
  5
553
  8
2
 62
     0
 10
78.092519968953596
 20
62.833671704326541
 30
0.0
 11
94.83659793854828
 21
62.833671704326541
 31
0.0
  0
LINE
  5
554
  8
2
 62
     0
 10
78.092519968953596
 20
58.833671704326548
 30
0.0
 11
94.83659793854828
 21
58.833671704326541
 31
0.0
  0
LINE
  5
555
  8
2
 62
     0
 10
93.58659793854828
 20
65.333671704326534
 30
0.0
 11
93.58659793854828
 21
67.833671704326534
 31
0.0
  0
LINE
  5
556
  8
2
 62
     0
 10
93.58659793854828
 20
56.333671704326541
 30
0.0
 11
93.58659793854828
 21
50.77478124811077
 31
0.0
  0
LINE
  5
557
  8
2
 62
     0
 10
93.58659793854828
 20
62.833671704326541
 30
0.0
 11
93.58659793854828
 21
58.833671704326541
 31
0.0
  0
SOLID
  5
558
  8
2
 62
     0
 10
93.169931271881595
 20
65.333671704326534
 30
0.0
 11
94.003264605214966
 21
65.333671704326534
 31
0.0
 12
93.58659793854828
 22
62.833671704326541
 32
0.0
 13
93.58659793854828
 23
62.833671704326541
 33
0.0
  0
SOLID
  5
559
  8
2
 62
     0
 10
93.169931271881595
 20
56.333671704326541
 30
0.0
 11
94.003264605214966
 21
56.333671704326541
 31
0.0
 12
93.58659793854828
 22
58.833671704326541
 32
0.0
 13
93.58659793854828
 23
58.833671704326541
 33
0.0
  0
TEXT
  5
55A
  8
2
 62
     0
 10
92.961597938548266
 20
51.399781248110777
 30
0.0
 40
2.5
  1
4
 50
90.0
  0
POINT
  5
55B
  8
DEFPOINTS
 62
     0
 10
77.467519968953596
 20
62.833671704326541
 30
0.0
  0
POINT
  5
55C
  8
DEFPOINTS
 62
     0
 10
77.467519968953596
 20
58.833671704326548
 30
0.0
  0
POINT
  5
55D
  8
DEFPOINTS
 62
     0
 10
93.58659793854828
 20
58.833671704326541
 30
0.0
  0
ENDBLK
  5
4B9
  8
0
  0
BLOCK
  8
0
  2
*D8
 70
     1
 10
0.0
 20
0.0
 30
0.0
  3
*D8
  1

  0
LINE
  5
503
  8
2
 62
     0
 10
78.092519968953596
 20
62.833671704326541
 30
0.0
 11
100.484665036788
 21
62.833671704326541
 31
0.0
  0
LINE
  5
504
  8
2
 62
     0
 10
78.762819968953607
 20
55.833671704326548
 30
0.0
 11
100.484665036788
 21
55.833671704326541
 31
0.0
  0
LINE
  5
505
  8
2
 62
     0
 10
99.234665036788016
 20
65.333671704326534
 30
0.0
 11
99.234665036788016
 21
67.833671704326534
 31
0.0
  0
LINE
  5
506
  8
2
 62
     0
 10
99.234665036788016
 20
53.333671704326541
 30
0.0
 11
99.234665036788016
 21
50.833671704326541
 31
0.0
  0
LINE
  5
507
  8
2
 62
     0
 10
99.234665036788016
 20
62.833671704326541
 30
0.0
 11
99.234665036788016
 21
55.833671704326541
 31
0.0
  0
SOLID
  5
508
  8
2
 62
     0
 10
98.81799837012133
 20
65.333671704326534
 30
0.0
 11
99.651331703454673
 21
65.333671704326534
 31
0.0
 12
99.234665036788016
 22
62.833671704326541
 32
0.0
 13
99.234665036788016
 23
62.833671704326541
 33
0.0
  0
SOLID
  5
509
  8
2
 62
     0
 10
98.81799837012133
 20
53.333671704326541
 30
0.0
 11
99.651331703454673
 21
53.333671704326541
 31
0.0
 12
99.234665036788016
 22
55.833671704326541
 32
0.0
 13
99.234665036788016
 23
55.833671704326541
 33
0.0
  0
TEXT
  5
50A
  8
2
 62
     0
 10
98.609665036787987
 20
58.107278080671541
 30
0.0
 40
2.5
  1
7
 50
90.0
  0
POINT
  5
50B
  8
DEFPOINTS
 62
     0
 10
77.467519968953596
 20
62.833671704326541
 30
0.0
  0
POINT
  5
50C
  8
DEFPOINTS
 62
     0
 10
78.137819968953607
 20
55.833671704326548
 30
0.0
  0
POINT
  5
50D
  8
DEFPOINTS
 62
     0
 10
99.234665036788016
 20
55.833671704326541
 30
0.0
  0
ENDBLK
  5
4C6
  8
0
  0
BLOCK
  8
0
  2
*D9
 70
     1
 10
0.0
 20
0.0
 30
0.0
  3
*D9
  1

  0
LINE
  5
4CA
  8
2
 62
     0
 10
70.172219968953584
 20
55.833671704326548
 30
0.0
 11
62.80679424524169
 21
55.833671704326548
 31
0.0
  0
LINE
  5
4CB
  8
2
 62
     0
 10
72.842519968953596
 20
57.233671704326547
 30
0.0
 11
62.80679424524169
 21
57.233671704326547
 31
0.0
  0
LINE
  5
4CC
  8
2
 62
     0
 10
64.05679424524169
 20
53.333671704326548
 30
0.0
 11
64.05679424524169
 21
50.833671704326548
 31
0.0
  0
LINE
  5
4CD
  8
2
 62
     0
 10
64.05679424524169
 20
59.733671704326547
 30
0.0
 11
64.05679424524169
 21
67.650338370993211
 31
0.0
  0
LINE
  5
4CE
  8
2
 62
     0
 10
64.05679424524169
 20
55.833671704326548
 30
0.0
 11
64.05679424524169
 21
57.233671704326547
 31
0.0
  0
SOLID
  5
4CF
  8
2
 62
     0
 10
63.640127578575019
 20
53.333671704326548
 30
0.0
 11
64.473460911908361
 21
53.333671704326548
 31
0.0
 12
64.05679424524169
 22
55.833671704326548
 32
0.0
 13
64.05679424524169
 23
55.833671704326548
 33
0.0
  0
SOLID
  5
4D0
  8
2
 62
     0
 10
63.640127578575019
 20
59.733671704326547
 30
0.0
 11
64.473460911908361
 21
59.733671704326547
 31
0.0
 12
64.05679424524169
 22
57.233671704326547
 32
0.0
 13
64.05679424524169
 23
57.233671704326547
 33
0.0
  0
TEXT
  5
4D1
  8
2
 62
     0
 10
63.431794245241683
 20
62.858671704326561
 30
0.0
 40
2.5
  1
1.4
 50
90.0
  0
POINT
  5
4D2
  8
DEFPOINTS
 62
     0
 10
70.797219968953584
 20
55.833671704326548
 30
0.0
  0
POINT
  5
4D3
  8
DEFPOINTS
 62
     0
 10
73.467519968953596
 20
57.233671704326547
 30
0.0
  0
POINT
  5
4D4
  8
DEFPOINTS
 62
     0
 10
64.05679424524169
 20
57.233671704326547
 30
0.0
  0
ENDBLK
  5
4D6
  8
0
  0
BLOCK
  8
0
  2
*U10
 70
     1
 10
0.0
 20
0.0
 30
0.0
  3
*U10
  1

  0
TEXT
  5
5A8
  8
2
 62
     0
 10
72.384186635620253
 20
72.158223485559517
 30
0.0
 40
2.5
  1
\U+2205
  0
TEXT
  5
5A9
  8
2
 62
     0
 10
74.884186635620253
 20
72.158223485559517
 30
0.0
 40
2.5
  1
6
  0
ENDBLK
  5
5AB
  8
0
  0
BLOCK
  8
0
  2
*U11
 70
     1
 10
0.0
 20
0.0
 30
0.0
  3
*U11
  1

  0
TEXT
  5
5AD
  8
2
 62
     0
 10
82.092519968953596
 20
68.589342329160331
 30
0.0
 40
2.5
  1
\U+2205
  0
TEXT
  5
5AE
  8
2
 62
     0
 10
84.592519968953596
 20
68.589342329160331
 30
0.0
 40
2.5
  1
4
  0
ENDBLK
  5
5B0
  8
0
  0
BLOCK
  8
0
  2
*U12
 70
     1
 10
0.0
 20
0.0
 30
0.0
  3
*U12
  1

  0
TEXT
  5
5B2
  8
2
 62
     0
 10
81.092519968953596
 20
50.532427816721281
 30
0.0
 40
2.5
  1
\U+2205
  0
TEXT
  5
5B3
  8
2
 62
     0
 10
83.592519968953596
 20
50.532427816721281
 30
0.0
 40
2.5
  1
2
  0
ENDBLK
  5
5B5
  8
0
  0
BLOCK
  8
0
  2
*U13
 70
     1
 10
0.0
 20
0.0
 30
0.0
  3
*U13
  1

  0
TEXT
  5
5B7
  8
2
 62
     0
 10
72.384186635620253
 20
45.187736836315707
 30
0.0
 40
2.5
  1
\U+2205
  0
TEXT
  5
5B8
  8
2
 62
     0
 10
74.884186635620253
 20
45.187736836315707
 30
0.0
 40
2.5
  1
8
  0
ENDBLK
  5
5BA
  8
0
  0
BLOCK
  8
0
  2
*U14
 70
     1
 10
0.0
 20
0.0
 30
0.0
  3
*U14
  1

  0
TEXT
  5
5BC
  8
2
 62
     0
 10
72.384186635620253
 20
76.07167358902575
 30
0.0
 40
2.5
  1
\U+2205
  0
TEXT
  5
5BD
  8
2
 62
     0
 10
74.884186635620253
 20
76.07167358902575
 30
0.0
 40
2.5
  1
8
  0
ENDBLK
  5
5BF
  8
0
  0
ENDSEC
  0
SECTION
  2
ENTITIES
  0
TEXT
  5
DF
  8
2
 10
61.544381331855853
 20
31.280287668227629
 30
0.0
 40
2.5399440000000002
  1
No. 102.008.017._
 51
-0.0000015352344868
  7
\U+00C9L\U+00C9R_\U+00C2S\U+00C2V\U+00C2B\U+00C2N
  0
LINE
  5
180
  8
0
 39
2.5
 10
70.797219968953584
 20
55.833671704326548
 30
0.0
 11
74.467519968953596
 21
55.833671704326548
 31
0.0
  0
LINE
  5
184
  8
0
 39
2.5
 10
74.467519968953596
 20
62.833671704326541
 30
0.0
 11
70.784519968953589
 21
62.833671704326541
 31
0.0
  0
LINE
  5
185
  8
0
 39
2.5
 10
70.784519968953589
 20
62.833671704326541
 30
0.0
 11
70.784519968953589
 21
62.833671704326541
 31
0.0
  0
LINE
  5
186
  8
0
 39
2.5
 10
70.784519968953589
 20
62.833671704326541
 30
0.0
 11
70.747519968953583
 21
62.82572170432654
 31
0.0
  0
LINE
  5
187
  8
0
 39
2.5
 10
70.747519968953583
 20
62.82572170432654
 30
0.0
 11
70.712619968953575
 21
62.81632170432654
 31
0.0
  0
LINE
  5
188
  8
0
 39
2.5
 10
70.712619968953575
 20
62.81632170432654
 30
0.0
 11
70.679919968953584
 21
62.805271704326543
 31
0.0
  0
LINE
  5
189
  8
0
 39
2.5
 10
70.679919968953584
 20
62.805271704326543
 30
0.0
 11
70.649419968953595
 21
62.792721704326553
 31
0.0
  0
LINE
  5
18A
  8
0
 39
2.5
 10
70.649419968953595
 20
62.792721704326553
 30
0.0
 11
70.621269968953584
 21
62.778471704326549
 31
0.0
  0
LINE
  5
18B
  8
0
 39
2.5
 10
70.621269968953584
 20
62.778471704326549
 30
0.0
 11
70.595469968953594
 21
62.762621704326548
 31
0.0
  0
LINE
  5
18C
  8
0
 39
2.5
 10
70.595469968953594
 20
62.762621704326548
 30
0.0
 11
70.572119968953587
 21
62.74502170432654
 31
0.0
  0
LINE
  5
18D
  8
0
 39
2.5
 10
70.572119968953587
 20
62.74502170432654
 30
0.0
 11
70.551169968953587
 21
62.725671704326551
 31
0.0
  0
LINE
  5
18E
  8
0
 39
2.5
 10
70.551169968953587
 20
62.725671704326551
 30
0.0
 11
70.532819968953589
 21
62.704471704326536
 31
0.0
  0
LINE
  5
18F
  8
0
 39
2.5
 10
70.532819968953589
 20
62.704471704326536
 30
0.0
 11
70.517019968953605
 21
62.681521704326542
 31
0.0
  0
LINE
  5
190
  8
0
 39
2.5
 10
70.517019968953605
 20
62.681521704326542
 30
0.0
 11
70.503919968953596
 21
62.656671704326541
 31
0.0
  0
LINE
  5
191
  8
0
 39
2.5
 10
70.503919968953596
 20
62.656671704326541
 30
0.0
 11
70.493419968953589
 21
62.630021704326538
 31
0.0
  0
LINE
  5
192
  8
0
 39
2.5
 10
70.493419968953589
 20
62.630021704326538
 30
0.0
 11
70.467519968953596
 21
62.532854384064933
 31
0.0
  0
LINE
  5
19D
  8
0
 39
2.5
 10
70.467519968953596
 20
58.290903704326631
 30
0.0
 11
70.477319968953594
 21
58.18467170432654
 31
0.0
  0
LINE
  5
19E
  8
0
 39
2.5
 10
70.477319968953594
 20
58.18467170432654
 30
0.0
 11
70.4830699689536
 21
58.144771704326537
 31
0.0
  0
LINE
  5
19F
  8
0
 39
2.5
 10
70.4830699689536
 20
58.144771704326537
 30
0.0
 11
70.490869968953604
 21
58.106071704326538
 31
0.0
  0
LINE
  5
1A0
  8
0
 39
2.5
 10
70.490869968953604
 20
58.106071704326538
 30
0.0
 11
70.500969968953584
 21
58.068721704326542
 31
0.0
  0
LINE
  5
1A1
  8
0
 39
2.5
 10
70.500969968953584
 20
58.068721704326542
 30
0.0
 11
70.513369968953583
 21
58.033271704326552
 31
0.0
  0
LINE
  5
1A2
  8
0
 39
2.5
 10
70.513369968953583
 20
58.033271704326552
 30
0.0
 11
70.528319968953596
 21
58.000071704326537
 31
0.0
  0
LINE
  5
1A3
  8
0
 39
2.5
 10
70.528319968953596
 20
58.000071704326537
 30
0.0
 11
70.545819968953595
 21
57.969521704326539
 31
0.0
  0
LINE
  5
1A4
  8
0
 39
2.5
 10
70.545819968953595
 20
57.969521704326539
 30
0.0
 11
70.566169968953602
 21
57.941871704326537
 31
0.0
  0
LINE
  5
1A5
  8
0
 39
2.5
 10
70.566169968953602
 20
57.941871704326537
 30
0.0
 11
70.589319968953589
 21
57.917621704326542
 31
0.0
  0
LINE
  5
1A6
  8
0
 39
2.5
 10
70.589319968953589
 20
57.917621704326542
 30
0.0
 11
70.615569968953594
 21
57.897071704326549
 31
0.0
  0
LINE
  5
1A7
  8
0
 39
2.5
 10
70.615569968953594
 20
57.897071704326549
 30
0.0
 11
70.644819968953584
 21
57.880671704326538
 31
0.0
  0
LINE
  5
1A8
  8
0
 39
2.5
 10
70.644819968953584
 20
57.880671704326538
 30
0.0
 11
71.140119968953599
 21
57.60127170432655
 31
0.0
  0
LINE
  5
1A9
  8
0
 39
2.5
 10
71.140119968953599
 20
57.60127170432655
 30
0.0
 11
71.140119968953599
 21
57.60127170432655
 31
0.0
  0
LINE
  5
1AA
  8
0
 39
2.5
 10
71.140119968953599
 20
57.60127170432655
 30
0.0
 11
71.224219968953605
 21
57.551071704326553
 31
0.0
  0
LINE
  5
1AB
  8
0
 39
2.5
 10
71.224219968953605
 20
57.551071704326553
 30
0.0
 11
71.295769968953593
 21
57.500771704326539
 31
0.0
  0
LINE
  5
1AC
  8
0
 39
2.5
 10
71.295769968953593
 20
57.500771704326539
 30
0.0
 11
71.355519968953587
 21
57.450371704326542
 31
0.0
  0
LINE
  5
1AD
  8
0
 39
2.5
 10
71.355519968953587
 20
57.450371704326542
 30
0.0
 11
71.403869968953586
 21
57.400171704326539
 31
0.0
  0
LINE
  5
1AE
  8
0
 39
2.5
 10
71.403869968953586
 20
57.400171704326539
 30
0.0
 11
71.441719968953592
 21
57.350071704326552
 31
0.0
  0
LINE
  5
1AF
  8
0
 39
2.5
 10
71.441719968953592
 20
57.350071704326552
 30
0.0
 11
71.469469968953604
 21
57.300471704326547
 31
0.0
  0
LINE
  5
1B0
  8
0
 39
2.5
 10
71.469469968953604
 20
57.300471704326547
 30
0.0
 11
71.494380453085526
 21
57.233681741422402
 31
0.0
  0
LINE
  5
1B4
  8
0
 39
2.5
 10
71.492569968953603
 20
57.219971704326539
 30
0.0
 11
71.479419968953593
 21
57.17397170432654
 31
0.0
  0
LINE
  5
1B5
  8
0
 39
2.5
 10
71.479419968953593
 20
57.17397170432654
 30
0.0
 11
71.459869968953583
 21
57.129221704326547
 31
0.0
  0
LINE
  5
1B6
  8
0
 39
2.5
 10
71.459869968953583
 20
57.129221704326547
 30
0.0
 11
71.434619968953598
 21
57.085621704326549
 31
0.0
  0
LINE
  5
1B7
  8
0
 39
2.5
 10
71.434619968953598
 20
57.085621704326549
 30
0.0
 11
71.404269968953599
 21
57.043521704326537
 31
0.0
  0
LINE
  5
1B8
  8
0
 39
2.5
 10
71.404269968953599
 20
57.043521704326537
 30
0.0
 11
71.369419968953594
 21
57.002871704326537
 31
0.0
  0
LINE
  5
1B9
  8
0
 39
2.5
 10
71.369419968953594
 20
57.002871704326537
 30
0.0
 11
71.330619968953584
 21
56.963971704326539
 31
0.0
  0
LINE
  5
1BC
  8
0
 39
2.5
 10
70.797219968953584
 20
55.833671704326548
 30
0.0
 11
74.467519968953596
 21
55.833671704326548
 31
0.0
  0
LINE
  5
3A1
  8
1
 10
74.467519968953596
 20
63.333671704326548
 30
0.0
 11
74.467519968953596
 21
55.333671704326541
 31
0.0
  0
LINE
  5
3B4
  8
0
 10
72.467519968953596
 20
62.833671704326541
 30
0.0
 11
72.467519968953596
 21
60.833671704326548
 31
0.0
  0
LINE
  5
3B5
  8
0
 10
71.467519968953596
 20
60.833671704326548
 30
0.0
 11
71.467519968953596
 21
58.833671704326548
 31
0.0
  0
LINE
  5
3B6
  8
0
 10
73.467519968953596
 20
58.833671704326548
 30
0.0
 11
73.467519968953596
 21
57.233671704326547
 31
0.0
  0
LINE
  5
3B9
  8
0
 10
74.467519968953596
 20
60.833671704326548
 30
0.0
 11
71.467519968953596
 21
60.833671704326548
 31
0.0
  0
LINE
  5
3BC
  8
0
 10
73.467519968953596
 20
57.233671704326547
 30
0.0
 11
74.467519968953596
 21
57.233671704326547
 31
0.0
  0
LINE
  5
3BE
  8
0
 10
71.467519968953596
 20
58.833671704326548
 30
0.0
 11
74.467519968953596
 21
58.833671704326548
 31
0.0
  0
LINE
  5
3C2
  8
0
 10
73.467519968953596
 20
57.233671704326547
 30
0.0
 11
70.797219968953584
 21
55.833671704326548
 31
0.0
  0
LINE
  5
3C8
  8
0
 10
71.494380453085526
 20
57.233681741422402
 30
0.0
 11
71.492569968953603
 21
57.219971704326539
 31
0.0
  0
LINE
  5
3CA
  8
0
 10
70.467519968953596
 20
58.290903704326631
 30
0.0
 11
70.467519968953596
 21
62.532854384064933
 31
0.0
  0
LINE
  5
3F7
  8
0
 10
70.797219968953584
 20
55.833671704326548
 30
0.0
 11
70.467519968953596
 21
56.113071704326551
 31
0.0
  0
LINE
  5
3F8
  8
0
 10
71.330619968953584
 20
56.963971704326539
 30
0.0
 11
70.467519968953596
 21
56.113071704326551
 31
0.0
  0
LINE
  5
417
  8
0
 39
2.5
 10
78.137819968953607
 20
55.833671704326548
 30
0.0
 11
74.467519968953596
 21
55.833671704326548
 31
0.0
  0
LINE
  5
418
  8
0
 39
2.5
 10
77.565619968953598
 20
57.002871704326537
 30
0.0
 11
77.604419968953607
 21
56.963971704326539
 31
0.0
  0
LINE
  5
419
  8
0
 39
2.5
 10
77.530769968953592
 20
57.043521704326537
 30
0.0
 11
77.565619968953598
 21
57.002871704326537
 31
0.0
  0
LINE
  5
41A
  8
0
 39
2.5
 10
77.500419968953594
 20
57.085621704326549
 30
0.0
 11
77.530769968953592
 21
57.043521704326537
 31
0.0
  0
LINE
  5
41B
  8
0
 39
2.5
 10
77.475169968953594
 20
57.129221704326547
 30
0.0
 11
77.500419968953594
 21
57.085621704326549
 31
0.0
  0
LINE
  5
41C
  8
0
 39
2.5
 10
77.455619968953599
 20
57.17397170432654
 30
0.0
 11
77.475169968953594
 21
57.129221704326547
 31
0.0
  0
LINE
  5
41D
  8
0
 39
2.5
 10
77.442469968953588
 20
57.219971704326539
 30
0.0
 11
77.455619968953599
 21
57.17397170432654
 31
0.0
  0
LINE
  5
41E
  8
0
 39
2.5
 10
77.465569968953588
 20
57.300471704326547
 30
0.0
 11
77.440659484821666
 21
57.233681741422402
 31
0.0
  0
LINE
  5
41F
  8
0
 39
2.5
 10
77.4933199689536
 20
57.350071704326552
 30
0.0
 11
77.465569968953588
 21
57.300471704326547
 31
0.0
  0
LINE
  5
420
  8
0
 39
2.5
 10
77.531169968953606
 20
57.400171704326539
 30
0.0
 11
77.4933199689536
 21
57.350071704326552
 31
0.0
  0
LINE
  5
421
  8
0
 39
2.5
 10
77.579519968953605
 20
57.450371704326542
 30
0.0
 11
77.531169968953606
 21
57.400171704326539
 31
0.0
  0
LINE
  5
422
  8
0
 39
2.5
 10
77.639269968953599
 20
57.500771704326539
 30
0.0
 11
77.579519968953605
 21
57.450371704326542
 31
0.0
  0
LINE
  5
423
  8
0
 39
2.5
 10
77.710819968953587
 20
57.551071704326553
 30
0.0
 11
77.639269968953599
 21
57.500771704326539
 31
0.0
  0
LINE
  5
424
  8
0
 39
2.5
 10
77.794919968953593
 20
57.60127170432655
 30
0.0
 11
77.710819968953587
 21
57.551071704326553
 31
0.0
  0
LINE
  5
425
  8
0
 39
2.5
 10
77.794919968953593
 20
57.60127170432655
 30
0.0
 11
77.794919968953593
 21
57.60127170432655
 31
0.0
  0
LINE
  5
426
  8
0
 39
2.5
 10
78.290219968953593
 20
57.880671704326538
 30
0.0
 11
77.794919968953593
 21
57.60127170432655
 31
0.0
  0
LINE
  5
427
  8
0
 39
2.5
 10
78.319469968953598
 20
57.897071704326549
 30
0.0
 11
78.290219968953593
 21
57.880671704326538
 31
0.0
  0
LINE
  5
428
  8
0
 39
2.5
 10
78.345719968953603
 20
57.917621704326542
 30
0.0
 11
78.319469968953598
 21
57.897071704326549
 31
0.0
  0
LINE
  5
429
  8
0
 39
2.5
 10
78.368869968953575
 20
57.941871704326537
 30
0.0
 11
78.345719968953603
 21
57.917621704326542
 31
0.0
  0
LINE
  5
42A
  8
0
 39
2.5
 10
78.389219968953597
 20
57.969521704326539
 30
0.0
 11
78.368869968953575
 21
57.941871704326537
 31
0.0
  0
LINE
  5
42B
  8
0
 39
2.5
 10
78.406719968953595
 20
58.000071704326537
 30
0.0
 11
78.389219968953597
 21
57.969521704326539
 31
0.0
  0
LINE
  5
42C
  8
0
 39
2.5
 10
78.421669968953609
 20
58.033271704326552
 30
0.0
 11
78.406719968953595
 21
58.000071704326537
 31
0.0
  0
LINE
  5
42D
  8
0
 39
2.5
 10
78.434069968953594
 20
58.068721704326542
 30
0.0
 11
78.421669968953609
 21
58.033271704326552
 31
0.0
  0
LINE
  5
42E
  8
0
 39
2.5
 10
78.444169968953574
 20
58.106071704326538
 30
0.0
 11
78.434069968953594
 21
58.068721704326542
 31
0.0
  0
LINE
  5
42F
  8
0
 39
2.5
 10
78.451969968953591
 20
58.144771704326537
 30
0.0
 11
78.444169968953574
 21
58.106071704326538
 31
0.0
  0
LINE
  5
430
  8
0
 39
2.5
 10
78.457719968953597
 20
58.18467170432654
 30
0.0
 11
78.451969968953591
 21
58.144771704326537
 31
0.0
  0
LINE
  5
431
  8
0
 39
2.5
 10
78.467519968953596
 20
58.290903704326631
 30
0.0
 11
78.457719968953597
 21
58.18467170432654
 31
0.0
  0
LINE
  5
432
  8
0
 39
2.5
 10
78.441619968953603
 20
62.630021704326538
 30
0.0
 11
78.467519968953596
 21
62.532854384064933
 31
0.0
  0
LINE
  5
433
  8
0
 39
2.5
 10
78.431119968953595
 20
62.656671704326541
 30
0.0
 11
78.441619968953603
 21
62.630021704326538
 31
0.0
  0
LINE
  5
434
  8
0
 39
2.5
 10
78.418019968953587
 20
62.681521704326542
 30
0.0
 11
78.431119968953595
 21
62.656671704326541
 31
0.0
  0
LINE
  5
435
  8
0
 39
2.5
 10
78.402219968953602
 20
62.704471704326536
 30
0.0
 11
78.418019968953587
 21
62.681521704326542
 31
0.0
  0
LINE
  5
436
  8
0
 39
2.5
 10
78.383869968953604
 20
62.725671704326551
 30
0.0
 11
78.402219968953602
 21
62.704471704326536
 31
0.0
  0
LINE
  5
437
  8
0
 39
2.5
 10
78.362919968953605
 20
62.74502170432654
 30
0.0
 11
78.383869968953604
 21
62.725671704326551
 31
0.0
  0
LINE
  5
438
  8
0
 39
2.5
 10
78.339569968953583
 20
62.762621704326548
 30
0.0
 11
78.362919968953605
 21
62.74502170432654
 31
0.0
  0
LINE
  5
439
  8
0
 39
2.5
 10
78.313769968953608
 20
62.778471704326549
 30
0.0
 11
78.339569968953583
 21
62.762621704326548
 31
0.0
  0
LINE
  5
43A
  8
0
 39
2.5
 10
78.285619968953597
 20
62.792721704326553
 30
0.0
 11
78.313769968953608
 21
62.778471704326549
 31
0.0
  0
LINE
  5
43B
  8
0
 39
2.5
 10
78.255119968953608
 20
62.805271704326543
 30
0.0
 11
78.285619968953597
 21
62.792721704326553
 31
0.0
  0
LINE
  5
43C
  8
0
 39
2.5
 10
78.222419968953602
 20
62.81632170432654
 30
0.0
 11
78.255119968953608
 21
62.805271704326543
 31
0.0
  0
LINE
  5
43D
  8
0
 39
2.5
 10
78.187519968953609
 20
62.82572170432654
 30
0.0
 11
78.222419968953602
 21
62.81632170432654
 31
0.0
  0
LINE
  5
43E
  8
0
 39
2.5
 10
78.150519968953603
 20
62.833671704326541
 30
0.0
 11
78.187519968953609
 21
62.82572170432654
 31
0.0
  0
LINE
  5
43F
  8
0
 39
2.5
 10
78.150519968953603
 20
62.833671704326541
 30
0.0
 11
78.150519968953603
 21
62.833671704326541
 31
0.0
  0
LINE
  5
440
  8
0
 39
2.5
 10
74.467519968953596
 20
62.833671704326541
 30
0.0
 11
78.150519968953603
 21
62.833671704326541
 31
0.0
  0
LINE
  5
441
  8
0
 39
2.5
 10
78.137819968953607
 20
55.833671704326548
 30
0.0
 11
74.467519968953596
 21
55.833671704326548
 31
0.0
  0
LINE
  5
442
  8
0
 10
77.604419968953607
 20
56.963971704326539
 30
0.0
 11
78.467519968953596
 21
56.113071704326551
 31
0.0
  0
LINE
  5
443
  8
0
 10
78.137819968953607
 20
55.833671704326548
 30
0.0
 11
78.467519968953596
 21
56.113071704326551
 31
0.0
  0
LINE
  5
444
  8
0
 10
78.467519968953596
 20
58.290903704326631
 30
0.0
 11
78.467519968953596
 21
62.532854384064933
 31
0.0
  0
LINE
  5
445
  8
0
 10
76.467519968953596
 20
62.833671704326541
 30
0.0
 11
76.467519968953596
 21
60.833671704326548
 31
0.0
  0
LINE
  5
446
  8
0
 10
77.440659484821666
 20
57.233681741422402
 30
0.0
 11
77.442469968953588
 21
57.219971704326539
 31
0.0
  0
LINE
  5
447
  8
0
 10
75.467519968953596
 20
57.233671704326547
 30
0.0
 11
78.137819968953607
 21
55.833671704326548
 31
0.0
  0
LINE
  5
448
  8
0
 10
77.467519968953596
 20
58.833671704326548
 30
0.0
 11
74.467519968953596
 21
58.833671704326548
 31
0.0
  0
LINE
  5
449
  8
0
 10
75.467519968953596
 20
57.233671704326547
 30
0.0
 11
74.467519968953596
 21
57.233671704326547
 31
0.0
  0
LINE
  5
44A
  8
0
 10
74.467519968953596
 20
60.833671704326548
 30
0.0
 11
77.467519968953596
 21
60.833671704326548
 31
0.0
  0
LINE
  5
44B
  8
0
 10
75.467519968953596
 20
58.833671704326548
 30
0.0
 11
75.467519968953596
 21
57.233671704326547
 31
0.0
  0
LINE
  5
44C
  8
0
 10
77.467519968953596
 20
60.833671704326548
 30
0.0
 11
77.467519968953596
 21
58.833671704326548
 31
0.0
  0
DIMENSION
  5
453
  8
2
  2
*D1
 10
76.467519968953596
 20
67.964342329160331
 30
0.0
 11
84.175853302286924
 21
69.839342329160331
 31
0.0
 70
     0
  1
%%c<>
 13
72.467519968953596
 23
62.833671704326541
 33
0.0
 14
76.467519968953596
 24
62.833671704326541
 34
0.0
  0
DIMENSION
  5
462
  8
2
  2
*D2
 10
77.467519968953596
 20
71.533223485559517
 30
0.0
 11
74.467519968953596
 21
73.408223485559517
 31
0.0
 70
     0
  1
%%c<>
 13
71.467519968953596
 23
60.833671704326548
 33
0.0
 14
77.467519968953596
 24
60.833671704326548
 34
0.0
  0
DIMENSION
  5
471
  8
2
  2
*D3
 10
78.467519968953596
 20
75.44667358902575
 30
0.0
 11
74.467519968953596
 21
77.32167358902575
 31
0.0
 70
     0
  1
%%c<>
 13
70.467519968953596
 23
62.532854384064933
 33
0.0
 14
78.467519968953596
 24
62.532854384064933
 34
0.0
  0
DIMENSION
  5
480
  8
2
  2
*D4
 10
75.467519968953596
 20
49.907427816721281
 30
0.0
 11
83.175853302286924
 21
51.782427816721281
 31
0.0
 70
     0
  1
%%c<>
 13
73.467519968953596
 23
57.233671704326547
 33
0.0
 14
75.467519968953596
 24
57.233671704326547
 34
0.0
  0
DIMENSION
  5
48F
  8
2
  2
*D5
 10
78.467519968953596
 20
44.562736836315707
 30
0.0
 11
74.467519968953596
 21
46.437736836315707
 31
0.0
 70
     0
  1
%%c<>
 13
70.467519968953596
 23
56.113071704326551
 33
0.0
 14
78.467519968953596
 24
56.113071704326551
 34
0.0
  0
DIMENSION
  5
49C
  8
2
  2
*D6
 10
89.617686483497806
 20
60.833671704326541
 30
0.0
 11
89.617686483497778
 21
54.214875228193371
 31
0.0
 70
   128
 13
77.467519968953596
 23
62.833671704326541
 33
0.0
 14
77.467519968953596
 24
60.833671704326548
 34
0.0
 50
90.0
  0
DIMENSION
  5
4AB
  8
2
  2
*D7
 10
93.58659793854828
 20
58.833671704326541
 30
0.0
 11
93.586597938548266
 21
52.23311458144412
 31
0.0
 70
   128
 13
77.467519968953596
 23
62.833671704326541
 33
0.0
 14
77.467519968953596
 24
58.833671704326548
 34
0.0
 50
90.0
  0
DIMENSION
  5
4BA
  8
2
  2
*D8
 10
99.234665036788016
 20
55.833671704326541
 30
0.0
 11
99.234665036787987
 21
58.940611414004877
 31
0.0
 70
   128
 13
77.467519968953596
 23
62.833671704326541
 33
0.0
 14
78.137819968953607
 24
55.833671704326548
 34
0.0
 50
90.0
  0
DIMENSION
  5
4C8
  8
2
  2
*D9
 10
64.05679424524169
 20
57.233671704326547
 30
0.0
 11
62.181794245241683
 21
64.942005037659897
 31
0.0
 70
     0
 13
70.797219968953584
 23
55.833671704326548
 33
0.0
 14
73.467519968953596
 24
57.233671704326547
 34
0.0
 50
90.0
  0
ENDSEC
  0
EOF
