  0
SECTION
  2
HEADER
  9
$ACADVER
  1
AC1009
  9
$INSBASE
 10
0.0
 20
0.0
 30
0.0
  9
$EXTMIN
 10
60.53019116881277
 20
46.656121564677989
 30
0.0
  9
$EXTMAX
 10
108.28109478149
 20
98.707761422095828
 30
3.3600508814300709
  9
$LIMMIN
 10
0.0
 20
0.0
  9
$LIMMAX
 10
420.0
 20
297.0
  9
$ORTHOMODE
 70
     0
  9
$REGENMODE
 70
     1
  9
$FILLMODE
 70
     1
  9
$QTEXTMODE
 70
     0
  9
$MIRRTEXT
 70
     1
  9
$DRAGMODE
 70
     2
  9
$LTSCALE
 40
0.3
  9
$OSMODE
 70
    37
  9
$ATTMODE
 70
     1
  9
$TEXTSIZE
 40
2.5
  9
$TRACEWID
 40
1.0
  9
$TEXTSTYLE
  7
STANDARD
  9
$CLAYER
  8
2
  9
$CELTYPE
  6
BYLAYER
  9
$CECOLOR
 62
   256
  9
$DIMSCALE
 40
1.0
  9
$DIMASZ
 40
2.5
  9
$DIMEXO
 40
0.625
  9
$DIMDLI
 40
3.75
  9
$DIMRND
 40
0.0
  9
$DIMDLE
 40
0.0
  9
$DIMEXE
 40
1.25
  9
$DIMTP
 40
0.0
  9
$DIMTM
 40
0.0
  9
$DIMTXT
 40
2.5
  9
$DIMCEN
 40
2.5
  9
$DIMTSZ
 40
0.0
  9
$DIMTOL
 70
     0
  9
$DIMLIM
 70
     0
  9
$DIMTIH
 70
     0
  9
$DIMTOH
 70
     0
  9
$DIMSE1
 70
     0
  9
$DIMSE2
 70
     0
  9
$DIMTAD
 70
     1
  9
$DIMZIN
 70
     8
  9
$DIMBLK
  1

  9
$DIMASO
 70
     1
  9
$DIMSHO
 70
     1
  9
$DIMPOST
  1

  9
$DIMAPOST
  1

  9
$DIMALT
 70
     0
  9
$DIMALTD
 70
     3
  9
$DIMALTF
 40
0.03937007874016
  9
$DIMLFAC
 40
1.0
  9
$DIMTOFL
 70
     1
  9
$DIMTVP
 40
0.0
  9
$DIMTIX
 70
     0
  9
$DIMSOXD
 70
     0
  9
$DIMSAH
 70
     0
  9
$DIMBLK1
  1

  9
$DIMBLK2
  1

  9
$DIMSTYLE
  2
ISO-25
  9
$DIMCLRD
 70
     0
  9
$DIMCLRE
 70
     0
  9
$DIMCLRT
 70
     0
  9
$DIMTFAC
 40
1.0
  9
$DIMGAP
 40
0.625
  9
$LUNITS
 70
     2
  9
$LUPREC
 70
     4
  9
$SKETCHINC
 40
1.0
  9
$FILLETRAD
 40
10.0
  9
$AUNITS
 70
     0
  9
$AUPREC
 70
     0
  9
$MENU
  1
.
  9
$ELEVATION
 40
0.0
  9
$PELEVATION
 40
0.0
  9
$THICKNESS
 40
0.0
  9
$LIMCHECK
 70
     0
  9
$BLIPMODE
 70
     0
  9
$CHAMFERA
 40
10.0
  9
$CHAMFERB
 40
10.0
  9
$SKPOLY
 70
     0
  9
$TDCREATE
 40
2453434.5389932641
  9
$TDUPDATE
 40
2453551.897562257
  9
$TDINDWG
 40
0.0397337731
  9
$TDUSRTIMER
 40
0.0397337731
  9
$USRTIMER
 70
     1
  9
$ANGBASE
 50
0.0
  9
$ANGDIR
 70
     0
  9
$PDMODE
 70
     0
  9
$PDSIZE
 40
0.0
  9
$PLINEWID
 40
0.0
  9
$COORDS
 70
     1
  9
$SPLFRAME
 70
     0
  9
$SPLINETYPE
 70
     6
  9
$SPLINESEGS
 70
     8
  9
$ATTDIA
 70
     0
  9
$ATTREQ
 70
     1
  9
$HANDLING
 70
-16383
  9
$HANDSEED
  5
568
  9
$SURFTAB1
 70
     6
  9
$SURFTAB2
 70
     6
  9
$SURFTYPE
 70
     6
  9
$SURFU
 70
     6
  9
$SURFV
 70
     6
  9
$UCSNAME
  2

  9
$UCSORG
 10
0.0
 20
0.0
 30
0.0
  9
$UCSXDIR
 10
1.0
 20
0.0
 30
0.0
  9
$UCSYDIR
 10
0.0
 20
1.0
 30
0.0
  9
$PUCSNAME
  2

  9
$PUCSORG
 10
0.0
 20
0.0
 30
0.0
  9
$PUCSXDIR
 10
1.0
 20
0.0
 30
0.0
  9
$PUCSYDIR
 10
0.0
 20
1.0
 30
0.0
  9
$USERI1
 70
     0
  9
$USERI2
 70
     0
  9
$USERI3
 70
     0
  9
$USERI4
 70
     0
  9
$USERI5
 70
     0
  9
$USERR1
 40
0.0
  9
$USERR2
 40
0.0
  9
$USERR3
 40
0.0
  9
$USERR4
 40
0.0
  9
$USERR5
 40
0.0
  9
$WORLDVIEW
 70
     1
  9
$SHADEDGE
 70
     3
  9
$SHADEDIF
 70
    70
  9
$TILEMODE
 70
     1
  9
$MAXACTVP
 70
    64
  9
$PLIMCHECK
 70
     0
  9
$PEXTMIN
 10
1.0000000000000000E+020
 20
1.0000000000000000E+020
 30
1.0000000000000000E+020
  9
$PEXTMAX
 10
-1.0000000000000000E+020
 20
-1.0000000000000000E+020
 30
-1.0000000000000000E+020
  9
$PLIMMIN
 10
0.0
 20
0.0
  9
$PLIMMAX
 10
420.0
 20
297.0
  9
$UNITMODE
 70
     0
  9
$VISRETAIN
 70
     1
  9
$PLINEGEN
 70
     0
  9
$PSLTSCALE
 70
     1
  0
ENDSEC
  0
SECTION
  2
TABLES
  0
TABLE
  2
VPORT
 70
     2
  0
VPORT
  2
*ACTIVE
 70
     0
 10
0.0
 20
0.0
 11
1.0
 21
1.0
 12
113.2635230583209
 22
78.263414263028778
 13
0.0
 23
0.0
 14
10.0
 24
10.0
 15
10.0
 25
10.0
 16
0.0
 26
0.0
 36
1.0
 17
0.0
 27
0.0
 37
0.0
 40
87.744348009145028
 41
2.5392405063291141
 42
50.0
 43
0.0
 44
0.0
 50
0.0
 51
0.0
 71
     0
 72
   100
 73
     1
 74
     3
 75
     0
 76
     0
 77
     0
 78
     0
  0
ENDTAB
  0
TABLE
  2
LTYPE
 70
     2
  0
LTYPE
  2
CONTINUOUS
 70
     0
  3
Solid line
 72
    65
 73
     0
 40
0.0
  0
LTYPE
  2
CENTER
 70
     0
  3
Center ____ _ ____ _ ____ _ ____ _ ____ _ ____
 72
    65
 73
     4
 40
50.799999999999997
 49
31.75
 49
-6.3499999999999988
 49
6.3499999999999988
 49
-6.3499999999999988
  0
ENDTAB
  0
TABLE
  2
LAYER
 70
     4
  0
LAYER
  2
0
 70
     0
 62
     7
  6
CONTINUOUS
  0
LAYER
  2
1
 70
     0
 62
     7
  6
CENTER
  0
LAYER
  2
DEFPOINTS
 70
     0
 62
     7
  6
CONTINUOUS
  0
LAYER
  2
2
 70
     0
 62
     7
  6
CONTINUOUS
  0
ENDTAB
  0
TABLE
  2
STYLE
 70
     3
  0
STYLE
  2
STANDARD
 70
     0
 40
0.0
 41
1.0
 50
0.0
 71
     0
 42
2.5
  3
txt
  4

  0
STYLE
  2
\U+00C9L\U+00C9R_\U+00C2S\U+00C2V\U+00C2B\U+00C2N
 70
     0
 40
1.0
 41
1.0
 50
0.0
 71
     0
 42
1.0
  3
\U+00E9l\U+00E9r \U+00E2S\U+00E2V\U+00E2b\U+00E2N
  4

  0
STYLE
  2

 70
     1
 40
0.0
 41
1.0
 50
0.0
 71
     0
 42
2.5
  3
ltypeshp.shx
  4

  0
ENDTAB
  0
TABLE
  2
VIEW
 70
     0
  0
ENDTAB
  0
TABLE
  2
UCS
 70
     0
  0
ENDTAB
  0
TABLE
  2
APPID
 70
     1
  0
APPID
  2
ACAD
 70
     0
  0
ENDTAB
  0
TABLE
  2
DIMSTYLE
 70
     2
  0
DIMSTYLE
  2
ISO-25
 70
     0
  3

  4

  5

  6

  7

 40
1.0
 41
2.5
 42
0.625
 43
3.75
 44
1.25
 45
0.0
 46
0.0
 47
0.0
 48
0.0
140
2.5
141
2.5
142
0.0
143
0.03937007874016
144
1.0
145
0.0
146
1.0
147
0.625
 71
     0
 72
     0
 73
     0
 74
     0
 75
     0
 76
     0
 77
     1
 78
     8
170
     0
171
     3
172
     1
173
     0
174
     0
175
     0
176
     0
177
     0
178
     0
  0
DIMSTYLE
  2
STANDARD
 70
     0
  3

  4

  5

  6

  7

 40
1.0
 41
0.18
 42
0.0625
 43
0.38
 44
0.18
 45
0.0
 46
0.0
 47
0.0
 48
0.0
140
0.18
141
0.09
142
0.0
143
25.399999999999999
144
1.0
145
0.0
146
1.0
147
0.09
 71
     0
 72
     0
 73
     1
 74
     1
 75
     0
 76
     0
 77
     0
 78
     0
170
     0
171
     2
172
     0
173
     0
174
     0
175
     0
176
     0
177
     0
178
     0
  0
ENDTAB
  0
ENDSEC
  0
SECTION
  2
BLOCKS
  0
BLOCK
  8
0
  2
$MODEL_SPACE
 70
     0
 10
0.0
 20
0.0
 30
0.0
  3
$MODEL_SPACE
  1

  0
ENDBLK
  5
21
  8
0
  0
BLOCK
 67
     1
  8
0
  2
$PAPER_SPACE
 70
     0
 10
0.0
 20
0.0
 30
0.0
  3
$PAPER_SPACE
  1

  0
ENDBLK
  5
1D
 67
     1
  8
0
  0
BLOCK
  8
0
  2
*D1
 70
     1
 10
0.0
 20
0.0
 30
0.0
  3
*D1
  1

  0
LINE
  5
511
  8
2
 62
     0
 10
77.93153803721151
 20
81.778624212740624
 30
0.0
 11
77.93153803721151
 21
89.00100235086714
 31
0.0
  0
LINE
  5
512
  8
2
 62
     0
 10
82.43153803721151
 20
81.778624212740624
 30
0.0
 11
82.43153803721151
 21
89.00100235086714
 31
0.0
  0
LINE
  5
513
  8
2
 62
     0
 10
75.43153803721151
 20
87.75100235086714
 30
0.0
 11
72.93153803721151
 21
87.75100235086714
 31
0.0
  0
LINE
  5
514
  8
2
 62
     0
 10
84.93153803721151
 20
87.75100235086714
 30
0.0
 11
96.18153803721151
 21
87.75100235086714
 31
0.0
  0
LINE
  5
515
  8
2
 62
     0
 10
77.93153803721151
 20
87.75100235086714
 30
0.0
 11
82.43153803721151
 21
87.75100235086714
 31
0.0
  0
SOLID
  5
516
  8
2
 62
     0
 10
75.43153803721151
 20
88.167669017533797
 30
0.0
 11
75.43153803721151
 21
87.334335684200454
 31
0.0
 12
77.93153803721151
 22
87.75100235086714
 32
0.0
 13
77.93153803721151
 23
87.75100235086714
 33
0.0
  0
SOLID
  5
517
  8
2
 62
     0
 10
84.93153803721151
 20
88.167669017533797
 30
0.0
 11
84.93153803721151
 21
87.334335684200454
 31
0.0
 12
82.43153803721151
 22
87.75100235086714
 32
0.0
 13
82.43153803721151
 23
87.75100235086714
 33
0.0
  0
INSERT
  5
518
  8
2
  2
*U10
 10
0.0
 20
0.0
 30
0.0
  0
POINT
  5
519
  8
DEFPOINTS
 62
     0
 10
77.93153803721151
 20
81.153624212740624
 30
0.0
  0
POINT
  5
51A
  8
DEFPOINTS
 62
     0
 10
82.43153803721151
 20
81.153624212740624
 30
0.0
  0
POINT
  5
51B
  8
DEFPOINTS
 62
     0
 10
82.43153803721151
 20
87.75100235086714
 30
0.0
  0
ENDBLK
  5
485
  8
0
  0
BLOCK
  8
0
  2
*D2
 70
     1
 10
0.0
 20
0.0
 30
0.0
  3
*D2
  1

  0
LINE
  5
508
  8
2
 62
     0
 10
76.18153803721151
 20
77.478624212740627
 30
0.0
 11
76.18153803721151
 21
92.945119816819783
 31
0.0
  0
LINE
  5
509
  8
2
 62
     0
 10
84.181538037211524
 20
77.478624212740627
 30
0.0
 11
84.181538037211524
 21
92.945119816819783
 31
0.0
  0
LINE
  5
50A
  8
2
 62
     0
 10
78.68153803721151
 20
91.695119816819783
 30
0.0
 11
81.681538037211524
 21
91.695119816819783
 31
0.0
  0
SOLID
  5
50B
  8
2
 62
     0
 10
78.68153803721151
 20
92.111786483486455
 30
0.0
 11
78.68153803721151
 21
91.278453150153126
 31
0.0
 12
76.18153803721151
 22
91.695119816819783
 32
0.0
 13
76.18153803721151
 23
91.695119816819783
 33
0.0
  0
SOLID
  5
50C
  8
2
 62
     0
 10
81.681538037211524
 20
92.111786483486455
 30
0.0
 11
81.681538037211524
 21
91.278453150153126
 31
0.0
 12
84.181538037211524
 22
91.695119816819783
 32
0.0
 13
84.181538037211524
 23
91.695119816819783
 33
0.0
  0
INSERT
  5
50D
  8
2
  2
*U9
 10
0.0
 20
0.0
 30
0.0
  0
POINT
  5
50E
  8
DEFPOINTS
 62
     0
 10
76.18153803721151
 20
76.853624212740627
 30
0.0
  0
POINT
  5
50F
  8
DEFPOINTS
 62
     0
 10
84.181538037211524
 20
76.853624212740627
 30
0.0
  0
POINT
  5
510
  8
DEFPOINTS
 62
     0
 10
84.181538037211524
 20
91.695119816819783
 30
0.0
  0
ENDBLK
  5
493
  8
0
  0
BLOCK
  8
0
  2
*D3
 70
     1
 10
0.0
 20
0.0
 30
0.0
  3
*D3
  1

  0
LINE
  5
4FF
  8
2
 62
     0
 10
75.18153803721151
 20
81.778624212740624
 30
0.0
 11
75.18153803721151
 21
96.832761422095814
 31
0.0
  0
LINE
  5
500
  8
2
 62
     0
 10
85.18153803721151
 20
81.778624212740624
 30
0.0
 11
85.18153803721151
 21
96.832761422095814
 31
0.0
  0
LINE
  5
501
  8
2
 62
     0
 10
77.68153803721151
 20
95.582761422095814
 30
0.0
 11
82.68153803721151
 21
95.582761422095814
 31
0.0
  0
SOLID
  5
502
  8
2
 62
     0
 10
77.68153803721151
 20
95.999428088762485
 30
0.0
 11
77.68153803721151
 21
95.166094755429143
 31
0.0
 12
75.18153803721151
 22
95.582761422095814
 32
0.0
 13
75.18153803721151
 23
95.582761422095814
 33
0.0
  0
SOLID
  5
503
  8
2
 62
     0
 10
82.68153803721151
 20
95.999428088762485
 30
0.0
 11
82.68153803721151
 21
95.166094755429143
 31
0.0
 12
85.18153803721151
 22
95.582761422095814
 32
0.0
 13
85.18153803721151
 23
95.582761422095814
 33
0.0
  0
INSERT
  5
504
  8
2
  2
*U8
 10
0.0
 20
0.0
 30
0.0
  0
POINT
  5
505
  8
DEFPOINTS
 62
     0
 10
75.18153803721151
 20
81.153624212740624
 30
0.0
  0
POINT
  5
506
  8
DEFPOINTS
 62
     0
 10
85.18153803721151
 20
81.153624212740624
 30
0.0
  0
POINT
  5
507
  8
DEFPOINTS
 62
     0
 10
85.18153803721151
 20
95.582761422095814
 30
0.0
  0
ENDBLK
  5
4A0
  8
0
  0
BLOCK
  8
0
  2
*D4
 70
     1
 10
0.0
 20
0.0
 30
0.0
  3
*D4
  1

  0
LINE
  5
4BE
  8
2
 62
     0
 10
84.81776677946273
 20
81.153624212740624
 30
0.0
 11
103.1510970372377
 21
81.153624212740624
 31
0.0
  0
LINE
  5
4BF
  8
2
 62
     0
 10
84.806538037211524
 20
76.853624212740627
 30
0.0
 11
103.1510970372377
 21
76.853624212740613
 31
0.0
  0
LINE
  5
4C0
  8
2
 62
     0
 10
101.9010970372377
 20
83.653624212740624
 30
0.0
 11
101.9010970372377
 21
86.153624212740624
 31
0.0
  0
LINE
  5
4C1
  8
2
 62
     0
 10
101.9010970372377
 20
74.353624212740613
 30
0.0
 11
101.9010970372377
 21
65.603624212740613
 31
0.0
  0
LINE
  5
4C2
  8
2
 62
     0
 10
101.9010970372377
 20
81.153624212740624
 30
0.0
 11
101.9010970372377
 21
76.853624212740613
 31
0.0
  0
SOLID
  5
4C3
  8
2
 62
     0
 10
101.484430370571
 20
83.653624212740624
 30
0.0
 11
102.3177637039043
 21
83.653624212740624
 31
0.0
 12
101.9010970372377
 22
81.153624212740624
 32
0.0
 13
101.9010970372377
 23
81.153624212740624
 33
0.0
  0
SOLID
  5
4C4
  8
2
 62
     0
 10
101.484430370571
 20
74.353624212740613
 30
0.0
 11
102.3177637039043
 21
74.353624212740613
 31
0.0
 12
101.9010970372377
 22
76.853624212740613
 32
0.0
 13
101.9010970372377
 23
76.853624212740613
 33
0.0
  0
TEXT
  5
4C5
  8
2
 62
     0
 10
101.2760970372377
 20
66.228624212740641
 30
0.0
 40
2.5
  1
4.3
 50
90.0
  0
POINT
  5
4C6
  8
DEFPOINTS
 62
     0
 10
84.19276677946273
 20
81.153624212740624
 30
0.0
  0
POINT
  5
4C7
  8
DEFPOINTS
 62
     0
 10
84.181538037211524
 20
76.853624212740627
 30
0.0
  0
POINT
  5
4C8
  8
DEFPOINTS
 62
     0
 10
101.9010970372377
 20
76.853624212740613
 30
0.0
  0
ENDBLK
  5
4B0
  8
0
  0
BLOCK
  8
0
  2
*D5
 70
     1
 10
0.0
 20
0.0
 30
0.0
  3
*D5
  1

  0
LINE
  5
4B3
  8
2
 62
     0
 10
84.806538037211524
 20
81.153624212740624
 30
0.0
 11
108.28109478149
 21
81.153624212740624
 31
0.0
  0
LINE
  5
4B4
  8
2
 62
     0
 10
88.30653803721151
 20
73.153624212740624
 30
0.0
 11
108.28109478149
 21
73.15362421274061
 31
0.0
  0
LINE
  5
4B5
  8
2
 62
     0
 10
107.03109478149
 20
78.65362421274061
 30
0.0
 11
107.03109478149
 21
75.65362421274061
 31
0.0
  0
SOLID
  5
4B6
  8
2
 62
     0
 10
106.6144281148233
 20
78.65362421274061
 30
0.0
 11
107.4477614481567
 21
78.65362421274061
 31
0.0
 12
107.03109478149
 22
81.153624212740624
 32
0.0
 13
107.03109478149
 23
81.153624212740624
 33
0.0
  0
SOLID
  5
4B7
  8
2
 62
     0
 10
106.6144281148233
 20
75.65362421274061
 30
0.0
 11
107.4477614481567
 21
75.65362421274061
 31
0.0
 12
107.03109478149
 22
73.15362421274061
 32
0.0
 13
107.03109478149
 23
73.15362421274061
 33
0.0
  0
TEXT
  5
4B8
  8
2
 62
     0
 10
106.40609478149
 20
76.32029087940731
 30
0.0
 40
2.5
  1
8
 50
90.0
  0
POINT
  5
4B9
  8
DEFPOINTS
 62
     0
 10
84.181538037211524
 20
81.153624212740624
 30
0.0
  0
POINT
  5
4BA
  8
DEFPOINTS
 62
     0
 10
87.68153803721151
 20
73.153624212740624
 30
0.0
  0
POINT
  5
4BB
  8
DEFPOINTS
 62
     0
 10
107.03109478149
 20
73.15362421274061
 30
0.0
  0
ENDBLK
  5
4BD
  8
0
  0
BLOCK
  8
0
  2
*D6
 70
     1
 10
0.0
 20
0.0
 30
0.0
  3
*D6
  1

  0
LINE
  5
539
  8
2
 62
     0
 10
72.68153803721151
 20
72.528624212740624
 30
0.0
 11
72.68153803721151
 21
61.048213334166462
 31
0.0
  0
LINE
  5
53A
  8
2
 62
     0
 10
87.68153803721151
 20
72.528624212740624
 30
0.0
 11
87.68153803721151
 21
61.048213334166462
 31
0.0
  0
LINE
  5
53B
  8
2
 62
     0
 10
75.18153803721151
 20
62.298213334166462
 30
0.0
 11
85.18153803721151
 21
62.298213334166462
 31
0.0
  0
SOLID
  5
53C
  8
2
 62
     0
 10
75.18153803721151
 20
62.714880000833119
 30
0.0
 11
75.18153803721151
 21
61.881546667499798
 31
0.0
 12
72.68153803721151
 22
62.298213334166462
 32
0.0
 13
72.68153803721151
 23
62.298213334166462
 33
0.0
  0
SOLID
  5
53D
  8
2
 62
     0
 10
85.18153803721151
 20
62.714880000833119
 30
0.0
 11
85.18153803721151
 21
61.881546667499798
 31
0.0
 12
87.68153803721151
 22
62.298213334166462
 32
0.0
 13
87.68153803721151
 23
62.298213334166462
 33
0.0
  0
INSERT
  5
53E
  8
2
  2
*U11
 10
0.0
 20
0.0
 30
0.0
  0
POINT
  5
53F
  8
DEFPOINTS
 62
     0
 10
72.68153803721151
 20
73.153624212740624
 30
0.0
  0
POINT
  5
540
  8
DEFPOINTS
 62
     0
 10
87.68153803721151
 20
73.153624212740624
 30
0.0
  0
POINT
  5
541
  8
DEFPOINTS
 62
     0
 10
87.68153803721151
 20
62.298213334166462
 30
0.0
  0
ENDBLK
  5
4E2
  8
0
  0
BLOCK
  8
0
  2
*D7
 70
     1
 10
0.0
 20
0.0
 30
0.0
  3
*D7
  1

  0
LINE
  5
4F3
  8
2
 62
     0
 10
75.55653803721151
 20
75.05362421274063
 30
0.0
 11
62.831031934812593
 21
75.05362421274063
 31
0.0
  0
LINE
  5
4F4
  8
2
 62
     0
 10
72.05653803721151
 20
73.153624212740624
 30
0.0
 11
62.831031934812593
 21
73.153624212740624
 31
0.0
  0
LINE
  5
4F5
  8
2
 62
     0
 10
64.081031934812586
 20
77.55362421274063
 30
0.0
 11
64.081031934812586
 21
80.053624212740615
 31
0.0
  0
LINE
  5
4F6
  8
2
 62
     0
 10
64.081031934812586
 20
70.653624212740624
 30
0.0
 11
64.081031934812586
 21
62.73695754607396
 31
0.0
  0
LINE
  5
4F7
  8
2
 62
     0
 10
64.081031934812586
 20
75.05362421274063
 30
0.0
 11
64.081031934812586
 21
73.153624212740624
 31
0.0
  0
SOLID
  5
4F8
  8
2
 62
     0
 10
63.664365268145922
 20
77.55362421274063
 30
0.0
 11
64.497698601479257
 21
77.55362421274063
 31
0.0
 12
64.081031934812586
 22
75.05362421274063
 32
0.0
 13
64.081031934812586
 23
75.05362421274063
 33
0.0
  0
SOLID
  5
4F9
  8
2
 62
     0
 10
63.664365268145922
 20
70.653624212740624
 30
0.0
 11
64.497698601479257
 21
70.653624212740624
 31
0.0
 12
64.081031934812586
 22
73.153624212740624
 32
0.0
 13
64.081031934812586
 23
73.153624212740624
 33
0.0
  0
TEXT
  5
4FA
  8
2
 62
     0
 10
63.456031934812579
 20
63.361957546073967
 30
0.0
 40
2.5
  1
1.9
 50
90.0
  0
POINT
  5
4FB
  8
DEFPOINTS
 62
     0
 10
76.18153803721151
 20
75.05362421274063
 30
0.0
  0
POINT
  5
4FC
  8
DEFPOINTS
 62
     0
 10
72.68153803721151
 20
73.153624212740624
 30
0.0
  0
POINT
  5
4FD
  8
DEFPOINTS
 62
     0
 10
64.081031934812586
 20
73.153624212740624
 30
0.0
  0
ENDBLK
  5
4F1
  8
0
  0
BLOCK
  8
0
  2
*U8
 70
     1
 10
0.0
 20
0.0
 30
0.0
  3
*U8
  1

  0
TEXT
  5
555
  8
2
 62
     0
 10
77.473204703878181
 20
96.207761422095814
 30
0.0
 40
2.5
  1
\U+2205
  0
TEXT
  5
556
  8
2
 62
     0
 10
79.973204703878181
 20
96.207761422095814
 30
0.0
 40
2.5
  1
10
  0
ENDBLK
  5
558
  8
0
  0
BLOCK
  8
0
  2
*U9
 70
     1
 10
0.0
 20
0.0
 30
0.0
  3
*U9
  1

  0
TEXT
  5
55A
  8
2
 62
     0
 10
78.098204703878181
 20
92.320119816819783
 30
0.0
 40
2.5
  1
\U+2205
  0
TEXT
  5
55B
  8
2
 62
     0
 10
80.598204703878167
 20
92.320119816819783
 30
0.0
 40
2.5
  1
8
  0
ENDBLK
  5
55D
  8
0
  0
BLOCK
  8
0
  2
*U10
 70
     1
 10
0.0
 20
0.0
 30
0.0
  3
*U10
  1

  0
TEXT
  5
55F
  8
2
 62
     0
 10
88.05653803721151
 20
88.37600235086714
 30
0.0
 40
2.5
  1
\U+2205
  0
TEXT
  5
560
  8
2
 62
     0
 10
90.55653803721151
 20
88.37600235086714
 30
0.0
 40
2.5
  1
4.5
  0
ENDBLK
  5
562
  8
0
  0
BLOCK
  8
0
  2
*U11
 70
     1
 10
0.0
 20
0.0
 30
0.0
  3
*U11
  1

  0
TEXT
  5
564
  8
2
 62
     0
 10
77.264871370544824
 20
62.923213334166462
 30
0.0
 40
2.5
  1
\U+2205
  0
TEXT
  5
565
  8
2
 62
     0
 10
79.764871370544824
 20
62.923213334166462
 30
0.0
 40
2.5
  1
15
  0
ENDBLK
  5
567
  8
0
  0
ENDSEC
  0
SECTION
  2
ENTITIES
  0
TEXT
  5
B0
  8
2
 10
60.530191236870309
 20
46.898020993249439
 30
0.0
 40
2.5399440000000002
  1
No. 102.015.030._
 51
-0.0000015352344868
  7
\U+00C9L\U+00C9R_\U+00C2S\U+00C2V\U+00C2B\U+00C2N
  0
LINE
  5
12C
  8
0
 10
76.17030929496029
 20
81.153624212740624
 30
0.0
 11
80.18153803721151
 21
81.153624212740624
 31
0.0
  0
LINE
  5
12E
  8
0
 39
3.3600508814300709
 10
76.17030929496029
 20
81.153624212740624
 30
0.0
 11
76.17030929496029
 21
81.153624212740624
 31
0.0
  0
LINE
  5
12F
  8
0
 39
3.3600508814300709
 10
76.17030929496029
 20
81.153624212740624
 30
0.0
 11
76.052707514110253
 21
81.149457749647638
 31
0.0
  0
LINE
  5
130
  8
0
 39
3.3600508814300709
 10
76.052707514110253
 20
81.149457749647638
 30
0.0
 11
75.693851336963831
 21
81.142737647884786
 31
0.0
  0
LINE
  5
131
  8
0
 39
3.3600508814300709
 10
75.693851336963831
 20
81.142737647884786
 30
0.0
 11
75.592176197291764
 21
81.133195103381539
 31
0.0
  0
LINE
  5
132
  8
0
 39
3.3600508814300709
 10
75.592176197291764
 20
81.133195103381539
 30
0.0
 11
75.498027571594093
 21
81.120359709014465
 31
0.0
  0
LINE
  5
133
  8
0
 39
3.3600508814300709
 10
75.498027571594093
 20
81.120359709014465
 30
0.0
 11
75.410800650712176
 21
81.103895459695465
 31
0.0
  0
LINE
  5
134
  8
0
 39
3.3600508814300709
 10
75.410800650712176
 20
81.103895459695465
 30
0.0
 11
75.330495434645997
 21
81.083197546265865
 31
0.0
  0
LINE
  5
135
  8
0
 39
3.3600508814300709
 10
75.330495434645997
 20
81.083197546265865
 30
0.0
 11
75.256641516272168
 21
81.057997164655134
 31
0.0
  0
LINE
  5
136
  8
0
 39
3.3600508814300709
 10
75.256641516272168
 20
81.057997164655134
 30
0.0
 11
75.188902890502519
 21
81.027756706722258
 31
0.0
  0
LINE
  5
137
  8
0
 39
3.3600508814300709
 10
75.188902890502519
 20
81.027756706722258
 30
0.0
 11
75.126876351231331
 21
80.992274569414363
 31
0.0
  0
LINE
  5
138
  8
0
 39
3.3600508814300709
 10
75.126876351231331
 20
80.992274569414363
 30
0.0
 11
75.070360295405678
 21
80.950811541537504
 31
0.0
  0
LINE
  5
139
  8
0
 39
3.3600508814300709
 10
75.070360295405678
 20
80.950811541537504
 30
0.0
 11
75.019018717937428
 21
80.903233221056439
 31
0.0
  0
LINE
  5
13A
  8
0
 39
3.3600508814300709
 10
75.019018717937428
 20
80.903233221056439
 30
0.0
 11
74.972582814756052
 21
80.848800396777293
 31
0.0
  0
LINE
  5
13B
  8
0
 39
3.3600508814300709
 10
74.972582814756052
 20
80.848800396777293
 30
0.0
 11
74.930514977720549
 21
80.787445867682365
 31
0.0
  0
LINE
  5
13C
  8
0
 39
3.3600508814300709
 10
74.930514977720549
 20
80.787445867682365
 30
0.0
 11
74.89268080479566
 21
80.718430422577796
 31
0.0
  0
LINE
  5
13D
  8
0
 39
3.3600508814300709
 10
74.89268080479566
 20
80.718430422577796
 30
0.0
 11
74.85867708987557
 21
80.641552458410686
 31
0.0
  0
LINE
  5
13E
  8
0
 39
3.3600508814300709
 10
74.85867708987557
 20
80.641552458410686
 30
0.0
 11
74.828369430925093
 21
80.556207166022361
 31
0.0
  0
LINE
  5
13F
  8
0
 39
3.3600508814300709
 10
74.828369430925093
 20
80.556207166022361
 30
0.0
 11
74.828369430925093
 21
80.556207166022361
 31
0.0
  0
LINE
  5
140
  8
0
 39
3.3600508814300709
 10
74.828369430925093
 20
80.556207166022361
 30
0.0
 11
74.775280626998494
 21
80.048301874785395
 31
0.0
  0
LINE
  5
141
  8
0
 39
3.3600508814300709
 10
74.775280626998494
 20
80.048301874785395
 30
0.0
 11
74.717622153873137
 21
79.548191901593327
 31
0.0
  0
LINE
  5
142
  8
0
 39
3.3600508814300709
 10
74.717622153873137
 20
79.548191901593327
 30
0.0
 11
74.653848388143601
 21
79.055406839322785
 31
0.0
  0
LINE
  5
143
  8
0
 39
3.3600508814300709
 10
74.653848388143601
 20
79.055406839322785
 30
0.0
 11
74.582682510474925
 21
78.569341878815123
 31
0.0
  0
LINE
  5
144
  8
0
 39
3.3600508814300709
 10
74.582682510474925
 20
78.569341878815123
 30
0.0
 11
74.502511696443989
 21
78.089526612946926
 31
0.0
  0
LINE
  5
145
  8
0
 39
3.3600508814300709
 10
74.502511696443989
 20
78.089526612946926
 30
0.0
 11
74.412126327733517
 21
77.615289031541877
 31
0.0
  0
LINE
  5
146
  8
0
 39
3.3600508814300709
 10
74.412126327733517
 20
77.615289031541877
 30
0.0
 11
74.309913579920405
 21
77.146225928494246
 31
0.0
  0
LINE
  5
147
  8
0
 39
3.3600508814300709
 10
74.309913579920405
 20
77.146225928494246
 30
0.0
 11
74.194663834687375
 21
76.681598092610088
 31
0.0
  0
LINE
  5
148
  8
0
 39
3.3600508814300709
 10
74.194663834687375
 20
76.681598092610088
 30
0.0
 11
74.064562664558395
 21
76.221069518801286
 31
0.0
  0
LINE
  5
149
  8
0
 39
3.3600508814300709
 10
74.064562664558395
 20
76.221069518801286
 30
0.0
 11
73.918602054269073
 21
75.76396819689154
 31
0.0
  0
LINE
  5
14A
  8
0
 39
3.3600508814300709
 10
73.918602054269073
 20
75.76396819689154
 30
0.0
 11
73.755169179396319
 21
75.309823719757446
 31
0.0
  0
LINE
  5
14B
  8
0
 39
3.3600508814300709
 10
73.755169179396319
 20
75.309823719757446
 30
0.0
 11
73.572920019587556
 21
74.857896876205118
 31
0.0
  0
LINE
  5
14C
  8
0
 39
3.3600508814300709
 10
73.572920019587556
 20
74.857896876205118
 30
0.0
 11
73.370241750419694
 21
74.407851661146353
 31
0.0
  0
LINE
  5
14D
  8
0
 39
3.3600508814300709
 10
73.370241750419694
 20
74.407851661146353
 30
0.0
 11
73.145924753575414
 21
73.959016064404935
 31
0.0
  0
LINE
  5
14E
  8
0
 39
3.3600508814300709
 10
73.145924753575414
 20
73.959016064404935
 30
0.0
 11
72.898423405649268
 21
73.51091967885742
 31
0.0
  0
LINE
  5
14F
  8
0
 39
3.3600508814300709
 10
72.898423405649268
 20
73.51091967885742
 30
0.0
 11
72.68153803721151
 21
73.153624212740624
 31
0.0
  0
LINE
  5
31E
  8
1
 10
80.18153803721151
 20
81.653624212740624
 30
0.0
 11
80.18153803721151
 21
72.653624212740624
 31
0.0
  0
LINE
  5
323
  8
0
 10
80.18153803721151
 20
75.05362421274063
 30
0.0
 11
76.18153803721151
 21
75.05362421274063
 31
0.0
  0
LINE
  5
326
  8
0
 10
77.93153803721151
 20
81.153624212740624
 30
0.0
 11
77.93153803721151
 21
76.853624212740627
 31
0.0
  0
LINE
  5
327
  8
0
 10
76.18153803721151
 20
76.853624212740627
 30
0.0
 11
76.18153803721151
 21
75.05362421274063
 31
0.0
  0
LINE
  5
3D5
  8
2
 10
75.081538037211516
 20
81.153624212740624
 30
0.0
 11
75.281538037211504
 21
81.153624212740624
 31
0.0
  0
LINE
  5
3D6
  8
0
 10
72.68153803721151
 20
73.153624212740624
 30
0.0
 11
80.18153803721151
 21
73.153624212740624
 31
0.0
  0
LINE
  5
3F9
  8
0
 10
76.18153803721151
 20
75.05362421274063
 30
0.0
 11
72.68153803721151
 21
73.153624212740624
 31
0.0
  0
LINE
  5
40C
  8
2
 10
75.18153803721151
 20
81.253624212740604
 30
0.0
 11
75.18153803721151
 21
81.053624212740644
 31
0.0
  0
LINE
  5
425
  8
0
 10
80.18153803721151
 20
76.853624212740627
 30
0.0
 11
76.18153803721151
 21
76.853624212740627
 31
0.0
  0
LINE
  5
448
  8
0
 39
3.3600508814300709
 10
84.669224737459189
 20
81.142737647884786
 30
0.0
 11
84.770899877131257
 21
81.133195103381539
 31
0.0
  0
LINE
  5
449
  8
0
 39
3.3600508814300709
 10
84.770899877131257
 20
81.133195103381539
 30
0.0
 11
84.865048502828927
 21
81.120359709014465
 31
0.0
  0
LINE
  5
44A
  8
0
 39
3.3600508814300709
 10
84.865048502828927
 20
81.120359709014465
 30
0.0
 11
84.952275423710844
 21
81.103895459695465
 31
0.0
  0
LINE
  5
44B
  8
0
 39
3.3600508814300709
 10
84.952275423710844
 20
81.103895459695465
 30
0.0
 11
85.032580639777024
 21
81.083197546265865
 31
0.0
  0
LINE
  5
44C
  8
0
 39
3.3600508814300709
 10
85.032580639777024
 20
81.083197546265865
 30
0.0
 11
85.106434558150852
 21
81.057997164655134
 31
0.0
  0
LINE
  5
44D
  8
0
 39
3.3600508814300709
 10
85.106434558150852
 20
81.057997164655134
 30
0.0
 11
85.174173183920502
 21
81.027756706722258
 31
0.0
  0
LINE
  5
44E
  8
0
 39
3.3600508814300709
 10
85.174173183920502
 20
81.027756706722258
 30
0.0
 11
85.236199723191689
 21
80.992274569414363
 31
0.0
  0
LINE
  5
44F
  8
0
 39
3.3600508814300709
 10
85.236199723191689
 20
80.992274569414363
 30
0.0
 11
85.292715779017342
 21
80.950811541537504
 31
0.0
  0
LINE
  5
450
  8
0
 39
3.3600508814300709
 10
85.292715779017342
 20
80.950811541537504
 30
0.0
 11
85.344057356485607
 21
80.903233221056439
 31
0.0
  0
LINE
  5
451
  8
0
 39
3.3600508814300709
 10
85.344057356485607
 20
80.903233221056439
 30
0.0
 11
85.390493259666968
 21
80.848800396777293
 31
0.0
  0
LINE
  5
452
  8
0
 39
3.3600508814300709
 10
85.390493259666968
 20
80.848800396777293
 30
0.0
 11
85.432561096702472
 21
80.787445867682365
 31
0.0
  0
LINE
  5
453
  8
0
 39
3.3600508814300709
 10
85.432561096702472
 20
80.787445867682365
 30
0.0
 11
85.47039526962736
 21
80.718430422577796
 31
0.0
  0
LINE
  5
454
  8
0
 39
3.3600508814300709
 10
85.47039526962736
 20
80.718430422577796
 30
0.0
 11
85.504398984547464
 21
80.641552458410686
 31
0.0
  0
LINE
  5
455
  8
0
 39
3.3600508814300709
 10
85.504398984547464
 20
80.641552458410686
 30
0.0
 11
85.534706643497927
 21
80.556207166022361
 31
0.0
  0
LINE
  5
456
  8
0
 39
3.3600508814300709
 10
85.534706643497927
 20
80.556207166022361
 30
0.0
 11
85.534706643497927
 21
80.556207166022361
 31
0.0
  0
LINE
  5
457
  8
0
 39
3.3600508814300709
 10
85.534706643497927
 20
80.556207166022361
 30
0.0
 11
85.587795447424526
 21
80.048301874785395
 31
0.0
  0
LINE
  5
458
  8
0
 39
3.3600508814300709
 10
85.587795447424526
 20
80.048301874785395
 30
0.0
 11
85.645453920549883
 21
79.548191901593327
 31
0.0
  0
LINE
  5
459
  8
0
 39
3.3600508814300709
 10
85.645453920549883
 20
79.548191901593327
 30
0.0
 11
85.709227686279434
 21
79.055406839322785
 31
0.0
  0
LINE
  5
45A
  8
0
 39
3.3600508814300709
 10
85.709227686279434
 20
79.055406839322785
 30
0.0
 11
85.780393563948095
 21
78.569341878815123
 31
0.0
  0
LINE
  5
45B
  8
0
 39
3.3600508814300709
 10
85.780393563948095
 20
78.569341878815123
 30
0.0
 11
85.860564377979031
 21
78.089526612946926
 31
0.0
  0
LINE
  5
45C
  8
0
 39
3.3600508814300709
 10
85.860564377979031
 20
78.089526612946926
 30
0.0
 11
85.950949746689517
 21
77.615289031541877
 31
0.0
  0
LINE
  5
45D
  8
0
 39
3.3600508814300709
 10
85.950949746689517
 20
77.615289031541877
 30
0.0
 11
86.053162494502587
 21
77.146225928494246
 31
0.0
  0
LINE
  5
45E
  8
0
 39
3.3600508814300709
 10
86.053162494502587
 20
77.146225928494246
 30
0.0
 11
86.168412239735645
 21
76.681598092610088
 31
0.0
  0
LINE
  5
45F
  8
0
 39
3.3600508814300709
 10
86.168412239735645
 20
76.681598092610088
 30
0.0
 11
86.298513409864626
 21
76.221069518801286
 31
0.0
  0
LINE
  5
460
  8
0
 39
3.3600508814300709
 10
86.298513409864626
 20
76.221069518801286
 30
0.0
 11
86.444474020153933
 21
75.76396819689154
 31
0.0
  0
LINE
  5
461
  8
0
 39
3.3600508814300709
 10
86.444474020153933
 20
75.76396819689154
 30
0.0
 11
86.607906895026701
 21
75.309823719757446
 31
0.0
  0
LINE
  5
462
  8
0
 39
3.3600508814300709
 10
86.607906895026701
 20
75.309823719757446
 30
0.0
 11
86.790156054835464
 21
74.857896876205118
 31
0.0
  0
LINE
  5
463
  8
0
 39
3.3600508814300709
 10
86.790156054835464
 20
74.857896876205118
 30
0.0
 11
86.992834324003326
 21
74.407851661146353
 31
0.0
  0
LINE
  5
464
  8
0
 39
3.3600508814300709
 10
86.992834324003326
 20
74.407851661146353
 30
0.0
 11
87.217151320847606
 21
73.959016064404935
 31
0.0
  0
LINE
  5
465
  8
0
 39
3.3600508814300709
 10
87.217151320847606
 20
73.959016064404935
 30
0.0
 11
87.464652668773752
 21
73.51091967885742
 31
0.0
  0
LINE
  5
466
  8
0
 39
3.3600508814300709
 10
84.310368560312753
 20
81.149457749647638
 30
0.0
 11
84.669224737459189
 21
81.142737647884786
 31
0.0
  0
LINE
  5
467
  8
0
 39
3.3600508814300709
 10
87.464652668773752
 20
73.51091967885742
 30
0.0
 11
87.68153803721151
 21
73.153624212740624
 31
0.0
  0
LINE
  5
468
  8
0
 39
3.3600508814300709
 10
84.19276677946273
 20
81.153624212740624
 30
0.0
 11
84.310368560312753
 21
81.149457749647638
 31
0.0
  0
LINE
  5
469
  8
0
 39
3.3600508814300709
 10
84.19276677946273
 20
81.153624212740624
 30
0.0
 11
84.19276677946273
 21
81.153624212740624
 31
0.0
  0
LINE
  5
46A
  8
0
 10
80.18153803721151
 20
76.853624212740627
 30
0.0
 11
84.181538037211524
 21
76.853624212740627
 31
0.0
  0
LINE
  5
46B
  8
0
 10
87.68153803721151
 20
73.153624212740624
 30
0.0
 11
80.18153803721151
 21
73.153624212740624
 31
0.0
  0
LINE
  5
46C
  8
0
 10
80.18153803721151
 20
75.05362421274063
 30
0.0
 11
84.181538037211524
 21
75.05362421274063
 31
0.0
  0
LINE
  5
46D
  8
0
 10
84.19276677946273
 20
81.153624212740624
 30
0.0
 11
80.18153803721151
 21
81.153624212740624
 31
0.0
  0
LINE
  5
46E
  8
0
 10
82.43153803721151
 20
81.153624212740624
 30
0.0
 11
82.43153803721151
 21
76.853624212740627
 31
0.0
  0
LINE
  5
46F
  8
0
 10
84.181538037211524
 20
75.05362421274063
 30
0.0
 11
87.68153803721151
 21
73.153624212740624
 31
0.0
  0
LINE
  5
470
  8
0
 10
84.181538037211524
 20
76.853624212740627
 30
0.0
 11
84.181538037211524
 21
75.05362421274063
 31
0.0
  0
LINE
  5
471
  8
2
 10
85.18153803721151
 20
81.253624212740604
 30
0.0
 11
85.18153803721151
 21
81.053624212740644
 31
0.0
  0
LINE
  5
472
  8
2
 10
85.281538037211504
 20
81.153624212740624
 30
0.0
 11
85.081538037211516
 21
81.153624212740624
 31
0.0
  0
DIMENSION
  5
477
  8
2
  2
*D1
 10
82.43153803721151
 20
87.75100235086714
 30
0.0
 11
91.80653803721151
 21
89.62600235086714
 31
0.0
 70
     0
  1
%%c<>
 13
77.93153803721151
 23
81.153624212740624
 33
0.0
 14
82.43153803721151
 24
81.153624212740624
 34
0.0
  0
DIMENSION
  5
487
  8
2
  2
*D2
 10
84.181538037211524
 20
91.695119816819783
 30
0.0
 11
80.18153803721151
 21
93.570119816819783
 31
0.0
 70
     0
  1
%%c<>
 13
76.18153803721151
 23
76.853624212740627
 33
0.0
 14
84.181538037211524
 24
76.853624212740627
 34
0.0
  0
DIMENSION
  5
494
  8
2
  2
*D3
 10
85.18153803721151
 20
95.582761422095814
 30
0.0
 11
80.18153803721151
 21
97.457761422095814
 31
0.0
 70
     0
  1
%%c<>
 13
75.18153803721151
 23
81.153624212740624
 33
0.0
 14
85.18153803721151
 24
81.153624212740624
 34
0.0
  0
DIMENSION
  5
4A2
  8
2
  2
*D4
 10
101.9010970372377
 20
76.853624212740613
 30
0.0
 11
100.0260970372377
 21
68.728624212740641
 31
0.0
 70
     0
 13
84.19276677946273
 23
81.153624212740624
 33
0.0
 14
84.181538037211524
 24
76.853624212740627
 34
0.0
 50
90.0
1001
ACAD
1000
DSTYLE
1002
{
1070
   271
1070
     6
1002
}
  0
DIMENSION
  5
4B1
  8
2
  2
*D5
 10
107.03109478149
 20
73.15362421274061
 30
0.0
 11
105.15609478149
 21
77.153624212740638
 31
0.0
 70
     0
 13
84.181538037211524
 23
81.153624212740624
 33
0.0
 14
87.68153803721151
 24
73.153624212740624
 34
0.0
 50
90.0
  0
DIMENSION
  5
4D6
  8
2
  2
*D6
 10
87.68153803721151
 20
62.298213334166462
 30
0.0
 11
80.18153803721151
 21
64.173213334166462
 31
0.0
 70
     0
  1
%%c<>
 13
72.68153803721151
 23
73.153624212740624
 33
0.0
 14
87.68153803721151
 24
73.153624212740624
 34
0.0
1001
ACAD
1000
DSTYLE
1002
{
1070
   271
1070
     6
1002
}
  0
DIMENSION
  5
4E3
  8
2
  2
*D7
 10
64.081031934812586
 20
73.153624212740624
 30
0.0
 11
62.206031934812579
 21
65.445290879407295
 31
0.0
 70
     0
 13
76.18153803721151
 23
75.05362421274063
 33
0.0
 14
72.68153803721151
 24
73.153624212740624
 34
0.0
 50
90.0
1001
ACAD
1000
DSTYLE
1002
{
1070
   271
1070
     6
1002
}
  0
ENDSEC
  0
EOF
