  0
SECTION
  2
HEADER
  9
$ACADVER
  1
AC1009
  9
$INSBASE
 10
0.0
 20
0.0
 30
0.0
  9
$EXTMIN
 10
55.342897998492269
 20
23.671609287398891
 30
0.0
  9
$EXTMAX
 10
101.98178304539729
 20
67.294967751690706
 30
3.3112582779999991
  9
$LIMMIN
 10
0.0
 20
0.0
  9
$LIMMAX
 10
420.0
 20
297.0
  9
$ORTHOMODE
 70
     0
  9
$REGENMODE
 70
     1
  9
$FILLMODE
 70
     1
  9
$QTEXTMODE
 70
     0
  9
$MIRRTEXT
 70
     1
  9
$DRAGMODE
 70
     2
  9
$LTSCALE
 40
0.3
  9
$OSMODE
 70
    37
  9
$ATTMODE
 70
     1
  9
$TEXTSIZE
 40
2.5
  9
$TRACEWID
 40
1.0
  9
$TEXTSTYLE
  7
STANDARD
  9
$CLAYER
  8
2
  9
$CELTYPE
  6
BYLAYER
  9
$CECOLOR
 62
   256
  9
$DIMSCALE
 40
1.0
  9
$DIMASZ
 40
2.5
  9
$DIMEXO
 40
0.625
  9
$DIMDLI
 40
3.75
  9
$DIMRND
 40
0.0
  9
$DIMDLE
 40
0.0
  9
$DIMEXE
 40
1.25
  9
$DIMTP
 40
0.0
  9
$DIMTM
 40
0.0
  9
$DIMTXT
 40
2.5
  9
$DIMCEN
 40
2.5
  9
$DIMTSZ
 40
0.0
  9
$DIMTOL
 70
     0
  9
$DIMLIM
 70
     0
  9
$DIMTIH
 70
     0
  9
$DIMTOH
 70
     0
  9
$DIMSE1
 70
     0
  9
$DIMSE2
 70
     0
  9
$DIMTAD
 70
     1
  9
$DIMZIN
 70
     8
  9
$DIMBLK
  1

  9
$DIMASO
 70
     1
  9
$DIMSHO
 70
     1
  9
$DIMPOST
  1

  9
$DIMAPOST
  1

  9
$DIMALT
 70
     0
  9
$DIMALTD
 70
     3
  9
$DIMALTF
 40
0.03937007874016
  9
$DIMLFAC
 40
1.0
  9
$DIMTOFL
 70
     1
  9
$DIMTVP
 40
0.0
  9
$DIMTIX
 70
     0
  9
$DIMSOXD
 70
     0
  9
$DIMSAH
 70
     0
  9
$DIMBLK1
  1

  9
$DIMBLK2
  1

  9
$DIMSTYLE
  2
ISO-25
  9
$DIMCLRD
 70
     0
  9
$DIMCLRE
 70
     0
  9
$DIMCLRT
 70
     0
  9
$DIMTFAC
 40
1.0
  9
$DIMGAP
 40
0.625
  9
$LUNITS
 70
     2
  9
$LUPREC
 70
     4
  9
$SKETCHINC
 40
1.0
  9
$FILLETRAD
 40
10.0
  9
$AUNITS
 70
     0
  9
$AUPREC
 70
     0
  9
$MENU
  1
.
  9
$ELEVATION
 40
0.0
  9
$PELEVATION
 40
0.0
  9
$THICKNESS
 40
0.0
  9
$LIMCHECK
 70
     0
  9
$BLIPMODE
 70
     0
  9
$CHAMFERA
 40
10.0
  9
$CHAMFERB
 40
10.0
  9
$SKPOLY
 70
     0
  9
$TDCREATE
 40
2453434.5486881132
  9
$TDUPDATE
 40
2453551.8983809021
  9
$TDINDWG
 40
0.0306342014
  9
$TDUSRTIMER
 40
0.0306342014
  9
$USRTIMER
 70
     1
  9
$ANGBASE
 50
0.0
  9
$ANGDIR
 70
     0
  9
$PDMODE
 70
     0
  9
$PDSIZE
 40
0.0
  9
$PLINEWID
 40
0.0
  9
$COORDS
 70
     1
  9
$SPLFRAME
 70
     0
  9
$SPLINETYPE
 70
     6
  9
$SPLINESEGS
 70
     8
  9
$ATTDIA
 70
     0
  9
$ATTREQ
 70
     1
  9
$HANDLING
 70
-16383
  9
$HANDSEED
  5
6C2
  9
$SURFTAB1
 70
     6
  9
$SURFTAB2
 70
     6
  9
$SURFTYPE
 70
     6
  9
$SURFU
 70
     6
  9
$SURFV
 70
     6
  9
$UCSNAME
  2

  9
$UCSORG
 10
0.0
 20
0.0
 30
0.0
  9
$UCSXDIR
 10
1.0
 20
0.0
 30
0.0
  9
$UCSYDIR
 10
0.0
 20
1.0
 30
0.0
  9
$PUCSNAME
  2

  9
$PUCSORG
 10
0.0
 20
0.0
 30
0.0
  9
$PUCSXDIR
 10
1.0
 20
0.0
 30
0.0
  9
$PUCSYDIR
 10
0.0
 20
1.0
 30
0.0
  9
$USERI1
 70
     0
  9
$USERI2
 70
     0
  9
$USERI3
 70
     0
  9
$USERI4
 70
     0
  9
$USERI5
 70
     0
  9
$USERR1
 40
0.0
  9
$USERR2
 40
0.0
  9
$USERR3
 40
0.0
  9
$USERR4
 40
0.0
  9
$USERR5
 40
0.0
  9
$WORLDVIEW
 70
     1
  9
$SHADEDGE
 70
     3
  9
$SHADEDIF
 70
    70
  9
$TILEMODE
 70
     1
  9
$MAXACTVP
 70
    64
  9
$PLIMCHECK
 70
     0
  9
$PEXTMIN
 10
1.0000000000000000E+020
 20
1.0000000000000000E+020
 30
1.0000000000000000E+020
  9
$PEXTMAX
 10
-1.0000000000000000E+020
 20
-1.0000000000000000E+020
 30
-1.0000000000000000E+020
  9
$PLIMMIN
 10
0.0
 20
0.0
  9
$PLIMMAX
 10
420.0
 20
297.0
  9
$UNITMODE
 70
     0
  9
$VISRETAIN
 70
     1
  9
$PLINEGEN
 70
     0
  9
$PSLTSCALE
 70
     1
  0
ENDSEC
  0
SECTION
  2
TABLES
  0
TABLE
  2
VPORT
 70
     2
  0
VPORT
  2
*ACTIVE
 70
     0
 10
0.0
 20
0.0
 11
1.0
 21
1.0
 12
75.794896626958149
 22
40.069904083881951
 13
0.0
 23
0.0
 14
10.0
 24
10.0
 15
10.0
 25
10.0
 16
0.0
 26
0.0
 36
1.0
 17
0.0
 27
0.0
 37
0.0
 40
55.82774339705972
 41
2.5392405063291141
 42
50.0
 43
0.0
 44
0.0
 50
0.0
 51
0.0
 71
     0
 72
   100
 73
     1
 74
     3
 75
     0
 76
     0
 77
     0
 78
     0
  0
ENDTAB
  0
TABLE
  2
LTYPE
 70
     2
  0
LTYPE
  2
CONTINUOUS
 70
     0
  3
Solid line
 72
    65
 73
     0
 40
0.0
  0
LTYPE
  2
CENTER
 70
     0
  3
Center ____ _ ____ _ ____ _ ____ _ ____ _ ____
 72
    65
 73
     4
 40
50.799999999999997
 49
31.75
 49
-6.3499999999999988
 49
6.3499999999999988
 49
-6.3499999999999988
  0
ENDTAB
  0
TABLE
  2
LAYER
 70
     4
  0
LAYER
  2
0
 70
     0
 62
     7
  6
CONTINUOUS
  0
LAYER
  2
1
 70
     0
 62
     7
  6
CENTER
  0
LAYER
  2
DEFPOINTS
 70
     0
 62
     7
  6
CONTINUOUS
  0
LAYER
  2
2
 70
     0
 62
     7
  6
CONTINUOUS
  0
ENDTAB
  0
TABLE
  2
STYLE
 70
     3
  0
STYLE
  2
STANDARD
 70
     0
 40
0.0
 41
1.0
 50
0.0
 71
     0
 42
2.5
  3
txt
  4

  0
STYLE
  2
\U+00C9L\U+00C9R_\U+00C2S\U+00C2V\U+00C2B\U+00C2N
 70
     0
 40
1.0
 41
1.0
 50
0.0
 71
     0
 42
1.0
  3
\U+00E9l\U+00E9r \U+00E2S\U+00E2V\U+00E2b\U+00E2N
  4

  0
STYLE
  2

 70
     1
 40
0.0
 41
1.0
 50
0.0
 71
     0
 42
2.5
  3
ltypeshp.shx
  4

  0
ENDTAB
  0
TABLE
  2
VIEW
 70
     0
  0
ENDTAB
  0
TABLE
  2
UCS
 70
     0
  0
ENDTAB
  0
TABLE
  2
APPID
 70
     1
  0
APPID
  2
ACAD
 70
     0
  0
ENDTAB
  0
TABLE
  2
DIMSTYLE
 70
     2
  0
DIMSTYLE
  2
ISO-25
 70
     0
  3

  4

  5

  6

  7

 40
1.0
 41
2.5
 42
0.625
 43
3.75
 44
1.25
 45
0.0
 46
0.0
 47
0.0
 48
0.0
140
2.5
141
2.5
142
0.0
143
0.03937007874016
144
1.0
145
0.0
146
1.0
147
0.625
 71
     0
 72
     0
 73
     0
 74
     0
 75
     0
 76
     0
 77
     1
 78
     8
170
     0
171
     3
172
     1
173
     0
174
     0
175
     0
176
     0
177
     0
178
     0
  0
DIMSTYLE
  2
STANDARD
 70
     0
  3

  4

  5

  6

  7

 40
1.0
 41
0.18
 42
0.0625
 43
0.38
 44
0.18
 45
0.0
 46
0.0
 47
0.0
 48
0.0
140
0.18
141
0.09
142
0.0
143
25.399999999999999
144
1.0
145
0.0
146
1.0
147
0.09
 71
     0
 72
     0
 73
     1
 74
     1
 75
     0
 76
     0
 77
     0
 78
     0
170
     0
171
     2
172
     0
173
     0
174
     0
175
     0
176
     0
177
     0
178
     0
  0
ENDTAB
  0
ENDSEC
  0
SECTION
  2
BLOCKS
  0
BLOCK
  8
0
  2
$MODEL_SPACE
 70
     0
 10
0.0
 20
0.0
 30
0.0
  3
$MODEL_SPACE
  1

  0
ENDBLK
  5
21
  8
0
  0
BLOCK
 67
     1
  8
0
  2
$PAPER_SPACE
 70
     0
 10
0.0
 20
0.0
 30
0.0
  3
$PAPER_SPACE
  1

  0
ENDBLK
  5
1D
 67
     1
  8
0
  0
BLOCK
  8
0
  2
*D1
 70
     1
 10
0.0
 20
0.0
 30
0.0
  3
*D1
  1

  0
LINE
  5
66B
  8
2
 62
     0
 10
71.598440197363502
 20
49.546822333427542
 30
0.0
 11
71.598440197363502
 21
57.14297545258318
 31
0.0
  0
LINE
  5
66C
  8
2
 62
     0
 10
75.598440197363502
 20
49.546822333427542
 30
0.0
 11
75.598440197363502
 21
57.14297545258318
 31
0.0
  0
LINE
  5
66D
  8
2
 62
     0
 10
69.098440197363502
 20
55.89297545258318
 30
0.0
 11
66.598440197363502
 21
55.89297545258318
 31
0.0
  0
LINE
  5
66E
  8
2
 62
     0
 10
78.098440197363502
 20
55.89297545258318
 30
0.0
 11
86.015106864030173
 21
55.89297545258318
 31
0.0
  0
LINE
  5
66F
  8
2
 62
     0
 10
71.598440197363502
 20
55.89297545258318
 30
0.0
 11
75.598440197363502
 21
55.89297545258318
 31
0.0
  0
SOLID
  5
670
  8
2
 62
     0
 10
69.098440197363502
 20
56.309642119249851
 30
0.0
 11
69.098440197363502
 21
55.476308785916522
 31
0.0
 12
71.598440197363502
 22
55.89297545258318
 32
0.0
 13
71.598440197363502
 23
55.89297545258318
 33
0.0
  0
SOLID
  5
671
  8
2
 62
     0
 10
78.098440197363502
 20
56.309642119249851
 30
0.0
 11
78.098440197363502
 21
55.476308785916522
 31
0.0
 12
75.598440197363502
 22
55.89297545258318
 32
0.0
 13
75.598440197363502
 23
55.89297545258318
 33
0.0
  0
INSERT
  5
672
  8
2
  2
*U10
 10
0.0
 20
0.0
 30
0.0
  0
POINT
  5
673
  8
DEFPOINTS
 62
     0
 10
71.598440197363502
 20
48.921822333427542
 30
0.0
  0
POINT
  5
674
  8
DEFPOINTS
 62
     0
 10
75.598440197363502
 20
48.921822333427542
 30
0.0
  0
POINT
  5
675
  8
DEFPOINTS
 62
     0
 10
75.598440197363502
 20
55.89297545258318
 30
0.0
  0
ENDBLK
  5
5F0
  8
0
  0
BLOCK
  8
0
  2
*D2
 70
     1
 10
0.0
 20
0.0
 30
0.0
  3
*D2
  1

  0
LINE
  5
691
  8
2
 62
     0
 10
70.598440197363502
 20
47.938971164827556
 30
0.0
 11
70.598440197363502
 21
61.371712036509052
 31
0.0
  0
LINE
  5
692
  8
2
 62
     0
 10
76.598440197363502
 20
47.938971164827556
 30
0.0
 11
76.598440197363502
 21
61.371712036509052
 31
0.0
  0
LINE
  5
693
  8
2
 62
     0
 10
68.098440197363502
 20
60.121712036509052
 30
0.0
 11
65.598440197363502
 21
60.121712036509052
 31
0.0
  0
LINE
  5
694
  8
2
 62
     0
 10
79.098440197363502
 20
60.121712036509052
 30
0.0
 11
81.598440197363502
 21
60.121712036509052
 31
0.0
  0
LINE
  5
695
  8
2
 62
     0
 10
70.598440197363502
 20
60.121712036509052
 30
0.0
 11
76.598440197363502
 21
60.121712036509052
 31
0.0
  0
SOLID
  5
696
  8
2
 62
     0
 10
68.098440197363502
 20
60.538378703175717
 30
0.0
 11
68.098440197363502
 21
59.705045369842388
 31
0.0
 12
70.598440197363502
 22
60.121712036509052
 32
0.0
 13
70.598440197363502
 23
60.121712036509052
 33
0.0
  0
SOLID
  5
697
  8
2
 62
     0
 10
79.098440197363502
 20
60.538378703175717
 30
0.0
 11
79.098440197363502
 21
59.705045369842388
 31
0.0
 12
76.598440197363502
 22
60.121712036509052
 32
0.0
 13
76.598440197363502
 23
60.121712036509052
 33
0.0
  0
INSERT
  5
698
  8
2
  2
*U12
 10
0.0
 20
0.0
 30
0.0
  0
POINT
  5
699
  8
DEFPOINTS
 62
     0
 10
70.598440197363502
 20
47.313971164827556
 30
0.0
  0
POINT
  5
69A
  8
DEFPOINTS
 62
     0
 10
76.598440197363502
 20
47.313971164827556
 30
0.0
  0
POINT
  5
69B
  8
DEFPOINTS
 62
     0
 10
76.598440197363502
 20
60.121712036509052
 30
0.0
  0
ENDBLK
  5
5FF
  8
0
  0
BLOCK
  8
0
  2
*D3
 70
     1
 10
0.0
 20
0.0
 30
0.0
  3
*D3
  1

  0
LINE
  5
657
  8
2
 62
     0
 10
69.098440197363502
 20
49.938971164827556
 30
0.0
 11
69.098440197363502
 21
65.419967751690706
 31
0.0
  0
LINE
  5
658
  8
2
 62
     0
 10
78.098440197363502
 20
49.938971164827556
 30
0.0
 11
78.098440197363502
 21
65.419967751690706
 31
0.0
  0
LINE
  5
659
  8
2
 62
     0
 10
71.598440197363502
 20
64.169967751690706
 30
0.0
 11
75.598440197363502
 21
64.169967751690706
 31
0.0
  0
SOLID
  5
65A
  8
2
 62
     0
 10
71.598440197363502
 20
64.586634418357377
 30
0.0
 11
71.598440197363502
 21
63.753301085024042
 31
0.0
 12
69.098440197363502
 22
64.169967751690706
 32
0.0
 13
69.098440197363502
 23
64.169967751690706
 33
0.0
  0
SOLID
  5
65B
  8
2
 62
     0
 10
75.598440197363502
 20
64.586634418357377
 30
0.0
 11
75.598440197363502
 21
63.753301085024042
 31
0.0
 12
78.098440197363502
 22
64.169967751690706
 32
0.0
 13
78.098440197363502
 23
64.169967751690706
 33
0.0
  0
INSERT
  5
65C
  8
2
  2
*U9
 10
0.0
 20
0.0
 30
0.0
  0
POINT
  5
65D
  8
DEFPOINTS
 62
     0
 10
69.098440197363502
 20
49.313971164827556
 30
0.0
  0
POINT
  5
65E
  8
DEFPOINTS
 62
     0
 10
78.098440197363502
 20
49.313971164827556
 30
0.0
  0
POINT
  5
65F
  8
DEFPOINTS
 62
     0
 10
78.098440197363502
 20
64.169967751690706
 30
0.0
  0
ENDBLK
  5
60C
  8
0
  0
BLOCK
  8
0
  2
*D4
 70
     1
 10
0.0
 20
0.0
 30
0.0
  3
*D4
  1

  0
LINE
  5
67F
  8
2
 62
     0
 10
78.723440197363502
 20
49.313971164827556
 30
0.0
 11
91.712147605073156
 21
49.313971164827556
 31
0.0
  0
LINE
  5
680
  8
2
 62
     0
 10
77.223440197363502
 20
47.313971164827556
 30
0.0
 11
91.712147605073156
 21
47.313971164827556
 31
0.0
  0
LINE
  5
681
  8
2
 62
     0
 10
90.462147605073156
 20
44.813971164827556
 30
0.0
 11
90.462147605073156
 21
42.313971164827556
 31
0.0
  0
LINE
  5
682
  8
2
 62
     0
 10
90.462147605073156
 20
51.813971164827556
 30
0.0
 11
90.462147605073156
 21
57.230637831494221
 31
0.0
  0
LINE
  5
683
  8
2
 62
     0
 10
90.462147605073156
 20
47.313971164827556
 30
0.0
 11
90.462147605073156
 21
49.313971164827556
 31
0.0
  0
SOLID
  5
684
  8
2
 62
     0
 10
90.045480938406499
 20
44.813971164827556
 30
0.0
 11
90.878814271739842
 21
44.813971164827556
 31
0.0
 12
90.462147605073156
 22
47.313971164827556
 32
0.0
 13
90.462147605073156
 23
47.313971164827556
 33
0.0
  0
SOLID
  5
685
  8
2
 62
     0
 10
90.045480938406499
 20
51.813971164827556
 30
0.0
 11
90.878814271739842
 21
51.813971164827556
 31
0.0
 12
90.462147605073156
 22
49.313971164827556
 32
0.0
 13
90.462147605073156
 23
49.313971164827556
 33
0.0
  0
TEXT
  5
686
  8
2
 62
     0
 10
89.837147605073156
 20
54.938971164827571
 30
0.0
 40
2.5
  1
2
 50
90.0
  0
POINT
  5
687
  8
DEFPOINTS
 62
     0
 10
78.098440197363502
 20
49.313971164827556
 30
0.0
  0
POINT
  5
688
  8
DEFPOINTS
 62
     0
 10
76.598440197363502
 20
47.313971164827556
 30
0.0
  0
POINT
  5
689
  8
DEFPOINTS
 62
     0
 10
90.462147605073156
 20
47.313971164827556
 30
0.0
  0
ENDBLK
  5
61B
  8
0
  0
BLOCK
  8
0
  2
*D5
 70
     1
 10
0.0
 20
0.0
 30
0.0
  3
*D5
  1

  0
LINE
  5
61E
  8
2
 62
     0
 10
78.723440197363502
 20
49.313971164827556
 30
0.0
 11
97.132364259418082
 21
49.313971164827556
 31
0.0
  0
LINE
  5
61F
  8
2
 62
     0
 10
77.223440197363502
 20
45.313971164827556
 30
0.0
 11
97.132364259418082
 21
45.313971164827556
 31
0.0
  0
LINE
  5
620
  8
2
 62
     0
 10
95.882364259418054
 20
51.813971164827556
 30
0.0
 11
95.882364259418054
 21
54.313971164827556
 31
0.0
  0
LINE
  5
621
  8
2
 62
     0
 10
95.882364259418054
 20
42.813971164827556
 30
0.0
 11
95.882364259418054
 21
40.313971164827556
 31
0.0
  0
LINE
  5
622
  8
2
 62
     0
 10
95.882364259418054
 20
49.313971164827556
 30
0.0
 11
95.882364259418054
 21
45.313971164827556
 31
0.0
  0
SOLID
  5
623
  8
2
 62
     0
 10
95.465697592751397
 20
51.813971164827556
 30
0.0
 11
96.29903092608474
 21
51.813971164827556
 31
0.0
 12
95.882364259418054
 22
49.313971164827556
 32
0.0
 13
95.882364259418054
 23
49.313971164827556
 33
0.0
  0
SOLID
  5
624
  8
2
 62
     0
 10
95.465697592751397
 20
42.813971164827556
 30
0.0
 11
96.29903092608474
 21
42.813971164827556
 31
0.0
 12
95.882364259418054
 22
45.313971164827556
 32
0.0
 13
95.882364259418054
 23
45.313971164827556
 33
0.0
  0
TEXT
  5
625
  8
2
 62
     0
 10
95.257364259418054
 20
46.480637831494242
 30
0.0
 40
2.5
  1
4
 50
90.0
  0
POINT
  5
626
  8
DEFPOINTS
 62
     0
 10
78.098440197363502
 20
49.313971164827556
 30
0.0
  0
POINT
  5
627
  8
DEFPOINTS
 62
     0
 10
76.598440197363502
 20
45.313971164827556
 30
0.0
  0
POINT
  5
628
  8
DEFPOINTS
 62
     0
 10
95.882364259418054
 20
45.313971164827556
 30
0.0
  0
ENDBLK
  5
62A
  8
0
  0
BLOCK
  8
0
  2
*D6
 70
     1
 10
0.0
 20
0.0
 30
0.0
  3
*D6
  1

  0
LINE
  5
62D
  8
2
 62
     0
 10
78.723440197363502
 20
49.313971164827556
 30
0.0
 11
101.98178304539729
 21
49.313971164827556
 31
0.0
  0
LINE
  5
62E
  8
2
 62
     0
 10
81.419946370102096
 20
41.313971164827556
 30
0.0
 11
101.98178304539729
 21
41.313971164827556
 31
0.0
  0
LINE
  5
62F
  8
2
 62
     0
 10
100.73178304539729
 20
46.813971164827549
 30
0.0
 11
100.73178304539729
 21
43.813971164827556
 31
0.0
  0
SOLID
  5
630
  8
2
 62
     0
 10
100.31511637873071
 20
46.813971164827549
 30
0.0
 11
101.14844971206399
 21
46.813971164827549
 31
0.0
 12
100.73178304539729
 22
49.313971164827556
 32
0.0
 13
100.73178304539729
 23
49.313971164827556
 33
0.0
  0
SOLID
  5
631
  8
2
 62
     0
 10
100.31511637873071
 20
43.813971164827556
 30
0.0
 11
101.14844971206399
 21
43.813971164827556
 31
0.0
 12
100.73178304539729
 22
41.313971164827556
 32
0.0
 13
100.73178304539729
 23
41.313971164827556
 33
0.0
  0
TEXT
  5
632
  8
2
 62
     0
 10
100.10678304539729
 20
44.480637831494228
 30
0.0
 40
2.5
  1
8
 50
90.0
  0
POINT
  5
633
  8
DEFPOINTS
 62
     0
 10
78.098440197363502
 20
49.313971164827556
 30
0.0
  0
POINT
  5
634
  8
DEFPOINTS
 62
     0
 10
80.794946370102096
 20
41.313971164827556
 30
0.0
  0
POINT
  5
635
  8
DEFPOINTS
 62
     0
 10
100.73178304539729
 20
41.313971164827556
 30
0.0
  0
ENDBLK
  5
637
  8
0
  0
BLOCK
  8
0
  2
*D7
 70
     1
 10
0.0
 20
0.0
 30
0.0
  3
*D7
  1

  0
LINE
  5
63B
  8
2
 62
     0
 10
65.776934024624893
 20
41.313971164827556
 30
0.0
 11
57.217897998492269
 21
41.313971164827556
 31
0.0
  0
LINE
  5
63C
  8
2
 62
     0
 10
70.743101812710051
 20
43.213971164827562
 30
0.0
 11
57.217897998492269
 21
43.213971164827562
 31
0.0
  0
LINE
  5
63D
  8
2
 62
     0
 10
58.467897998492269
 20
38.813971164827556
 30
0.0
 11
58.467897998492269
 21
36.313971164827556
 31
0.0
  0
LINE
  5
63E
  8
2
 62
     0
 10
58.467897998492269
 20
45.713971164827562
 30
0.0
 11
58.467897998492283
 21
53.630637831494226
 31
0.0
  0
LINE
  5
63F
  8
2
 62
     0
 10
58.467897998492269
 20
41.313971164827556
 30
0.0
 11
58.467897998492269
 21
43.213971164827562
 31
0.0
  0
SOLID
  5
640
  8
2
 62
     0
 10
58.051231331825612
 20
38.813971164827556
 30
0.0
 11
58.88456466515894
 21
38.813971164827556
 31
0.0
 12
58.467897998492269
 22
41.313971164827556
 32
0.0
 13
58.467897998492269
 23
41.313971164827556
 33
0.0
  0
SOLID
  5
641
  8
2
 62
     0
 10
58.051231331825612
 20
45.713971164827562
 30
0.0
 11
58.88456466515894
 21
45.713971164827562
 31
0.0
 12
58.467897998492269
 22
43.213971164827562
 32
0.0
 13
58.467897998492269
 23
43.213971164827562
 33
0.0
  0
TEXT
  5
642
  8
2
 62
     0
 10
57.842897998492269
 20
48.838971164827569
 30
0.0
 40
2.5
  1
1.9
 50
90.0
  0
POINT
  5
643
  8
DEFPOINTS
 62
     0
 10
66.401934024624893
 20
41.313971164827556
 30
0.0
  0
POINT
  5
644
  8
DEFPOINTS
 62
     0
 10
71.368101812710051
 20
43.213971164827562
 30
0.0
  0
POINT
  5
645
  8
DEFPOINTS
 62
     0
 10
58.467897998492269
 20
43.213971164827562
 30
0.0
  0
ENDBLK
  5
647
  8
0
  0
BLOCK
  8
0
  2
*D8
 70
     1
 10
0.0
 20
0.0
 30
0.0
  3
*D8
  1

  0
LINE
  5
676
  8
2
 62
     0
 10
66.098440197363502
 20
41.002481098940599
 30
0.0
 11
66.098440197363502
 21
33.399824000686522
 31
0.0
  0
LINE
  5
677
  8
2
 62
     0
 10
81.098440197363502
 20
41.002481098940599
 30
0.0
 11
81.098440197363502
 21
33.399824000686522
 31
0.0
  0
LINE
  5
678
  8
2
 62
     0
 10
68.598440197363502
 20
34.649824000686522
 30
0.0
 11
78.598440197363502
 21
34.649824000686522
 31
0.0
  0
SOLID
  5
679
  8
2
 62
     0
 10
68.598440197363502
 20
35.066490667353179
 30
0.0
 11
68.598440197363502
 21
34.23315733401985
 31
0.0
 12
66.098440197363502
 22
34.649824000686522
 32
0.0
 13
66.098440197363502
 23
34.649824000686522
 33
0.0
  0
SOLID
  5
67A
  8
2
 62
     0
 10
78.598440197363502
 20
35.066490667353179
 30
0.0
 11
78.598440197363502
 21
34.23315733401985
 31
0.0
 12
81.098440197363502
 22
34.649824000686522
 32
0.0
 13
81.098440197363502
 23
34.649824000686522
 33
0.0
  0
INSERT
  5
67B
  8
2
  2
*U11
 10
0.0
 20
0.0
 30
0.0
  0
POINT
  5
67C
  8
DEFPOINTS
 62
     0
 10
66.098440197363502
 20
41.627481098940599
 30
0.0
  0
POINT
  5
67D
  8
DEFPOINTS
 62
     0
 10
81.098440197363502
 20
41.627481098940599
 30
0.0
  0
POINT
  5
67E
  8
DEFPOINTS
 62
     0
 10
81.098440197363502
 20
34.649824000686522
 30
0.0
  0
ENDBLK
  5
655
  8
0
  0
BLOCK
  8
0
  2
*U9
 70
     1
 10
0.0
 20
0.0
 30
0.0
  3
*U9
  1

  0
TEXT
  5
6AF
  8
2
 62
     0
 10
71.515106864030173
 20
64.794967751690706
 30
0.0
 40
2.5
  1
\U+2205
  0
TEXT
  5
6B0
  8
2
 62
     0
 10
74.015106864030173
 20
64.794967751690706
 30
0.0
 40
2.5
  1
9
  0
ENDBLK
  5
6B2
  8
0
  0
BLOCK
  8
0
  2
*U10
 70
     1
 10
0.0
 20
0.0
 30
0.0
  3
*U10
  1

  0
TEXT
  5
6B4
  8
2
 62
     0
 10
81.223440197363516
 20
56.51797545258318
 30
0.0
 40
2.5
  1
\U+2205
  0
TEXT
  5
6B5
  8
2
 62
     0
 10
83.723440197363516
 20
56.51797545258318
 30
0.0
 40
2.5
  1
4
  0
ENDBLK
  5
6B7
  8
0
  0
BLOCK
  8
0
  2
*U11
 70
     1
 10
0.0
 20
0.0
 30
0.0
  3
*U11
  1

  0
TEXT
  5
6B9
  8
2
 62
     0
 10
70.68177353069683
 20
35.274824000686522
 30
0.0
 40
2.5
  1
\U+2205
  0
TEXT
  5
6BA
  8
2
 62
     0
 10
73.18177353069683
 20
35.274824000686522
 30
0.0
 40
2.5
  1
15
  0
ENDBLK
  5
6BC
  8
0
  0
BLOCK
  8
0
  2
*U12
 70
     1
 10
0.0
 20
0.0
 30
0.0
  3
*U12
  1

  0
TEXT
  5
6BE
  8
2
 62
     0
 10
71.515106864030173
 20
60.746712036509052
 30
0.0
 40
2.5
  1
\U+2205
  0
TEXT
  5
6BF
  8
2
 62
     0
 10
74.015106864030173
 20
60.746712036509052
 30
0.0
 40
2.5
  1
6
  0
ENDBLK
  5
6C1
  8
0
  0
ENDSEC
  0
SECTION
  2
ENTITIES
  0
TEXT
  5
C0
  8
2
 10
57.180074988083391
 20
23.91350871597032
 30
0.0
 40
2.5399440000000002
  1
No. 102.015.309._
 41
0.9999999267283786
 51
-0.0000015352344868
  7
\U+00C9L\U+00C9R_\U+00C2S\U+00C2V\U+00C2B\U+00C2N
  0
LINE
  5
14F
  8
0
 39
3.3112582779999991
 10
71.598440197363502
 20
48.921822333427542
 30
0.0
 11
71.59598986632578
 21
48.947679774115201
 31
0.0
  0
LINE
  5
150
  8
0
 39
3.3112582779999991
 10
71.59598986632578
 20
48.947679774115201
 30
0.0
 11
71.591751455729934
 21
48.975163217822598
 31
0.0
  0
LINE
  5
151
  8
0
 39
3.3112582779999991
 10
71.591751455729934
 20
48.975163217822598
 30
0.0
 11
71.585526290167294
 21
49.003507588682282
 31
0.0
  0
LINE
  5
152
  8
0
 39
3.3112582779999991
 10
71.585526290167294
 20
49.003507588682282
 30
0.0
 11
71.577380594803415
 21
49.032116860204198
 31
0.0
  0
LINE
  5
153
  8
0
 39
3.3112582779999991
 10
71.577380594803415
 20
49.032116860204198
 30
0.0
 11
71.56711569414162
 21
49.06092480722279
 31
0.0
  0
LINE
  5
154
  8
0
 39
3.3112582779999991
 10
71.56711569414162
 20
49.06092480722279
 30
0.0
 11
71.554665363016341
 21
49.089401628413611
 31
0.0
  0
LINE
  5
155
  8
0
 39
3.3112582779999991
 10
71.554665363016341
 20
49.089401628413611
 30
0.0
 11
71.539764700765346
 21
49.117547323776598
 31
0.0
  0
LINE
  5
156
  8
0
 39
3.3112582779999991
 10
71.539764700765346
 20
49.117547323776598
 30
0.0
 11
71.522678608050853
 21
49.144699641656203
 31
0.0
  0
LINE
  5
157
  8
0
 39
3.3112582779999991
 10
71.522678608050853
 20
49.144699641656203
 30
0.0
 11
71.502943508713983
 21
49.170792356886842
 31
0.0
  0
LINE
  5
158
  8
0
 39
3.3112582779999991
 10
71.502943508713983
 20
49.170792356886842
 30
0.0
 11
71.480758078251384
 21
49.195494343640718
 31
0.0
  0
LINE
  5
159
  8
0
 39
3.3112582779999991
 10
71.480758078251384
 20
49.195494343640718
 30
0.0
 11
71.455724965669702
 21
49.218673151586721
 31
0.0
  0
LINE
  5
15A
  8
0
 39
3.3112582779999991
 10
71.455724965669702
 20
49.218673151586721
 30
0.0
 11
71.42804284646563
 21
49.23966652906924
 31
0.0
  0
LINE
  5
15B
  8
0
 39
3.3112582779999991
 10
71.42804284646563
 20
49.23966652906924
 30
0.0
 11
71.397380594811338
 21
49.258474476088267
 31
0.0
  0
LINE
  5
15C
  8
0
 39
3.3112582779999991
 10
71.397380594811338
 20
49.258474476088267
 30
0.0
 11
71.363804435872424
 21
49.274633416484917
 31
0.0
  0
LINE
  5
15D
  8
0
 39
3.3112582779999991
 10
71.363804435872424
 20
49.274633416484917
 30
0.0
 11
71.256061637456142
 21
49.313971164827556
 31
0.0
  0
LINE
  5
187
  8
0
 39
3.3112582779999991
 10
72.569168674229971
 20
45.313971164827556
 30
0.0
 11
72.569168674229971
 21
43.213971164827562
 31
0.0
  0
LINE
  5
18F
  8
0
 39
3.3112582779999991
 10
71.368101812710051
 20
43.213971164827562
 30
0.0
 11
71.319036223953859
 21
43.204368516089758
 31
0.0
  0
LINE
  5
190
  8
0
 39
3.3112582779999991
 10
71.319036223953859
 20
43.204368516089758
 30
0.0
 11
71.222215031905137
 21
43.184103615428398
 31
0.0
  0
LINE
  5
191
  8
0
 39
3.3112582779999991
 10
71.222215031905137
 20
43.184103615428398
 30
0.0
 11
71.126983243829869
 21
43.162712886952519
 31
0.0
  0
LINE
  5
192
  8
0
 39
3.3112582779999991
 10
71.126983243829869
 20
43.162712886952519
 30
0.0
 11
71.032744833237984
 21
43.140262555827682
 31
0.0
  0
LINE
  5
193
  8
0
 39
3.3112582779999991
 10
71.032744833237984
 20
43.140262555827682
 30
0.0
 11
70.939499800129497
 21
43.116421496226081
 31
0.0
  0
LINE
  5
194
  8
0
 39
3.3112582779999991
 10
70.939499800129497
 20
43.116421496226081
 30
0.0
 11
70.846652118014376
 21
43.091454608809961
 31
0.0
  0
LINE
  5
195
  8
0
 39
3.3112582779999991
 10
70.846652118014376
 20
43.091454608809961
 30
0.0
 11
70.753804435899255
 21
43.065096992917077
 31
0.0
  0
LINE
  5
196
  8
0
 39
3.3112582779999991
 10
70.753804435899255
 20
43.065096992917077
 30
0.0
 11
70.660360727294105
 21
43.03754732404412
 31
0.0
  0
LINE
  5
197
  8
0
 39
3.3112582779999991
 10
70.660360727294105
 20
43.03754732404412
 30
0.0
 11
70.566320992198911
 21
43.008474476363283
 31
0.0
  0
LINE
  5
198
  8
0
 39
3.3112582779999991
 10
70.566320992198911
 20
43.008474476363283
 30
0.0
 11
70.470890528626938
 21
42.978010900205682
 31
0.0
  0
LINE
  5
199
  8
0
 39
3.3112582779999991
 10
70.470890528626938
 20
42.978010900205682
 30
0.0
 11
70.374003111412662
 21
42.946024145240202
 31
0.0
  0
LINE
  5
19A
  8
0
 39
3.3112582779999991
 10
70.374003111412662
 20
42.946024145240202
 30
0.0
 11
70.274996488900456
 21
42.912580436632403
 31
0.0
  0
LINE
  5
19B
  8
0
 39
3.3112582779999991
 10
70.274996488900456
 20
42.912580436632403
 30
0.0
 11
66.641279150220583
 21
41.313971164827556
 31
0.0
  0
LINE
  5
1A9
  8
0
 39
3.3112582779999991
 10
73.598440197363502
 20
49.313971164827556
 30
0.0
 11
69.098440197363502
 21
49.313971164827556
 31
0.0
  0
LINE
  5
1AA
  8
0
 39
3.3112582779999991
 10
69.098440197363502
 20
49.313971164827556
 30
0.0
 11
69.098440197363502
 21
45.92589169477796
 31
0.0
  0
LINE
  5
1AB
  8
0
 39
3.3112582779999991
 10
69.098440197363502
 20
45.92589169477796
 30
0.0
 11
69.098440197363502
 21
45.92589169477796
 31
0.0
  0
LINE
  5
1AC
  8
0
 39
3.3112582779999991
 10
69.098440197363502
 20
45.92589169477796
 30
0.0
 11
69.10903622385311
 21
45.779798979552602
 31
0.0
  0
LINE
  5
1AD
  8
0
 39
3.3112582779999991
 10
69.10903622385311
 20
45.779798979552602
 30
0.0
 11
69.120890528488346
 21
45.645428118631358
 31
0.0
  0
LINE
  5
1AE
  8
0
 39
3.3112582779999991
 10
69.120890528488346
 20
45.645428118631358
 30
0.0
 11
69.134797813255943
 21
45.521984410027507
 31
0.0
  0
LINE
  5
1AF
  8
0
 39
3.3112582779999991
 10
69.134797813255943
 20
45.521984410027507
 30
0.0
 11
69.151221654314824
 21
45.409335403409962
 31
0.0
  0
LINE
  5
1B0
  8
0
 39
3.3112582779999991
 10
69.151221654314824
 20
45.409335403409962
 30
0.0
 11
69.170956753651694
 21
45.306752621957521
 31
0.0
  0
LINE
  5
1B1
  8
0
 39
3.3112582779999991
 10
69.170956753651694
 20
45.306752621957521
 30
0.0
 11
69.194466687425503
 21
45.213971165007962
 31
0.0
  0
LINE
  5
1B2
  8
0
 39
3.3112582779999991
 10
69.194466687425503
 20
45.213971165007962
 30
0.0
 11
69.222347482126267
 21
45.130461231236787
 31
0.0
  0
LINE
  5
1B3
  8
0
 39
3.3112582779999991
 10
69.222347482126267
 20
45.130461231236787
 30
0.0
 11
69.25512893907846
 21
45.055825469650678
 31
0.0
  0
LINE
  5
1B4
  8
0
 39
3.3112582779999991
 10
69.25512893907846
 20
45.055825469650678
 30
0.0
 11
69.293671985434386
 21
44.989401628594003
 31
0.0
  0
LINE
  5
1B5
  8
0
 39
3.3112582779999991
 10
69.293671985434386
 20
44.989401628594003
 30
0.0
 11
69.338307747021815
 21
44.931057257735638
 31
0.0
  0
LINE
  5
1B6
  8
0
 39
3.3112582779999991
 10
69.338307747021815
 20
44.931057257735638
 30
0.0
 11
69.389698475496388
 21
44.880130105419987
 31
0.0
  0
LINE
  5
1B7
  8
0
 39
3.3112582779999991
 10
69.389698475496388
 20
44.880130105419987
 30
0.0
 11
69.448440197348106
 21
44.836355270984839
 31
0.0
  0
LINE
  5
1B8
  8
0
 39
3.3112582779999991
 10
69.448440197348106
 20
44.836355270984839
 30
0.0
 11
69.515261389398148
 21
44.799004277609001
 31
0.0
  0
LINE
  5
1B9
  8
0
 39
3.3112582779999991
 10
69.515261389398148
 20
44.799004277609001
 30
0.0
 11
69.590559402639855
 21
44.767944674961349
 31
0.0
  0
LINE
  5
1BA
  8
0
 39
3.3112582779999991
 10
69.590559402639855
 20
44.767944674961349
 30
0.0
 11
69.67506271389442
 21
44.74244798622076
 31
0.0
  0
LINE
  5
1BB
  8
0
 39
3.3112582779999991
 10
69.67506271389442
 20
44.74244798622076
 30
0.0
 11
69.769301124486304
 21
44.722315535890509
 31
0.0
  0
LINE
  5
1BC
  8
0
 39
3.3112582779999991
 10
69.769301124486304
 20
44.722315535890509
 30
0.0
 11
69.769301124486304
 21
44.722315535890509
 31
0.0
  0
LINE
  5
1BD
  8
0
 39
3.3112582779999991
 10
69.769301124486304
 20
44.722315535890509
 30
0.0
 11
69.810890528457989
 21
44.65529566834379
 31
0.0
  0
LINE
  5
1BE
  8
0
 39
3.3112582779999991
 10
69.810890528457989
 20
44.65529566834379
 30
0.0
 11
69.845923641039221
 21
44.590461231260562
 31
0.0
  0
LINE
  5
1BF
  8
0
 39
3.3112582779999991
 10
69.845923641039221
 20
44.590461231260562
 30
0.0
 11
69.874400462230028
 21
44.527414873647437
 31
0.0
  0
LINE
  5
1C0
  8
0
 39
3.3112582779999991
 10
69.874400462230028
 20
44.527414873647437
 30
0.0
 11
69.896056091368152
 21
44.466222820669991
 31
0.0
  0
LINE
  5
1C1
  8
0
 39
3.3112582779999991
 10
69.896056091368152
 20
44.466222820669991
 30
0.0
 11
69.911089203950269
 21
44.406222820672639
 31
0.0
  0
LINE
  5
1C2
  8
0
 39
3.3112582779999991
 10
69.911089203950269
 20
44.406222820672639
 30
0.0
 11
69.919168674148594
 21
44.347481098820921
 31
0.0
  0
LINE
  5
1C3
  8
0
 39
3.3112582779999991
 10
69.919168674148594
 20
44.347481098820921
 30
0.0
 11
69.920294501963113
 21
44.289600304121478
 31
0.0
  0
LINE
  5
1C4
  8
0
 39
3.3112582779999991
 10
69.920294501963113
 20
44.289600304121478
 30
0.0
 11
69.914201786731581
 21
44.232514211408763
 31
0.0
  0
LINE
  5
1C5
  8
0
 39
3.3112582779999991
 10
69.914201786731581
 20
44.232514211408763
 30
0.0
 11
69.901089203950704
 21
44.175626794192723
 31
0.0
  0
LINE
  5
1C6
  8
0
 39
3.3112582779999991
 10
69.901089203950704
 20
44.175626794192723
 30
0.0
 11
69.880559402627114
 21
44.118938052473347
 31
0.0
  0
LINE
  5
1C7
  8
0
 39
3.3112582779999991
 10
69.880559402627114
 20
44.118938052473347
 30
0.0
 11
69.852744833091904
 21
44.062183085588437
 31
0.0
  0
LINE
  5
1C8
  8
0
 39
3.3112582779999991
 10
69.852744833091904
 20
44.062183085588437
 30
0.0
 11
69.817314369517291
 21
44.005163218041282
 31
0.0
  0
LINE
  5
1C9
  8
0
 39
3.3112582779999991
 10
69.817314369517291
 20
44.005163218041282
 30
0.0
 11
69.774400462234425
 21
43.947414873672948
 31
0.0
  0
LINE
  5
1CA
  8
0
 39
3.3112582779999991
 10
69.774400462234425
 20
43.947414873672948
 30
0.0
 11
69.723671985415464
 21
43.888871827317907
 31
0.0
  0
LINE
  5
1CB
  8
0
 39
3.3112582779999991
 10
69.723671985415464
 20
43.888871827317907
 30
0.0
 11
69.665261389391546
 21
43.829202953148346
 31
0.0
  0
LINE
  5
1CC
  8
0
 39
3.3112582779999991
 10
69.665261389391546
 20
43.829202953148346
 30
0.0
 11
69.598837548334856
 21
43.768275800833159
 31
0.0
  0
LINE
  5
1CD
  8
0
 39
3.3112582779999991
 10
69.598837548334856
 20
43.768275800833159
 30
0.0
 11
66.098440197363502
 21
41.627481098940599
 31
0.0
  0
LINE
  5
1CE
  8
0
 39
3.3112582779999991
 10
66.098440197363502
 20
41.627481098940599
 30
0.0
 11
66.401934024624893
 21
41.313971164827556
 31
0.0
  0
LINE
  5
3CC
  8
1
 10
73.598440197363502
 20
49.813971164827571
 30
0.0
 11
73.598440197363502
 21
40.813971164827556
 31
0.0
  0
LINE
  5
3E8
  8
0
 10
71.598440197363502
 20
48.921822333427542
 30
0.0
 11
71.598440197363502
 21
47.313971164827556
 31
0.0
  0
LINE
  5
404
  8
0
 10
73.598440197363502
 20
47.313971164827556
 30
0.0
 11
70.598440197363502
 21
47.313971164827556
 31
0.0
  0
LINE
  5
405
  8
0
 10
70.598440197363502
 20
45.313971164827556
 30
0.0
 11
73.598440197363502
 21
45.313971164827556
 31
0.0
  0
LINE
  5
407
  8
0
 10
70.598440197363502
 20
47.313971164827556
 30
0.0
 11
70.598440197363502
 21
45.313971164827556
 31
0.0
  0
LINE
  5
44A
  8
0
 10
73.598440197363502
 20
41.313971164827556
 30
0.0
 11
66.401934024624893
 21
41.313971164827556
 31
0.0
  0
LINE
  5
585
  8
0
 10
71.368101812710051
 20
43.213971164827562
 30
0.0
 11
73.598440197363502
 21
43.213971164827562
 31
0.0
  0
LINE
  5
586
  8
0
 39
3.3112582779999991
 10
81.098440197363502
 20
41.627481098940599
 30
0.0
 11
80.794946370102096
 21
41.313971164827556
 31
0.0
  0
LINE
  5
587
  8
0
 39
3.3112582779999991
 10
77.598042846392147
 20
43.768275800833159
 30
0.0
 11
81.098440197363502
 21
41.627481098940599
 31
0.0
  0
LINE
  5
588
  8
0
 39
3.3112582779999991
 10
77.531619005335443
 20
43.829202953148346
 30
0.0
 11
77.598042846392147
 21
43.768275800833159
 31
0.0
  0
LINE
  5
589
  8
0
 39
3.3112582779999991
 10
77.473208409311539
 20
43.888871827317907
 30
0.0
 11
77.531619005335443
 21
43.829202953148346
 31
0.0
  0
LINE
  5
58A
  8
0
 39
3.3112582779999991
 10
77.422479932492564
 20
43.947414873672948
 30
0.0
 11
77.473208409311539
 21
43.888871827317907
 31
0.0
  0
LINE
  5
58B
  8
0
 39
3.3112582779999991
 10
77.379566025209712
 20
44.005163218041282
 30
0.0
 11
77.422479932492564
 21
43.947414873672948
 31
0.0
  0
LINE
  5
58C
  8
0
 39
3.3112582779999991
 10
77.344135561635085
 20
44.062183085588437
 30
0.0
 11
77.379566025209712
 21
44.005163218041282
 31
0.0
  0
LINE
  5
58D
  8
0
 39
3.3112582779999991
 10
77.316320992099875
 20
44.118938052473347
 30
0.0
 11
77.344135561635085
 21
44.062183085588437
 31
0.0
  0
LINE
  5
58E
  8
0
 39
3.3112582779999991
 10
77.295791190776299
 20
44.175626794192723
 30
0.0
 11
77.316320992099875
 21
44.118938052473347
 31
0.0
  0
LINE
  5
58F
  8
0
 39
3.3112582779999991
 10
77.282678607995422
 20
44.232514211408763
 30
0.0
 11
77.295791190776299
 21
44.175626794192723
 31
0.0
  0
LINE
  5
590
  8
0
 39
3.3112582779999991
 10
77.27658589276389
 20
44.289600304121478
 30
0.0
 11
77.282678607995422
 21
44.232514211408763
 31
0.0
  0
LINE
  5
591
  8
0
 39
3.3112582779999991
 10
77.277711720578409
 20
44.347481098820921
 30
0.0
 11
77.27658589276389
 21
44.289600304121478
 31
0.0
  0
LINE
  5
592
  8
0
 39
3.3112582779999991
 10
77.285791190776735
 20
44.406222820672639
 30
0.0
 11
77.277711720578409
 21
44.347481098820921
 31
0.0
  0
LINE
  5
593
  8
0
 39
3.3112582779999991
 10
77.300824303358851
 20
44.466222820669991
 30
0.0
 11
77.285791190776735
 21
44.406222820672639
 31
0.0
  0
LINE
  5
594
  8
0
 39
3.3112582779999991
 10
77.322479932496975
 20
44.527414873647437
 30
0.0
 11
77.300824303358851
 21
44.466222820669991
 31
0.0
  0
LINE
  5
595
  8
0
 39
3.3112582779999991
 10
77.350956753687782
 20
44.590461231260562
 30
0.0
 11
77.322479932496975
 21
44.527414873647437
 31
0.0
  0
LINE
  5
596
  8
0
 39
3.3112582779999991
 10
77.385989866269014
 20
44.65529566834379
 30
0.0
 11
77.350956753687782
 21
44.590461231260562
 31
0.0
  0
LINE
  5
597
  8
0
 39
3.3112582779999991
 10
77.427579270240699
 20
44.722315535890509
 30
0.0
 11
77.385989866269014
 21
44.65529566834379
 31
0.0
  0
LINE
  5
598
  8
0
 39
3.3112582779999991
 10
77.427579270240699
 20
44.722315535890509
 30
0.0
 11
77.427579270240699
 21
44.722315535890509
 31
0.0
  0
LINE
  5
599
  8
0
 39
3.3112582779999991
 10
77.521817680832584
 20
44.74244798622076
 30
0.0
 11
77.427579270240699
 21
44.722315535890509
 31
0.0
  0
LINE
  5
59A
  8
0
 39
3.3112582779999991
 10
77.606320992087149
 20
44.767944674961349
 30
0.0
 11
77.521817680832584
 21
44.74244798622076
 31
0.0
  0
LINE
  5
59B
  8
0
 39
3.3112582779999991
 10
77.681619005328855
 20
44.799004277609001
 30
0.0
 11
77.606320992087149
 21
44.767944674961349
 31
0.0
  0
LINE
  5
59C
  8
0
 39
3.3112582779999991
 10
77.748440197378898
 20
44.836355270984839
 30
0.0
 11
77.681619005328855
 21
44.799004277609001
 31
0.0
  0
LINE
  5
59D
  8
0
 39
3.3112582779999991
 10
77.807181919230615
 20
44.880130105419987
 30
0.0
 11
77.748440197378898
 21
44.836355270984839
 31
0.0
  0
LINE
  5
59E
  8
0
 39
3.3112582779999991
 10
77.858572647705188
 20
44.931057257735638
 30
0.0
 11
77.807181919230615
 21
44.880130105419987
 31
0.0
  0
LINE
  5
59F
  8
0
 39
3.3112582779999991
 10
77.903208409292617
 20
44.989401628594003
 30
0.0
 11
77.858572647705188
 21
44.931057257735638
 31
0.0
  0
LINE
  5
5A0
  8
0
 39
3.3112582779999991
 10
77.941751455648543
 20
45.055825469650678
 30
0.0
 11
77.903208409292617
 21
44.989401628594003
 31
0.0
  0
LINE
  5
5A1
  8
0
 39
3.3112582779999991
 10
77.974532912600736
 20
45.130461231236787
 30
0.0
 11
77.941751455648543
 21
45.055825469650678
 31
0.0
  0
LINE
  5
5A2
  8
0
 39
3.3112582779999991
 10
78.0024137073015
 20
45.213971165007962
 30
0.0
 11
77.974532912600736
 21
45.130461231236787
 31
0.0
  0
LINE
  5
5A3
  8
0
 39
3.3112582779999991
 10
78.025923641075309
 20
45.306752621957521
 30
0.0
 11
78.0024137073015
 21
45.213971165007962
 31
0.0
  0
LINE
  5
5A4
  8
0
 39
3.3112582779999991
 10
78.045658740412179
 20
45.409335403409962
 30
0.0
 11
78.025923641075309
 21
45.306752621957521
 31
0.0
  0
LINE
  5
5A5
  8
0
 39
3.3112582779999991
 10
78.06208258147106
 20
45.521984410027507
 30
0.0
 11
78.045658740412179
 21
45.409335403409962
 31
0.0
  0
LINE
  5
5A6
  8
0
 39
3.3112582779999991
 10
78.075989866238643
 20
45.645428118631358
 30
0.0
 11
78.06208258147106
 21
45.521984410027507
 31
0.0
  0
LINE
  5
5A7
  8
0
 39
3.3112582779999991
 10
78.087844170873893
 20
45.779798979552602
 30
0.0
 11
78.075989866238643
 21
45.645428118631358
 31
0.0
  0
LINE
  5
5A8
  8
0
 39
3.3112582779999991
 10
78.098440197363502
 20
45.92589169477796
 30
0.0
 11
78.087844170873893
 21
45.779798979552602
 31
0.0
  0
LINE
  5
5A9
  8
0
 39
3.3112582779999991
 10
78.098440197363502
 20
45.92589169477796
 30
0.0
 11
78.098440197363502
 21
45.92589169477796
 31
0.0
  0
LINE
  5
5AA
  8
0
 39
3.3112582779999991
 10
78.098440197363502
 20
49.313971164827556
 30
0.0
 11
78.098440197363502
 21
45.92589169477796
 31
0.0
  0
LINE
  5
5AB
  8
0
 39
3.3112582779999991
 10
73.598440197363502
 20
49.313971164827556
 30
0.0
 11
78.098440197363502
 21
49.313971164827556
 31
0.0
  0
LINE
  5
5AC
  8
0
 39
3.3112582779999991
 10
76.921883905826533
 20
42.912580436632403
 30
0.0
 11
80.555601244506406
 21
41.313971164827556
 31
0.0
  0
LINE
  5
5AD
  8
0
 39
3.3112582779999991
 10
76.822877283314341
 20
42.946024145240202
 30
0.0
 11
76.921883905826533
 21
42.912580436632403
 31
0.0
  0
LINE
  5
5AE
  8
0
 39
3.3112582779999991
 10
76.725989866100065
 20
42.978010900205682
 30
0.0
 11
76.822877283314341
 21
42.946024145240202
 31
0.0
  0
LINE
  5
5AF
  8
0
 39
3.3112582779999991
 10
76.630559402528093
 20
43.008474476363283
 30
0.0
 11
76.725989866100065
 21
42.978010900205682
 31
0.0
  0
LINE
  5
5B0
  8
0
 39
3.3112582779999991
 10
76.536519667432884
 20
43.03754732404412
 30
0.0
 11
76.630559402528093
 21
43.008474476363283
 31
0.0
  0
LINE
  5
5B1
  8
0
 39
3.3112582779999991
 10
76.443075958827748
 20
43.065096992917077
 30
0.0
 11
76.536519667432884
 21
43.03754732404412
 31
0.0
  0
LINE
  5
5B2
  8
0
 39
3.3112582779999991
 10
76.350228276712627
 20
43.091454608809961
 30
0.0
 11
76.443075958827748
 21
43.065096992917077
 31
0.0
  0
LINE
  5
5B3
  8
0
 39
3.3112582779999991
 10
76.257380594597507
 20
43.116421496226081
 30
0.0
 11
76.350228276712627
 21
43.091454608809961
 31
0.0
  0
LINE
  5
5B4
  8
0
 39
3.3112582779999991
 10
76.164135561489019
 20
43.140262555827682
 30
0.0
 11
76.257380594597507
 21
43.116421496226081
 31
0.0
  0
LINE
  5
5B5
  8
0
 39
3.3112582779999991
 10
76.069897150897134
 20
43.162712886952519
 30
0.0
 11
76.164135561489019
 21
43.140262555827682
 31
0.0
  0
LINE
  5
5B6
  8
0
 39
3.3112582779999991
 10
75.974665362821867
 20
43.184103615428398
 30
0.0
 11
76.069897150897134
 21
43.162712886952519
 31
0.0
  0
LINE
  5
5B7
  8
0
 39
3.3112582779999991
 10
75.877844170773145
 20
43.204368516089758
 30
0.0
 11
75.974665362821867
 21
43.184103615428398
 31
0.0
  0
LINE
  5
5B8
  8
0
 39
3.3112582779999991
 10
75.828778582016952
 20
43.213971164827562
 30
0.0
 11
75.877844170773145
 21
43.204368516089758
 31
0.0
  0
LINE
  5
5B9
  8
0
 39
3.3112582779999991
 10
74.627711720497032
 20
45.313971164827556
 30
0.0
 11
74.627711720497032
 21
43.213971164827562
 31
0.0
  0
LINE
  5
5BA
  8
0
 39
3.3112582779999991
 10
75.833075958854565
 20
49.274633416484917
 30
0.0
 11
75.940818757270861
 21
49.313971164827556
 31
0.0
  0
LINE
  5
5BB
  8
0
 39
3.3112582779999991
 10
75.799499799915665
 20
49.258474476088267
 30
0.0
 11
75.833075958854565
 21
49.274633416484917
 31
0.0
  0
LINE
  5
5BC
  8
0
 39
3.3112582779999991
 10
75.768837548261374
 20
49.23966652906924
 30
0.0
 11
75.799499799915665
 21
49.258474476088267
 31
0.0
  0
LINE
  5
5BD
  8
0
 39
3.3112582779999991
 10
75.741155429057301
 20
49.218673151586721
 30
0.0
 11
75.768837548261374
 21
49.23966652906924
 31
0.0
  0
LINE
  5
5BE
  8
0
 39
3.3112582779999991
 10
75.716122316475619
 20
49.195494343640718
 30
0.0
 11
75.741155429057301
 21
49.218673151586721
 31
0.0
  0
LINE
  5
5BF
  8
0
 39
3.3112582779999991
 10
75.69393688601302
 20
49.170792356886842
 30
0.0
 11
75.716122316475619
 21
49.195494343640718
 31
0.0
  0
LINE
  5
5C0
  8
0
 39
3.3112582779999991
 10
75.674201786676136
 20
49.144699641656203
 30
0.0
 11
75.69393688601302
 21
49.170792356886842
 31
0.0
  0
LINE
  5
5C1
  8
0
 39
3.3112582779999991
 10
75.657115693961657
 20
49.117547323776598
 30
0.0
 11
75.674201786676136
 21
49.144699641656203
 31
0.0
  0
LINE
  5
5C2
  8
0
 39
3.3112582779999991
 10
75.642215031710663
 20
49.089401628413611
 30
0.0
 11
75.657115693961657
 21
49.117547323776598
 31
0.0
  0
LINE
  5
5C3
  8
0
 39
3.3112582779999991
 10
75.629764700585383
 20
49.06092480722279
 30
0.0
 11
75.642215031710663
 21
49.089401628413611
 31
0.0
  0
LINE
  5
5C4
  8
0
 39
3.3112582779999991
 10
75.619499799923588
 20
49.032116860204198
 30
0.0
 11
75.629764700585383
 21
49.06092480722279
 31
0.0
  0
LINE
  5
5C5
  8
0
 39
3.3112582779999991
 10
75.611354104559709
 20
49.003507588682282
 30
0.0
 11
75.619499799923588
 21
49.032116860204198
 31
0.0
  0
LINE
  5
5C6
  8
0
 39
3.3112582779999991
 10
75.605128938997069
 20
48.975163217822598
 30
0.0
 11
75.611354104559709
 21
49.003507588682282
 31
0.0
  0
LINE
  5
5C7
  8
0
 39
3.3112582779999991
 10
75.600890528401223
 20
48.947679774115201
 30
0.0
 11
75.605128938997069
 21
48.975163217822598
 31
0.0
  0
LINE
  5
5C8
  8
0
 39
3.3112582779999991
 10
75.598440197363502
 20
48.921822333427542
 30
0.0
 11
75.600890528401223
 21
48.947679774115201
 31
0.0
  0
LINE
  5
5C9
  8
0
 10
73.598440197363502
 20
41.313971164827556
 30
0.0
 11
80.794946370102096
 21
41.313971164827556
 31
0.0
  0
LINE
  5
5CA
  8
0
 10
75.828778582016952
 20
43.213971164827562
 30
0.0
 11
73.598440197363502
 21
43.213971164827562
 31
0.0
  0
LINE
  5
5CB
  8
0
 10
76.598440197363502
 20
45.313971164827556
 30
0.0
 11
73.598440197363502
 21
45.313971164827556
 31
0.0
  0
LINE
  5
5CC
  8
0
 10
73.598440197363502
 20
47.313971164827556
 30
0.0
 11
76.598440197363502
 21
47.313971164827556
 31
0.0
  0
LINE
  5
5CD
  8
0
 10
76.598440197363502
 20
47.313971164827556
 30
0.0
 11
76.598440197363502
 21
45.313971164827556
 31
0.0
  0
LINE
  5
5CE
  8
0
 10
75.598440197363502
 20
48.921822333427542
 30
0.0
 11
75.598440197363502
 21
47.313971164827556
 31
0.0
  0
DIMENSION
  5
5E2
  8
2
  2
*D1
 10
75.598440197363502
 20
55.89297545258318
 30
0.0
 11
83.30677353069683
 21
57.76797545258318
 31
0.0
 70
     0
  1
%%c<>
 13
71.598440197363502
 23
48.921822333427542
 33
0.0
 14
75.598440197363502
 24
48.921822333427542
 34
0.0
  0
DIMENSION
  5
5F1
  8
2
  2
*D2
 10
76.598440197363502
 20
60.121712036509052
 30
0.0
 11
73.598440197363502
 21
61.996712036509052
 31
0.0
 70
     0
  1
%%c<>
 13
70.598440197363502
 23
47.313971164827556
 33
0.0
 14
76.598440197363502
 24
47.313971164827556
 34
0.0
1001
ACAD
1000
DSTYLE
1002
{
1070
   271
1070
     6
1002
}
  0
DIMENSION
  5
600
  8
2
  2
*D3
 10
78.098440197363502
 20
64.169967751690706
 30
0.0
 11
73.598440197363502
 21
66.044967751690706
 31
0.0
 70
     0
  1
%%c<>
 13
69.098440197363502
 23
49.313971164827556
 33
0.0
 14
78.098440197363502
 24
49.313971164827556
 34
0.0
  0
DIMENSION
  5
60D
  8
2
  2
*D4
 10
90.462147605073156
 20
47.313971164827556
 30
0.0
 11
90.462147605073156
 21
55.772304498160914
 31
0.0
 70
   128
 13
78.098440197363502
 23
49.313971164827556
 33
0.0
 14
76.598440197363502
 24
47.313971164827556
 34
0.0
 50
90.0
  0
DIMENSION
  5
61C
  8
2
  2
*D5
 10
95.882364259418054
 20
45.313971164827556
 30
0.0
 11
94.007364259418054
 21
47.313971164827571
 31
0.0
 70
     0
 13
78.098440197363502
 23
49.313971164827556
 33
0.0
 14
76.598440197363502
 24
45.313971164827556
 34
0.0
 50
90.0
  0
DIMENSION
  5
62B
  8
2
  2
*D6
 10
100.73178304539729
 20
41.313971164827556
 30
0.0
 11
98.856783045397364
 21
45.313971164827556
 31
0.0
 70
     0
 13
78.098440197363502
 23
49.313971164827556
 33
0.0
 14
80.794946370102096
 24
41.313971164827556
 34
0.0
 50
90.0
  0
DIMENSION
  5
639
  8
2
  2
*D7
 10
58.467897998492269
 20
43.213971164827562
 30
0.0
 11
56.592897998492269
 21
50.922304498160912
 31
0.0
 70
     0
 13
66.401934024624893
 23
41.313971164827556
 33
0.0
 14
71.368101812710051
 24
43.213971164827562
 34
0.0
 50
90.0
  0
DIMENSION
  5
649
  8
2
  2
*D8
 10
81.098440197363502
 20
34.649824000686522
 30
0.0
 11
73.598440197363502
 21
36.524824000686522
 31
0.0
 70
     0
  1
%%c<>
 13
66.098440197363502
 23
41.627481098940599
 33
0.0
 14
81.098440197363502
 24
41.627481098940599
 34
0.0
  0
ENDSEC
  0
EOF
