  0
SECTION
  2
HEADER
  9
$ACADVER
  1
AC1009
  9
$INSBASE
 10
0.0
 20
0.0
 30
0.0
  9
$EXTMIN
 10
54.515520002663919
 20
35.962846820807918
 30
0.0
  9
$EXTMAX
 10
101.861770694458
 20
87.691209417530828
 30
5.1493299999999991
  9
$LIMMIN
 10
0.0
 20
0.0
  9
$LIMMAX
 10
420.0
 20
297.0
  9
$ORTHOMODE
 70
     0
  9
$REGENMODE
 70
     1
  9
$FILLMODE
 70
     1
  9
$QTEXTMODE
 70
     0
  9
$MIRRTEXT
 70
     1
  9
$DRAGMODE
 70
     2
  9
$LTSCALE
 40
0.3
  9
$OSMODE
 70
    37
  9
$ATTMODE
 70
     1
  9
$TEXTSIZE
 40
2.5
  9
$TRACEWID
 40
1.0
  9
$TEXTSTYLE
  7
STANDARD
  9
$CLAYER
  8
2
  9
$CELTYPE
  6
BYLAYER
  9
$CECOLOR
 62
   256
  9
$DIMSCALE
 40
1.0
  9
$DIMASZ
 40
2.5
  9
$DIMEXO
 40
0.625
  9
$DIMDLI
 40
3.75
  9
$DIMRND
 40
0.0
  9
$DIMDLE
 40
0.0
  9
$DIMEXE
 40
1.25
  9
$DIMTP
 40
0.0
  9
$DIMTM
 40
0.0
  9
$DIMTXT
 40
2.5
  9
$DIMCEN
 40
2.5
  9
$DIMTSZ
 40
0.0
  9
$DIMTOL
 70
     0
  9
$DIMLIM
 70
     0
  9
$DIMTIH
 70
     0
  9
$DIMTOH
 70
     0
  9
$DIMSE1
 70
     0
  9
$DIMSE2
 70
     0
  9
$DIMTAD
 70
     1
  9
$DIMZIN
 70
     8
  9
$DIMBLK
  1

  9
$DIMASO
 70
     1
  9
$DIMSHO
 70
     1
  9
$DIMPOST
  1

  9
$DIMAPOST
  1

  9
$DIMALT
 70
     0
  9
$DIMALTD
 70
     3
  9
$DIMALTF
 40
0.03937007874016
  9
$DIMLFAC
 40
1.0
  9
$DIMTOFL
 70
     1
  9
$DIMTVP
 40
0.0
  9
$DIMTIX
 70
     0
  9
$DIMSOXD
 70
     0
  9
$DIMSAH
 70
     0
  9
$DIMBLK1
  1

  9
$DIMBLK2
  1

  9
$DIMSTYLE
  2
ISO-25
  9
$DIMCLRD
 70
     0
  9
$DIMCLRE
 70
     0
  9
$DIMCLRT
 70
     0
  9
$DIMTFAC
 40
1.0
  9
$DIMGAP
 40
0.625
  9
$LUNITS
 70
     2
  9
$LUPREC
 70
     4
  9
$SKETCHINC
 40
1.0
  9
$FILLETRAD
 40
10.0
  9
$AUNITS
 70
     0
  9
$AUPREC
 70
     0
  9
$MENU
  1
.
  9
$ELEVATION
 40
0.0
  9
$PELEVATION
 40
0.0
  9
$THICKNESS
 40
0.0
  9
$LIMCHECK
 70
     0
  9
$BLIPMODE
 70
     0
  9
$CHAMFERA
 40
10.0
  9
$CHAMFERB
 40
10.0
  9
$SKPOLY
 70
     0
  9
$TDCREATE
 40
2453434.618324467
  9
$TDUPDATE
 40
2453551.899085972
  9
$TDINDWG
 40
0.0321741435
  9
$TDUSRTIMER
 40
0.0321740278
  9
$USRTIMER
 70
     1
  9
$ANGBASE
 50
0.0
  9
$ANGDIR
 70
     0
  9
$PDMODE
 70
     0
  9
$PDSIZE
 40
0.0
  9
$PLINEWID
 40
0.0
  9
$COORDS
 70
     1
  9
$SPLFRAME
 70
     0
  9
$SPLINETYPE
 70
     6
  9
$SPLINESEGS
 70
     8
  9
$ATTDIA
 70
     0
  9
$ATTREQ
 70
     1
  9
$HANDLING
 70
-16383
  9
$HANDSEED
  5
497
  9
$SURFTAB1
 70
     6
  9
$SURFTAB2
 70
     6
  9
$SURFTYPE
 70
     6
  9
$SURFU
 70
     6
  9
$SURFV
 70
     6
  9
$UCSNAME
  2

  9
$UCSORG
 10
0.0
 20
0.0
 30
0.0
  9
$UCSXDIR
 10
1.0
 20
0.0
 30
0.0
  9
$UCSYDIR
 10
0.0
 20
1.0
 30
0.0
  9
$PUCSNAME
  2

  9
$PUCSORG
 10
0.0
 20
0.0
 30
0.0
  9
$PUCSXDIR
 10
1.0
 20
0.0
 30
0.0
  9
$PUCSYDIR
 10
0.0
 20
1.0
 30
0.0
  9
$USERI1
 70
     0
  9
$USERI2
 70
     0
  9
$USERI3
 70
     0
  9
$USERI4
 70
     0
  9
$USERI5
 70
     0
  9
$USERR1
 40
0.0
  9
$USERR2
 40
0.0
  9
$USERR3
 40
0.0
  9
$USERR4
 40
0.0
  9
$USERR5
 40
0.0
  9
$WORLDVIEW
 70
     1
  9
$SHADEDGE
 70
     3
  9
$SHADEDIF
 70
    70
  9
$TILEMODE
 70
     1
  9
$MAXACTVP
 70
    64
  9
$PLIMCHECK
 70
     0
  9
$PEXTMIN
 10
1.0000000000000000E+020
 20
1.0000000000000000E+020
 30
1.0000000000000000E+020
  9
$PEXTMAX
 10
-1.0000000000000000E+020
 20
-1.0000000000000000E+020
 30
-1.0000000000000000E+020
  9
$PLIMMIN
 10
0.0
 20
0.0
  9
$PLIMMAX
 10
420.0
 20
297.0
  9
$UNITMODE
 70
     0
  9
$VISRETAIN
 70
     1
  9
$PLINEGEN
 70
     0
  9
$PSLTSCALE
 70
     1
  0
ENDSEC
  0
SECTION
  2
TABLES
  0
TABLE
  2
VPORT
 70
     2
  0
VPORT
  2
*ACTIVE
 70
     0
 10
0.0
 20
0.0
 11
1.0
 21
1.0
 12
94.981785914254615
 22
61.831282397374281
 13
0.0
 23
0.0
 14
10.0
 24
10.0
 15
10.0
 25
10.0
 16
0.0
 26
0.0
 36
1.0
 17
0.0
 27
0.0
 37
0.0
 40
77.063261153497649
 41
2.5392405063291141
 42
50.0
 43
0.0
 44
0.0
 50
0.0
 51
0.0
 71
     0
 72
   100
 73
     1
 74
     3
 75
     0
 76
     0
 77
     0
 78
     0
  0
ENDTAB
  0
TABLE
  2
LTYPE
 70
     2
  0
LTYPE
  2
CONTINUOUS
 70
     0
  3
Solid line
 72
    65
 73
     0
 40
0.0
  0
LTYPE
  2
CENTER
 70
     0
  3
Center ____ _ ____ _ ____ _ ____ _ ____ _ ____
 72
    65
 73
     4
 40
50.799999999999997
 49
31.75
 49
-6.3499999999999988
 49
6.3499999999999988
 49
-6.3499999999999988
  0
ENDTAB
  0
TABLE
  2
LAYER
 70
     4
  0
LAYER
  2
0
 70
     0
 62
     7
  6
CONTINUOUS
  0
LAYER
  2
1
 70
     0
 62
     7
  6
CENTER
  0
LAYER
  2
DEFPOINTS
 70
     0
 62
     7
  6
CONTINUOUS
  0
LAYER
  2
2
 70
     0
 62
     7
  6
CONTINUOUS
  0
ENDTAB
  0
TABLE
  2
STYLE
 70
     3
  0
STYLE
  2
STANDARD
 70
     0
 40
0.0
 41
1.0
 50
0.0
 71
     0
 42
2.5
  3
txt
  4

  0
STYLE
  2
\U+00C9L\U+00C9R_\U+00C2S\U+00C2V\U+00C2B\U+00C2N
 70
     0
 40
1.0
 41
1.0
 50
0.0
 71
     0
 42
1.0
  3
\U+00E9l\U+00E9r \U+00E2S\U+00E2V\U+00E2b\U+00E2N
  4

  0
STYLE
  2

 70
     1
 40
0.0
 41
1.0
 50
0.0
 71
     0
 42
2.5
  3
ltypeshp.shx
  4

  0
ENDTAB
  0
TABLE
  2
VIEW
 70
     0
  0
ENDTAB
  0
TABLE
  2
UCS
 70
     0
  0
ENDTAB
  0
TABLE
  2
APPID
 70
     1
  0
APPID
  2
ACAD
 70
     0
  0
ENDTAB
  0
TABLE
  2
DIMSTYLE
 70
     2
  0
DIMSTYLE
  2
ISO-25
 70
     0
  3

  4

  5

  6

  7

 40
1.0
 41
2.5
 42
0.625
 43
3.75
 44
1.25
 45
0.0
 46
0.0
 47
0.0
 48
0.0
140
2.5
141
2.5
142
0.0
143
0.03937007874016
144
1.0
145
0.0
146
1.0
147
0.625
 71
     0
 72
     0
 73
     0
 74
     0
 75
     0
 76
     0
 77
     1
 78
     8
170
     0
171
     3
172
     1
173
     0
174
     0
175
     0
176
     0
177
     0
178
     0
  0
DIMSTYLE
  2
STANDARD
 70
     0
  3

  4

  5

  6

  7

 40
1.0
 41
0.18
 42
0.0625
 43
0.38
 44
0.18
 45
0.0
 46
0.0
 47
0.0
 48
0.0
140
0.18
141
0.09
142
0.0
143
25.399999999999999
144
1.0
145
0.0
146
1.0
147
0.09
 71
     0
 72
     0
 73
     1
 74
     1
 75
     0
 76
     0
 77
     0
 78
     0
170
     0
171
     2
172
     0
173
     0
174
     0
175
     0
176
     0
177
     0
178
     0
  0
ENDTAB
  0
ENDSEC
  0
SECTION
  2
BLOCKS
  0
BLOCK
  8
0
  2
$MODEL_SPACE
 70
     0
 10
0.0
 20
0.0
 30
0.0
  3
$MODEL_SPACE
  1

  0
ENDBLK
  5
21
  8
0
  0
BLOCK
 67
     1
  8
0
  2
$PAPER_SPACE
 70
     0
 10
0.0
 20
0.0
 30
0.0
  3
$PAPER_SPACE
  1

  0
ENDBLK
  5
1D
 67
     1
  8
0
  0
BLOCK
  8
0
  2
*D1
 70
     1
 10
0.0
 20
0.0
 30
0.0
  3
*D1
  1

  0
LINE
  5
466
  8
2
 62
     0
 10
81.994436851568409
 20
66.720424205438064
 30
0.0
 11
96.016587994655779
 21
66.72042420543805
 31
0.0
  0
LINE
  5
467
  8
2
 62
     0
 10
82.958809968731344
 20
62.225202040933723
 30
0.0
 11
96.016587994655779
 21
62.225202040933723
 31
0.0
  0
LINE
  5
468
  8
2
 62
     0
 10
94.766587994655779
 20
69.220424205438064
 30
0.0
 11
94.766587994655779
 21
71.720424205438064
 31
0.0
  0
LINE
  5
469
  8
2
 62
     0
 10
94.766587994655779
 20
59.725202040933723
 30
0.0
 11
94.766587994655779
 21
47.850202040933702
 31
0.0
  0
LINE
  5
46A
  8
2
 62
     0
 10
94.766587994655779
 20
66.720424205438064
 30
0.0
 11
94.766587994655779
 21
62.225202040933723
 31
0.0
  0
SOLID
  5
46B
  8
2
 62
     0
 10
94.349921327989094
 20
69.220424205438064
 30
0.0
 11
95.183254661322437
 21
69.220424205438064
 31
0.0
 12
94.766587994655779
 22
66.720424205438064
 32
0.0
 13
94.766587994655779
 23
66.720424205438064
 33
0.0
  0
SOLID
  5
46C
  8
2
 62
     0
 10
94.349921327989094
 20
59.725202040933723
 30
0.0
 11
95.183254661322437
 21
59.725202040933723
 31
0.0
 12
94.766587994655779
 22
62.225202040933723
 32
0.0
 13
94.766587994655779
 23
62.225202040933723
 33
0.0
  0
TEXT
  5
46D
  8
2
 62
     0
 10
94.141587994655765
 20
48.475202040933723
 30
0.0
 40
2.5
  1
4.5
 50
90.0
  0
POINT
  5
46E
  8
DEFPOINTS
 62
     0
 10
81.369436851568409
 20
66.720424205438064
 30
0.0
  0
POINT
  5
46F
  8
DEFPOINTS
 62
     0
 10
82.333809968731344
 20
62.225202040933723
 30
0.0
  0
POINT
  5
470
  8
DEFPOINTS
 62
     0
 10
94.766587994655779
 20
62.225202040933723
 30
0.0
  0
ENDBLK
  5
39E
  8
0
  0
BLOCK
  8
0
  2
*D2
 70
     1
 10
0.0
 20
0.0
 30
0.0
  3
*D2
  1

  0
LINE
  5
454
  8
2
 62
     0
 10
81.994436851568409
 20
66.720424205438064
 30
0.0
 11
101.861770694458
 21
66.72042420543805
 31
0.0
  0
LINE
  5
455
  8
2
 62
     0
 10
87.458809968731373
 20
56.725202040933709
 30
0.0
 11
101.861770694458
 21
56.725202040933709
 31
0.0
  0
LINE
  5
456
  8
2
 62
     0
 10
100.611770694458
 20
64.22042420543805
 30
0.0
 11
100.611770694458
 21
59.225202040933709
 31
0.0
  0
SOLID
  5
457
  8
2
 62
     0
 10
100.1951040277913
 20
64.22042420543805
 30
0.0
 11
101.0284373611246
 21
64.22042420543805
 31
0.0
 12
100.611770694458
 22
66.72042420543805
 32
0.0
 13
100.611770694458
 23
66.72042420543805
 33
0.0
  0
SOLID
  5
458
  8
2
 62
     0
 10
100.1951040277913
 20
59.225202040933709
 30
0.0
 11
101.0284373611246
 21
59.225202040933709
 31
0.0
 12
100.611770694458
 22
56.725202040933709
 32
0.0
 13
100.611770694458
 23
56.725202040933709
 33
0.0
  0
TEXT
  5
459
  8
2
 62
     0
 10
99.986770694458002
 20
60.264479789852558
 30
0.0
 40
2.5
  1
10
 50
90.0
  0
POINT
  5
45A
  8
DEFPOINTS
 62
     0
 10
81.369436851568409
 20
66.720424205438064
 30
0.0
  0
POINT
  5
45B
  8
DEFPOINTS
 62
     0
 10
86.833809968731373
 20
56.725202040933709
 30
0.0
  0
POINT
  5
45C
  8
DEFPOINTS
 62
     0
 10
100.611770694458
 20
56.725202040933709
 30
0.0
  0
ENDBLK
  5
3B6
  8
0
  0
BLOCK
  8
0
  2
*D3
 70
     1
 10
0.0
 20
0.0
 30
0.0
  3
*D3
  1

  0
LINE
  5
3B9
  8
2
 62
     0
 10
70.708809968731344
 20
59.025202040933721
 30
0.0
 11
56.390520002663948
 21
59.025202040933721
 31
0.0
  0
LINE
  5
3BA
  8
2
 62
     0
 10
66.208809968731316
 20
56.725202040933709
 30
0.0
 11
56.390520002663948
 21
56.725202040933709
 31
0.0
  0
LINE
  5
3BB
  8
2
 62
     0
 10
57.640520002663948
 20
61.525202040933721
 30
0.0
 11
57.640520002663948
 21
64.025202040933721
 31
0.0
  0
LINE
  5
3BC
  8
2
 62
     0
 10
57.640520002663948
 20
54.225202040933709
 30
0.0
 11
57.640520002663941
 21
45.475202040933709
 31
0.0
  0
LINE
  5
3BD
  8
2
 62
     0
 10
57.640520002663948
 20
59.025202040933721
 30
0.0
 11
57.640520002663948
 21
56.725202040933709
 31
0.0
  0
SOLID
  5
3BE
  8
2
 62
     0
 10
57.223853335997283
 20
61.525202040933721
 30
0.0
 11
58.057186669330612
 21
61.525202040933721
 31
0.0
 12
57.640520002663948
 22
59.025202040933721
 32
0.0
 13
57.640520002663948
 23
59.025202040933721
 33
0.0
  0
SOLID
  5
3BF
  8
2
 62
     0
 10
57.223853335997283
 20
54.225202040933709
 30
0.0
 11
58.057186669330612
 21
54.225202040933709
 31
0.0
 12
57.640520002663948
 22
56.725202040933709
 32
0.0
 13
57.640520002663948
 23
56.725202040933709
 33
0.0
  0
TEXT
  5
3C0
  8
2
 62
     0
 10
57.015520002663933
 20
46.100202040933723
 30
0.0
 40
2.5
  1
2.3
 50
90.0
  0
POINT
  5
3C1
  8
DEFPOINTS
 62
     0
 10
71.333809968731344
 20
59.025202040933721
 30
0.0
  0
POINT
  5
3C2
  8
DEFPOINTS
 62
     0
 10
66.833809968731316
 20
56.725202040933709
 30
0.0
  0
POINT
  5
3C3
  8
DEFPOINTS
 62
     0
 10
57.640520002663948
 20
56.725202040933709
 30
0.0
  0
ENDBLK
  5
3C5
  8
0
  0
BLOCK
  8
0
  2
*D4
 70
     1
 10
0.0
 20
0.0
 30
0.0
  3
*D4
  1

  0
LINE
  5
45D
  8
2
 62
     0
 10
66.833809968731316
 20
56.100202040933709
 30
0.0
 11
66.833809968731316
 21
47.843921812696159
 31
0.0
  0
LINE
  5
45E
  8
2
 62
     0
 10
86.833809968731344
 20
56.100202040933723
 30
0.0
 11
86.833809968731344
 21
47.843921812696159
 31
0.0
  0
LINE
  5
45F
  8
2
 62
     0
 10
69.333809968731316
 20
49.093921812696159
 30
0.0
 11
84.333809968731344
 21
49.093921812696159
 31
0.0
  0
SOLID
  5
460
  8
2
 62
     0
 10
69.333809968731316
 20
49.510588479362831
 30
0.0
 11
69.333809968731316
 21
48.677255146029502
 31
0.0
 12
66.833809968731316
 22
49.093921812696159
 32
0.0
 13
66.833809968731316
 23
49.093921812696159
 33
0.0
  0
SOLID
  5
461
  8
2
 62
     0
 10
84.333809968731344
 20
49.510588479362831
 30
0.0
 11
84.333809968731344
 21
48.677255146029502
 31
0.0
 12
86.833809968731344
 22
49.093921812696159
 32
0.0
 13
86.833809968731344
 23
49.093921812696159
 33
0.0
  0
INSERT
  5
462
  8
2
  2
*U11
 10
0.0
 20
0.0
 30
0.0
  0
POINT
  5
463
  8
DEFPOINTS
 62
     0
 10
66.833809968731316
 20
56.725202040933709
 30
0.0
  0
POINT
  5
464
  8
DEFPOINTS
 62
     0
 10
86.833809968731344
 20
56.725202040933723
 30
0.0
  0
POINT
  5
465
  8
DEFPOINTS
 62
     0
 10
86.833809968731344
 20
49.093921812696159
 30
0.0
  0
ENDBLK
  5
3D2
  8
0
  0
BLOCK
  8
0
  2
*D5
 70
     1
 10
0.0
 20
0.0
 30
0.0
  3
*D5
  1

  0
LINE
  5
41C
  8
2
 62
     0
 10
74.583809968731344
 20
67.350202040933723
 30
0.0
 11
74.583809968731344
 21
75.068019196731186
 31
0.0
  0
LINE
  5
41D
  8
2
 62
     0
 10
79.083809968731344
 20
67.350202040933723
 30
0.0
 11
79.083809968731344
 21
75.068019196731186
 31
0.0
  0
LINE
  5
41E
  8
2
 62
     0
 10
72.083809968731344
 20
73.818019196731186
 30
0.0
 11
69.583809968731344
 21
73.818019196731186
 31
0.0
  0
LINE
  5
41F
  8
2
 62
     0
 10
81.583809968731344
 20
73.818019196731186
 30
0.0
 11
92.833809968731344
 21
73.818019196731186
 31
0.0
  0
LINE
  5
420
  8
2
 62
     0
 10
74.583809968731344
 20
73.818019196731186
 30
0.0
 11
79.083809968731344
 21
73.818019196731186
 31
0.0
  0
SOLID
  5
421
  8
2
 62
     0
 10
72.083809968731344
 20
74.234685863397857
 30
0.0
 11
72.083809968731344
 21
73.401352530064514
 31
0.0
 12
74.583809968731344
 22
73.818019196731186
 32
0.0
 13
74.583809968731344
 23
73.818019196731186
 33
0.0
  0
SOLID
  5
422
  8
2
 62
     0
 10
81.583809968731344
 20
74.234685863397857
 30
0.0
 11
81.583809968731344
 21
73.401352530064514
 31
0.0
 12
79.083809968731344
 22
73.818019196731186
 32
0.0
 13
79.083809968731344
 23
73.818019196731186
 33
0.0
  0
INSERT
  5
423
  8
2
  2
*U10
 10
0.0
 20
0.0
 30
0.0
  0
POINT
  5
424
  8
DEFPOINTS
 62
     0
 10
74.583809968731344
 20
66.725202040933723
 30
0.0
  0
POINT
  5
425
  8
DEFPOINTS
 62
     0
 10
79.083809968731344
 20
66.725202040933723
 30
0.0
  0
POINT
  5
426
  8
DEFPOINTS
 62
     0
 10
79.083809968731344
 20
73.818019196731186
 30
0.0
  0
ENDBLK
  5
3EE
  8
0
  0
BLOCK
  8
0
  2
*D6
 70
     1
 10
0.0
 20
0.0
 30
0.0
  3
*D6
  1

  0
LINE
  5
413
  8
2
 62
     0
 10
71.333809968731344
 20
62.850202040933723
 30
0.0
 11
71.333809968731344
 21
80.926987543611347
 31
0.0
  0
LINE
  5
414
  8
2
 62
     0
 10
82.333809968731344
 20
62.850202040933723
 30
0.0
 11
82.333809968731344
 21
80.926987543611347
 31
0.0
  0
LINE
  5
415
  8
2
 62
     0
 10
73.833809968731344
 20
79.676987543611361
 30
0.0
 11
79.833809968731344
 21
79.676987543611361
 31
0.0
  0
SOLID
  5
416
  8
2
 62
     0
 10
73.833809968731344
 20
80.093654210278032
 30
0.0
 11
73.833809968731344
 21
79.260320876944689
 31
0.0
 12
71.333809968731344
 22
79.676987543611361
 32
0.0
 13
71.333809968731344
 23
79.676987543611361
 33
0.0
  0
SOLID
  5
417
  8
2
 62
     0
 10
79.833809968731344
 20
80.093654210278032
 30
0.0
 11
79.833809968731344
 21
79.260320876944689
 31
0.0
 12
82.333809968731344
 22
79.676987543611361
 32
0.0
 13
82.333809968731344
 23
79.676987543611361
 33
0.0
  0
INSERT
  5
418
  8
2
  2
*U9
 10
0.0
 20
0.0
 30
0.0
  0
POINT
  5
419
  8
DEFPOINTS
 62
     0
 10
71.333809968731344
 20
62.225202040933723
 30
0.0
  0
POINT
  5
41A
  8
DEFPOINTS
 62
     0
 10
82.333809968731344
 20
62.225202040933723
 30
0.0
  0
POINT
  5
41B
  8
DEFPOINTS
 62
     0
 10
82.333809968731344
 20
79.676987543611361
 30
0.0
  0
ENDBLK
  5
3FB
  8
0
  0
BLOCK
  8
0
  2
*D7
 70
     1
 10
0.0
 20
0.0
 30
0.0
  3
*D7
  1

  0
LINE
  5
40A
  8
2
 62
     0
 10
70.833809968731344
 20
67.350202040933723
 30
0.0
 11
70.833809968731344
 21
85.816209417530828
 31
0.0
  0
LINE
  5
40B
  8
2
 62
     0
 10
82.833809968731344
 20
67.345424205438064
 30
0.0
 11
82.833809968731344
 21
85.816209417530828
 31
0.0
  0
LINE
  5
40C
  8
2
 62
     0
 10
73.333809968731344
 20
84.566209417530828
 30
0.0
 11
80.333809968731344
 21
84.566209417530828
 31
0.0
  0
SOLID
  5
40D
  8
2
 62
     0
 10
73.333809968731344
 20
84.982876084197486
 30
0.0
 11
73.333809968731344
 21
84.149542750864157
 31
0.0
 12
70.833809968731344
 22
84.566209417530828
 32
0.0
 13
70.833809968731344
 23
84.566209417530828
 33
0.0
  0
SOLID
  5
40E
  8
2
 62
     0
 10
80.333809968731344
 20
84.982876084197486
 30
0.0
 11
80.333809968731344
 21
84.149542750864157
 31
0.0
 12
82.833809968731344
 22
84.566209417530828
 32
0.0
 13
82.833809968731344
 23
84.566209417530828
 33
0.0
  0
INSERT
  5
40F
  8
2
  2
*U8
 10
0.0
 20
0.0
 30
0.0
  0
POINT
  5
410
  8
DEFPOINTS
 62
     0
 10
70.833809968731344
 20
66.725202040933723
 30
0.0
  0
POINT
  5
411
  8
DEFPOINTS
 62
     0
 10
82.833809968731344
 20
66.720424205438064
 30
0.0
  0
POINT
  5
412
  8
DEFPOINTS
 62
     0
 10
82.833809968731344
 20
84.566209417530828
 30
0.0
  0
ENDBLK
  5
408
  8
0
  0
BLOCK
  8
0
  2
*U8
 70
     1
 10
0.0
 20
0.0
 30
0.0
  3
*U8
  1

  0
TEXT
  5
484
  8
2
 62
     0
 10
73.917143302064673
 20
85.191209417530828
 30
0.0
 40
2.5
  1
\U+2205
  0
TEXT
  5
485
  8
2
 62
     0
 10
76.417143302064673
 20
85.191209417530828
 30
0.0
 40
2.5
  1
12
  0
ENDBLK
  5
487
  8
0
  0
BLOCK
  8
0
  2
*U9
 70
     1
 10
0.0
 20
0.0
 30
0.0
  3
*U9
  1

  0
TEXT
  5
489
  8
2
 62
     0
 10
74.333809968731344
 20
80.301987543611347
 30
0.0
 40
2.5
  1
\U+2205
  0
TEXT
  5
48A
  8
2
 62
     0
 10
76.833809968731344
 20
80.301987543611347
 30
0.0
 40
2.5
  1
11
  0
ENDBLK
  5
48C
  8
0
  0
BLOCK
  8
0
  2
*U10
 70
     1
 10
0.0
 20
0.0
 30
0.0
  3
*U10
  1

  0
TEXT
  5
48E
  8
2
 62
     0
 10
84.708809968731344
 20
74.443019196731186
 30
0.0
 40
2.5
  1
\U+2205
  0
TEXT
  5
48F
  8
2
 62
     0
 10
87.208809968731344
 20
74.443019196731186
 30
0.0
 40
2.5
  1
4.5
  0
ENDBLK
  5
491
  8
0
  0
BLOCK
  8
0
  2
*U11
 70
     1
 10
0.0
 20
0.0
 30
0.0
  3
*U11
  1

  0
TEXT
  5
493
  8
2
 62
     0
 10
73.70880996873133
 20
49.718921812696159
 30
0.0
 40
2.5
  1
\U+2205
  0
TEXT
  5
494
  8
2
 62
     0
 10
76.20880996873133
 20
49.718921812696159
 30
0.0
 40
2.5
  1
20
  0
ENDBLK
  5
496
  8
0
  0
ENDSEC
  0
SECTION
  2
ENTITIES
  0
TEXT
  5
B1
  8
2
 10
55.739773833419669
 20
36.204746249379347
 30
0.0
 40
2.5399440000000002
  1
No. 102.020.041._
 51
-0.0000015352344868
  7
\U+00C9L\U+00C9R_\U+00C2S\U+00C2V\U+00C2B\U+00C2N
  0
LINE
  5
124
  8
0
 39
5.0
 10
76.833809968731344
 20
66.725202040933723
 30
0.0
 11
72.201636163822187
 21
66.725202040933723
 31
0.0
  0
LINE
  5
125
  8
0
 39
5.1493299999999991
 10
72.29818308589428
 20
66.720424205438064
 30
0.0
 11
72.29818308589428
 21
66.720424205438064
 31
0.0
  0
LINE
  5
127
  8
0
 39
5.1493299999999991
 10
72.201636163822144
 20
66.725202040933723
 30
0.0
 11
71.992200004383207
 21
66.711691451120601
 31
0.0
  0
LINE
  5
128
  8
0
 39
5.1493299999999991
 10
71.992200004383207
 20
66.711691451120601
 30
0.0
 11
71.858512926784684
 21
66.692624169636545
 31
0.0
  0
LINE
  5
129
  8
0
 39
5.1493299999999991
 10
71.858512926784684
 20
66.692624169636545
 30
0.0
 11
71.736244053360963
 21
66.664219875579917
 31
0.0
  0
LINE
  5
12A
  8
0
 39
5.1493299999999991
 10
71.736244053360963
 20
66.664219875579917
 30
0.0
 11
71.625121217752167
 21
66.627113554196697
 31
0.0
  0
LINE
  5
12B
  8
0
 39
5.1493299999999991
 10
71.625121217752167
 20
66.627113554196697
 30
0.0
 11
71.523910710476756
 21
66.581377727507785
 31
0.0
  0
LINE
  5
12C
  8
0
 39
5.1493299999999991
 10
71.523910710476756
 20
66.581377727507785
 30
0.0
 11
71.432031937804467
 21
66.527665511264388
 31
0.0
  0
LINE
  5
12D
  8
0
 39
5.1493299999999991
 10
71.432031937804467
 20
66.527665511264388
 30
0.0
 11
71.348360042878966
 21
66.466146193109097
 31
0.0
  0
LINE
  5
12E
  8
0
 39
5.1493299999999991
 10
71.348360042878966
 20
66.466146193109097
 30
0.0
 11
71.272423284595206
 21
66.397569654414866
 31
0.0
  0
LINE
  5
12F
  8
0
 39
5.1493299999999991
 10
71.272423284595206
 20
66.397569654414866
 30
0.0
 11
71.20309076259511
 21
66.322002373700855
 31
0.0
  0
LINE
  5
130
  8
0
 39
5.1493299999999991
 10
71.20309076259511
 20
66.322002373700855
 30
0.0
 11
71.13967303052317
 21
66.240000701096534
 31
0.0
  0
LINE
  5
131
  8
0
 39
5.1493299999999991
 10
71.13967303052317
 20
66.240000701096534
 30
0.0
 11
71.081148040646553
 21
66.151727880742783
 31
0.0
  0
LINE
  5
132
  8
0
 39
5.1493299999999991
 10
71.081148040646553
 20
66.151727880742783
 30
0.0
 11
71.02694124273674
 21
66.057939837514311
 31
0.0
  0
LINE
  5
133
  8
0
 39
5.1493299999999991
 10
71.02694124273674
 20
66.057939837514311
 30
0.0
 11
70.976030589060827
 21
65.958799815551913
 31
0.0
  0
LINE
  5
134
  8
0
 39
5.1493299999999991
 10
70.976030589060827
 20
65.958799815551913
 30
0.0
 11
70.9276238241399
 21
65.854870208486872
 31
0.0
  0
LINE
  5
135
  8
0
 39
5.1493299999999991
 10
70.9276238241399
 20
65.854870208486872
 30
0.0
 11
70.88089847498631
 21
65.746199364333094
 31
0.0
  0
LINE
  5
136
  8
0
 39
5.1493299999999991
 10
70.88089847498631
 20
65.746199364333094
 30
0.0
 11
70.88089847498631
 21
65.746199364333094
 31
0.0
  0
LINE
  5
137
  8
0
 39
5.1493299999999991
 10
70.88089847498631
 20
65.746199364333094
 30
0.0
 11
70.765493405102461
 21
65.11326096408898
 31
0.0
  0
LINE
  5
138
  8
0
 39
5.1493299999999991
 10
70.765493405102461
 20
65.11326096408898
 30
0.0
 11
70.634261216957015
 21
64.495386461040823
 31
0.0
  0
LINE
  5
139
  8
0
 39
5.1493299999999991
 10
70.634261216957015
 20
64.495386461040823
 30
0.0
 11
70.486935857285658
 21
63.891559850957591
 31
0.0
  0
LINE
  5
13A
  8
0
 39
5.1493299999999991
 10
70.486935857285658
 20
63.891559850957591
 30
0.0
 11
70.32280981882154
 21
63.300275257997839
 31
0.0
  0
LINE
  5
13B
  8
0
 39
5.1493299999999991
 10
70.32280981882154
 20
63.300275257997839
 30
0.0
 11
70.141617048300247
 21
62.720516677930441
 31
0.0
  0
LINE
  5
13C
  8
0
 39
5.1493299999999991
 10
70.141617048300247
 20
62.720516677930441
 30
0.0
 11
69.942238801961139
 21
62.150802408920981
 31
0.0
  0
LINE
  5
13D
  8
0
 39
5.1493299999999991
 10
69.942238801961139
 20
62.150802408920981
 30
0.0
 11
69.724402983038118
 21
61.590013637614867
 31
0.0
  0
LINE
  5
13E
  8
0
 39
5.1493299999999991
 10
69.724402983038118
 20
61.590013637614867
 30
0.0
 11
69.487389997260792
 21
61.036438869923792
 31
0.0
  0
LINE
  5
13F
  8
0
 39
5.1493299999999991
 10
69.487389997260792
 20
61.036438869923792
 30
0.0
 11
69.230849112746611
 21
60.489376572488773
 31
0.0
  0
LINE
  5
140
  8
0
 39
5.1493299999999991
 10
69.230849112746611
 20
60.489376572488773
 30
0.0
 11
68.953957926101765
 21
59.947121294723189
 31
0.0
  0
LINE
  5
141
  8
0
 39
5.1493299999999991
 10
68.953957926101765
 20
59.947121294723189
 30
0.0
 11
68.656238722313233
 21
59.408566310276001
 31
0.0
  0
LINE
  5
142
  8
0
 39
5.1493299999999991
 10
68.656238722313233
 20
59.408566310276001
 30
0.0
 11
68.336881184990702
 21
58.872211786807497
 31
0.0
  0
LINE
  5
143
  8
0
 39
5.1493299999999991
 10
68.336881184990702
 20
58.872211786807497
 30
0.0
 11
67.995722069993263
 21
58.337035676584861
 31
0.0
  0
LINE
  5
144
  8
0
 39
5.1493299999999991
 10
67.995722069993263
 20
58.337035676584861
 30
0.0
 11
67.631642633560233
 21
57.801556277773628
 31
0.0
  0
LINE
  5
145
  8
0
 39
5.1493299999999991
 10
67.631642633560233
 20
57.801556277773628
 30
0.0
 11
67.244467544547234
 21
57.264545924394028
 31
0.0
  0
LINE
  5
146
  8
0
 39
5.1493299999999991
 10
67.244467544547234
 20
57.264545924394028
 30
0.0
 11
66.83380996873133
 21
56.725202040933731
 31
0.0
  0
LINE
  5
2E3
  8
1
 10
76.833809968731344
 20
67.225202040933723
 30
0.0
 11
76.833809968731344
 21
56.225202040933731
 31
0.0
  0
LINE
  5
2E6
  8
0
 10
74.583809968731344
 20
66.725202040933723
 30
0.0
 11
74.583809968731344
 21
62.225202040933723
 31
0.0
  0
LINE
  5
2E9
  8
0
 10
71.333809968731344
 20
62.225202040933723
 30
0.0
 11
76.833809968731344
 21
62.225202040933723
 31
0.0
  0
LINE
  5
2EA
  8
0
 10
66.833809968731344
 20
56.725202040933723
 30
0.0
 11
76.833809968731344
 21
56.725202040933723
 31
0.0
  0
LINE
  5
2EE
  8
0
 10
71.333809968731344
 20
59.025202040933721
 30
0.0
 11
76.833809968731344
 21
59.025202040933721
 31
0.0
  0
LINE
  5
332
  8
0
 10
71.333809968731344
 20
62.225202040933723
 30
0.0
 11
71.333809968731344
 21
59.025202040933721
 31
0.0
  0
LINE
  5
335
  8
0
 10
71.333809968731344
 20
59.025202040933721
 30
0.0
 11
66.833809968731344
 21
56.725202040933723
 31
0.0
  0
LINE
  5
338
  8
0
 10
72.201636163822144
 20
66.725202040933723
 30
0.0
 11
76.833809968731344
 21
66.725202040933723
 31
0.0
  0
LINE
  5
354
  8
1
 10
70.73380996873135
 20
66.725202040933723
 30
0.0
 11
70.933809968731339
 21
66.725202040933723
 31
0.0
  0
LINE
  5
355
  8
1
 10
70.833809968731344
 20
66.825202040933704
 30
0.0
 11
70.833809968731344
 21
66.625202040933729
 31
0.0
  0
LINE
  5
360
  8
0
 39
5.1493299999999991
 10
86.423152392915455
 20
57.264545924394028
 30
0.0
 11
86.833809968731359
 21
56.725202040933731
 31
0.0
  0
LINE
  5
361
  8
0
 39
5.1493299999999991
 10
86.035977303902456
 20
57.801556277773628
 30
0.0
 11
86.423152392915455
 21
57.264545924394028
 31
0.0
  0
LINE
  5
362
  8
0
 39
5.1493299999999991
 10
85.671897867469426
 20
58.337035676584861
 30
0.0
 11
86.035977303902456
 21
57.801556277773628
 31
0.0
  0
LINE
  5
363
  8
0
 39
5.1493299999999991
 10
85.330738752471987
 20
58.872211786807497
 30
0.0
 11
85.671897867469426
 21
58.337035676584861
 31
0.0
  0
LINE
  5
364
  8
0
 39
5.1493299999999991
 10
85.011381215149441
 20
59.408566310276001
 30
0.0
 11
85.330738752471987
 21
58.872211786807497
 31
0.0
  0
LINE
  5
365
  8
0
 39
5.1493299999999991
 10
84.713662011360924
 20
59.947121294723189
 30
0.0
 11
85.011381215149441
 21
59.408566310276001
 31
0.0
  0
LINE
  5
366
  8
0
 39
5.1493299999999991
 10
84.436770824716064
 20
60.489376572488773
 30
0.0
 11
84.713662011360924
 21
59.947121294723189
 31
0.0
  0
LINE
  5
367
  8
0
 39
5.1493299999999991
 10
84.180229940201883
 20
61.036438869923792
 30
0.0
 11
84.436770824716064
 21
60.489376572488773
 31
0.0
  0
LINE
  5
368
  8
0
 39
5.1493299999999991
 10
83.943216954424571
 20
61.590013637614867
 30
0.0
 11
84.180229940201883
 21
61.036438869923792
 31
0.0
  0
LINE
  5
369
  8
0
 39
5.1493299999999991
 10
83.725381135501536
 20
62.150802408920981
 30
0.0
 11
83.943216954424571
 21
61.590013637614867
 31
0.0
  0
LINE
  5
36A
  8
0
 39
5.1493299999999991
 10
83.526002889162442
 20
62.720516677930441
 30
0.0
 11
83.725381135501536
 21
62.150802408920981
 31
0.0
  0
LINE
  5
36B
  8
0
 39
5.1493299999999991
 10
83.344810118641149
 20
63.300275257997839
 30
0.0
 11
83.526002889162442
 21
62.720516677930441
 31
0.0
  0
LINE
  5
36C
  8
0
 39
5.1493299999999991
 10
83.180684080177031
 20
63.891559850957591
 30
0.0
 11
83.344810118641149
 21
63.300275257997839
 31
0.0
  0
LINE
  5
36D
  8
0
 39
5.1493299999999991
 10
83.033358720505674
 20
64.495386461040823
 30
0.0
 11
83.180684080177031
 21
63.891559850957591
 31
0.0
  0
LINE
  5
36E
  8
0
 39
5.1493299999999991
 10
82.902126532360228
 20
65.11326096408898
 30
0.0
 11
83.033358720505674
 21
64.495386461040823
 31
0.0
  0
LINE
  5
36F
  8
0
 39
5.1493299999999991
 10
82.786721462476379
 20
65.746199364333094
 30
0.0
 11
82.902126532360228
 21
65.11326096408898
 31
0.0
  0
LINE
  5
370
  8
0
 39
5.1493299999999991
 10
82.786721462476379
 20
65.746199364333094
 30
0.0
 11
82.786721462476379
 21
65.746199364333094
 31
0.0
  0
LINE
  5
371
  8
0
 39
5.1493299999999991
 10
82.739996113322775
 20
65.854870208486872
 30
0.0
 11
82.786721462476379
 21
65.746199364333094
 31
0.0
  0
LINE
  5
372
  8
0
 39
5.1493299999999991
 10
82.691589348401862
 20
65.958799815551913
 30
0.0
 11
82.739996113322775
 21
65.854870208486872
 31
0.0
  0
LINE
  5
373
  8
0
 39
5.1493299999999991
 10
82.640678694725949
 20
66.057939837514311
 30
0.0
 11
82.691589348401862
 21
65.958799815551913
 31
0.0
  0
LINE
  5
374
  8
0
 39
5.1493299999999991
 10
82.586471896816136
 20
66.151727880742783
 30
0.0
 11
82.640678694725949
 21
66.057939837514311
 31
0.0
  0
LINE
  5
375
  8
0
 39
5.1493299999999991
 10
82.527946906939505
 20
66.240000701096534
 30
0.0
 11
82.586471896816136
 21
66.151727880742783
 31
0.0
  0
LINE
  5
376
  8
0
 39
5.1493299999999991
 10
82.464529174867579
 20
66.322002373700855
 30
0.0
 11
82.527946906939505
 21
66.240000701096534
 31
0.0
  0
LINE
  5
377
  8
0
 39
5.1493299999999991
 10
82.395196652867469
 20
66.397569654414866
 30
0.0
 11
82.464529174867579
 21
66.322002373700855
 31
0.0
  0
LINE
  5
378
  8
0
 39
5.1493299999999991
 10
82.319259894583709
 20
66.466146193109097
 30
0.0
 11
82.395196652867469
 21
66.397569654414866
 31
0.0
  0
LINE
  5
379
  8
0
 39
5.1493299999999991
 10
82.235587999658222
 20
66.527665511264388
 30
0.0
 11
82.319259894583709
 21
66.466146193109097
 31
0.0
  0
LINE
  5
37A
  8
0
 39
5.1493299999999991
 10
82.143709226985933
 20
66.581377727507785
 30
0.0
 11
82.235587999658222
 21
66.527665511264388
 31
0.0
  0
LINE
  5
37B
  8
0
 39
5.1493299999999991
 10
82.042498719710522
 20
66.627113554196697
 30
0.0
 11
82.143709226985933
 21
66.581377727507785
 31
0.0
  0
LINE
  5
37C
  8
0
 39
5.1493299999999991
 10
81.931375884101726
 20
66.664219875579917
 30
0.0
 11
82.042498719710522
 21
66.627113554196697
 31
0.0
  0
LINE
  5
37D
  8
0
 39
5.1493299999999991
 10
81.809107010678005
 20
66.692624169636545
 30
0.0
 11
81.931375884101726
 21
66.664219875579917
 31
0.0
  0
LINE
  5
37E
  8
0
 39
5.1493299999999991
 10
81.675419933079468
 20
66.711691451120601
 30
0.0
 11
81.809107010678005
 21
66.692624169636545
 31
0.0
  0
LINE
  5
37F
  8
0
 39
5.1493299999999991
 10
81.465983773640531
 20
66.725202040933723
 30
0.0
 11
81.675419933079468
 21
66.711691451120601
 31
0.0
  0
LINE
  5
380
  8
0
 39
5.1493299999999991
 10
81.369436851568409
 20
66.720424205438064
 30
0.0
 11
81.369436851568409
 21
66.720424205438064
 31
0.0
  0
LINE
  5
381
  8
0
 39
5.0
 10
76.833809968731344
 20
66.725202040933723
 30
0.0
 11
81.465983773640502
 21
66.725202040933723
 31
0.0
  0
LINE
  5
382
  8
0
 10
82.333809968731344
 20
59.025202040933721
 30
0.0
 11
86.833809968731344
 21
56.725202040933723
 31
0.0
  0
LINE
  5
383
  8
0
 10
86.833809968731344
 20
56.725202040933723
 30
0.0
 11
76.833809968731344
 21
56.725202040933723
 31
0.0
  0
LINE
  5
384
  8
0
 10
81.465983773640531
 20
66.725202040933723
 30
0.0
 11
76.833809968731344
 21
66.725202040933723
 31
0.0
  0
LINE
  5
385
  8
0
 10
82.333809968731344
 20
59.025202040933721
 30
0.0
 11
76.833809968731344
 21
59.025202040933721
 31
0.0
  0
LINE
  5
386
  8
0
 10
82.333809968731344
 20
62.225202040933723
 30
0.0
 11
76.833809968731344
 21
62.225202040933723
 31
0.0
  0
LINE
  5
387
  8
0
 10
82.333809968731344
 20
62.225202040933723
 30
0.0
 11
82.333809968731344
 21
59.025202040933721
 31
0.0
  0
LINE
  5
388
  8
1
 10
82.933809968731339
 20
66.725202040933723
 30
0.0
 11
82.733809968731336
 21
66.725202040933723
 31
0.0
  0
LINE
  5
389
  8
1
 10
82.833809968731344
 20
66.825202040933704
 30
0.0
 11
82.833809968731344
 21
66.625202040933729
 31
0.0
  0
LINE
  5
38A
  8
0
 10
79.083809968731344
 20
66.725202040933723
 30
0.0
 11
79.083809968731344
 21
62.225202040933723
 31
0.0
  0
DIMENSION
  5
390
  8
2
  2
*D1
 10
94.766587994655779
 20
62.225202040933723
 30
0.0
 11
94.766587994655765
 21
50.975202040933723
 31
0.0
 70
   128
 13
81.369436851568409
 23
66.720424205438064
 33
0.0
 14
82.333809968731344
 24
62.225202040933723
 34
0.0
 50
90.0
  0
DIMENSION
  5
3AA
  8
2
  2
*D2
 10
100.611770694458
 20
56.725202040933709
 30
0.0
 11
98.736770694458002
 21
61.722813123185887
 31
0.0
 70
     0
 13
81.369436851568409
 23
66.720424205438064
 33
0.0
 14
86.833809968731373
 24
56.725202040933709
 34
0.0
 50
90.0
1001
ACAD
1000
DSTYLE
1002
{
1070
   271
1070
     1
1002
}
  0
DIMENSION
  5
3B7
  8
2
  2
*D3
 10
57.640520002663948
 20
56.725202040933709
 30
0.0
 11
55.765520002663933
 21
48.600202040933723
 31
0.0
 70
     0
 13
71.333809968731344
 23
59.025202040933721
 33
0.0
 14
66.833809968731316
 24
56.725202040933709
 34
0.0
 50
90.0
  0
DIMENSION
  5
3C6
  8
2
  2
*D4
 10
86.833809968731344
 20
49.093921812696159
 30
0.0
 11
76.83380996873133
 21
50.968921812696159
 31
0.0
 70
     0
  1
%%c<>
 13
66.833809968731316
 23
56.725202040933709
 33
0.0
 14
86.833809968731344
 24
56.725202040933723
 34
0.0
1001
ACAD
1000
DSTYLE
1002
{
1070
   271
1070
     6
1002
}
  0
DIMENSION
  5
3E0
  8
2
  2
*D5
 10
79.083809968731344
 20
73.818019196731186
 30
0.0
 11
88.458809968731344
 21
75.693019196731186
 31
0.0
 70
     0
  1
%%c<>
 13
74.583809968731344
 23
66.725202040933723
 33
0.0
 14
79.083809968731344
 24
66.725202040933723
 34
0.0
  0
DIMENSION
  5
3EF
  8
2
  2
*D6
 10
82.333809968731344
 20
79.676987543611361
 30
0.0
 11
76.833809968731344
 21
81.551987543611347
 31
0.0
 70
     0
  1
%%c<>
 13
71.333809968731344
 23
62.225202040933723
 33
0.0
 14
82.333809968731344
 24
62.225202040933723
 34
0.0
  0
DIMENSION
  5
3FC
  8
2
  2
*D7
 10
82.833809968731344
 20
84.566209417530828
 30
0.0
 11
76.833809968731344
 21
86.441209417530828
 31
0.0
 70
     0
  1
%%c<>
 13
70.833809968731344
 23
66.725202040933723
 33
0.0
 14
82.833809968731344
 24
66.720424205438064
 34
0.0
  0
ENDSEC
  0
EOF
