  0
SECTION
  2
HEADER
  9
$ACADVER
  1
AC1009
  9
$INSBASE
 10
0.0
 20
0.0
 30
0.0
  9
$EXTMIN
 10
42.982307202028259
 20
37.284772090170073
 30
0.0
  9
$EXTMAX
 10
91.500908116161327
 20
91.797636253112074
 30
5.0
  9
$LIMMIN
 10
0.0
 20
0.0
  9
$LIMMAX
 10
420.0
 20
297.0
  9
$ORTHOMODE
 70
     0
  9
$REGENMODE
 70
     1
  9
$FILLMODE
 70
     1
  9
$QTEXTMODE
 70
     0
  9
$MIRRTEXT
 70
     1
  9
$DRAGMODE
 70
     2
  9
$LTSCALE
 40
0.3
  9
$OSMODE
 70
    37
  9
$ATTMODE
 70
     1
  9
$TEXTSIZE
 40
2.5
  9
$TRACEWID
 40
1.0
  9
$TEXTSTYLE
  7
STANDARD
  9
$CLAYER
  8
2
  9
$CELTYPE
  6
BYLAYER
  9
$CECOLOR
 62
   256
  9
$DIMSCALE
 40
1.0
  9
$DIMASZ
 40
2.5
  9
$DIMEXO
 40
0.625
  9
$DIMDLI
 40
3.75
  9
$DIMRND
 40
0.0
  9
$DIMDLE
 40
0.0
  9
$DIMEXE
 40
1.25
  9
$DIMTP
 40
0.0
  9
$DIMTM
 40
0.0
  9
$DIMTXT
 40
2.5
  9
$DIMCEN
 40
2.5
  9
$DIMTSZ
 40
0.0
  9
$DIMTOL
 70
     0
  9
$DIMLIM
 70
     0
  9
$DIMTIH
 70
     0
  9
$DIMTOH
 70
     0
  9
$DIMSE1
 70
     0
  9
$DIMSE2
 70
     0
  9
$DIMTAD
 70
     1
  9
$DIMZIN
 70
     8
  9
$DIMBLK
  1

  9
$DIMASO
 70
     1
  9
$DIMSHO
 70
     1
  9
$DIMPOST
  1

  9
$DIMAPOST
  1

  9
$DIMALT
 70
     0
  9
$DIMALTD
 70
     3
  9
$DIMALTF
 40
0.03937007874016
  9
$DIMLFAC
 40
1.0
  9
$DIMTOFL
 70
     1
  9
$DIMTVP
 40
0.0
  9
$DIMTIX
 70
     0
  9
$DIMSOXD
 70
     0
  9
$DIMSAH
 70
     0
  9
$DIMBLK1
  1

  9
$DIMBLK2
  1

  9
$DIMSTYLE
  2
ISO-25
  9
$DIMCLRD
 70
     0
  9
$DIMCLRE
 70
     0
  9
$DIMCLRT
 70
     0
  9
$DIMTFAC
 40
1.0
  9
$DIMGAP
 40
0.625
  9
$LUNITS
 70
     2
  9
$LUPREC
 70
     4
  9
$SKETCHINC
 40
1.0
  9
$FILLETRAD
 40
10.0
  9
$AUNITS
 70
     0
  9
$AUPREC
 70
     0
  9
$MENU
  1
.
  9
$ELEVATION
 40
0.0
  9
$PELEVATION
 40
0.0
  9
$THICKNESS
 40
0.0
  9
$LIMCHECK
 70
     0
  9
$BLIPMODE
 70
     0
  9
$CHAMFERA
 40
10.0
  9
$CHAMFERB
 40
10.0
  9
$SKPOLY
 70
     0
  9
$TDCREATE
 40
2453434.9767360059
  9
$TDUPDATE
 40
2453551.899735752
  9
$TDINDWG
 40
0.0276834491
  9
$TDUSRTIMER
 40
0.0276834491
  9
$USRTIMER
 70
     1
  9
$ANGBASE
 50
0.0
  9
$ANGDIR
 70
     0
  9
$PDMODE
 70
     0
  9
$PDSIZE
 40
0.0
  9
$PLINEWID
 40
0.0
  9
$COORDS
 70
     1
  9
$SPLFRAME
 70
     0
  9
$SPLINETYPE
 70
     6
  9
$SPLINESEGS
 70
     8
  9
$ATTDIA
 70
     0
  9
$ATTREQ
 70
     1
  9
$HANDLING
 70
-16383
  9
$HANDSEED
  5
47B
  9
$SURFTAB1
 70
     6
  9
$SURFTAB2
 70
     6
  9
$SURFTYPE
 70
     6
  9
$SURFU
 70
     6
  9
$SURFV
 70
     6
  9
$UCSNAME
  2

  9
$UCSORG
 10
0.0
 20
0.0
 30
0.0
  9
$UCSXDIR
 10
1.0
 20
0.0
 30
0.0
  9
$UCSYDIR
 10
0.0
 20
1.0
 30
0.0
  9
$PUCSNAME
  2

  9
$PUCSORG
 10
0.0
 20
0.0
 30
0.0
  9
$PUCSXDIR
 10
1.0
 20
0.0
 30
0.0
  9
$PUCSYDIR
 10
0.0
 20
1.0
 30
0.0
  9
$USERI1
 70
     0
  9
$USERI2
 70
     0
  9
$USERI3
 70
     0
  9
$USERI4
 70
     0
  9
$USERI5
 70
     0
  9
$USERR1
 40
0.0
  9
$USERR2
 40
0.0
  9
$USERR3
 40
0.0
  9
$USERR4
 40
0.0
  9
$USERR5
 40
0.0
  9
$WORLDVIEW
 70
     1
  9
$SHADEDGE
 70
     3
  9
$SHADEDIF
 70
    70
  9
$TILEMODE
 70
     1
  9
$MAXACTVP
 70
    64
  9
$PLIMCHECK
 70
     0
  9
$PEXTMIN
 10
1.0000000000000000E+020
 20
1.0000000000000000E+020
 30
1.0000000000000000E+020
  9
$PEXTMAX
 10
-1.0000000000000000E+020
 20
-1.0000000000000000E+020
 30
-1.0000000000000000E+020
  9
$PLIMMIN
 10
0.0
 20
0.0
  9
$PLIMMAX
 10
420.0
 20
297.0
  9
$UNITMODE
 70
     0
  9
$VISRETAIN
 70
     1
  9
$PLINEGEN
 70
     0
  9
$PSLTSCALE
 70
     1
  0
ENDSEC
  0
SECTION
  2
TABLES
  0
TABLE
  2
VPORT
 70
     2
  0
VPORT
  2
*ACTIVE
 70
     0
 10
0.0
 20
0.0
 11
1.0
 21
1.0
 12
98.38975031905079
 22
57.102058172519662
 13
0.0
 23
0.0
 14
10.0
 24
10.0
 15
10.0
 25
10.0
 16
0.0
 26
0.0
 36
1.0
 17
0.0
 27
0.0
 37
0.0
 40
80.322330849920888
 41
2.5392405063291141
 42
50.0
 43
0.0
 44
0.0
 50
0.0
 51
0.0
 71
     0
 72
   100
 73
     1
 74
     3
 75
     0
 76
     0
 77
     0
 78
     0
  0
ENDTAB
  0
TABLE
  2
LTYPE
 70
     2
  0
LTYPE
  2
CONTINUOUS
 70
     0
  3
Solid line
 72
    65
 73
     0
 40
0.0
  0
LTYPE
  2
CENTER
 70
     0
  3
Center ____ _ ____ _ ____ _ ____ _ ____ _ ____
 72
    65
 73
     4
 40
50.799999999999997
 49
31.75
 49
-6.3499999999999988
 49
6.3499999999999988
 49
-6.3499999999999988
  0
ENDTAB
  0
TABLE
  2
LAYER
 70
     4
  0
LAYER
  2
0
 70
     0
 62
     7
  6
CONTINUOUS
  0
LAYER
  2
1
 70
     0
 62
     7
  6
CENTER
  0
LAYER
  2
DEFPOINTS
 70
     0
 62
     7
  6
CONTINUOUS
  0
LAYER
  2
2
 70
     0
 62
     7
  6
CONTINUOUS
  0
ENDTAB
  0
TABLE
  2
STYLE
 70
     3
  0
STYLE
  2
STANDARD
 70
     0
 40
0.0
 41
1.0
 50
0.0
 71
     0
 42
2.5
  3
txt
  4

  0
STYLE
  2
\U+00C9L\U+00C9R_\U+00C2S\U+00C2V\U+00C2B\U+00C2N
 70
     0
 40
1.0
 41
1.0
 50
0.0
 71
     0
 42
1.0
  3
\U+00E9l\U+00E9r \U+00E2S\U+00E2V\U+00E2b\U+00E2N
  4

  0
STYLE
  2

 70
     1
 40
0.0
 41
1.0
 50
0.0
 71
     0
 42
2.5
  3
ltypeshp.shx
  4

  0
ENDTAB
  0
TABLE
  2
VIEW
 70
     0
  0
ENDTAB
  0
TABLE
  2
UCS
 70
     0
  0
ENDTAB
  0
TABLE
  2
APPID
 70
     1
  0
APPID
  2
ACAD
 70
     0
  0
ENDTAB
  0
TABLE
  2
DIMSTYLE
 70
     2
  0
DIMSTYLE
  2
ISO-25
 70
     0
  3

  4

  5

  6

  7

 40
1.0
 41
2.5
 42
0.625
 43
3.75
 44
1.25
 45
0.0
 46
0.0
 47
0.0
 48
0.0
140
2.5
141
2.5
142
0.0
143
0.03937007874016
144
1.0
145
0.0
146
1.0
147
0.625
 71
     0
 72
     0
 73
     0
 74
     0
 75
     0
 76
     0
 77
     1
 78
     8
170
     0
171
     3
172
     1
173
     0
174
     0
175
     0
176
     0
177
     0
178
     0
  0
DIMSTYLE
  2
STANDARD
 70
     0
  3

  4

  5

  6

  7

 40
1.0
 41
0.18
 42
0.0625
 43
0.38
 44
0.18
 45
0.0
 46
0.0
 47
0.0
 48
0.0
140
0.18
141
0.09
142
0.0
143
25.399999999999999
144
1.0
145
0.0
146
1.0
147
0.09
 71
     0
 72
     0
 73
     1
 74
     1
 75
     0
 76
     0
 77
     0
 78
     0
170
     0
171
     2
172
     0
173
     0
174
     0
175
     0
176
     0
177
     0
178
     0
  0
ENDTAB
  0
ENDSEC
  0
SECTION
  2
BLOCKS
  0
BLOCK
  8
0
  2
$MODEL_SPACE
 70
     0
 10
0.0
 20
0.0
 30
0.0
  3
$MODEL_SPACE
  1

  0
ENDBLK
  5
21
  8
0
  0
BLOCK
 67
     1
  8
0
  2
$PAPER_SPACE
 70
     0
 10
0.0
 20
0.0
 30
0.0
  3
$PAPER_SPACE
  1

  0
ENDBLK
  5
1D
 67
     1
  8
0
  0
BLOCK
  8
0
  2
*D1
 70
     1
 10
0.0
 20
0.0
 30
0.0
  3
*D1
  1

  0
LINE
  5
43B
  8
2
 62
     0
 10
64.365467973880016
 20
76.799904223467777
 30
0.0
 11
64.365467973880016
 21
85.857952756766622
 31
0.0
  0
LINE
  5
43C
  8
2
 62
     0
 10
70.365467973880016
 20
76.799904223467777
 30
0.0
 11
70.365467973880016
 21
85.857952756766622
 31
0.0
  0
LINE
  5
43D
  8
2
 62
     0
 10
61.865467973880008
 20
84.607952756766622
 30
0.0
 11
59.365467973880008
 21
84.607952756766622
 31
0.0
  0
LINE
  5
43E
  8
2
 62
     0
 10
72.865467973880016
 20
84.607952756766622
 30
0.0
 11
75.365467973880016
 21
84.607952756766622
 31
0.0
  0
LINE
  5
43F
  8
2
 62
     0
 10
64.365467973880016
 20
84.607952756766622
 30
0.0
 11
70.365467973880016
 21
84.607952756766622
 31
0.0
  0
SOLID
  5
440
  8
2
 62
     0
 10
61.865467973880008
 20
85.024619423433279
 30
0.0
 11
61.865467973880008
 21
84.19128609009995
 31
0.0
 12
64.365467973880016
 22
84.607952756766622
 32
0.0
 13
64.365467973880016
 23
84.607952756766622
 33
0.0
  0
SOLID
  5
441
  8
2
 62
     0
 10
72.865467973880016
 20
85.024619423433279
 30
0.0
 11
72.865467973880016
 21
84.19128609009995
 31
0.0
 12
70.365467973880016
 22
84.607952756766622
 32
0.0
 13
70.365467973880016
 23
84.607952756766622
 33
0.0
  0
INSERT
  5
442
  8
2
  2
*U10
 10
0.0
 20
0.0
 30
0.0
  0
POINT
  5
443
  8
DEFPOINTS
 62
     0
 10
64.365467973880016
 20
76.174904223467777
 30
0.0
  0
POINT
  5
444
  8
DEFPOINTS
 62
     0
 10
70.365467973880016
 20
76.174904223467777
 30
0.0
  0
POINT
  5
445
  8
DEFPOINTS
 62
     0
 10
70.365467973880016
 20
84.607952756766622
 30
0.0
  0
ENDBLK
  5
3BC
  8
0
  0
BLOCK
  8
0
  2
*D2
 70
     1
 10
0.0
 20
0.0
 30
0.0
  3
*D2
  1

  0
LINE
  5
432
  8
2
 62
     0
 10
60.865467973880023
 20
76.999904223467766
 30
0.0
 11
60.865467973880023
 21
89.922636253112074
 31
0.0
  0
LINE
  5
433
  8
2
 62
     0
 10
73.865467973880016
 20
76.999904223467766
 30
0.0
 11
73.865467973880016
 21
89.922636253112074
 31
0.0
  0
LINE
  5
434
  8
2
 62
     0
 10
63.365467973880023
 20
88.672636253112074
 30
0.0
 11
71.365467973880016
 21
88.672636253112074
 31
0.0
  0
SOLID
  5
435
  8
2
 62
     0
 10
63.365467973880023
 20
89.089302919778746
 30
0.0
 11
63.365467973880023
 21
88.255969586445403
 31
0.0
 12
60.865467973880023
 22
88.672636253112074
 32
0.0
 13
60.865467973880023
 23
88.672636253112074
 33
0.0
  0
SOLID
  5
436
  8
2
 62
     0
 10
71.365467973880016
 20
89.089302919778746
 30
0.0
 11
71.365467973880016
 21
88.255969586445403
 31
0.0
 12
73.865467973880016
 22
88.672636253112074
 32
0.0
 13
73.865467973880016
 23
88.672636253112074
 33
0.0
  0
INSERT
  5
437
  8
2
  2
*U9
 10
0.0
 20
0.0
 30
0.0
  0
POINT
  5
438
  8
DEFPOINTS
 62
     0
 10
60.865467973880023
 20
76.374904223467766
 30
0.0
  0
POINT
  5
439
  8
DEFPOINTS
 62
     0
 10
73.865467973880016
 20
76.374904223467766
 30
0.0
  0
POINT
  5
43A
  8
DEFPOINTS
 62
     0
 10
73.865467973880016
 20
88.672636253112074
 30
0.0
  0
ENDBLK
  5
3CA
  8
0
  0
BLOCK
  8
0
  2
*D3
 70
     1
 10
0.0
 20
0.0
 30
0.0
  3
*D3
  1

  0
LINE
  5
3D8
  8
2
 62
     0
 10
74.780552973880049
 20
76.174904223467777
 30
0.0
 11
85.964984137826946
 21
76.174904223467777
 31
0.0
  0
LINE
  5
3D9
  8
2
 62
     0
 10
73.490467973880016
 20
69.174904223467763
 30
0.0
 11
85.964984137826946
 21
69.174904223467763
 31
0.0
  0
LINE
  5
3DA
  8
2
 62
     0
 10
84.714984137826946
 20
73.674904223467777
 30
0.0
 11
84.714984137826946
 21
71.674904223467763
 31
0.0
  0
SOLID
  5
3DB
  8
2
 62
     0
 10
84.298317471160274
 20
73.674904223467777
 30
0.0
 11
85.131650804493617
 21
73.674904223467777
 31
0.0
 12
84.714984137826946
 22
76.174904223467777
 32
0.0
 13
84.714984137826946
 23
76.174904223467777
 33
0.0
  0
SOLID
  5
3DC
  8
2
 62
     0
 10
84.298317471160274
 20
71.674904223467763
 30
0.0
 11
85.131650804493617
 21
71.674904223467763
 31
0.0
 12
84.714984137826946
 22
69.174904223467763
 32
0.0
 13
84.714984137826946
 23
69.174904223467763
 33
0.0
  0
TEXT
  5
3DD
  8
2
 62
     0
 10
84.089984137826931
 20
71.841570890134463
 30
0.0
 40
2.5
  1
7
 50
90.0
  0
POINT
  5
3DE
  8
DEFPOINTS
 62
     0
 10
74.155552973880049
 20
76.174904223467777
 30
0.0
  0
POINT
  5
3DF
  8
DEFPOINTS
 62
     0
 10
72.865467973880016
 20
69.174904223467763
 30
0.0
  0
POINT
  5
3E0
  8
DEFPOINTS
 62
     0
 10
84.714984137826946
 20
69.174904223467763
 30
0.0
  0
ENDBLK
  5
3D7
  8
0
  0
BLOCK
  8
0
  2
*D4
 70
     1
 10
0.0
 20
0.0
 30
0.0
  3
*D4
  1

  0
LINE
  5
3EE
  8
2
 62
     0
 10
74.780552973880049
 20
76.174904223467777
 30
0.0
 11
91.500908116161327
 21
76.174904223467777
 31
0.0
  0
LINE
  5
3EF
  8
2
 62
     0
 10
80.490467973880016
 20
62.17490422346777
 30
0.0
 11
91.500908116161327
 21
62.17490422346777
 31
0.0
  0
LINE
  5
3F0
  8
2
 62
     0
 10
90.250908116161327
 20
73.674904223467777
 30
0.0
 11
90.250908116161327
 21
64.674904223467763
 31
0.0
  0
SOLID
  5
3F1
  8
2
 62
     0
 10
89.834241449494655
 20
73.674904223467777
 30
0.0
 11
90.667574782827998
 21
73.674904223467777
 31
0.0
 12
90.250908116161327
 22
76.174904223467777
 32
0.0
 13
90.250908116161327
 23
76.174904223467777
 33
0.0
  0
SOLID
  5
3F2
  8
2
 62
     0
 10
89.834241449494655
 20
64.674904223467763
 30
0.0
 11
90.667574782827998
 21
64.674904223467763
 31
0.0
 12
90.250908116161327
 22
62.17490422346777
 32
0.0
 13
90.250908116161327
 23
62.17490422346777
 33
0.0
  0
TEXT
  5
3F3
  8
2
 62
     0
 10
89.625908116161312
 20
67.50823755680112
 30
0.0
 40
2.5
  1
14
 50
90.0
  0
POINT
  5
3F4
  8
DEFPOINTS
 62
     0
 10
74.155552973880049
 20
76.174904223467777
 30
0.0
  0
POINT
  5
3F5
  8
DEFPOINTS
 62
     0
 10
79.865467973880016
 20
62.17490422346777
 30
0.0
  0
POINT
  5
3F6
  8
DEFPOINTS
 62
     0
 10
90.250908116161327
 20
62.17490422346777
 30
0.0
  0
ENDBLK
  5
3ED
  8
0
  0
BLOCK
  8
0
  2
*D5
 70
     1
 10
0.0
 20
0.0
 30
0.0
  3
*D5
  1

  0
LINE
  5
3F9
  8
2
 62
     0
 10
54.240467973880008
 20
62.17490422346777
 30
0.0
 11
44.857307202028259
 21
62.174904223467777
 31
0.0
  0
LINE
  5
3FA
  8
2
 62
     0
 10
61.240467973880008
 20
65.174904223467777
 30
0.0
 11
44.857307202028259
 21
65.174904223467777
 31
0.0
  0
LINE
  5
3FB
  8
2
 62
     0
 10
46.107307202028259
 20
59.674904223467777
 30
0.0
 11
46.107307202028259
 21
57.174904223467777
 31
0.0
  0
LINE
  5
3FC
  8
2
 62
     0
 10
46.107307202028259
 20
67.674904223467777
 30
0.0
 11
46.107307202028259
 21
70.174904223467777
 31
0.0
  0
LINE
  5
3FD
  8
2
 62
     0
 10
46.107307202028259
 20
62.174904223467777
 30
0.0
 11
46.107307202028259
 21
65.174904223467777
 31
0.0
  0
SOLID
  5
3FE
  8
2
 62
     0
 10
45.690640535361602
 20
59.674904223467777
 30
0.0
 11
46.523973868694931
 21
59.674904223467777
 31
0.0
 12
46.107307202028259
 22
62.174904223467777
 32
0.0
 13
46.107307202028259
 23
62.174904223467777
 33
0.0
  0
SOLID
  5
3FF
  8
2
 62
     0
 10
45.690640535361602
 20
67.674904223467777
 30
0.0
 11
46.523973868694931
 21
67.674904223467777
 31
0.0
 12
46.107307202028259
 22
65.174904223467777
 32
0.0
 13
46.107307202028259
 23
65.174904223467777
 33
0.0
  0
TEXT
  5
400
  8
2
 62
     0
 10
45.482307202028259
 20
62.841570890134449
 30
0.0
 40
2.5
  1
3
 50
90.0
  0
POINT
  5
401
  8
DEFPOINTS
 62
     0
 10
54.865467973880008
 20
62.17490422346777
 30
0.0
  0
POINT
  5
402
  8
DEFPOINTS
 62
     0
 10
61.865467973880008
 20
65.174904223467777
 30
0.0
  0
POINT
  5
403
  8
DEFPOINTS
 62
     0
 10
46.107307202028259
 20
65.174904223467777
 30
0.0
  0
ENDBLK
  5
405
  8
0
  0
BLOCK
  8
0
  2
*D6
 70
     1
 10
0.0
 20
0.0
 30
0.0
  3
*D6
  1

  0
LINE
  5
429
  8
2
 62
     0
 10
61.865467973880008
 20
64.549904223467777
 30
0.0
 11
61.865467973880008
 21
52.796741952291832
 31
0.0
  0
LINE
  5
42A
  8
2
 62
     0
 10
72.865467973880016
 20
64.549904223467777
 30
0.0
 11
72.865467973880016
 21
52.796741952291832
 31
0.0
  0
LINE
  5
42B
  8
2
 62
     0
 10
64.365467973880016
 20
54.046741952291832
 30
0.0
 11
70.365467973880016
 21
54.046741952291832
 31
0.0
  0
SOLID
  5
42C
  8
2
 62
     0
 10
64.365467973880016
 20
54.463408618958489
 30
0.0
 11
64.365467973880016
 21
53.630075285625161
 31
0.0
 12
61.865467973880008
 22
54.046741952291832
 32
0.0
 13
61.865467973880008
 23
54.046741952291832
 33
0.0
  0
SOLID
  5
42D
  8
2
 62
     0
 10
70.365467973880016
 20
54.463408618958489
 30
0.0
 11
70.365467973880016
 21
53.630075285625161
 31
0.0
 12
72.865467973880016
 22
54.046741952291832
 32
0.0
 13
72.865467973880016
 23
54.046741952291832
 33
0.0
  0
INSERT
  5
42E
  8
2
  2
*U8
 10
0.0
 20
0.0
 30
0.0
  0
POINT
  5
42F
  8
DEFPOINTS
 62
     0
 10
61.865467973880008
 20
65.174904223467777
 30
0.0
  0
POINT
  5
430
  8
DEFPOINTS
 62
     0
 10
72.865467973880016
 20
65.174904223467777
 30
0.0
  0
POINT
  5
431
  8
DEFPOINTS
 62
     0
 10
72.865467973880016
 20
54.046741952291832
 30
0.0
  0
ENDBLK
  5
412
  8
0
  0
BLOCK
  8
0
  2
*D7
 70
     1
 10
0.0
 20
0.0
 30
0.0
  3
*D7
  1

  0
LINE
  5
44D
  8
2
 62
     0
 10
54.865467973880008
 20
61.54990422346777
 30
0.0
 11
54.865467973880008
 21
47.592906768601857
 31
0.0
  0
LINE
  5
44E
  8
2
 62
     0
 10
79.865467973880016
 20
61.54990422346777
 30
0.0
 11
79.865467973880016
 21
47.592906768601857
 31
0.0
  0
LINE
  5
44F
  8
2
 62
     0
 10
57.365467973880008
 20
48.842906768601857
 30
0.0
 11
77.365467973880016
 21
48.842906768601857
 31
0.0
  0
SOLID
  5
450
  8
2
 62
     0
 10
57.365467973880008
 20
49.259573435268528
 30
0.0
 11
57.365467973880008
 21
48.4262401019352
 31
0.0
 12
54.865467973880008
 22
48.842906768601857
 32
0.0
 13
54.865467973880008
 23
48.842906768601857
 33
0.0
  0
SOLID
  5
451
  8
2
 62
     0
 10
77.365467973880016
 20
49.259573435268528
 30
0.0
 11
77.365467973880016
 21
48.4262401019352
 31
0.0
 12
79.865467973880016
 22
48.842906768601857
 32
0.0
 13
79.865467973880016
 23
48.842906768601857
 33
0.0
  0
INSERT
  5
452
  8
2
  2
*U11
 10
0.0
 20
0.0
 30
0.0
  0
POINT
  5
453
  8
DEFPOINTS
 62
     0
 10
54.865467973880008
 20
62.17490422346777
 30
0.0
  0
POINT
  5
454
  8
DEFPOINTS
 62
     0
 10
79.865467973880016
 20
62.17490422346777
 30
0.0
  0
POINT
  5
455
  8
DEFPOINTS
 62
     0
 10
79.865467973880016
 20
48.842906768601857
 30
0.0
  0
ENDBLK
  5
41F
  8
0
  0
BLOCK
  8
0
  2
*U8
 70
     1
 10
0.0
 20
0.0
 30
0.0
  3
*U8
  1

  0
TEXT
  5
468
  8
2
 62
     0
 10
64.865467973880016
 20
54.671741952291832
 30
0.0
 40
2.5
  1
\U+2205
  0
TEXT
  5
469
  8
2
 62
     0
 10
67.365467973880016
 20
54.671741952291832
 30
0.0
 40
2.5
  1
11
  0
ENDBLK
  5
46B
  8
0
  0
BLOCK
  8
0
  2
*U9
 70
     1
 10
0.0
 20
0.0
 30
0.0
  3
*U9
  1

  0
TEXT
  5
46D
  8
2
 62
     0
 10
64.448801307213344
 20
89.297636253112074
 30
0.0
 40
2.5
  1
\U+2205
  0
TEXT
  5
46E
  8
2
 62
     0
 10
66.948801307213344
 20
89.297636253112074
 30
0.0
 40
2.5
  1
13
  0
ENDBLK
  5
470
  8
0
  0
BLOCK
  8
0
  2
*U10
 70
     1
 10
0.0
 20
0.0
 30
0.0
  3
*U10
  1

  0
TEXT
  5
472
  8
2
 62
     0
 10
65.282134640546687
 20
85.232952756766622
 30
0.0
 40
2.5
  1
\U+2205
  0
TEXT
  5
473
  8
2
 62
     0
 10
67.782134640546687
 20
85.232952756766622
 30
0.0
 40
2.5
  1
6
  0
ENDBLK
  5
475
  8
0
  0
BLOCK
  8
0
  2
*U11
 70
     1
 10
0.0
 20
0.0
 30
0.0
  3
*U11
  1

  0
TEXT
  5
477
  8
2
 62
     0
 10
64.032134640546687
 20
49.467906768601857
 30
0.0
 40
2.5
  1
\U+2205
  0
TEXT
  5
478
  8
2
 62
     0
 10
66.532134640546687
 20
49.467906768601857
 30
0.0
 40
2.5
  1
25
  0
ENDBLK
  5
47A
  8
0
  0
ENDSEC
  0
SECTION
  2
ENTITIES
  0
TEXT
  5
F4
  8
2
 10
46.276440676314429
 20
37.526671518741523
 30
0.0
 40
2.5399440000000002
  1
No. 102.025.047._
 51
-0.0000015352344868
  7
\U+00C9L\U+00C9R_\U+00C2S\U+00C2V\U+00C2B\U+00C2N
  0
LINE
  5
138
  8
0
 39
5.0
 10
60.575382973879982
 20
76.174904223467777
 30
0.0
 11
60.513167973880009
 21
76.161104223467774
 31
0.0
  0
LINE
  5
139
  8
0
 39
5.0
 10
60.513167973880009
 20
76.161104223467774
 30
0.0
 11
60.263067973880013
 21
76.077904223467783
 31
0.0
  0
LINE
  5
13A
  8
0
 39
5.0
 10
60.263067973880013
 20
76.077904223467783
 30
0.0
 11
60.033167973880012
 21
75.972604223467783
 31
0.0
  0
LINE
  5
13B
  8
0
 39
5.0
 10
60.033167973880012
 20
75.972604223467783
 30
0.0
 11
59.822867973880022
 21
75.84720422346777
 31
0.0
  0
LINE
  5
13C
  8
0
 39
5.0
 10
59.822867973880022
 20
75.84720422346777
 30
0.0
 11
59.632367973880022
 21
75.70280422346778
 31
0.0
  0
LINE
  5
13D
  8
0
 39
5.0
 10
59.632367973880022
 20
75.70280422346778
 30
0.0
 11
59.460867973880021
 21
75.541404223467779
 31
0.0
  0
LINE
  5
13E
  8
0
 39
5.0
 10
59.460867973880021
 20
75.541404223467779
 30
0.0
 11
59.308267973880007
 21
75.364304223467784
 31
0.0
  0
LINE
  5
13F
  8
0
 39
5.0
 10
59.308267973880007
 20
75.364304223467784
 30
0.0
 11
59.173967973880011
 21
75.173304223467781
 31
0.0
  0
LINE
  5
140
  8
0
 39
5.0
 10
59.173967973880011
 20
75.173304223467781
 30
0.0
 11
59.058067973880007
 21
74.969604223467783
 31
0.0
  0
LINE
  5
141
  8
0
 39
5.0
 10
59.058067973880007
 20
74.969604223467783
 30
0.0
 11
58.959867973880009
 21
74.755004223467779
 31
0.0
  0
LINE
  5
142
  8
0
 39
5.0
 10
58.959867973880009
 20
74.755004223467779
 30
0.0
 11
58.879267973880012
 21
74.531004223467775
 31
0.0
  0
LINE
  5
143
  8
0
 39
5.0
 10
58.879267973880012
 20
74.531004223467775
 30
0.0
 11
58.815667973880011
 21
74.299404223467775
 31
0.0
  0
LINE
  5
144
  8
0
 39
5.0
 10
58.815667973880011
 20
74.299404223467775
 30
0.0
 11
58.769067973880013
 21
74.061304223467772
 31
0.0
  0
LINE
  5
145
  8
0
 39
5.0
 10
58.769067973880013
 20
74.061304223467772
 30
0.0
 11
58.738767973880009
 21
73.818704223467776
 31
0.0
  0
LINE
  5
146
  8
0
 39
5.0
 10
58.738767973880009
 20
73.818704223467776
 30
0.0
 11
58.72466797388001
 21
73.572804223467784
 31
0.0
  0
LINE
  5
147
  8
0
 39
5.0
 10
58.72466797388001
 20
73.572804223467784
 30
0.0
 11
58.726267973880013
 21
73.325504223467789
 31
0.0
  0
LINE
  5
148
  8
0
 39
5.0
 10
58.726267973880013
 20
73.325504223467789
 30
0.0
 11
58.726267973880013
 21
73.325504223467789
 31
0.0
  0
LINE
  5
149
  8
0
 39
5.0
 10
58.726267973880013
 20
73.325504223467789
 30
0.0
 11
58.586467973880012
 21
72.621604223467784
 31
0.0
  0
LINE
  5
14A
  8
0
 39
5.0
 10
58.586467973880012
 20
72.621604223467784
 30
0.0
 11
58.43336797388001
 21
71.91170422346778
 31
0.0
  0
LINE
  5
14B
  8
0
 39
5.0
 10
58.43336797388001
 20
71.91170422346778
 30
0.0
 11
58.26706797388001
 21
71.197104223467775
 31
0.0
  0
LINE
  5
14C
  8
0
 39
5.0
 10
58.26706797388001
 20
71.197104223467775
 30
0.0
 11
58.087367973880013
 21
70.479404223467782
 31
0.0
  0
LINE
  5
14D
  8
0
 39
5.0
 10
58.087367973880013
 20
70.479404223467782
 30
0.0
 11
57.894467973880012
 21
69.760004223467774
 31
0.0
  0
LINE
  5
14E
  8
0
 39
5.0
 10
57.894467973880012
 20
69.760004223467774
 30
0.0
 11
57.68786797388001
 21
69.040504223467764
 31
0.0
  0
LINE
  5
14F
  8
0
 39
5.0
 10
57.68786797388001
 20
69.040504223467764
 30
0.0
 11
57.467867973880011
 21
68.322304223467782
 31
0.0
  0
LINE
  5
150
  8
0
 39
5.0
 10
57.467867973880011
 20
68.322304223467782
 30
0.0
 11
57.234067973880009
 21
67.607304223467779
 31
0.0
  0
LINE
  5
151
  8
0
 39
5.0
 10
57.234067973880009
 20
67.607304223467779
 30
0.0
 11
56.98686797388001
 21
66.896504223467787
 31
0.0
  0
LINE
  5
152
  8
0
 39
5.0
 10
56.98686797388001
 20
66.896504223467787
 30
0.0
 11
56.725567973880011
 21
66.191804223467784
 31
0.0
  0
LINE
  5
153
  8
0
 39
5.0
 10
56.725567973880011
 20
66.191804223467784
 30
0.0
 11
56.450667973880002
 21
65.494604223467775
 31
0.0
  0
LINE
  5
154
  8
0
 39
5.0
 10
56.450667973880002
 20
65.494604223467775
 30
0.0
 11
56.161667973880007
 21
64.806604223467787
 31
0.0
  0
LINE
  5
155
  8
0
 39
5.0
 10
56.161667973880007
 20
64.806604223467787
 30
0.0
 11
55.85886797388001
 21
64.129004223467774
 31
0.0
  0
LINE
  5
156
  8
0
 39
5.0
 10
55.85886797388001
 20
64.129004223467774
 30
0.0
 11
55.541867973880009
 21
63.463604223467783
 31
0.0
  0
LINE
  5
157
  8
0
 39
5.0
 10
55.541867973880009
 20
63.463604223467783
 30
0.0
 11
55.210867973880013
 21
62.811804223467767
 31
0.0
  0
LINE
  5
158
  8
0
 39
5.0
 10
55.210867973880013
 20
62.811804223467767
 30
0.0
 11
54.865467973880008
 21
62.17490422346777
 31
0.0
  0
LINE
  5
284
  8
1
 10
67.365467973880016
 20
76.674904223467763
 30
0.0
 11
67.365467973880016
 21
61.67490422346777
 31
0.0
  0
LINE
  5
285
  8
0
 10
60.575382973879982
 20
76.174904223467777
 30
0.0
 11
67.365467973880016
 21
76.174904223467777
 31
0.0
  0
LINE
  5
298
  8
0
 10
64.365467973880016
 20
76.174904223467777
 30
0.0
 11
64.365467973880016
 21
69.174904223467763
 31
0.0
  0
LINE
  5
29C
  8
0
 10
67.365467973880016
 20
65.174904223467777
 30
0.0
 11
61.865467973880008
 21
65.174904223467777
 31
0.0
  0
LINE
  5
29D
  8
0
 10
61.865467973880008
 20
69.174904223467763
 30
0.0
 11
61.865467973880008
 21
65.174904223467777
 31
0.0
  0
LINE
  5
29F
  8
0
 10
61.865467973880008
 20
69.174904223467763
 30
0.0
 11
67.365467973880016
 21
69.174904223467763
 31
0.0
  0
LINE
  5
2A2
  8
0
 10
61.865467973880008
 20
65.174904223467777
 30
0.0
 11
54.865467973880008
 21
62.17490422346777
 31
0.0
  0
LINE
  5
2AA
  8
0
 10
67.365467973880016
 20
62.17490422346777
 30
0.0
 11
54.865467973880008
 21
62.17490422346777
 31
0.0
  0
LINE
  5
344
  8
2
 10
60.96546797388001
 20
76.374904223467766
 30
0.0
 11
60.765467973880007
 21
76.374904223467766
 31
0.0
  0
LINE
  5
34A
  8
2
 10
60.865467973880023
 20
76.274904223467772
 30
0.0
 11
60.865467973880023
 21
76.47490422346776
 31
0.0
  0
LINE
  5
380
  8
0
 39
5.0
 10
79.520067973880003
 20
62.811804223467767
 30
0.0
 11
79.865467973880016
 21
62.17490422346777
 31
0.0
  0
LINE
  5
381
  8
0
 39
5.0
 10
79.189067973880015
 20
63.463604223467783
 30
0.0
 11
79.520067973880003
 21
62.811804223467767
 31
0.0
  0
LINE
  5
382
  8
0
 39
5.0
 10
78.872067973880021
 20
64.129004223467774
 30
0.0
 11
79.189067973880015
 21
63.463604223467783
 31
0.0
  0
LINE
  5
383
  8
0
 39
5.0
 10
78.569267973880017
 20
64.806604223467787
 30
0.0
 11
78.872067973880021
 21
64.129004223467774
 31
0.0
  0
LINE
  5
384
  8
0
 39
5.0
 10
78.280267973880029
 20
65.494604223467775
 30
0.0
 11
78.569267973880017
 21
64.806604223467787
 31
0.0
  0
LINE
  5
385
  8
0
 39
5.0
 10
78.005367973880027
 20
66.191804223467784
 30
0.0
 11
78.280267973880029
 21
65.494604223467775
 31
0.0
  0
LINE
  5
386
  8
0
 39
5.0
 10
77.744067973880021
 20
66.896504223467787
 30
0.0
 11
78.005367973880027
 21
66.191804223467784
 31
0.0
  0
LINE
  5
387
  8
0
 39
5.0
 10
77.496867973880029
 20
67.607304223467779
 30
0.0
 11
77.744067973880021
 21
66.896504223467787
 31
0.0
  0
LINE
  5
388
  8
0
 39
5.0
 10
77.263067973880027
 20
68.322304223467782
 30
0.0
 11
77.496867973880029
 21
67.607304223467779
 31
0.0
  0
LINE
  5
389
  8
0
 39
5.0
 10
77.043067973880028
 20
69.040504223467764
 30
0.0
 11
77.263067973880027
 21
68.322304223467782
 31
0.0
  0
LINE
  5
38A
  8
0
 39
5.0
 10
76.836467973880019
 20
69.760004223467774
 30
0.0
 11
77.043067973880028
 21
69.040504223467764
 31
0.0
  0
LINE
  5
38B
  8
0
 39
5.0
 10
76.64356797388001
 20
70.479404223467782
 30
0.0
 11
76.836467973880019
 21
69.760004223467774
 31
0.0
  0
LINE
  5
38C
  8
0
 39
5.0
 10
76.463867973880014
 20
71.197104223467775
 30
0.0
 11
76.64356797388001
 21
70.479404223467782
 31
0.0
  0
LINE
  5
38D
  8
0
 39
5.0
 10
76.297567973880021
 20
71.91170422346778
 30
0.0
 11
76.463867973880014
 21
71.197104223467775
 31
0.0
  0
LINE
  5
38E
  8
0
 39
5.0
 10
76.144467973880012
 20
72.621604223467784
 30
0.0
 11
76.297567973880021
 21
71.91170422346778
 31
0.0
  0
LINE
  5
38F
  8
0
 39
5.0
 10
76.004667973880004
 20
73.325504223467789
 30
0.0
 11
76.144467973880012
 21
72.621604223467784
 31
0.0
  0
LINE
  5
390
  8
0
 39
5.0
 10
76.004667973880004
 20
73.325504223467789
 30
0.0
 11
76.004667973880004
 21
73.325504223467789
 31
0.0
  0
LINE
  5
391
  8
0
 39
5.0
 10
76.006267973880014
 20
73.572804223467784
 30
0.0
 11
76.004667973880004
 21
73.325504223467789
 31
0.0
  0
LINE
  5
392
  8
0
 39
5.0
 10
75.992167973880015
 20
73.818704223467776
 30
0.0
 11
76.006267973880014
 21
73.572804223467784
 31
0.0
  0
LINE
  5
393
  8
0
 39
5.0
 10
75.961867973880018
 20
74.061304223467772
 30
0.0
 11
75.992167973880015
 21
73.818704223467776
 31
0.0
  0
LINE
  5
394
  8
0
 39
5.0
 10
75.91526797388002
 20
74.299404223467775
 30
0.0
 11
75.961867973880018
 21
74.061304223467772
 31
0.0
  0
LINE
  5
395
  8
0
 39
5.0
 10
75.851667973880012
 20
74.531004223467775
 30
0.0
 11
75.91526797388002
 21
74.299404223467775
 31
0.0
  0
LINE
  5
396
  8
0
 39
5.0
 10
75.771067973880008
 20
74.755004223467779
 30
0.0
 11
75.851667973880012
 21
74.531004223467775
 31
0.0
  0
LINE
  5
397
  8
0
 39
5.0
 10
75.672867973880017
 20
74.969604223467783
 30
0.0
 11
75.771067973880008
 21
74.755004223467779
 31
0.0
  0
LINE
  5
398
  8
0
 39
5.0
 10
75.55696797388002
 20
75.173304223467781
 30
0.0
 11
75.672867973880017
 21
74.969604223467783
 31
0.0
  0
LINE
  5
399
  8
0
 39
5.0
 10
75.42266797388001
 20
75.364304223467784
 30
0.0
 11
75.55696797388002
 21
75.173304223467781
 31
0.0
  0
LINE
  5
39A
  8
0
 39
5.0
 10
75.270067973880003
 20
75.541404223467779
 30
0.0
 11
75.42266797388001
 21
75.364304223467784
 31
0.0
  0
LINE
  5
39B
  8
0
 39
5.0
 10
75.098567973880023
 20
75.70280422346778
 30
0.0
 11
75.270067973880003
 21
75.541404223467779
 31
0.0
  0
LINE
  5
39C
  8
0
 39
5.0
 10
74.908067973880009
 20
75.84720422346777
 30
0.0
 11
75.098567973880023
 21
75.70280422346778
 31
0.0
  0
LINE
  5
39D
  8
0
 39
5.0
 10
74.697767973880019
 20
75.972604223467783
 30
0.0
 11
74.908067973880009
 21
75.84720422346777
 31
0.0
  0
LINE
  5
39E
  8
0
 39
5.0
 10
74.467867973880018
 20
76.077904223467783
 30
0.0
 11
74.697767973880019
 21
75.972604223467783
 31
0.0
  0
LINE
  5
39F
  8
0
 39
5.0
 10
74.217767973880015
 20
76.161104223467774
 30
0.0
 11
74.467867973880018
 21
76.077904223467783
 31
0.0
  0
LINE
  5
3A0
  8
0
 39
5.0
 10
74.155552973880049
 20
76.174904223467777
 30
0.0
 11
74.217767973880015
 21
76.161104223467774
 31
0.0
  0
LINE
  5
3A1
  8
0
 10
67.365467973880016
 20
62.17490422346777
 30
0.0
 11
79.865467973880016
 21
62.17490422346777
 31
0.0
  0
LINE
  5
3A2
  8
0
 10
72.865467973880016
 20
69.174904223467763
 30
0.0
 11
67.365467973880016
 21
69.174904223467763
 31
0.0
  0
LINE
  5
3A3
  8
0
 10
67.365467973880016
 20
65.174904223467777
 30
0.0
 11
72.865467973880016
 21
65.174904223467777
 31
0.0
  0
LINE
  5
3A4
  8
0
 10
74.155552973880049
 20
76.174904223467777
 30
0.0
 11
67.365467973880016
 21
76.174904223467777
 31
0.0
  0
LINE
  5
3A5
  8
0
 10
72.865467973880016
 20
69.174904223467763
 30
0.0
 11
72.865467973880016
 21
65.174904223467777
 31
0.0
  0
LINE
  5
3A6
  8
0
 10
72.865467973880016
 20
65.174904223467777
 30
0.0
 11
79.865467973880016
 21
62.17490422346777
 31
0.0
  0
LINE
  5
3A7
  8
2
 10
73.865467973880016
 20
76.274904223467772
 30
0.0
 11
73.865467973880016
 21
76.47490422346776
 31
0.0
  0
LINE
  5
3A8
  8
2
 10
73.765467973880021
 20
76.374904223467766
 30
0.0
 11
73.96546797388001
 21
76.374904223467766
 31
0.0
  0
LINE
  5
3A9
  8
0
 10
70.365467973880016
 20
76.174904223467777
 30
0.0
 11
70.365467973880016
 21
69.174904223467763
 31
0.0
  0
DIMENSION
  5
3AE
  8
2
  2
*D1
 10
70.365467973880016
 20
84.607952756766622
 30
0.0
 11
67.365467973880016
 21
86.482952756766622
 31
0.0
 70
     0
  1
%%c<>
 13
64.365467973880016
 23
76.174904223467777
 33
0.0
 14
70.365467973880016
 24
76.174904223467777
 34
0.0
  0
DIMENSION
  5
3BE
  8
2
  2
*D2
 10
73.865467973880016
 20
88.672636253112074
 30
0.0
 11
67.365467973880016
 21
90.547636253112074
 31
0.0
 70
     0
  1
%%c<>
 13
60.865467973880023
 23
76.374904223467766
 33
0.0
 14
73.865467973880016
 24
76.374904223467766
 34
0.0
  0
DIMENSION
  5
3CB
  8
2
  2
*D3
 10
84.714984137826946
 20
69.174904223467763
 30
0.0
 11
82.839984137826931
 21
72.674904223467792
 31
0.0
 70
     0
 13
74.155552973880049
 23
76.174904223467777
 33
0.0
 14
72.865467973880016
 24
69.174904223467763
 34
0.0
 50
90.0
1001
ACAD
1000
DSTYLE
1002
{
1070
   271
1070
     6
1002
}
  0
DIMENSION
  5
3E1
  8
2
  2
*D4
 10
90.250908116161327
 20
62.17490422346777
 30
0.0
 11
88.375908116161312
 21
69.174904223467792
 31
0.0
 70
     0
 13
74.155552973880049
 23
76.174904223467777
 33
0.0
 14
79.865467973880016
 24
62.17490422346777
 34
0.0
 50
90.0
1001
ACAD
1000
DSTYLE
1002
{
1070
   271
1070
     6
1002
}
  0
DIMENSION
  5
3F7
  8
2
  2
*D5
 10
46.107307202028259
 20
65.174904223467777
 30
0.0
 11
44.232307202028259
 21
63.674904223467792
 31
0.0
 70
     0
 13
54.865467973880008
 23
62.17490422346777
 33
0.0
 14
61.865467973880008
 24
65.174904223467777
 34
0.0
 50
90.0
  0
DIMENSION
  5
406
  8
2
  2
*D6
 10
72.865467973880016
 20
54.046741952291832
 30
0.0
 11
67.365467973880016
 21
55.921741952291832
 31
0.0
 70
     0
  1
%%c<>
 13
61.865467973880008
 23
65.174904223467777
 33
0.0
 14
72.865467973880016
 24
65.174904223467777
 34
0.0
  0
DIMENSION
  5
413
  8
2
  2
*D7
 10
79.865467973880016
 20
48.842906768601857
 30
0.0
 11
67.365467973880016
 21
50.717906768601857
 31
0.0
 70
     0
  1
%%c<>
 13
54.865467973880008
 23
62.17490422346777
 33
0.0
 14
79.865467973880016
 24
62.17490422346777
 34
0.0
1001
ACAD
1000
DSTYLE
1002
{
1070
   271
1070
     6
1002
}
  0
ENDSEC
  0
EOF
