  0
SECTION
  2
HEADER
  9
$ACADVER
  1
AC1009
  9
$INSBASE
 10
0.0
 20
0.0
 30
0.0
  9
$EXTMIN
 10
52.550141109200183
 20
32.355242178952423
 30
0.0
  9
$EXTMAX
 10
111.63543257367211
 20
84.582625677197598
 30
5.0
  9
$LIMMIN
 10
0.0
 20
0.0
  9
$LIMMAX
 10
420.0
 20
297.0
  9
$ORTHOMODE
 70
     0
  9
$REGENMODE
 70
     1
  9
$FILLMODE
 70
     1
  9
$QTEXTMODE
 70
     0
  9
$MIRRTEXT
 70
     1
  9
$DRAGMODE
 70
     2
  9
$LTSCALE
 40
0.3
  9
$OSMODE
 70
    37
  9
$ATTMODE
 70
     1
  9
$TEXTSIZE
 40
2.5
  9
$TRACEWID
 40
1.0
  9
$TEXTSTYLE
  7
STANDARD
  9
$CLAYER
  8
2
  9
$CELTYPE
  6
BYLAYER
  9
$CECOLOR
 62
   256
  9
$DIMSCALE
 40
1.0
  9
$DIMASZ
 40
2.5
  9
$DIMEXO
 40
0.625
  9
$DIMDLI
 40
3.75
  9
$DIMRND
 40
0.0
  9
$DIMDLE
 40
0.0
  9
$DIMEXE
 40
1.25
  9
$DIMTP
 40
0.0
  9
$DIMTM
 40
0.0
  9
$DIMTXT
 40
2.5
  9
$DIMCEN
 40
2.5
  9
$DIMTSZ
 40
0.0
  9
$DIMTOL
 70
     0
  9
$DIMLIM
 70
     0
  9
$DIMTIH
 70
     0
  9
$DIMTOH
 70
     0
  9
$DIMSE1
 70
     0
  9
$DIMSE2
 70
     0
  9
$DIMTAD
 70
     1
  9
$DIMZIN
 70
     8
  9
$DIMBLK
  1

  9
$DIMASO
 70
     1
  9
$DIMSHO
 70
     1
  9
$DIMPOST
  1

  9
$DIMAPOST
  1

  9
$DIMALT
 70
     0
  9
$DIMALTD
 70
     3
  9
$DIMALTF
 40
0.03937007874016
  9
$DIMLFAC
 40
1.0
  9
$DIMTOFL
 70
     1
  9
$DIMTVP
 40
0.0
  9
$DIMTIX
 70
     0
  9
$DIMSOXD
 70
     0
  9
$DIMSAH
 70
     0
  9
$DIMBLK1
  1

  9
$DIMBLK2
  1

  9
$DIMSTYLE
  2
ISO-25
  9
$DIMCLRD
 70
     0
  9
$DIMCLRE
 70
     0
  9
$DIMCLRT
 70
     0
  9
$DIMTFAC
 40
1.0
  9
$DIMGAP
 40
0.625
  9
$LUNITS
 70
     2
  9
$LUPREC
 70
     4
  9
$SKETCHINC
 40
1.0
  9
$FILLETRAD
 40
10.0
  9
$AUNITS
 70
     0
  9
$AUPREC
 70
     0
  9
$MENU
  1
.
  9
$ELEVATION
 40
0.0
  9
$PELEVATION
 40
0.0
  9
$THICKNESS
 40
0.0
  9
$LIMCHECK
 70
     0
  9
$BLIPMODE
 70
     0
  9
$CHAMFERA
 40
10.0
  9
$CHAMFERB
 40
10.0
  9
$SKPOLY
 70
     0
  9
$TDCREATE
 40
2453436.030550092
  9
$TDUPDATE
 40
2453551.9001460648
  9
$TDINDWG
 40
0.0265306366
  9
$TDUSRTIMER
 40
0.0265306366
  9
$USRTIMER
 70
     1
  9
$ANGBASE
 50
0.0
  9
$ANGDIR
 70
     0
  9
$PDMODE
 70
     0
  9
$PDSIZE
 40
0.0
  9
$PLINEWID
 40
0.0
  9
$COORDS
 70
     1
  9
$SPLFRAME
 70
     0
  9
$SPLINETYPE
 70
     6
  9
$SPLINESEGS
 70
     8
  9
$ATTDIA
 70
     0
  9
$ATTREQ
 70
     1
  9
$HANDLING
 70
-16383
  9
$HANDSEED
  5
471
  9
$SURFTAB1
 70
     6
  9
$SURFTAB2
 70
     6
  9
$SURFTYPE
 70
     6
  9
$SURFU
 70
     6
  9
$SURFV
 70
     6
  9
$UCSNAME
  2

  9
$UCSORG
 10
0.0
 20
0.0
 30
0.0
  9
$UCSXDIR
 10
1.0
 20
0.0
 30
0.0
  9
$UCSYDIR
 10
0.0
 20
1.0
 30
0.0
  9
$PUCSNAME
  2

  9
$PUCSORG
 10
0.0
 20
0.0
 30
0.0
  9
$PUCSXDIR
 10
1.0
 20
0.0
 30
0.0
  9
$PUCSYDIR
 10
0.0
 20
1.0
 30
0.0
  9
$USERI1
 70
     0
  9
$USERI2
 70
     0
  9
$USERI3
 70
     0
  9
$USERI4
 70
     0
  9
$USERI5
 70
     0
  9
$USERR1
 40
0.0
  9
$USERR2
 40
0.0
  9
$USERR3
 40
0.0
  9
$USERR4
 40
0.0
  9
$USERR5
 40
0.0
  9
$WORLDVIEW
 70
     1
  9
$SHADEDGE
 70
     3
  9
$SHADEDIF
 70
    70
  9
$TILEMODE
 70
     1
  9
$MAXACTVP
 70
    64
  9
$PLIMCHECK
 70
     0
  9
$PEXTMIN
 10
1.0000000000000000E+020
 20
1.0000000000000000E+020
 30
1.0000000000000000E+020
  9
$PEXTMAX
 10
-1.0000000000000000E+020
 20
-1.0000000000000000E+020
 30
-1.0000000000000000E+020
  9
$PLIMMIN
 10
0.0
 20
0.0
  9
$PLIMMAX
 10
420.0
 20
297.0
  9
$UNITMODE
 70
     0
  9
$VISRETAIN
 70
     1
  9
$PLINEGEN
 70
     0
  9
$PSLTSCALE
 70
     1
  0
ENDSEC
  0
SECTION
  2
TABLES
  0
TABLE
  2
VPORT
 70
     2
  0
VPORT
  2
*ACTIVE
 70
     0
 10
0.0
 20
0.0
 11
1.0
 21
1.0
 12
104.1813109164669
 22
51.837980108758622
 13
0.0
 23
0.0
 14
10.0
 24
10.0
 15
10.0
 25
10.0
 16
0.0
 26
0.0
 36
1.0
 17
0.0
 27
0.0
 37
0.0
 40
78.582659113415687
 41
2.5392405063291141
 42
50.0
 43
0.0
 44
0.0
 50
0.0
 51
0.0
 71
     0
 72
   100
 73
     1
 74
     3
 75
     0
 76
     0
 77
     0
 78
     0
  0
ENDTAB
  0
TABLE
  2
LTYPE
 70
     2
  0
LTYPE
  2
CONTINUOUS
 70
     0
  3
Solid line
 72
    65
 73
     0
 40
0.0
  0
LTYPE
  2
CENTER
 70
     0
  3
Center ____ _ ____ _ ____ _ ____ _ ____ _ ____
 72
    65
 73
     4
 40
50.799999999999997
 49
31.75
 49
-6.3499999999999988
 49
6.3499999999999988
 49
-6.3499999999999988
  0
ENDTAB
  0
TABLE
  2
LAYER
 70
     4
  0
LAYER
  2
0
 70
     0
 62
     7
  6
CONTINUOUS
  0
LAYER
  2
1
 70
     0
 62
     7
  6
CENTER
  0
LAYER
  2
DEFPOINTS
 70
     0
 62
     7
  6
CONTINUOUS
  0
LAYER
  2
2
 70
     0
 62
     7
  6
CONTINUOUS
  0
ENDTAB
  0
TABLE
  2
STYLE
 70
     3
  0
STYLE
  2
STANDARD
 70
     0
 40
0.0
 41
1.0
 50
0.0
 71
     0
 42
2.5
  3
txt
  4

  0
STYLE
  2
\U+00C9L\U+00C9R_\U+00C2S\U+00C2V\U+00C2B\U+00C2N
 70
     0
 40
1.0
 41
1.0
 50
0.0
 71
     0
 42
1.0
  3
\U+00E9l\U+00E9r \U+00E2S\U+00E2V\U+00E2b\U+00E2N
  4

  0
STYLE
  2

 70
     1
 40
0.0
 41
1.0
 50
0.0
 71
     0
 42
2.5
  3
ltypeshp.shx
  4

  0
ENDTAB
  0
TABLE
  2
VIEW
 70
     0
  0
ENDTAB
  0
TABLE
  2
UCS
 70
     0
  0
ENDTAB
  0
TABLE
  2
APPID
 70
     1
  0
APPID
  2
ACAD
 70
     0
  0
ENDTAB
  0
TABLE
  2
DIMSTYLE
 70
     2
  0
DIMSTYLE
  2
ISO-25
 70
     0
  3

  4

  5

  6

  7

 40
1.0
 41
2.5
 42
0.625
 43
3.75
 44
1.25
 45
0.0
 46
0.0
 47
0.0
 48
0.0
140
2.5
141
2.5
142
0.0
143
0.03937007874016
144
1.0
145
0.0
146
1.0
147
0.625
 71
     0
 72
     0
 73
     0
 74
     0
 75
     0
 76
     0
 77
     1
 78
     8
170
     0
171
     3
172
     1
173
     0
174
     0
175
     0
176
     0
177
     0
178
     0
  0
DIMSTYLE
  2
STANDARD
 70
     0
  3

  4

  5

  6

  7

 40
1.0
 41
0.18
 42
0.0625
 43
0.38
 44
0.18
 45
0.0
 46
0.0
 47
0.0
 48
0.0
140
0.18
141
0.09
142
0.0
143
25.399999999999999
144
1.0
145
0.0
146
1.0
147
0.09
 71
     0
 72
     0
 73
     1
 74
     1
 75
     0
 76
     0
 77
     0
 78
     0
170
     0
171
     2
172
     0
173
     0
174
     0
175
     0
176
     0
177
     0
178
     0
  0
ENDTAB
  0
ENDSEC
  0
SECTION
  2
BLOCKS
  0
BLOCK
  8
0
  2
$MODEL_SPACE
 70
     0
 10
0.0
 20
0.0
 30
0.0
  3
$MODEL_SPACE
  1

  0
ENDBLK
  5
21
  8
0
  0
BLOCK
 67
     1
  8
0
  2
$PAPER_SPACE
 70
     0
 10
0.0
 20
0.0
 30
0.0
  3
$PAPER_SPACE
  1

  0
ENDBLK
  5
1D
 67
     1
  8
0
  0
BLOCK
  8
0
  2
*D1
 70
     1
 10
0.0
 20
0.0
 30
0.0
  3
*D1
  1

  0
LINE
  5
3AA
  8
2
 62
     0
 10
86.791399942671845
 20
69.00339949786634
 30
0.0
 11
105.79369292816661
 21
69.003399497866326
 31
0.0
  0
LINE
  5
3AB
  8
2
 62
     0
 10
87.552132909705165
 20
62.00339949786634
 30
0.0
 11
105.79369292816661
 21
62.00339949786634
 31
0.0
  0
LINE
  5
3AC
  8
2
 62
     0
 10
104.54369292816661
 20
66.503399497866326
 30
0.0
 11
104.54369292816661
 21
64.503399497866326
 31
0.0
  0
SOLID
  5
3AD
  8
2
 62
     0
 10
104.12702626149991
 20
66.503399497866326
 30
0.0
 11
104.96035959483331
 21
66.503399497866326
 31
0.0
 12
104.54369292816661
 22
69.003399497866326
 32
0.0
 13
104.54369292816661
 23
69.003399497866326
 33
0.0
  0
SOLID
  5
3AE
  8
2
 62
     0
 10
104.12702626149991
 20
64.503399497866326
 30
0.0
 11
104.96035959483331
 21
64.503399497866326
 31
0.0
 12
104.54369292816661
 22
62.00339949786634
 32
0.0
 13
104.54369292816661
 23
62.00339949786634
 33
0.0
  0
TEXT
  5
3AF
  8
2
 62
     0
 10
103.91869292816661
 20
64.670066164533026
 30
0.0
 40
2.5
  1
7
 50
90.0
  0
POINT
  5
3B0
  8
DEFPOINTS
 62
     0
 10
86.166399942671845
 20
69.00339949786634
 30
0.0
  0
POINT
  5
3B1
  8
DEFPOINTS
 62
     0
 10
86.927132909705165
 20
62.00339949786634
 30
0.0
  0
POINT
  5
3B2
  8
DEFPOINTS
 62
     0
 10
104.54369292816661
 20
62.00339949786634
 30
0.0
  0
ENDBLK
  5
3B4
  8
0
  0
BLOCK
  8
0
  2
*D2
 70
     1
 10
0.0
 20
0.0
 30
0.0
  3
*D2
  1

  0
LINE
  5
3B7
  8
2
 62
     0
 10
86.791399942671845
 20
69.00339949786634
 30
0.0
 11
111.63543257367211
 21
69.003399497866326
 31
0.0
  0
LINE
  5
3B8
  8
2
 62
     0
 10
97.052132909705165
 20
57.00339949786634
 30
0.0
 11
111.63543257367211
 21
57.00339949786634
 31
0.0
  0
LINE
  5
3B9
  8
2
 62
     0
 10
110.38543257367211
 20
66.503399497866326
 30
0.0
 11
110.38543257367211
 21
59.50339949786634
 31
0.0
  0
SOLID
  5
3BA
  8
2
 62
     0
 10
109.9687659070055
 20
66.503399497866326
 30
0.0
 11
110.8020992403388
 21
66.503399497866326
 31
0.0
 12
110.38543257367211
 22
69.003399497866326
 32
0.0
 13
110.38543257367211
 23
69.003399497866326
 33
0.0
  0
SOLID
  5
3BB
  8
2
 62
     0
 10
109.9687659070055
 20
59.50339949786634
 30
0.0
 11
110.8020992403388
 21
59.50339949786634
 31
0.0
 12
110.38543257367211
 22
57.00339949786634
 32
0.0
 13
110.38543257367211
 23
57.00339949786634
 33
0.0
  0
TEXT
  5
3BC
  8
2
 62
     0
 10
109.76043257367211
 20
61.336732831199683
 30
0.0
 40
2.5
  1
12
 50
90.0
  0
POINT
  5
3BD
  8
DEFPOINTS
 62
     0
 10
86.166399942671845
 20
69.00339949786634
 30
0.0
  0
POINT
  5
3BE
  8
DEFPOINTS
 62
     0
 10
96.427132909705165
 20
57.00339949786634
 30
0.0
  0
POINT
  5
3BF
  8
DEFPOINTS
 62
     0
 10
110.38543257367211
 20
57.00339949786634
 30
0.0
  0
ENDBLK
  5
3C1
  8
0
  0
BLOCK
  8
0
  2
*D3
 70
     1
 10
0.0
 20
0.0
 30
0.0
  3
*D3
  1

  0
LINE
  5
41E
  8
2
 62
     0
 10
78.427132909705165
 20
69.62839949786634
 30
0.0
 11
78.427132909705165
 21
78.184453343213704
 31
0.0
  0
LINE
  5
41F
  8
2
 62
     0
 10
84.427132909705165
 20
69.62839949786634
 30
0.0
 11
84.427132909705165
 21
78.184453343213704
 31
0.0
  0
LINE
  5
420
  8
2
 62
     0
 10
75.927132909705165
 20
76.934453343213704
 30
0.0
 11
73.427132909705165
 21
76.934453343213704
 31
0.0
  0
LINE
  5
421
  8
2
 62
     0
 10
86.927132909705165
 20
76.934453343213704
 30
0.0
 11
89.427132909705165
 21
76.934453343213704
 31
0.0
  0
LINE
  5
422
  8
2
 62
     0
 10
78.427132909705165
 20
76.934453343213704
 30
0.0
 11
84.427132909705165
 21
76.934453343213704
 31
0.0
  0
SOLID
  5
423
  8
2
 62
     0
 10
75.927132909705165
 20
77.351120009880376
 30
0.0
 11
75.927132909705165
 21
76.517786676547033
 31
0.0
 12
78.427132909705165
 22
76.934453343213704
 32
0.0
 13
78.427132909705165
 23
76.934453343213704
 33
0.0
  0
SOLID
  5
424
  8
2
 62
     0
 10
86.927132909705165
 20
77.351120009880376
 30
0.0
 11
86.927132909705165
 21
76.517786676547033
 31
0.0
 12
84.427132909705165
 22
76.934453343213704
 32
0.0
 13
84.427132909705165
 23
76.934453343213704
 33
0.0
  0
INSERT
  5
425
  8
2
  2
*U9
 10
0.0
 20
0.0
 30
0.0
  0
POINT
  5
426
  8
DEFPOINTS
 62
     0
 10
78.427132909705165
 20
69.00339949786634
 30
0.0
  0
POINT
  5
427
  8
DEFPOINTS
 62
     0
 10
84.427132909705165
 20
69.00339949786634
 30
0.0
  0
POINT
  5
428
  8
DEFPOINTS
 62
     0
 10
84.427132909705165
 20
76.934453343213704
 30
0.0
  0
ENDBLK
  5
3D0
  8
0
  0
BLOCK
  8
0
  2
*D4
 70
     1
 10
0.0
 20
0.0
 30
0.0
  3
*D4
  1

  0
LINE
  5
429
  8
2
 62
     0
 10
75.927132909705165
 20
58.37839949786634
 30
0.0
 11
75.927132909705165
 21
46.56971082894929
 31
0.0
  0
LINE
  5
42A
  8
2
 62
     0
 10
86.927132909705165
 20
58.37839949786634
 30
0.0
 11
86.927132909705165
 21
46.56971082894929
 31
0.0
  0
LINE
  5
42B
  8
2
 62
     0
 10
78.427132909705165
 20
47.81971082894929
 30
0.0
 11
84.427132909705165
 21
47.81971082894929
 31
0.0
  0
SOLID
  5
42C
  8
2
 62
     0
 10
78.427132909705165
 20
48.236377495615962
 30
0.0
 11
78.427132909705165
 21
47.403044162282633
 31
0.0
 12
75.927132909705165
 22
47.81971082894929
 32
0.0
 13
75.927132909705165
 23
47.81971082894929
 33
0.0
  0
SOLID
  5
42D
  8
2
 62
     0
 10
84.427132909705165
 20
48.236377495615962
 30
0.0
 11
84.427132909705165
 21
47.403044162282633
 31
0.0
 12
86.927132909705165
 22
47.81971082894929
 32
0.0
 13
86.927132909705165
 23
47.81971082894929
 33
0.0
  0
INSERT
  5
42E
  8
2
  2
*U10
 10
0.0
 20
0.0
 30
0.0
  0
POINT
  5
42F
  8
DEFPOINTS
 62
     0
 10
75.927132909705165
 20
59.00339949786634
 30
0.0
  0
POINT
  5
430
  8
DEFPOINTS
 62
     0
 10
86.927132909705165
 20
59.00339949786634
 30
0.0
  0
POINT
  5
431
  8
DEFPOINTS
 62
     0
 10
86.927132909705165
 20
47.81971082894929
 30
0.0
  0
ENDBLK
  5
3DD
  8
0
  0
BLOCK
  8
0
  2
*D5
 70
     1
 10
0.0
 20
0.0
 30
0.0
  3
*D5
  1

  0
LINE
  5
442
  8
2
 62
     0
 10
66.427132909705165
 20
56.37839949786634
 30
0.0
 11
66.427132909705165
 21
41.567736647621757
 31
0.0
  0
LINE
  5
443
  8
2
 62
     0
 10
96.427132909705165
 20
56.37839949786634
 30
0.0
 11
96.427132909705165
 21
41.567736647621757
 31
0.0
  0
LINE
  5
444
  8
2
 62
     0
 10
68.927132909705165
 20
42.817736647621757
 30
0.0
 11
93.927132909705165
 21
42.817736647621757
 31
0.0
  0
SOLID
  5
445
  8
2
 62
     0
 10
68.927132909705165
 20
43.234403314288421
 30
0.0
 11
68.927132909705165
 21
42.401069980955093
 31
0.0
 12
66.427132909705165
 22
42.817736647621757
 32
0.0
 13
66.427132909705165
 23
42.817736647621757
 33
0.0
  0
SOLID
  5
446
  8
2
 62
     0
 10
93.927132909705165
 20
43.234403314288421
 30
0.0
 11
93.927132909705165
 21
42.401069980955093
 31
0.0
 12
96.427132909705165
 22
42.817736647621757
 32
0.0
 13
96.427132909705165
 23
42.817736647621757
 33
0.0
  0
INSERT
  5
447
  8
2
  2
*U11
 10
0.0
 20
0.0
 30
0.0
  0
POINT
  5
448
  8
DEFPOINTS
 62
     0
 10
66.427132909705165
 20
57.00339949786634
 30
0.0
  0
POINT
  5
449
  8
DEFPOINTS
 62
     0
 10
96.427132909705165
 20
57.00339949786634
 30
0.0
  0
POINT
  5
44A
  8
DEFPOINTS
 62
     0
 10
96.427132909705165
 20
42.817736647621757
 30
0.0
  0
ENDBLK
  5
3EA
  8
0
  0
BLOCK
  8
0
  2
*D6
 70
     1
 10
0.0
 20
0.0
 30
0.0
  3
*D6
  1

  0
LINE
  5
3EE
  8
2
 62
     0
 10
65.802132909705165
 20
57.00339949786634
 30
0.0
 11
54.42514110920019
 21
57.00339949786634
 31
0.0
  0
LINE
  5
3EF
  8
2
 62
     0
 10
75.302132909705165
 20
59.00339949786634
 30
0.0
 11
54.42514110920019
 21
59.00339949786634
 31
0.0
  0
LINE
  5
3F0
  8
2
 62
     0
 10
55.67514110920019
 20
54.50339949786634
 30
0.0
 11
55.67514110920019
 21
52.00339949786634
 31
0.0
  0
LINE
  5
3F1
  8
2
 62
     0
 10
55.67514110920019
 20
61.50339949786634
 30
0.0
 11
55.67514110920019
 21
66.920066164533011
 31
0.0
  0
LINE
  5
3F2
  8
2
 62
     0
 10
55.67514110920019
 20
57.00339949786634
 30
0.0
 11
55.67514110920019
 21
59.00339949786634
 31
0.0
  0
SOLID
  5
3F3
  8
2
 62
     0
 10
55.258474442533519
 20
54.50339949786634
 30
0.0
 11
56.091807775866847
 21
54.50339949786634
 31
0.0
 12
55.67514110920019
 22
57.00339949786634
 32
0.0
 13
55.67514110920019
 23
57.00339949786634
 33
0.0
  0
SOLID
  5
3F4
  8
2
 62
     0
 10
55.258474442533519
 20
61.50339949786634
 30
0.0
 11
56.091807775866847
 21
61.50339949786634
 31
0.0
 12
55.67514110920019
 22
59.00339949786634
 32
0.0
 13
55.67514110920019
 23
59.00339949786634
 33
0.0
  0
TEXT
  5
3F5
  8
2
 62
     0
 10
55.050141109200183
 20
64.628399497866354
 30
0.0
 40
2.5
  1
2
 50
90.0
  0
POINT
  5
3F6
  8
DEFPOINTS
 62
     0
 10
66.427132909705165
 20
57.00339949786634
 30
0.0
  0
POINT
  5
3F7
  8
DEFPOINTS
 62
     0
 10
75.927132909705165
 20
59.00339949786634
 30
0.0
  0
POINT
  5
3F8
  8
DEFPOINTS
 62
     0
 10
55.67514110920019
 20
59.00339949786634
 30
0.0
  0
ENDBLK
  5
3FA
  8
0
  0
BLOCK
  8
0
  2
*D7
 70
     1
 10
0.0
 20
0.0
 30
0.0
  3
*D7
  1

  0
LINE
  5
415
  8
2
 62
     0
 10
75.927132909705165
 20
69.828399497866329
 30
0.0
 11
75.927132909705165
 21
82.707625677197598
 31
0.0
  0
LINE
  5
416
  8
2
 62
     0
 10
86.927132909705165
 20
69.828399497866329
 30
0.0
 11
86.927132909705165
 21
82.707625677197598
 31
0.0
  0
LINE
  5
417
  8
2
 62
     0
 10
78.427132909705165
 20
81.457625677197598
 30
0.0
 11
84.427132909705165
 21
81.457625677197598
 31
0.0
  0
SOLID
  5
418
  8
2
 62
     0
 10
78.427132909705165
 20
81.874292343864255
 30
0.0
 11
78.427132909705165
 21
81.040959010530926
 31
0.0
 12
75.927132909705165
 22
81.457625677197598
 32
0.0
 13
75.927132909705165
 23
81.457625677197598
 33
0.0
  0
SOLID
  5
419
  8
2
 62
     0
 10
84.427132909705165
 20
81.874292343864255
 30
0.0
 11
84.427132909705165
 21
81.040959010530926
 31
0.0
 12
86.927132909705165
 22
81.457625677197598
 32
0.0
 13
86.927132909705165
 23
81.457625677197598
 33
0.0
  0
INSERT
  5
41A
  8
2
  2
*U8
 10
0.0
 20
0.0
 30
0.0
  0
POINT
  5
41B
  8
DEFPOINTS
 62
     0
 10
75.927132909705165
 20
69.203399497866329
 30
0.0
  0
POINT
  5
41C
  8
DEFPOINTS
 62
     0
 10
86.927132909705165
 20
69.203399497866329
 30
0.0
  0
POINT
  5
41D
  8
DEFPOINTS
 62
     0
 10
86.927132909705165
 20
81.457625677197598
 30
0.0
  0
ENDBLK
  5
413
  8
0
  0
BLOCK
  8
0
  2
*U8
 70
     1
 10
0.0
 20
0.0
 30
0.0
  3
*U8
  1

  0
TEXT
  5
45E
  8
2
 62
     0
 10
78.927132909705165
 20
82.082625677197598
 30
0.0
 40
2.5
  1
\U+2205
  0
TEXT
  5
45F
  8
2
 62
     0
 10
81.427132909705165
 20
82.082625677197598
 30
0.0
 40
2.5
  1
11
  0
ENDBLK
  5
461
  8
0
  0
BLOCK
  8
0
  2
*U9
 70
     1
 10
0.0
 20
0.0
 30
0.0
  3
*U9
  1

  0
TEXT
  5
463
  8
2
 62
     0
 10
79.343799576371836
 20
77.559453343213704
 30
0.0
 40
2.5
  1
\U+2205
  0
TEXT
  5
464
  8
2
 62
     0
 10
81.843799576371836
 20
77.559453343213704
 30
0.0
 40
2.5
  1
6
  0
ENDBLK
  5
466
  8
0
  0
BLOCK
  8
0
  2
*U10
 70
     1
 10
0.0
 20
0.0
 30
0.0
  3
*U10
  1

  0
TEXT
  5
468
  8
2
 62
     0
 10
78.927132909705165
 20
48.444710828949297
 30
0.0
 40
2.5
  1
\U+2205
  0
TEXT
  5
469
  8
2
 62
     0
 10
81.427132909705165
 20
48.444710828949297
 30
0.0
 40
2.5
  1
11
  0
ENDBLK
  5
46B
  8
0
  0
BLOCK
  8
0
  2
*U11
 70
     1
 10
0.0
 20
0.0
 30
0.0
  3
*U11
  1

  0
TEXT
  5
46D
  8
2
 62
     0
 10
78.302132909705165
 20
43.442736647621757
 30
0.0
 40
2.5
  1
\U+2205
  0
TEXT
  5
46E
  8
2
 62
     0
 10
80.802132909705165
 20
43.442736647621757
 30
0.0
 40
2.5
  1
30
  0
ENDBLK
  5
470
  8
0
  0
ENDSEC
  0
SECTION
  2
ENTITIES
  0
TEXT
  5
C7
  8
2
 10
63.265275071351269
 20
32.597141607523881
 30
0.0
 40
2.5399440000000002
  1
No. 102.030.053._
 51
-0.0000015352344868
  7
\U+00C9L\U+00C9R_\U+00C2S\U+00C2V\U+00C2B\U+00C2N
  0
LINE
  5
146
  8
0
 39
5.0
 10
75.698132909705151
 20
68.915999497866338
 30
0.0
 11
75.698132909705151
 21
68.915999497866338
 31
0.0
  0
LINE
  5
147
  8
0
 39
5.0
 10
76.687865876738485
 20
69.00339949786634
 30
0.0
 11
75.492032909705159
 21
68.897799497866345
 31
0.0
  0
LINE
  5
148
  8
0
 39
5.0
 10
75.492032909705159
 20
68.897799497866345
 30
0.0
 11
75.292532909705145
 21
68.861899497866347
 31
0.0
  0
LINE
  5
149
  8
0
 39
5.0
 10
75.292532909705145
 20
68.861899497866347
 30
0.0
 11
75.100132909705167
 21
68.808899497866335
 31
0.0
  0
LINE
  5
14A
  8
0
 39
5.0
 10
75.100132909705167
 20
68.808899497866335
 30
0.0
 11
74.914832909705154
 21
68.739099497866334
 31
0.0
  0
LINE
  5
14B
  8
0
 39
5.0
 10
74.914832909705154
 20
68.739099497866334
 30
0.0
 11
74.737132909705167
 21
68.65309949786635
 31
0.0
  0
LINE
  5
14C
  8
0
 39
5.0
 10
74.737132909705167
 20
68.65309949786635
 30
0.0
 11
74.566932909705159
 21
68.55089949786634
 31
0.0
  0
LINE
  5
14D
  8
0
 39
5.0
 10
74.566932909705159
 20
68.55089949786634
 30
0.0
 11
74.404632909705157
 21
68.43319949786634
 31
0.0
  0
LINE
  5
14E
  8
0
 39
5.0
 10
74.404632909705157
 20
68.43319949786634
 30
0.0
 11
74.250432909705154
 21
68.300099497866341
 31
0.0
  0
LINE
  5
14F
  8
0
 39
5.0
 10
74.250432909705154
 20
68.300099497866341
 30
0.0
 11
74.104732909705135
 21
68.152299497866323
 31
0.0
  0
LINE
  5
150
  8
0
 39
5.0
 10
74.104732909705135
 20
68.152299497866323
 30
0.0
 11
73.967432909705167
 21
67.989899497866332
 31
0.0
  0
LINE
  5
151
  8
0
 39
5.0
 10
73.967432909705167
 20
67.989899497866332
 30
0.0
 11
73.839032909705168
 21
67.813499497866331
 31
0.0
  0
LINE
  5
152
  8
0
 39
5.0
 10
73.839032909705168
 20
67.813499497866331
 30
0.0
 11
73.719432909705148
 21
67.623099497866349
 31
0.0
  0
LINE
  5
153
  8
0
 39
5.0
 10
73.719432909705148
 20
67.623099497866349
 30
0.0
 11
73.609232909705156
 21
67.41949949786634
 31
0.0
  0
LINE
  5
154
  8
0
 39
5.0
 10
73.609232909705156
 20
67.41949949786634
 30
0.0
 11
73.50833290970516
 21
67.202699497866348
 31
0.0
  0
LINE
  5
155
  8
0
 39
5.0
 10
73.50833290970516
 20
67.202699497866348
 30
0.0
 11
73.417232909705149
 21
66.973299497866336
 31
0.0
  0
LINE
  5
156
  8
0
 39
5.0
 10
73.417232909705149
 20
66.973299497866336
 30
0.0
 11
73.33593290970515
 21
66.731599497866341
 31
0.0
  0
LINE
  5
157
  8
0
 39
5.0
 10
73.33593290970515
 20
66.731599497866341
 30
0.0
 11
73.33593290970515
 21
66.731599497866341
 31
0.0
  0
LINE
  5
158
  8
0
 39
5.0
 10
73.33593290970515
 20
66.731599497866341
 30
0.0
 11
73.057232909705164
 21
66.02309949786634
 31
0.0
  0
LINE
  5
159
  8
0
 39
5.0
 10
73.057232909705164
 20
66.02309949786634
 30
0.0
 11
72.746432909705163
 21
65.334399497866343
 31
0.0
  0
LINE
  5
15A
  8
0
 39
5.0
 10
72.746432909705163
 20
65.334399497866343
 30
0.0
 11
72.406132909705136
 21
64.664399497866341
 31
0.0
  0
LINE
  5
15B
  8
0
 39
5.0
 10
72.406132909705136
 20
64.664399497866341
 30
0.0
 11
72.038632909705157
 21
64.011499497866339
 31
0.0
  0
LINE
  5
15C
  8
0
 39
5.0
 10
72.038632909705157
 20
64.011499497866339
 30
0.0
 11
71.646832909705154
 21
63.374499497866339
 31
0.0
  0
LINE
  5
15D
  8
0
 39
5.0
 10
71.646832909705154
 20
63.374499497866339
 30
0.0
 11
71.232732909705163
 21
62.751799497866337
 31
0.0
  0
LINE
  5
15E
  8
0
 39
5.0
 10
71.232732909705163
 20
62.751799497866337
 30
0.0
 11
70.79913290970515
 21
62.14209949786634
 31
0.0
  0
LINE
  5
15F
  8
0
 39
5.0
 10
70.79913290970515
 20
62.14209949786634
 30
0.0
 11
70.348332909705164
 21
61.543699497866342
 31
0.0
  0
LINE
  5
160
  8
0
 39
5.0
 10
70.348332909705164
 20
61.543699497866342
 30
0.0
 11
69.883132909705154
 21
60.955699497866327
 31
0.0
  0
LINE
  5
161
  8
0
 39
5.0
 10
69.883132909705154
 20
60.955699497866327
 30
0.0
 11
69.405732909705165
 21
60.376199497866338
 31
0.0
  0
LINE
  5
162
  8
0
 39
5.0
 10
69.405732909705165
 20
60.376199497866338
 30
0.0
 11
68.918832909705159
 21
59.804199497866328
 31
0.0
  0
LINE
  5
163
  8
0
 39
5.0
 10
68.918832909705159
 20
59.804199497866328
 30
0.0
 11
68.424632909705167
 21
59.237899497866337
 31
0.0
  0
LINE
  5
164
  8
0
 39
5.0
 10
68.424632909705167
 20
59.237899497866337
 30
0.0
 11
67.926032909705157
 21
58.676199497866328
 31
0.0
  0
LINE
  5
165
  8
0
 39
5.0
 10
67.926032909705157
 20
58.676199497866328
 30
0.0
 11
67.425232909705159
 21
58.117399497866337
 31
0.0
  0
LINE
  5
166
  8
0
 39
5.0
 10
67.425232909705159
 20
58.117399497866337
 30
0.0
 11
66.924732909705156
 21
57.560399497866342
 31
0.0
  0
LINE
  5
167
  8
0
 39
5.0
 10
66.924732909705156
 20
57.560399497866342
 30
0.0
 11
66.427132909705165
 21
57.00339949786634
 31
0.0
  0
LINE
  5
2BA
  8
1
 10
81.427132909705165
 20
69.50339949786634
 30
0.0
 11
81.427132909705165
 21
56.50339949786634
 31
0.0
  0
LINE
  5
2C3
  8
0
 10
66.427132909705165
 20
57.00339949786634
 30
0.0
 11
81.427132909705165
 21
57.00339949786634
 31
0.0
  0
LINE
  5
2CF
  8
0
 10
76.687865876738485
 20
69.00339949786634
 30
0.0
 11
81.427132909705165
 21
69.00339949786634
 31
0.0
  0
LINE
  5
2D2
  8
0
 10
81.427132909705165
 20
59.00339949786634
 30
0.0
 11
75.927132909705165
 21
59.00339949786634
 31
0.0
  0
LINE
  5
2D5
  8
0
 10
78.427132909705165
 20
69.00339949786634
 30
0.0
 11
78.427132909705165
 21
62.00339949786634
 31
0.0
  0
LINE
  5
2D6
  8
0
 10
75.927132909705165
 20
62.00339949786634
 30
0.0
 11
75.927132909705165
 21
59.00339949786634
 31
0.0
  0
LINE
  5
2DB
  8
0
 10
75.927132909705165
 20
62.00339949786634
 30
0.0
 11
81.427132909705165
 21
62.00339949786634
 31
0.0
  0
LINE
  5
2E0
  8
0
 10
66.896332909705166
 20
57.00339949786634
 30
0.0
 11
75.927132909705165
 21
59.00339949786634
 31
0.0
  0
LINE
  5
37A
  8
0
 39
5.0
 10
86.166399942671845
 20
69.00339949786634
 30
0.0
 11
87.36223290970517
 21
68.897799497866345
 31
0.0
  0
LINE
  5
37B
  8
0
 39
5.0
 10
87.156132909705178
 20
68.915999497866338
 30
0.0
 11
87.156132909705178
 21
68.915999497866338
 31
0.0
  0
LINE
  5
37C
  8
0
 39
5.0
 10
87.36223290970517
 20
68.897799497866345
 30
0.0
 11
87.561732909705171
 21
68.861899497866347
 31
0.0
  0
LINE
  5
37D
  8
0
 39
5.0
 10
87.561732909705171
 20
68.861899497866347
 30
0.0
 11
87.754132909705163
 21
68.808899497866335
 31
0.0
  0
LINE
  5
37E
  8
0
 39
5.0
 10
87.754132909705163
 20
68.808899497866335
 30
0.0
 11
87.939432909705175
 21
68.739099497866334
 31
0.0
  0
LINE
  5
37F
  8
0
 39
5.0
 10
87.939432909705175
 20
68.739099497866334
 30
0.0
 11
88.117132909705163
 21
68.65309949786635
 31
0.0
  0
LINE
  5
380
  8
0
 39
5.0
 10
88.117132909705163
 20
68.65309949786635
 30
0.0
 11
88.287332909705157
 21
68.55089949786634
 31
0.0
  0
LINE
  5
381
  8
0
 39
5.0
 10
88.287332909705157
 20
68.55089949786634
 30
0.0
 11
88.449632909705159
 21
68.43319949786634
 31
0.0
  0
LINE
  5
382
  8
0
 39
5.0
 10
88.449632909705159
 20
68.43319949786634
 30
0.0
 11
88.603832909705176
 21
68.300099497866341
 31
0.0
  0
LINE
  5
383
  8
0
 39
5.0
 10
88.603832909705176
 20
68.300099497866341
 30
0.0
 11
88.749532909705181
 21
68.152299497866323
 31
0.0
  0
LINE
  5
384
  8
0
 39
5.0
 10
88.749532909705181
 20
68.152299497866323
 30
0.0
 11
88.886832909705177
 21
67.989899497866332
 31
0.0
  0
LINE
  5
385
  8
0
 39
5.0
 10
88.886832909705177
 20
67.989899497866332
 30
0.0
 11
89.015232909705162
 21
67.813499497866331
 31
0.0
  0
LINE
  5
386
  8
0
 39
5.0
 10
89.015232909705162
 20
67.813499497866331
 30
0.0
 11
89.134832909705182
 21
67.623099497866349
 31
0.0
  0
LINE
  5
387
  8
0
 39
5.0
 10
89.134832909705182
 20
67.623099497866349
 30
0.0
 11
89.245032909705174
 21
67.41949949786634
 31
0.0
  0
LINE
  5
388
  8
0
 39
5.0
 10
89.245032909705174
 20
67.41949949786634
 30
0.0
 11
89.345932909705155
 21
67.202699497866348
 31
0.0
  0
LINE
  5
389
  8
0
 39
5.0
 10
89.345932909705155
 20
67.202699497866348
 30
0.0
 11
89.437032909705181
 21
66.973299497866336
 31
0.0
  0
LINE
  5
38A
  8
0
 39
5.0
 10
89.437032909705181
 20
66.973299497866336
 30
0.0
 11
89.518332909705165
 21
66.731599497866341
 31
0.0
  0
LINE
  5
38B
  8
0
 39
5.0
 10
89.518332909705165
 20
66.731599497866341
 30
0.0
 11
89.518332909705165
 21
66.731599497866341
 31
0.0
  0
LINE
  5
38C
  8
0
 39
5.0
 10
89.518332909705165
 20
66.731599497866341
 30
0.0
 11
89.797032909705166
 21
66.02309949786634
 31
0.0
  0
LINE
  5
38D
  8
0
 39
5.0
 10
89.797032909705166
 20
66.02309949786634
 30
0.0
 11
90.107832909705166
 21
65.334399497866343
 31
0.0
  0
LINE
  5
38E
  8
0
 39
5.0
 10
90.107832909705166
 20
65.334399497866343
 30
0.0
 11
90.44813290970518
 21
64.664399497866341
 31
0.0
  0
LINE
  5
38F
  8
0
 39
5.0
 10
90.44813290970518
 20
64.664399497866341
 30
0.0
 11
90.815632909705172
 21
64.011499497866339
 31
0.0
  0
LINE
  5
390
  8
0
 39
5.0
 10
90.815632909705172
 20
64.011499497866339
 30
0.0
 11
91.207432909705176
 21
63.374499497866339
 31
0.0
  0
LINE
  5
391
  8
0
 39
5.0
 10
91.207432909705176
 20
63.374499497866339
 30
0.0
 11
91.621532909705167
 21
62.751799497866337
 31
0.0
  0
LINE
  5
392
  8
0
 39
5.0
 10
91.621532909705167
 20
62.751799497866337
 30
0.0
 11
92.055132909705179
 21
62.14209949786634
 31
0.0
  0
LINE
  5
393
  8
0
 39
5.0
 10
92.055132909705179
 20
62.14209949786634
 30
0.0
 11
92.505932909705166
 21
61.543699497866342
 31
0.0
  0
LINE
  5
394
  8
0
 39
5.0
 10
92.505932909705166
 20
61.543699497866342
 30
0.0
 11
92.971132909705176
 21
60.955699497866327
 31
0.0
  0
LINE
  5
395
  8
0
 39
5.0
 10
92.971132909705176
 20
60.955699497866327
 30
0.0
 11
93.448532909705165
 21
60.376199497866338
 31
0.0
  0
LINE
  5
396
  8
0
 39
5.0
 10
93.448532909705165
 20
60.376199497866338
 30
0.0
 11
93.935432909705185
 21
59.804199497866328
 31
0.0
  0
LINE
  5
397
  8
0
 39
5.0
 10
93.935432909705185
 20
59.804199497866328
 30
0.0
 11
94.429632909705148
 21
59.237899497866337
 31
0.0
  0
LINE
  5
398
  8
0
 39
5.0
 10
94.429632909705148
 20
59.237899497866337
 30
0.0
 11
94.928232909705173
 21
58.676199497866328
 31
0.0
  0
LINE
  5
399
  8
0
 39
5.0
 10
94.928232909705173
 20
58.676199497866328
 30
0.0
 11
95.429032909705171
 21
58.117399497866337
 31
0.0
  0
LINE
  5
39A
  8
0
 39
5.0
 10
95.429032909705171
 20
58.117399497866337
 30
0.0
 11
95.929532909705173
 21
57.560399497866342
 31
0.0
  0
LINE
  5
39B
  8
0
 39
5.0
 10
95.929532909705173
 20
57.560399497866342
 30
0.0
 11
96.427132909705165
 21
57.00339949786634
 31
0.0
  0
LINE
  5
39C
  8
0
 10
81.427132909705165
 20
59.00339949786634
 30
0.0
 11
86.927132909705165
 21
59.00339949786634
 31
0.0
  0
LINE
  5
39D
  8
0
 10
86.927132909705165
 20
62.00339949786634
 30
0.0
 11
81.427132909705165
 21
62.00339949786634
 31
0.0
  0
LINE
  5
39E
  8
0
 10
96.427132909705165
 20
57.00339949786634
 30
0.0
 11
81.427132909705165
 21
57.00339949786634
 31
0.0
  0
LINE
  5
39F
  8
0
 10
86.166399942671845
 20
69.00339949786634
 30
0.0
 11
81.427132909705165
 21
69.00339949786634
 31
0.0
  0
LINE
  5
3A0
  8
0
 10
84.427132909705165
 20
69.00339949786634
 30
0.0
 11
84.427132909705165
 21
62.00339949786634
 31
0.0
  0
LINE
  5
3A1
  8
0
 10
95.957932909705164
 20
57.00339949786634
 30
0.0
 11
86.927132909705165
 21
59.00339949786634
 31
0.0
  0
LINE
  5
3A2
  8
0
 10
86.927132909705165
 20
62.00339949786634
 30
0.0
 11
86.927132909705165
 21
59.00339949786634
 31
0.0
  0
DIMENSION
  5
3A8
  8
2
  2
*D1
 10
104.54369292816661
 20
62.00339949786634
 30
0.0
 11
102.66869292816661
 21
65.503399497866354
 31
0.0
 70
     0
 13
86.166399942671845
 23
69.00339949786634
 33
0.0
 14
86.927132909705165
 24
62.00339949786634
 34
0.0
 50
90.0
  0
DIMENSION
  5
3B5
  8
2
  2
*D2
 10
110.38543257367211
 20
57.00339949786634
 30
0.0
 11
108.51043257367211
 21
63.003399497866347
 31
0.0
 70
     0
 13
86.166399942671845
 23
69.00339949786634
 33
0.0
 14
96.427132909705165
 24
57.00339949786634
 34
0.0
 50
90.0
  0
DIMENSION
  5
3C2
  8
2
  2
*D3
 10
84.427132909705165
 20
76.934453343213704
 30
0.0
 11
81.427132909705165
 21
78.809453343213704
 31
0.0
 70
     0
  1
%%c<>
 13
78.427132909705165
 23
69.00339949786634
 33
0.0
 14
84.427132909705165
 24
69.00339949786634
 34
0.0
  0
DIMENSION
  5
3D1
  8
2
  2
*D4
 10
86.927132909705165
 20
47.81971082894929
 30
0.0
 11
81.427132909705165
 21
49.694710828949297
 31
0.0
 70
     0
  1
%%c<>
 13
75.927132909705165
 23
59.00339949786634
 33
0.0
 14
86.927132909705165
 24
59.00339949786634
 34
0.0
  0
DIMENSION
  5
3DE
  8
2
  2
*D5
 10
96.427132909705165
 20
42.817736647621757
 30
0.0
 11
81.427132909705165
 21
44.692736647621757
 31
0.0
 70
     0
  1
%%c<>
 13
66.427132909705165
 23
57.00339949786634
 33
0.0
 14
96.427132909705165
 24
57.00339949786634
 34
0.0
1001
ACAD
1000
DSTYLE
1002
{
1070
   271
1070
     6
1002
}
  0
DIMENSION
  5
3EC
  8
2
  2
*D6
 10
55.67514110920019
 20
59.00339949786634
 30
0.0
 11
53.800141109200183
 21
65.461732831199683
 31
0.0
 70
     0
 13
66.427132909705165
 23
57.00339949786634
 33
0.0
 14
75.927132909705165
 24
59.00339949786634
 34
0.0
 50
90.0
  0
LINE
  5
3FC
  8
2
 10
75.927132909705165
 20
69.103399497866334
 30
0.0
 11
75.927132909705165
 21
69.303399497866323
 31
0.0
  0
LINE
  5
400
  8
2
 10
76.027132909705159
 20
69.203399497866329
 30
0.0
 11
75.827132909705171
 21
69.203399497866329
 31
0.0
  0
LINE
  5
405
  8
2
 10
86.927132909705165
 20
69.103399497866334
 30
0.0
 11
86.927132909705165
 21
69.303399497866323
 31
0.0
  0
LINE
  5
406
  8
2
 10
86.827132909705156
 20
69.203399497866329
 30
0.0
 11
87.027132909705159
 21
69.203399497866329
 31
0.0
  0
DIMENSION
  5
407
  8
2
  2
*D7
 10
86.927132909705165
 20
81.457625677197598
 30
0.0
 11
81.427132909705165
 21
83.332625677197598
 31
0.0
 70
     0
  1
%%c<>
 13
75.927132909705165
 23
69.203399497866329
 33
0.0
 14
86.927132909705165
 24
69.203399497866329
 34
0.0
  0
ENDSEC
  0
EOF
