  0
SECTION
  2
HEADER
  9
$ACADVER
  1
AC1009
  9
$INSBASE
 10
0.0
 20
0.0
 30
0.0
  9
$EXTMIN
 10
68.975933919506573
 20
36.154213017320501
 30
0.0
  9
$EXTMAX
 10
133.90834949029971
 20
89.028045718411875
 30
6.0635459618749987
  9
$LIMMIN
 10
0.0
 20
0.0
  9
$LIMMAX
 10
420.0
 20
297.0
  9
$ORTHOMODE
 70
     0
  9
$REGENMODE
 70
     1
  9
$FILLMODE
 70
     1
  9
$QTEXTMODE
 70
     0
  9
$MIRRTEXT
 70
     1
  9
$DRAGMODE
 70
     2
  9
$LTSCALE
 40
0.3
  9
$OSMODE
 70
    37
  9
$ATTMODE
 70
     1
  9
$TEXTSIZE
 40
2.5
  9
$TRACEWID
 40
1.0
  9
$TEXTSTYLE
  7
STANDARD
  9
$CLAYER
  8
2
  9
$CELTYPE
  6
BYLAYER
  9
$CECOLOR
 62
   256
  9
$DIMSCALE
 40
1.0
  9
$DIMASZ
 40
2.5
  9
$DIMEXO
 40
0.625
  9
$DIMDLI
 40
3.75
  9
$DIMRND
 40
0.0
  9
$DIMDLE
 40
0.0
  9
$DIMEXE
 40
1.25
  9
$DIMTP
 40
0.0
  9
$DIMTM
 40
0.0
  9
$DIMTXT
 40
2.5
  9
$DIMCEN
 40
2.5
  9
$DIMTSZ
 40
0.0
  9
$DIMTOL
 70
     0
  9
$DIMLIM
 70
     0
  9
$DIMTIH
 70
     0
  9
$DIMTOH
 70
     0
  9
$DIMSE1
 70
     0
  9
$DIMSE2
 70
     0
  9
$DIMTAD
 70
     1
  9
$DIMZIN
 70
     8
  9
$DIMBLK
  1

  9
$DIMASO
 70
     1
  9
$DIMSHO
 70
     1
  9
$DIMPOST
  1

  9
$DIMAPOST
  1

  9
$DIMALT
 70
     0
  9
$DIMALTD
 70
     3
  9
$DIMALTF
 40
0.03937007874016
  9
$DIMLFAC
 40
1.0
  9
$DIMTOFL
 70
     1
  9
$DIMTVP
 40
0.0
  9
$DIMTIX
 70
     0
  9
$DIMSOXD
 70
     0
  9
$DIMSAH
 70
     0
  9
$DIMBLK1
  1

  9
$DIMBLK2
  1

  9
$DIMSTYLE
  2
ISO-25
  9
$DIMCLRD
 70
     0
  9
$DIMCLRE
 70
     0
  9
$DIMCLRT
 70
     0
  9
$DIMTFAC
 40
1.0
  9
$DIMGAP
 40
0.625
  9
$LUNITS
 70
     2
  9
$LUPREC
 70
     4
  9
$SKETCHINC
 40
1.0
  9
$FILLETRAD
 40
10.0
  9
$AUNITS
 70
     0
  9
$AUPREC
 70
     0
  9
$MENU
  1
.
  9
$ELEVATION
 40
0.0
  9
$PELEVATION
 40
0.0
  9
$THICKNESS
 40
0.0
  9
$LIMCHECK
 70
     0
  9
$BLIPMODE
 70
     0
  9
$CHAMFERA
 40
10.0
  9
$CHAMFERB
 40
10.0
  9
$SKPOLY
 70
     0
  9
$TDCREATE
 40
2453436.5919455672
  9
$TDUPDATE
 40
2453551.9011440268
  9
$TDINDWG
 40
0.0242228009
  9
$TDUSRTIMER
 40
0.0242228009
  9
$USRTIMER
 70
     1
  9
$ANGBASE
 50
0.0
  9
$ANGDIR
 70
     0
  9
$PDMODE
 70
     0
  9
$PDSIZE
 40
0.0
  9
$PLINEWID
 40
0.0
  9
$COORDS
 70
     1
  9
$SPLFRAME
 70
     0
  9
$SPLINETYPE
 70
     6
  9
$SPLINESEGS
 70
     8
  9
$ATTDIA
 70
     0
  9
$ATTREQ
 70
     1
  9
$HANDLING
 70
-16383
  9
$HANDSEED
  5
5EA
  9
$SURFTAB1
 70
     6
  9
$SURFTAB2
 70
     6
  9
$SURFTYPE
 70
     6
  9
$SURFU
 70
     6
  9
$SURFV
 70
     6
  9
$UCSNAME
  2

  9
$UCSORG
 10
0.0
 20
0.0
 30
0.0
  9
$UCSXDIR
 10
1.0
 20
0.0
 30
0.0
  9
$UCSYDIR
 10
0.0
 20
1.0
 30
0.0
  9
$PUCSNAME
  2

  9
$PUCSORG
 10
0.0
 20
0.0
 30
0.0
  9
$PUCSXDIR
 10
1.0
 20
0.0
 30
0.0
  9
$PUCSYDIR
 10
0.0
 20
1.0
 30
0.0
  9
$USERI1
 70
     0
  9
$USERI2
 70
     0
  9
$USERI3
 70
     0
  9
$USERI4
 70
     0
  9
$USERI5
 70
     0
  9
$USERR1
 40
0.0
  9
$USERR2
 40
0.0
  9
$USERR3
 40
0.0
  9
$USERR4
 40
0.0
  9
$USERR5
 40
0.0
  9
$WORLDVIEW
 70
     1
  9
$SHADEDGE
 70
     3
  9
$SHADEDIF
 70
    70
  9
$TILEMODE
 70
     1
  9
$MAXACTVP
 70
    64
  9
$PLIMCHECK
 70
     0
  9
$PEXTMIN
 10
1.0000000000000000E+020
 20
1.0000000000000000E+020
 30
1.0000000000000000E+020
  9
$PEXTMAX
 10
-1.0000000000000000E+020
 20
-1.0000000000000000E+020
 30
-1.0000000000000000E+020
  9
$PLIMMIN
 10
0.0
 20
0.0
  9
$PLIMMAX
 10
420.0
 20
297.0
  9
$UNITMODE
 70
     0
  9
$VISRETAIN
 70
     1
  9
$PLINEGEN
 70
     0
  9
$PSLTSCALE
 70
     1
  0
ENDSEC
  0
SECTION
  2
TABLES
  0
TABLE
  2
VPORT
 70
     2
  0
VPORT
  2
*ACTIVE
 70
     0
 10
0.0
 20
0.0
 11
1.0
 21
1.0
 12
125.5537949157259
 22
55.592109319569907
 13
0.0
 23
0.0
 14
10.0
 24
10.0
 15
10.0
 25
10.0
 16
0.0
 26
0.0
 36
1.0
 17
0.0
 27
0.0
 37
0.0
 40
71.042540767078094
 41
2.5392405063291141
 42
50.0
 43
0.0
 44
0.0
 50
0.0
 51
0.0
 71
     0
 72
   100
 73
     1
 74
     3
 75
     0
 76
     0
 77
     0
 78
     0
  0
ENDTAB
  0
TABLE
  2
LTYPE
 70
     2
  0
LTYPE
  2
CONTINUOUS
 70
     0
  3
Solid line
 72
    65
 73
     0
 40
0.0
  0
LTYPE
  2
CENTER
 70
     0
  3
Center ____ _ ____ _ ____ _ ____ _ ____ _ ____
 72
    65
 73
     4
 40
50.799999999999997
 49
31.75
 49
-6.3499999999999988
 49
6.3499999999999988
 49
-6.3499999999999988
  0
ENDTAB
  0
TABLE
  2
LAYER
 70
     4
  0
LAYER
  2
0
 70
     0
 62
     7
  6
CONTINUOUS
  0
LAYER
  2
1
 70
     0
 62
     7
  6
CENTER
  0
LAYER
  2
DEFPOINTS
 70
     0
 62
     7
  6
CONTINUOUS
  0
LAYER
  2
2
 70
     0
 62
     7
  6
CONTINUOUS
  0
ENDTAB
  0
TABLE
  2
STYLE
 70
     3
  0
STYLE
  2
STANDARD
 70
     0
 40
0.0
 41
1.0
 50
0.0
 71
     0
 42
2.5
  3
txt
  4

  0
STYLE
  2
\U+00C9L\U+00C9R_\U+00C2S\U+00C2V\U+00C2B\U+00C2N
 70
     0
 40
1.0
 41
1.0
 50
0.0
 71
     0
 42
1.0
  3
\U+00E9l\U+00E9r \U+00E2S\U+00E2V\U+00E2b\U+00E2N
  4

  0
STYLE
  2

 70
     1
 40
0.0
 41
1.0
 50
0.0
 71
     0
 42
2.5
  3
ltypeshp.shx
  4

  0
ENDTAB
  0
TABLE
  2
VIEW
 70
     0
  0
ENDTAB
  0
TABLE
  2
UCS
 70
     0
  0
ENDTAB
  0
TABLE
  2
APPID
 70
     1
  0
APPID
  2
ACAD
 70
     0
  0
ENDTAB
  0
TABLE
  2
DIMSTYLE
 70
     2
  0
DIMSTYLE
  2
ISO-25
 70
     0
  3

  4

  5

  6

  7

 40
1.0
 41
2.5
 42
0.625
 43
3.75
 44
1.25
 45
0.0
 46
0.0
 47
0.0
 48
0.0
140
2.5
141
2.5
142
0.0
143
0.03937007874016
144
1.0
145
0.0
146
1.0
147
0.625
 71
     0
 72
     0
 73
     0
 74
     0
 75
     0
 76
     0
 77
     1
 78
     8
170
     0
171
     3
172
     1
173
     0
174
     0
175
     0
176
     0
177
     0
178
     0
  0
DIMSTYLE
  2
STANDARD
 70
     0
  3

  4

  5

  6

  7

 40
1.0
 41
0.18
 42
0.0625
 43
0.38
 44
0.18
 45
0.0
 46
0.0
 47
0.0
 48
0.0
140
0.18
141
0.09
142
0.0
143
25.399999999999999
144
1.0
145
0.0
146
1.0
147
0.09
 71
     0
 72
     0
 73
     1
 74
     1
 75
     0
 76
     0
 77
     0
 78
     0
170
     0
171
     2
172
     0
173
     0
174
     0
175
     0
176
     0
177
     0
178
     0
  0
ENDTAB
  0
ENDSEC
  0
SECTION
  2
BLOCKS
  0
BLOCK
  8
0
  2
$MODEL_SPACE
 70
     0
 10
0.0
 20
0.0
 30
0.0
  3
$MODEL_SPACE
  1

  0
ENDBLK
  5
21
  8
0
  0
BLOCK
 67
     1
  8
0
  2
$PAPER_SPACE
 70
     0
 10
0.0
 20
0.0
 30
0.0
  3
$PAPER_SPACE
  1

  0
ENDBLK
  5
1D
 67
     1
  8
0
  0
BLOCK
  8
0
  2
*D1
 70
     1
 10
0.0
 20
0.0
 30
0.0
  3
*D1
  1

  0
LINE
  5
588
  8
2
 62
     0
 10
97.208222051745992
 20
74.801429778023078
 30
0.0
 11
97.208222051745992
 21
82.874304575076962
 31
0.0
  0
LINE
  5
589
  8
2
 62
     0
 10
103.20822205174601
 20
74.801429778023078
 30
0.0
 11
103.20822205174601
 21
82.874304575076962
 31
0.0
  0
LINE
  5
58A
  8
2
 62
     0
 10
94.708222051745992
 20
81.624304575076962
 30
0.0
 11
92.208222051745992
 21
81.624304575076962
 31
0.0
  0
LINE
  5
58B
  8
2
 62
     0
 10
105.70822205174591
 20
81.624304575076962
 30
0.0
 11
108.20822205174591
 21
81.624304575076962
 31
0.0
  0
LINE
  5
58C
  8
2
 62
     0
 10
97.208222051745992
 20
81.624304575076962
 30
0.0
 11
103.20822205174601
 21
81.624304575076962
 31
0.0
  0
SOLID
  5
58D
  8
2
 62
     0
 10
94.708222051745992
 20
82.040971241743634
 30
0.0
 11
94.708222051745992
 21
81.207637908410305
 31
0.0
 12
97.208222051745992
 22
81.624304575076962
 32
0.0
 13
97.208222051745992
 23
81.624304575076962
 33
0.0
  0
SOLID
  5
58E
  8
2
 62
     0
 10
105.70822205174591
 20
82.040971241743634
 30
0.0
 11
105.70822205174591
 21
81.207637908410305
 31
0.0
 12
103.20822205174601
 22
81.624304575076962
 32
0.0
 13
103.20822205174601
 23
81.624304575076962
 33
0.0
  0
INSERT
  5
58F
  8
2
  2
*U9
 10
0.0
 20
0.0
 30
0.0
  0
POINT
  5
590
  8
DEFPOINTS
 62
     0
 10
97.208222051745992
 20
74.176429778023078
 30
0.0
  0
POINT
  5
591
  8
DEFPOINTS
 62
     0
 10
103.20822205174601
 20
74.176429778023078
 30
0.0
  0
POINT
  5
592
  8
DEFPOINTS
 62
     0
 10
103.20822205174601
 20
81.624304575076962
 30
0.0
  0
ENDBLK
  5
508
  8
0
  0
BLOCK
  8
0
  2
*D2
 70
     1
 10
0.0
 20
0.0
 30
0.0
  3
*D2
  1

  0
LINE
  5
57F
  8
2
 62
     0
 10
89.708222051745992
 20
75.201429778023083
 30
0.0
 11
89.708222051745992
 21
87.153045718411875
 31
0.0
  0
LINE
  5
580
  8
2
 62
     0
 10
110.70822205174591
 20
75.201429778023083
 30
0.0
 11
110.70822205174591
 21
87.153045718411875
 31
0.0
  0
LINE
  5
581
  8
2
 62
     0
 10
92.208222051745992
 20
85.903045718411875
 30
0.0
 11
108.20822205174591
 21
85.903045718411875
 31
0.0
  0
SOLID
  5
582
  8
2
 62
     0
 10
92.208222051745992
 20
86.319712385078546
 30
0.0
 11
92.208222051745992
 21
85.486379051745203
 31
0.0
 12
89.708222051745992
 22
85.903045718411875
 32
0.0
 13
89.708222051745992
 23
85.903045718411875
 33
0.0
  0
SOLID
  5
583
  8
2
 62
     0
 10
108.20822205174591
 20
86.319712385078546
 30
0.0
 11
108.20822205174591
 21
85.486379051745203
 31
0.0
 12
110.70822205174591
 22
85.903045718411875
 32
0.0
 13
110.70822205174591
 23
85.903045718411875
 33
0.0
  0
INSERT
  5
584
  8
2
  2
*U8
 10
0.0
 20
0.0
 30
0.0
  0
POINT
  5
585
  8
DEFPOINTS
 62
     0
 10
89.708222051745992
 20
74.576429778023083
 30
0.0
  0
POINT
  5
586
  8
DEFPOINTS
 62
     0
 10
110.70822205174591
 20
74.576429778023083
 30
0.0
  0
POINT
  5
587
  8
DEFPOINTS
 62
     0
 10
110.70822205174591
 20
85.903045718411875
 30
0.0
  0
ENDBLK
  5
515
  8
0
  0
BLOCK
  8
0
  2
*D3
 70
     1
 10
0.0
 20
0.0
 30
0.0
  3
*D3
  1

  0
LINE
  5
593
  8
2
 62
     0
 10
94.708222051745992
 20
63.051429778023078
 30
0.0
 11
94.708222051745992
 21
50.898444453205911
 31
0.0
  0
LINE
  5
594
  8
2
 62
     0
 10
105.70822205174591
 20
63.051429778023078
 30
0.0
 11
105.70822205174591
 21
50.898444453205911
 31
0.0
  0
LINE
  5
595
  8
2
 62
     0
 10
97.208222051745992
 20
52.148444453205911
 30
0.0
 11
103.20822205174601
 21
52.148444453205911
 31
0.0
  0
SOLID
  5
596
  8
2
 62
     0
 10
97.208222051745992
 20
52.565111119872583
 30
0.0
 11
97.208222051745992
 21
51.731777786539247
 31
0.0
 12
94.708222051745992
 22
52.148444453205911
 32
0.0
 13
94.708222051745992
 23
52.148444453205911
 33
0.0
  0
SOLID
  5
597
  8
2
 62
     0
 10
103.20822205174601
 20
52.565111119872583
 30
0.0
 11
103.20822205174601
 21
51.731777786539247
 31
0.0
 12
105.70822205174591
 22
52.148444453205911
 32
0.0
 13
105.70822205174591
 23
52.148444453205911
 33
0.0
  0
INSERT
  5
598
  8
2
  2
*U10
 10
0.0
 20
0.0
 30
0.0
  0
POINT
  5
599
  8
DEFPOINTS
 62
     0
 10
94.708222051745992
 20
63.676429778023078
 30
0.0
  0
POINT
  5
59A
  8
DEFPOINTS
 62
     0
 10
105.70822205174591
 20
63.676429778023078
 30
0.0
  0
POINT
  5
59B
  8
DEFPOINTS
 62
     0
 10
105.70822205174591
 20
52.148444453205911
 30
0.0
  0
ENDBLK
  5
522
  8
0
  0
BLOCK
  8
0
  2
*D4
 70
     1
 10
0.0
 20
0.0
 30
0.0
  3
*D4
  1

  0
LINE
  5
5BB
  8
2
 62
     0
 10
80.208222051745992
 20
60.304111292575179
 30
0.0
 11
80.208222051745992
 21
46.165784879918753
 31
0.0
  0
LINE
  5
5BC
  8
2
 62
     0
 10
120.20822205174591
 20
60.304111292575179
 30
0.0
 11
120.20822205174591
 21
46.165784879918753
 31
0.0
  0
LINE
  5
5BD
  8
2
 62
     0
 10
82.708222051745992
 20
47.415784879918753
 30
0.0
 11
117.70822205174601
 21
47.415784879918753
 31
0.0
  0
SOLID
  5
5BE
  8
2
 62
     0
 10
82.708222051745992
 20
47.832451546585418
 30
0.0
 11
82.708222051745992
 21
46.999118213252089
 31
0.0
 12
80.208222051745992
 22
47.415784879918753
 32
0.0
 13
80.208222051745992
 23
47.415784879918753
 33
0.0
  0
SOLID
  5
5BF
  8
2
 62
     0
 10
117.70822205174601
 20
47.832451546585418
 30
0.0
 11
117.70822205174601
 21
46.999118213252089
 31
0.0
 12
120.20822205174591
 22
47.415784879918753
 32
0.0
 13
120.20822205174591
 23
47.415784879918753
 33
0.0
  0
INSERT
  5
5C0
  8
2
  2
*U11
 10
0.0
 20
0.0
 30
0.0
  0
POINT
  5
5C1
  8
DEFPOINTS
 62
     0
 10
80.208222051745992
 20
60.929111292575179
 30
0.0
  0
POINT
  5
5C2
  8
DEFPOINTS
 62
     0
 10
120.20822205174591
 20
60.929111292575179
 30
0.0
  0
POINT
  5
5C3
  8
DEFPOINTS
 62
     0
 10
120.20822205174591
 20
47.415784879918753
 30
0.0
  0
ENDBLK
  5
52F
  8
0
  0
BLOCK
  8
0
  2
*D5
 70
     1
 10
0.0
 20
0.0
 30
0.0
  3
*D5
  1

  0
LINE
  5
532
  8
2
 62
     0
 10
110.25718518569209
 20
74.176429778023078
 30
0.0
 11
129.04042864009921
 21
74.176429778023078
 31
0.0
  0
LINE
  5
533
  8
2
 62
     0
 10
106.33322205174601
 20
67.176429778023078
 30
0.0
 11
129.04042864009921
 21
67.176429778023078
 31
0.0
  0
LINE
  5
534
  8
2
 62
     0
 10
127.79042864009919
 20
71.676429778023078
 30
0.0
 11
127.79042864009919
 21
69.676429778023078
 31
0.0
  0
SOLID
  5
535
  8
2
 62
     0
 10
127.37376197343249
 20
71.676429778023078
 30
0.0
 11
128.20709530676589
 21
71.676429778023078
 31
0.0
 12
127.79042864009919
 22
74.176429778023078
 32
0.0
 13
127.79042864009919
 23
74.176429778023078
 33
0.0
  0
SOLID
  5
536
  8
2
 62
     0
 10
127.37376197343249
 20
69.676429778023078
 30
0.0
 11
128.20709530676589
 21
69.676429778023078
 31
0.0
 12
127.79042864009919
 22
67.176429778023078
 32
0.0
 13
127.79042864009919
 23
67.176429778023078
 33
0.0
  0
TEXT
  5
537
  8
2
 62
     0
 10
127.16542864009909
 20
69.843096444689763
 30
0.0
 40
2.5
  1
7
 50
90.0
  0
POINT
  5
538
  8
DEFPOINTS
 62
     0
 10
109.63218518569209
 20
74.176429778023078
 30
0.0
  0
POINT
  5
539
  8
DEFPOINTS
 62
     0
 10
105.70822205174591
 20
67.176429778023078
 30
0.0
  0
POINT
  5
53A
  8
DEFPOINTS
 62
     0
 10
127.79042864009919
 20
67.176429778023078
 30
0.0
  0
ENDBLK
  5
53C
  8
0
  0
BLOCK
  8
0
  2
*D6
 70
     1
 10
0.0
 20
0.0
 30
0.0
  3
*D6
  1

  0
LINE
  5
53F
  8
2
 62
     0
 10
110.25718518569209
 20
74.176429778023078
 30
0.0
 11
133.90834949029971
 21
74.176429778023078
 31
0.0
  0
LINE
  5
540
  8
2
 62
     0
 10
120.74831669439919
 20
60.176429778023071
 30
0.0
 11
133.90834949029971
 21
60.176429778023071
 31
0.0
  0
LINE
  5
541
  8
2
 62
     0
 10
132.65834949029971
 20
71.676429778023078
 30
0.0
 11
132.65834949029971
 21
62.676429778023071
 31
0.0
  0
SOLID
  5
542
  8
2
 62
     0
 10
132.24168282363311
 20
71.676429778023078
 30
0.0
 11
133.0750161569664
 21
71.676429778023078
 31
0.0
 12
132.65834949029971
 22
74.176429778023078
 32
0.0
 13
132.65834949029971
 23
74.176429778023078
 33
0.0
  0
SOLID
  5
543
  8
2
 62
     0
 10
132.24168282363311
 20
62.676429778023071
 30
0.0
 11
133.0750161569664
 21
62.676429778023071
 31
0.0
 12
132.65834949029971
 22
60.176429778023071
 32
0.0
 13
132.65834949029971
 23
60.176429778023071
 33
0.0
  0
TEXT
  5
544
  8
2
 62
     0
 10
132.03334949029971
 20
65.50976311135642
 30
0.0
 40
2.5
  1
14
 50
90.0
  0
POINT
  5
545
  8
DEFPOINTS
 62
     0
 10
109.63218518569209
 20
74.176429778023078
 30
0.0
  0
POINT
  5
546
  8
DEFPOINTS
 62
     0
 10
120.12331669439909
 20
60.176429778023071
 30
0.0
  0
POINT
  5
547
  8
DEFPOINTS
 62
     0
 10
132.65834949029971
 20
60.176429778023071
 30
0.0
  0
ENDBLK
  5
549
  8
0
  0
BLOCK
  8
0
  2
*D7
 70
     1
 10
0.0
 20
0.0
 30
0.0
  3
*D7
  1

  0
LINE
  5
54C
  8
2
 62
     0
 10
79.66812740909279
 20
60.176429778023078
 30
0.0
 11
70.850933919506588
 21
60.176429778023078
 31
0.0
  0
LINE
  5
54D
  8
2
 62
     0
 10
87.226822417089821
 20
63.676429778023078
 30
0.0
 11
70.850933919506588
 21
63.676429778023092
 31
0.0
  0
LINE
  5
54E
  8
2
 62
     0
 10
72.100933919506588
 20
57.676429778023078
 30
0.0
 11
72.100933919506588
 21
55.176429778023078
 31
0.0
  0
LINE
  5
54F
  8
2
 62
     0
 10
72.100933919506588
 20
66.176429778023092
 30
0.0
 11
72.100933919506588
 21
74.926429778023092
 31
0.0
  0
LINE
  5
550
  8
2
 62
     0
 10
72.100933919506588
 20
60.176429778023078
 30
0.0
 11
72.100933919506588
 21
63.676429778023092
 31
0.0
  0
SOLID
  5
551
  8
2
 62
     0
 10
71.684267252839916
 20
57.676429778023078
 30
0.0
 11
72.517600586173259
 21
57.676429778023078
 31
0.0
 12
72.100933919506588
 22
60.176429778023078
 32
0.0
 13
72.100933919506588
 23
60.176429778023078
 33
0.0
  0
SOLID
  5
552
  8
2
 62
     0
 10
71.684267252839916
 20
66.176429778023092
 30
0.0
 11
72.517600586173259
 21
66.176429778023092
 31
0.0
 12
72.100933919506588
 22
63.676429778023092
 32
0.0
 13
72.100933919506588
 23
63.676429778023092
 33
0.0
  0
TEXT
  5
553
  8
2
 62
     0
 10
71.475933919506573
 20
69.301429778023106
 30
0.0
 40
2.5
  1
3.5
 50
90.0
  0
POINT
  5
554
  8
DEFPOINTS
 62
     0
 10
80.29312740909279
 20
60.176429778023071
 30
0.0
  0
POINT
  5
555
  8
DEFPOINTS
 62
     0
 10
87.851822417089821
 20
63.676429778023078
 30
0.0
  0
POINT
  5
556
  8
DEFPOINTS
 62
     0
 10
72.100933919506588
 20
63.676429778023092
 30
0.0
  0
ENDBLK
  5
558
  8
0
  0
BLOCK
  8
0
  2
*U8
 70
     1
 10
0.0
 20
0.0
 30
0.0
  3
*U8
  1

  0
TEXT
  5
5D7
  8
2
 62
     0
 10
97.29155538507932
 20
86.528045718411875
 30
0.0
 40
2.5
  1
\U+2205
  0
TEXT
  5
5D8
  8
2
 62
     0
 10
99.79155538507932
 20
86.528045718411875
 30
0.0
 40
2.5
  1
21
  0
ENDBLK
  5
5DA
  8
0
  0
BLOCK
  8
0
  2
*U9
 70
     1
 10
0.0
 20
0.0
 30
0.0
  3
*U9
  1

  0
TEXT
  5
5DC
  8
2
 62
     0
 10
98.124888718412663
 20
82.249304575076962
 30
0.0
 40
2.5
  1
\U+2205
  0
TEXT
  5
5DD
  8
2
 62
     0
 10
100.62488871841261
 20
82.249304575076962
 30
0.0
 40
2.5
  1
6
  0
ENDBLK
  5
5DF
  8
0
  0
BLOCK
  8
0
  2
*U10
 70
     1
 10
0.0
 20
0.0
 30
0.0
  3
*U10
  1

  0
TEXT
  5
5E1
  8
2
 62
     0
 10
97.708222051745992
 20
52.773444453205911
 30
0.0
 40
2.5
  1
\U+2205
  0
TEXT
  5
5E2
  8
2
 62
     0
 10
100.20822205174591
 20
52.773444453205911
 30
0.0
 40
2.5
  1
11
  0
ENDBLK
  5
5E4
  8
0
  0
BLOCK
  8
0
  2
*U11
 70
     1
 10
0.0
 20
0.0
 30
0.0
  3
*U11
  1

  0
TEXT
  5
5E6
  8
2
 62
     0
 10
97.083222051745992
 20
48.04078487991876
 30
0.0
 40
2.5
  1
\U+2205
  0
TEXT
  5
5E7
  8
2
 62
     0
 10
99.583222051745992
 20
48.04078487991876
 30
0.0
 40
2.5
  1
40
  0
ENDBLK
  5
5E9
  8
0
  0
ENDSEC
  0
SECTION
  2
ENTITIES
  0
LINE
  5
12E
  8
0
 39
6.0635459618749987
 10
80.29312740909279
 20
60.176429778023071
 30
0.0
 11
81.292869152757675
 21
60.445651218276389
 31
0.0
  0
LINE
  5
12F
  8
0
 39
6.0635459618749987
 10
81.292869152757675
 20
60.445651218276389
 30
0.0
 11
81.814940460075135
 21
60.597967492838691
 31
0.0
  0
LINE
  5
130
  8
0
 39
6.0635459618749987
 10
81.814940460075135
 20
60.597967492838691
 30
0.0
 11
82.318699858587706
 21
60.757196209797527
 31
0.0
  0
LINE
  5
131
  8
0
 39
6.0635459618749987
 10
82.318699858587706
 20
60.757196209797527
 30
0.0
 11
82.805481328407012
 21
60.924186265587572
 31
0.0
  0
LINE
  5
132
  8
0
 39
6.0635459618749987
 10
82.805481328407012
 20
60.924186265587572
 30
0.0
 11
83.277225204240892
 21
61.099058931128042
 31
0.0
  0
LINE
  5
133
  8
0
 39
6.0635459618749987
 10
83.277225204240892
 20
61.099058931128042
 30
0.0
 11
83.734901653443231
 21
61.282663102853611
 31
0.0
  0
LINE
  5
134
  8
0
 39
6.0635459618749987
 10
83.734901653443231
 20
61.282663102853611
 30
0.0
 11
84.180451010721796
 21
61.475241322602763
 31
0.0
  0
LINE
  5
135
  8
0
 39
6.0635459618749987
 10
84.180451010721796
 20
61.475241322602763
 30
0.0
 11
84.614964714349739
 21
61.67764248681015
 31
0.0
  0
LINE
  5
136
  8
0
 39
6.0635459618749987
 10
84.614964714349739
 20
61.67764248681015
 30
0.0
 11
85.040625640873387
 21
61.88986659547578
 31
0.0
  0
LINE
  5
137
  8
0
 39
6.0635459618749987
 10
85.040625640873387
 20
61.88986659547578
 30
0.0
 11
85.458282686727344
 21
62.112883815953538
 31
0.0
  0
LINE
  5
138
  8
0
 39
6.0635459618749987
 10
85.458282686727344
 20
62.112883815953538
 30
0.0
 11
85.869876186619408
 21
62.346936690081911
 31
0.0
  0
LINE
  5
139
  8
0
 39
6.0635459618749987
 10
85.869876186619408
 20
62.346936690081911
 30
0.0
 11
86.276740120661216
 21
62.592874114295569
 31
0.0
  0
LINE
  5
13A
  8
0
 39
6.0635459618749987
 10
86.276740120661216
 20
62.592874114295569
 30
0.0
 11
86.680572281722064
 21
62.850696088594489
 31
0.0
  0
LINE
  5
13B
  8
0
 39
6.0635459618749987
 10
86.680572281722064
 20
62.850696088594489
 30
0.0
 11
87.082827920832855
 21
63.121494051251823
 31
0.0
  0
LINE
  5
13C
  8
0
 39
6.0635459618749987
 10
87.082827920832855
 20
63.121494051251823
 30
0.0
 11
87.485083559943675
 21
63.40551054410605
 31
0.0
  0
LINE
  5
13D
  8
0
 39
6.0635459618749987
 10
87.485083559943675
 20
63.40551054410605
 30
0.0
 11
87.851822417089821
 21
63.676429778023078
 31
0.0
  0
LINE
  5
140
  8
0
 39
6.0635459618749987
 10
100.20822205174591
 20
74.176429778023078
 30
0.0
 11
90.784258917799846
 21
74.176429778023078
 31
0.0
  0
LINE
  5
141
  8
0
 39
6.0635459618749987
 10
90.784258917799846
 20
74.176429778023078
 30
0.0
 11
90.784258917799846
 21
74.176429778023078
 31
0.0
  0
LINE
  5
142
  8
0
 39
6.0635459618749987
 10
90.784258917799846
 20
74.176429778023078
 30
0.0
 11
90.493208711629862
 21
74.179704092842499
 31
0.0
  0
LINE
  5
143
  8
0
 39
6.0635459618749987
 10
90.493208711629862
 20
74.179704092842499
 30
0.0
 11
90.219500246910812
 21
74.170851315738176
 31
0.0
  0
LINE
  5
144
  8
0
 39
6.0635459618749987
 10
90.219500246910812
 20
74.170851315738176
 30
0.0
 11
89.962890981804264
 21
74.149143821194656
 31
0.0
  0
LINE
  5
145
  8
0
 39
6.0635459618749987
 10
89.962890981804264
 20
74.149143821194656
 30
0.0
 11
89.723017103552479
 21
74.114339067373479
 31
0.0
  0
LINE
  5
146
  8
0
 39
6.0635459618749987
 10
89.723017103552479
 20
74.114339067373479
 30
0.0
 11
89.499636070317024
 21
74.065588157840011
 31
0.0
  0
LINE
  5
147
  8
0
 39
6.0635459618749987
 10
89.499636070317024
 20
74.065588157840011
 30
0.0
 11
89.292141527501641
 21
74.002891092594226
 31
0.0
  0
LINE
  5
148
  8
0
 39
6.0635459618749987
 10
89.292141527501641
 20
74.002891092594226
 30
0.0
 11
89.100412204187165
 21
73.925641517039949
 31
0.0
  0
LINE
  5
149
  8
0
 39
6.0635459618749987
 10
89.100412204187165
 20
73.925641517039949
 30
0.0
 11
88.923720474858115
 21
73.833475618419428
 31
0.0
  0
LINE
  5
14A
  8
0
 39
6.0635459618749987
 10
88.923720474858115
 20
73.833475618419428
 30
0.0
 11
88.762187610433799
 21
73.725544500298057
 31
0.0
  0
LINE
  5
14B
  8
0
 39
6.0635459618749987
 10
88.762187610433799
 20
73.725544500298057
 30
0.0
 11
88.614964714479441
 21
73.601848162675822
 31
0.0
  0
LINE
  5
14C
  8
0
 39
6.0635459618749987
 10
88.614964714479441
 20
73.601848162675822
 30
0.0
 11
88.482051786995129
 21
73.461658980037285
 31
0.0
  0
LINE
  5
14D
  8
0
 39
6.0635459618749987
 10
88.482051786995129
 20
73.461658980037285
 30
0.0
 11
88.362599931546214
 21
73.304734410543944
 31
0.0
  0
LINE
  5
14E
  8
0
 39
6.0635459618749987
 10
88.362599931546214
 20
73.304734410543944
 30
0.0
 11
88.256730419051877
 21
73.130468099599668
 31
0.0
  0
LINE
  5
14F
  8
0
 39
6.0635459618749987
 10
88.256730419051877
 20
73.130468099599668
 30
0.0
 11
88.163836894915946
 21
72.938617505365926
 31
0.0
  0
LINE
  5
150
  8
0
 39
6.0635459618749987
 10
88.163836894915946
 20
72.938617505365926
 30
0.0
 11
88.083676817299946
 21
72.728576273246588
 31
0.0
  0
LINE
  5
151
  8
0
 39
6.0635459618749987
 10
88.083676817299946
 20
72.728576273246588
 30
0.0
 11
88.015522560688481
 21
72.499980590483901
 31
0.0
  0
LINE
  5
152
  8
0
 39
6.0635459618749987
 10
88.015522560688481
 20
72.499980590483901
 30
0.0
 11
88.015522560688481
 21
72.499980590483901
 31
0.0
  0
LINE
  5
153
  8
0
 39
6.0635459618749987
 10
88.015522560688481
 20
72.499980590483901
 30
0.0
 11
87.71295161719091
 21
71.663938873260562
 31
0.0
  0
LINE
  5
154
  8
0
 39
6.0635459618749987
 10
87.71295161719091
 20
71.663938873260562
 30
0.0
 11
87.377394983660764
 21
70.842570937264966
 31
0.0
  0
LINE
  5
155
  8
0
 39
6.0635459618749987
 10
87.377394983660764
 20
70.842570937264966
 30
0.0
 11
87.010914265725035
 21
70.035634240658652
 31
0.0
  0
LINE
  5
156
  8
0
 39
6.0635459618749987
 10
87.010914265725035
 20
70.035634240658652
 30
0.0
 11
86.614964714414612
 21
69.24361386711854
 31
0.0
  0
LINE
  5
157
  8
0
 39
6.0635459618749987
 10
86.614964714414612
 20
69.24361386711854
 30
0.0
 11
86.191729206275724
 21
68.466267274806171
 31
0.0
  0
LINE
  5
158
  8
0
 39
6.0635459618749987
 10
86.191729206275724
 20
68.466267274806171
 30
0.0
 11
85.742420450500788
 21
67.704200818317716
 31
0.0
  0
LINE
  5
159
  8
0
 39
6.0635459618749987
 10
85.742420450500788
 20
67.704200818317716
 30
0.0
 11
85.269342594555283
 21
66.957171955814715
 31
0.0
  0
LINE
  5
15A
  8
0
 39
6.0635459618749987
 10
85.269342594555283
 20
66.957171955814715
 30
0.0
 11
84.773708347631626
 21
66.225665770974118
 31
0.0
  0
LINE
  5
15B
  8
0
 39
6.0635459618749987
 10
84.773708347631626
 20
66.225665770974118
 30
0.0
 11
84.257821857195324
 21
65.509318451038212
 31
0.0
  0
LINE
  5
15C
  8
0
 39
6.0635459618749987
 10
84.257821857195324
 20
65.509318451038212
 30
0.0
 11
83.723017103357947
 21
64.808857621522407
 31
0.0
  0
LINE
  5
15D
  8
0
 39
6.0635459618749987
 10
83.723017103357947
 20
64.808857621522407
 30
0.0
 11
83.171234420827304
 21
64.123919469668991
 31
0.0
  0
LINE
  5
15E
  8
0
 39
6.0635459618749987
 10
83.171234420827304
 20
64.123919469668991
 30
0.0
 11
82.603929060634286
 21
63.455231620993409
 31
0.0
  0
LINE
  5
15F
  8
0
 39
6.0635459618749987
 10
82.603929060634286
 20
63.455231620993409
 30
0.0
 11
82.023283899325136
 21
62.802430262737957
 31
0.0
  0
LINE
  5
160
  8
0
 39
6.0635459618749987
 10
82.023283899325136
 20
62.802430262737957
 30
0.0
 11
81.430754187930717
 21
62.165879207660318
 31
0.0
  0
LINE
  5
161
  8
0
 39
6.0635459618749987
 10
81.430754187930717
 20
62.165879207660318
 30
0.0
 11
80.828158990239572
 21
61.54569972667975
 31
0.0
  0
LINE
  5
162
  8
0
 39
6.0635459618749987
 10
80.828158990239572
 20
61.54569972667975
 30
0.0
 11
80.217196099121068
 21
60.942255632553952
 31
0.0
  0
LINE
  5
163
  8
0
 39
6.0635459618749987
 10
80.217196099121068
 20
60.942255632553952
 30
0.0
 11
80.217196099121068
 21
60.942255632553952
 31
0.0
  0
LINE
  5
164
  8
0
 39
6.0635459618749987
 10
80.217196099121068
 20
60.942255632553952
 30
0.0
 11
80.208222051745992
 21
60.929111292575179
 31
0.0
  0
LINE
  5
3F5
  8
1
 10
100.20822205174591
 20
74.676429778023078
 30
0.0
 11
100.20822205174591
 21
59.676429778023078
 31
0.0
  0
LINE
  5
3F8
  8
0
 10
97.208222051745992
 20
74.176429778023078
 30
0.0
 11
97.208222051745992
 21
67.176429778023078
 31
0.0
  0
LINE
  5
3F9
  8
0
 10
94.708222051745992
 20
67.176429778023078
 30
0.0
 11
94.708222051745992
 21
63.676429778023078
 31
0.0
  0
LINE
  5
3FD
  8
0
 10
100.20822205174591
 20
63.676429778023078
 30
0.0
 11
87.851822417089778
 21
63.676429778023078
 31
0.0
  0
LINE
  5
401
  8
0
 10
94.708222051745992
 20
67.176429778023078
 30
0.0
 11
100.20822205174591
 21
67.176429778023078
 31
0.0
  0
LINE
  5
406
  8
0
 10
80.208222051745992
 20
60.929111292575179
 30
0.0
 11
80.29312740909279
 21
60.176429778023071
 31
0.0
  0
LINE
  5
408
  8
0
 10
80.29312740909279
 20
60.176429778023071
 30
0.0
 11
100.20822205174591
 21
60.176429778023071
 31
0.0
  0
LINE
  5
49D
  8
2
 10
89.708222051745992
 20
74.776429778023086
 30
0.0
 11
89.708222051745992
 21
74.376429778023081
 31
0.0
  0
LINE
  5
4A0
  8
2
 10
89.508222051745989
 20
74.576429778023083
 30
0.0
 11
89.908222051745994
 21
74.576429778023083
 31
0.0
  0
LINE
  5
4A9
  8
0
 39
6.0635459618749987
 10
120.1992480043709
 20
60.942255632553952
 30
0.0
 11
120.20822205174591
 21
60.929111292575179
 31
0.0
  0
LINE
  5
4AA
  8
0
 39
6.0635459618749987
 10
120.1992480043709
 20
60.942255632553952
 30
0.0
 11
120.1992480043709
 21
60.942255632553952
 31
0.0
  0
LINE
  5
4AB
  8
0
 39
6.0635459618749987
 10
119.5882851132524
 20
61.54569972667975
 30
0.0
 11
120.1992480043709
 21
60.942255632553952
 31
0.0
  0
LINE
  5
4AC
  8
0
 39
6.0635459618749987
 10
118.9856899155612
 20
62.165879207660318
 30
0.0
 11
119.5882851132524
 21
61.54569972667975
 31
0.0
  0
LINE
  5
4AD
  8
0
 39
6.0635459618749987
 10
118.3931602041668
 20
62.802430262737957
 30
0.0
 11
118.9856899155612
 21
62.165879207660318
 31
0.0
  0
LINE
  5
4AE
  8
0
 39
6.0635459618749987
 10
117.8125150428577
 20
63.455231620993409
 30
0.0
 11
118.3931602041668
 21
62.802430262737957
 31
0.0
  0
LINE
  5
4AF
  8
0
 39
6.0635459618749987
 10
117.24520968266459
 20
64.123919469668991
 30
0.0
 11
117.8125150428577
 21
63.455231620993409
 31
0.0
  0
LINE
  5
4B0
  8
0
 39
6.0635459618749987
 10
116.69342700013399
 20
64.808857621522407
 30
0.0
 11
117.24520968266459
 21
64.123919469668991
 31
0.0
  0
LINE
  5
4B1
  8
0
 39
6.0635459618749987
 10
116.1586222462966
 20
65.509318451038212
 30
0.0
 11
116.69342700013399
 21
64.808857621522407
 31
0.0
  0
LINE
  5
4B2
  8
0
 39
6.0635459618749987
 10
115.6427357558603
 20
66.225665770974118
 30
0.0
 11
116.1586222462966
 21
65.509318451038212
 31
0.0
  0
LINE
  5
4B3
  8
0
 39
6.0635459618749987
 10
115.1471015089366
 20
66.957171955814715
 30
0.0
 11
115.6427357558603
 21
66.225665770974118
 31
0.0
  0
LINE
  5
4B4
  8
0
 39
6.0635459618749987
 10
114.6740236529911
 20
67.704200818317716
 30
0.0
 11
115.1471015089366
 21
66.957171955814715
 31
0.0
  0
LINE
  5
4B5
  8
0
 39
6.0635459618749987
 10
114.2247148972162
 20
68.466267274806171
 30
0.0
 11
114.6740236529911
 21
67.704200818317716
 31
0.0
  0
LINE
  5
4B6
  8
0
 39
6.0635459618749987
 10
113.8014793890773
 20
69.24361386711854
 30
0.0
 11
114.2247148972162
 21
68.466267274806171
 31
0.0
  0
LINE
  5
4B7
  8
0
 39
6.0635459618749987
 10
113.40552983776691
 20
70.035634240658652
 30
0.0
 11
113.8014793890773
 21
69.24361386711854
 31
0.0
  0
LINE
  5
4B8
  8
0
 39
6.0635459618749987
 10
113.0390491198312
 20
70.842570937264966
 30
0.0
 11
113.40552983776691
 21
70.035634240658652
 31
0.0
  0
LINE
  5
4B9
  8
0
 39
6.0635459618749987
 10
112.703492486301
 20
71.663938873260562
 30
0.0
 11
113.0390491198312
 21
70.842570937264966
 31
0.0
  0
LINE
  5
4BA
  8
0
 39
6.0635459618749987
 10
112.4009215428035
 20
72.499980590483901
 30
0.0
 11
112.703492486301
 21
71.663938873260562
 31
0.0
  0
LINE
  5
4BB
  8
0
 39
6.0635459618749987
 10
112.4009215428035
 20
72.499980590483901
 30
0.0
 11
112.4009215428035
 21
72.499980590483901
 31
0.0
  0
LINE
  5
4BC
  8
0
 39
6.0635459618749987
 10
112.332767286192
 20
72.728576273246588
 30
0.0
 11
112.4009215428035
 21
72.499980590483901
 31
0.0
  0
LINE
  5
4BD
  8
0
 39
6.0635459618749987
 10
112.25260720857599
 20
72.938617505365926
 30
0.0
 11
112.332767286192
 21
72.728576273246588
 31
0.0
  0
LINE
  5
4BE
  8
0
 39
6.0635459618749987
 10
112.15971368444011
 20
73.130468099599668
 30
0.0
 11
112.25260720857599
 21
72.938617505365926
 31
0.0
  0
LINE
  5
4BF
  8
0
 39
6.0635459618749987
 10
112.0538441719457
 20
73.304734410543944
 30
0.0
 11
112.15971368444011
 21
73.130468099599668
 31
0.0
  0
LINE
  5
4C0
  8
0
 39
6.0635459618749987
 10
111.9343923164968
 20
73.461658980037285
 30
0.0
 11
112.0538441719457
 21
73.304734410543944
 31
0.0
  0
LINE
  5
4C1
  8
0
 39
6.0635459618749987
 10
111.8014793890125
 20
73.601848162675822
 30
0.0
 11
111.9343923164968
 21
73.461658980037285
 31
0.0
  0
LINE
  5
4C2
  8
0
 39
6.0635459618749987
 10
111.6542564930581
 20
73.725544500298057
 30
0.0
 11
111.8014793890125
 21
73.601848162675822
 31
0.0
  0
LINE
  5
4C3
  8
0
 39
6.0635459618749987
 10
111.4927236286338
 20
73.833475618419428
 30
0.0
 11
111.6542564930581
 21
73.725544500298057
 31
0.0
  0
LINE
  5
4C4
  8
0
 39
6.0635459618749987
 10
111.3160318993048
 20
73.925641517039949
 30
0.0
 11
111.4927236286338
 21
73.833475618419428
 31
0.0
  0
LINE
  5
4C5
  8
0
 39
6.0635459618749987
 10
111.1243025759903
 20
74.002891092594226
 30
0.0
 11
111.3160318993048
 21
73.925641517039949
 31
0.0
  0
LINE
  5
4C6
  8
0
 39
6.0635459618749987
 10
110.9168080331749
 20
74.065588157840011
 30
0.0
 11
111.1243025759903
 21
74.002891092594226
 31
0.0
  0
LINE
  5
4C7
  8
0
 39
6.0635459618749987
 10
110.6934269999395
 20
74.114339067373479
 30
0.0
 11
110.9168080331749
 21
74.065588157840011
 31
0.0
  0
LINE
  5
4C8
  8
0
 39
6.0635459618749987
 10
110.4535531216877
 20
74.149143821194656
 30
0.0
 11
110.6934269999395
 21
74.114339067373479
 31
0.0
  0
LINE
  5
4C9
  8
0
 39
6.0635459618749987
 10
110.1969438565811
 20
74.170851315738176
 30
0.0
 11
110.4535531216877
 21
74.149143821194656
 31
0.0
  0
LINE
  5
4CA
  8
0
 39
6.0635459618749987
 10
109.92323539186209
 20
74.179704092842499
 30
0.0
 11
110.1969438565811
 21
74.170851315738176
 31
0.0
  0
LINE
  5
4CB
  8
0
 39
6.0635459618749987
 10
109.63218518569209
 20
74.176429778023078
 30
0.0
 11
109.92323539186209
 21
74.179704092842499
 31
0.0
  0
LINE
  5
4CC
  8
0
 39
6.0635459618749987
 10
109.63218518569209
 20
74.176429778023078
 30
0.0
 11
109.63218518569209
 21
74.176429778023078
 31
0.0
  0
LINE
  5
4CD
  8
0
 39
6.0635459618749987
 10
100.20822205174591
 20
74.176429778023078
 30
0.0
 11
109.63218518569209
 21
74.176429778023078
 31
0.0
  0
LINE
  5
4CE
  8
0
 39
6.0635459618749987
 10
112.93136054354829
 20
63.40551054410605
 30
0.0
 11
112.56462168640211
 21
63.676429778023078
 31
0.0
  0
LINE
  5
4CF
  8
0
 39
6.0635459618749987
 10
113.3336161826591
 20
63.121494051251823
 30
0.0
 11
112.93136054354829
 21
63.40551054410605
 31
0.0
  0
LINE
  5
4D0
  8
0
 39
6.0635459618749987
 10
113.7358718217699
 20
62.850696088594489
 30
0.0
 11
113.3336161826591
 21
63.121494051251823
 31
0.0
  0
LINE
  5
4D1
  8
0
 39
6.0635459618749987
 10
114.1397039828307
 20
62.592874114295569
 30
0.0
 11
113.7358718217699
 21
62.850696088594489
 31
0.0
  0
LINE
  5
4D2
  8
0
 39
6.0635459618749987
 10
114.5465679168725
 20
62.346936690081911
 30
0.0
 11
114.1397039828307
 21
62.592874114295569
 31
0.0
  0
LINE
  5
4D3
  8
0
 39
6.0635459618749987
 10
114.9581614167646
 20
62.112883815953538
 30
0.0
 11
114.5465679168725
 21
62.346936690081911
 31
0.0
  0
LINE
  5
4D4
  8
0
 39
6.0635459618749987
 10
115.3758184626185
 20
61.88986659547578
 30
0.0
 11
114.9581614167646
 21
62.112883815953538
 31
0.0
  0
LINE
  5
4D5
  8
0
 39
6.0635459618749987
 10
115.8014793891422
 20
61.67764248681015
 30
0.0
 11
115.3758184626185
 21
61.88986659547578
 31
0.0
  0
LINE
  5
4D6
  8
0
 39
6.0635459618749987
 10
116.2359930927701
 20
61.475241322602763
 30
0.0
 11
115.8014793891422
 21
61.67764248681015
 31
0.0
  0
LINE
  5
4D7
  8
0
 39
6.0635459618749987
 10
116.6815424500487
 20
61.282663102853611
 30
0.0
 11
116.2359930927701
 21
61.475241322602763
 31
0.0
  0
LINE
  5
4D8
  8
0
 39
6.0635459618749987
 10
117.13921889925101
 20
61.099058931128042
 30
0.0
 11
116.6815424500487
 21
61.282663102853611
 31
0.0
  0
LINE
  5
4D9
  8
0
 39
6.0635459618749987
 10
117.6109627750849
 20
60.924186265587572
 30
0.0
 11
117.13921889925101
 21
61.099058931128042
 31
0.0
  0
LINE
  5
4DA
  8
0
 39
6.0635459618749987
 10
118.09774424490421
 20
60.757196209797527
 30
0.0
 11
117.6109627750849
 21
60.924186265587572
 31
0.0
  0
LINE
  5
4DB
  8
0
 39
6.0635459618749987
 10
118.60150364341681
 20
60.597967492838691
 30
0.0
 11
118.09774424490421
 21
60.757196209797527
 31
0.0
  0
LINE
  5
4DC
  8
0
 39
6.0635459618749987
 10
119.12357495073429
 20
60.445651218276389
 30
0.0
 11
118.60150364341681
 21
60.597967492838691
 31
0.0
  0
LINE
  5
4DD
  8
0
 39
6.0635459618749987
 10
120.12331669439909
 20
60.176429778023071
 30
0.0
 11
119.12357495073429
 21
60.445651218276389
 31
0.0
  0
LINE
  5
4DE
  8
0
 10
120.12331669439909
 20
60.176429778023071
 30
0.0
 11
100.20822205174591
 21
60.176429778023071
 31
0.0
  0
LINE
  5
4DF
  8
0
 10
105.70822205174591
 20
67.176429778023078
 30
0.0
 11
100.20822205174591
 21
67.176429778023078
 31
0.0
  0
LINE
  5
4E0
  8
0
 10
100.20822205174591
 20
63.676429778023078
 30
0.0
 11
112.56462168640211
 21
63.676429778023078
 31
0.0
  0
LINE
  5
4E1
  8
0
 10
120.20822205174591
 20
60.929111292575179
 30
0.0
 11
120.12331669439909
 21
60.176429778023071
 31
0.0
  0
LINE
  5
4E2
  8
0
 10
105.70822205174591
 20
67.176429778023078
 30
0.0
 11
105.70822205174591
 21
63.676429778023078
 31
0.0
  0
LINE
  5
4E3
  8
2
 10
110.90822205174589
 20
74.576429778023083
 30
0.0
 11
110.5082220517459
 21
74.576429778023083
 31
0.0
  0
LINE
  5
4E4
  8
2
 10
110.70822205174591
 20
74.776429778023086
 30
0.0
 11
110.70822205174591
 21
74.376429778023081
 31
0.0
  0
LINE
  5
4E5
  8
0
 10
103.20822205174601
 20
74.176429778023078
 30
0.0
 11
103.20822205174601
 21
67.176429778023078
 31
0.0
  0
DIMENSION
  5
4FA
  8
2
  2
*D1
 10
103.20822205174601
 20
81.624304575076962
 30
0.0
 11
100.20822205174591
 21
83.499304575076962
 31
0.0
 70
     0
  1
%%c<>
 13
97.208222051745992
 23
74.176429778023078
 33
0.0
 14
103.20822205174601
 24
74.176429778023078
 34
0.0
1001
ACAD
1000
DSTYLE
1002
{
1070
   271
1070
     6
1002
}
  0
DIMENSION
  5
509
  8
2
  2
*D2
 10
110.70822205174591
 20
85.903045718411875
 30
0.0
 11
100.20822205174591
 21
87.778045718411875
 31
0.0
 70
     0
  1
%%c<>
 13
89.708222051745992
 23
74.576429778023083
 33
0.0
 14
110.70822205174591
 24
74.576429778023083
 34
0.0
1001
ACAD
1000
DSTYLE
1002
{
1070
   271
1070
     6
1002
}
  0
DIMENSION
  5
516
  8
2
  2
*D3
 10
105.70822205174591
 20
52.148444453205911
 30
0.0
 11
100.20822205174591
 21
54.023444453205911
 31
0.0
 70
     0
  1
%%c<>
 13
94.708222051745992
 23
63.676429778023078
 33
0.0
 14
105.70822205174591
 24
63.676429778023078
 34
0.0
1001
ACAD
1000
DSTYLE
1002
{
1070
   271
1070
     6
1002
}
  0
DIMENSION
  5
523
  8
2
  2
*D4
 10
120.20822205174591
 20
47.415784879918753
 30
0.0
 11
100.20822205174591
 21
49.29078487991876
 31
0.0
 70
     0
  1
%%c<>
 13
80.208222051745992
 23
60.929111292575179
 33
0.0
 14
120.20822205174591
 24
60.929111292575179
 34
0.0
1001
ACAD
1000
DSTYLE
1002
{
1070
   271
1070
     6
1002
}
  0
DIMENSION
  5
530
  8
2
  2
*D5
 10
127.79042864009919
 20
67.176429778023078
 30
0.0
 11
125.91542864009909
 21
70.676429778023092
 31
0.0
 70
     0
 13
109.63218518569209
 23
74.176429778023078
 33
0.0
 14
105.70822205174591
 24
67.176429778023078
 34
0.0
 50
90.0
  0
DIMENSION
  5
53D
  8
2
  2
*D6
 10
132.65834949029971
 20
60.176429778023071
 30
0.0
 11
130.78334949029971
 21
67.176429778023092
 31
0.0
 70
     0
 13
109.63218518569209
 23
74.176429778023078
 33
0.0
 14
120.12331669439909
 24
60.176429778023071
 34
0.0
 50
90.0
  0
DIMENSION
  5
54A
  8
2
  2
*D7
 10
72.100933919506588
 20
63.676429778023092
 30
0.0
 11
70.225933919506573
 21
71.801429778023106
 31
0.0
 70
     0
 13
80.29312740909279
 23
60.176429778023071
 33
0.0
 14
87.851822417089821
 24
63.676429778023078
 34
0.0
 50
90.0
  0
TEXT
  5
5B3
  8
2
 10
82.741468239667554
 20
36.396112445891937
 30
0.0
 40
2.5399440000000002
  1
No. 102.040.061._
 51
-0.0000015352344868
  7
\U+00C9L\U+00C9R_\U+00C2S\U+00C2V\U+00C2B\U+00C2N
  0
ENDSEC
  0
EOF
