  0
SECTION
  2
HEADER
  9
$ACADVER
  1
AC1009
  9
$INSBASE
 10
0.0
 20
0.0
 30
0.0
  9
$EXTMIN
 10
48.294867166260921
 20
45.014591873567923
 30
0.0
  9
$EXTMAX
 10
121.26648458218691
 20
98.770934400846144
 30
7.5150300599999991
  9
$LIMMIN
 10
0.0
 20
0.0
  9
$LIMMAX
 10
420.0
 20
297.0
  9
$ORTHOMODE
 70
     0
  9
$REGENMODE
 70
     1
  9
$FILLMODE
 70
     1
  9
$QTEXTMODE
 70
     0
  9
$MIRRTEXT
 70
     1
  9
$DRAGMODE
 70
     2
  9
$LTSCALE
 40
0.3
  9
$OSMODE
 70
    37
  9
$ATTMODE
 70
     1
  9
$TEXTSIZE
 40
2.5
  9
$TRACEWID
 40
1.0
  9
$TEXTSTYLE
  7
STANDARD
  9
$CLAYER
  8
2
  9
$CELTYPE
  6
BYLAYER
  9
$CECOLOR
 62
   256
  9
$DIMSCALE
 40
1.0
  9
$DIMASZ
 40
2.5
  9
$DIMEXO
 40
0.625
  9
$DIMDLI
 40
3.75
  9
$DIMRND
 40
0.0
  9
$DIMDLE
 40
0.0
  9
$DIMEXE
 40
1.25
  9
$DIMTP
 40
0.0
  9
$DIMTM
 40
0.0
  9
$DIMTXT
 40
2.5
  9
$DIMCEN
 40
2.5
  9
$DIMTSZ
 40
0.0
  9
$DIMTOL
 70
     0
  9
$DIMLIM
 70
     0
  9
$DIMTIH
 70
     0
  9
$DIMTOH
 70
     0
  9
$DIMSE1
 70
     0
  9
$DIMSE2
 70
     0
  9
$DIMTAD
 70
     1
  9
$DIMZIN
 70
     8
  9
$DIMBLK
  1

  9
$DIMASO
 70
     1
  9
$DIMSHO
 70
     1
  9
$DIMPOST
  1

  9
$DIMAPOST
  1

  9
$DIMALT
 70
     0
  9
$DIMALTD
 70
     3
  9
$DIMALTF
 40
0.03937007874016
  9
$DIMLFAC
 40
1.0
  9
$DIMTOFL
 70
     1
  9
$DIMTVP
 40
0.0
  9
$DIMTIX
 70
     0
  9
$DIMSOXD
 70
     0
  9
$DIMSAH
 70
     0
  9
$DIMBLK1
  1

  9
$DIMBLK2
  1

  9
$DIMSTYLE
  2
ISO-25
  9
$DIMCLRD
 70
     0
  9
$DIMCLRE
 70
     0
  9
$DIMCLRT
 70
     0
  9
$DIMTFAC
 40
1.0
  9
$DIMGAP
 40
0.625
  9
$LUNITS
 70
     2
  9
$LUPREC
 70
     4
  9
$SKETCHINC
 40
1.0
  9
$FILLETRAD
 40
10.0
  9
$AUNITS
 70
     0
  9
$AUPREC
 70
     0
  9
$MENU
  1
.
  9
$ELEVATION
 40
0.0
  9
$PELEVATION
 40
0.0
  9
$THICKNESS
 40
0.0
  9
$LIMCHECK
 70
     0
  9
$BLIPMODE
 70
     0
  9
$CHAMFERA
 40
10.0
  9
$CHAMFERB
 40
10.0
  9
$SKPOLY
 70
     0
  9
$TDCREATE
 40
2453436.7225356479
  9
$TDUPDATE
 40
2453551.9014158212
  9
$TDINDWG
 40
0.027176794
  9
$TDUSRTIMER
 40
0.027176794
  9
$USRTIMER
 70
     1
  9
$ANGBASE
 50
0.0
  9
$ANGDIR
 70
     0
  9
$PDMODE
 70
     0
  9
$PDSIZE
 40
0.0
  9
$PLINEWID
 40
0.0
  9
$COORDS
 70
     1
  9
$SPLFRAME
 70
     0
  9
$SPLINETYPE
 70
     6
  9
$SPLINESEGS
 70
     8
  9
$ATTDIA
 70
     0
  9
$ATTREQ
 70
     1
  9
$HANDLING
 70
-16383
  9
$HANDSEED
  5
52B
  9
$SURFTAB1
 70
     6
  9
$SURFTAB2
 70
     6
  9
$SURFTYPE
 70
     6
  9
$SURFU
 70
     6
  9
$SURFV
 70
     6
  9
$UCSNAME
  2

  9
$UCSORG
 10
0.0
 20
0.0
 30
0.0
  9
$UCSXDIR
 10
1.0
 20
0.0
 30
0.0
  9
$UCSYDIR
 10
0.0
 20
1.0
 30
0.0
  9
$PUCSNAME
  2

  9
$PUCSORG
 10
0.0
 20
0.0
 30
0.0
  9
$PUCSXDIR
 10
1.0
 20
0.0
 30
0.0
  9
$PUCSYDIR
 10
0.0
 20
1.0
 30
0.0
  9
$USERI1
 70
     0
  9
$USERI2
 70
     0
  9
$USERI3
 70
     0
  9
$USERI4
 70
     0
  9
$USERI5
 70
     0
  9
$USERR1
 40
0.0
  9
$USERR2
 40
0.0
  9
$USERR3
 40
0.0
  9
$USERR4
 40
0.0
  9
$USERR5
 40
0.0
  9
$WORLDVIEW
 70
     1
  9
$SHADEDGE
 70
     3
  9
$SHADEDIF
 70
    70
  9
$TILEMODE
 70
     1
  9
$MAXACTVP
 70
    64
  9
$PLIMCHECK
 70
     0
  9
$PEXTMIN
 10
1.0000000000000000E+020
 20
1.0000000000000000E+020
 30
1.0000000000000000E+020
  9
$PEXTMAX
 10
-1.0000000000000000E+020
 20
-1.0000000000000000E+020
 30
-1.0000000000000000E+020
  9
$PLIMMIN
 10
0.0
 20
0.0
  9
$PLIMMAX
 10
420.0
 20
297.0
  9
$UNITMODE
 70
     0
  9
$VISRETAIN
 70
     1
  9
$PLINEGEN
 70
     0
  9
$PSLTSCALE
 70
     1
  0
ENDSEC
  0
SECTION
  2
TABLES
  0
TABLE
  2
VPORT
 70
     2
  0
VPORT
  2
*ACTIVE
 70
     0
 10
0.0
 20
0.0
 11
1.0
 21
1.0
 12
103.9301229542385
 22
77.096260103722159
 13
0.0
 23
0.0
 14
10.0
 24
10.0
 15
10.0
 25
10.0
 16
0.0
 26
0.0
 36
1.0
 17
0.0
 27
0.0
 37
0.0
 40
88.354558964104172
 41
2.5392405063291141
 42
50.0
 43
0.0
 44
0.0
 50
0.0
 51
0.0
 71
     0
 72
   100
 73
     1
 74
     3
 75
     0
 76
     0
 77
     0
 78
     0
  0
ENDTAB
  0
TABLE
  2
LTYPE
 70
     2
  0
LTYPE
  2
CONTINUOUS
 70
     0
  3
Solid line
 72
    65
 73
     0
 40
0.0
  0
LTYPE
  2
CENTER
 70
     0
  3
Center ____ _ ____ _ ____ _ ____ _ ____ _ ____
 72
    65
 73
     4
 40
50.799999999999997
 49
31.75
 49
-6.3499999999999988
 49
6.3499999999999988
 49
-6.3499999999999988
  0
ENDTAB
  0
TABLE
  2
LAYER
 70
     4
  0
LAYER
  2
0
 70
     0
 62
     7
  6
CONTINUOUS
  0
LAYER
  2
1
 70
     0
 62
     7
  6
CENTER
  0
LAYER
  2
DEFPOINTS
 70
     0
 62
     7
  6
CONTINUOUS
  0
LAYER
  2
2
 70
     0
 62
     7
  6
CONTINUOUS
  0
ENDTAB
  0
TABLE
  2
STYLE
 70
     3
  0
STYLE
  2
STANDARD
 70
     0
 40
0.0
 41
1.0
 50
0.0
 71
     0
 42
2.5
  3
txt
  4

  0
STYLE
  2
\U+00C9L\U+00C9R_\U+00C2S\U+00C2V\U+00C2B\U+00C2N
 70
     0
 40
1.0
 41
1.0
 50
0.0
 71
     0
 42
1.0
  3
\U+00E9l\U+00E9r \U+00E2S\U+00E2V\U+00E2b\U+00E2N
  4

  0
STYLE
  2

 70
     1
 40
0.0
 41
1.0
 50
0.0
 71
     0
 42
2.5
  3
ltypeshp.shx
  4

  0
ENDTAB
  0
TABLE
  2
VIEW
 70
     0
  0
ENDTAB
  0
TABLE
  2
UCS
 70
     0
  0
ENDTAB
  0
TABLE
  2
APPID
 70
     1
  0
APPID
  2
ACAD
 70
     0
  0
ENDTAB
  0
TABLE
  2
DIMSTYLE
 70
     2
  0
DIMSTYLE
  2
ISO-25
 70
     0
  3

  4

  5

  6

  7

 40
1.0
 41
2.5
 42
0.625
 43
3.75
 44
1.25
 45
0.0
 46
0.0
 47
0.0
 48
0.0
140
2.5
141
2.5
142
0.0
143
0.03937007874016
144
1.0
145
0.0
146
1.0
147
0.625
 71
     0
 72
     0
 73
     0
 74
     0
 75
     0
 76
     0
 77
     1
 78
     8
170
     0
171
     3
172
     1
173
     0
174
     0
175
     0
176
     0
177
     0
178
     0
  0
DIMSTYLE
  2
STANDARD
 70
     0
  3

  4

  5

  6

  7

 40
1.0
 41
0.18
 42
0.0625
 43
0.38
 44
0.18
 45
0.0
 46
0.0
 47
0.0
 48
0.0
140
0.18
141
0.09
142
0.0
143
25.399999999999999
144
1.0
145
0.0
146
1.0
147
0.09
 71
     0
 72
     0
 73
     1
 74
     1
 75
     0
 76
     0
 77
     0
 78
     0
170
     0
171
     2
172
     0
173
     0
174
     0
175
     0
176
     0
177
     0
178
     0
  0
ENDTAB
  0
ENDSEC
  0
SECTION
  2
BLOCKS
  0
BLOCK
  8
0
  2
$MODEL_SPACE
 70
     0
 10
0.0
 20
0.0
 30
0.0
  3
$MODEL_SPACE
  1

  0
ENDBLK
  5
21
  8
0
  0
BLOCK
 67
     1
  8
0
  2
$PAPER_SPACE
 70
     0
 10
0.0
 20
0.0
 30
0.0
  3
$PAPER_SPACE
  1

  0
ENDBLK
  5
1D
 67
     1
  8
0
  0
BLOCK
  8
0
  2
*D1
 70
     1
 10
0.0
 20
0.0
 30
0.0
  3
*D1
  1

  0
LINE
  5
4E3
  8
2
 62
     0
 10
80.604854237969775
 20
80.393155181850545
 30
0.0
 11
80.604854237969775
 21
87.841519843229406
 31
0.0
  0
LINE
  5
4E4
  8
2
 62
     0
 10
88.604854237969775
 20
80.393155181850545
 30
0.0
 11
88.604854237969775
 21
87.841519843229406
 31
0.0
  0
LINE
  5
4E5
  8
2
 62
     0
 10
83.104854237969775
 20
86.591519843229406
 30
0.0
 11
86.104854237969775
 21
86.591519843229406
 31
0.0
  0
SOLID
  5
4E6
  8
2
 62
     0
 10
83.104854237969775
 20
87.008186509896078
 30
0.0
 11
83.104854237969775
 21
86.174853176562735
 31
0.0
 12
80.604854237969775
 22
86.591519843229406
 32
0.0
 13
80.604854237969775
 23
86.591519843229406
 33
0.0
  0
SOLID
  5
4E7
  8
2
 62
     0
 10
86.104854237969775
 20
87.008186509896078
 30
0.0
 11
86.104854237969775
 21
86.174853176562735
 31
0.0
 12
88.604854237969775
 22
86.591519843229406
 32
0.0
 13
88.604854237969775
 23
86.591519843229406
 33
0.0
  0
INSERT
  5
4E8
  8
2
  2
*U10
 10
0.0
 20
0.0
 30
0.0
  0
POINT
  5
4E9
  8
DEFPOINTS
 62
     0
 10
80.604854237969775
 20
79.768155181850531
 30
0.0
  0
POINT
  5
4EA
  8
DEFPOINTS
 62
     0
 10
88.604854237969775
 20
79.768155181850531
 30
0.0
  0
POINT
  5
4EB
  8
DEFPOINTS
 62
     0
 10
88.604854237969775
 20
86.591519843229406
 30
0.0
  0
ENDBLK
  5
43B
  8
0
  0
BLOCK
  8
0
  2
*D2
 70
     1
 10
0.0
 20
0.0
 30
0.0
  3
*D2
  1

  0
LINE
  5
4DA
  8
2
 62
     0
 10
74.604854237969775
 20
73.393155181850531
 30
0.0
 11
74.604854237969775
 21
92.324924586080826
 31
0.0
  0
LINE
  5
4DB
  8
2
 62
     0
 10
94.604854237969775
 20
73.393155181850531
 30
0.0
 11
94.604854237969775
 21
92.324924586080826
 31
0.0
  0
LINE
  5
4DC
  8
2
 62
     0
 10
77.104854237969775
 20
91.074924586080826
 30
0.0
 11
92.104854237969775
 21
91.074924586080826
 31
0.0
  0
SOLID
  5
4DD
  8
2
 62
     0
 10
77.104854237969775
 20
91.491591252747511
 30
0.0
 11
77.104854237969775
 21
90.658257919414169
 31
0.0
 12
74.604854237969775
 22
91.074924586080826
 32
0.0
 13
74.604854237969775
 23
91.074924586080826
 33
0.0
  0
SOLID
  5
4DE
  8
2
 62
     0
 10
92.104854237969775
 20
91.491591252747511
 30
0.0
 11
92.104854237969775
 21
90.658257919414169
 31
0.0
 12
94.604854237969775
 22
91.074924586080826
 32
0.0
 13
94.604854237969775
 23
91.074924586080826
 33
0.0
  0
INSERT
  5
4DF
  8
2
  2
*U9
 10
0.0
 20
0.0
 30
0.0
  0
POINT
  5
4E0
  8
DEFPOINTS
 62
     0
 10
74.604854237969775
 20
72.768155181850531
 30
0.0
  0
POINT
  5
4E1
  8
DEFPOINTS
 62
     0
 10
94.604854237969775
 20
72.768155181850531
 30
0.0
  0
POINT
  5
4E2
  8
DEFPOINTS
 62
     0
 10
94.604854237969775
 20
91.074924586080826
 30
0.0
  0
ENDBLK
  5
448
  8
0
  0
BLOCK
  8
0
  2
*D3
 70
     1
 10
0.0
 20
0.0
 30
0.0
  3
*D3
  1

  0
LINE
  5
4D1
  8
2
 62
     0
 10
73.104854237969775
 20
80.793155181850537
 30
0.0
 11
73.104854237969775
 21
96.895934400846144
 31
0.0
  0
LINE
  5
4D2
  8
2
 62
     0
 10
96.104854237969775
 20
80.793155181850537
 30
0.0
 11
96.104854237969775
 21
96.895934400846144
 31
0.0
  0
LINE
  5
4D3
  8
2
 62
     0
 10
75.604854237969775
 20
95.645934400846116
 30
0.0
 11
93.604854237969775
 21
95.645934400846116
 31
0.0
  0
SOLID
  5
4D4
  8
2
 62
     0
 10
75.604854237969775
 20
96.062601067512801
 30
0.0
 11
75.604854237969775
 21
95.229267734179459
 31
0.0
 12
73.104854237969775
 22
95.645934400846116
 32
0.0
 13
73.104854237969775
 23
95.645934400846116
 33
0.0
  0
SOLID
  5
4D5
  8
2
 62
     0
 10
93.604854237969775
 20
96.062601067512801
 30
0.0
 11
93.604854237969775
 21
95.229267734179459
 31
0.0
 12
96.104854237969775
 22
95.645934400846116
 32
0.0
 13
96.104854237969775
 23
95.645934400846116
 33
0.0
  0
INSERT
  5
4D6
  8
2
  2
*U8
 10
0.0
 20
0.0
 30
0.0
  0
POINT
  5
4D7
  8
DEFPOINTS
 62
     0
 10
73.104854237969775
 20
80.168155181850537
 30
0.0
  0
POINT
  5
4D8
  8
DEFPOINTS
 62
     0
 10
96.104854237969775
 20
80.168155181850537
 30
0.0
  0
POINT
  5
4D9
  8
DEFPOINTS
 62
     0
 10
96.104854237969775
 20
95.645934400846116
 30
0.0
  0
ENDBLK
  5
455
  8
0
  0
BLOCK
  8
0
  2
*D4
 70
     1
 10
0.0
 20
0.0
 30
0.0
  3
*D4
  1

  0
LINE
  5
4B3
  8
2
 62
     0
 10
95.229854237969775
 20
79.768155181850531
 30
0.0
 11
116.0518173631795
 21
79.768155181850517
 31
0.0
  0
LINE
  5
4B4
  8
2
 62
     0
 10
95.229854237969775
 20
72.768155181850531
 30
0.0
 11
116.0518173631795
 21
72.768155181850517
 31
0.0
  0
LINE
  5
4B5
  8
2
 62
     0
 10
114.8018173631795
 20
77.268155181850517
 30
0.0
 11
114.8018173631795
 21
75.268155181850517
 31
0.0
  0
SOLID
  5
4B6
  8
2
 62
     0
 10
114.3851506965128
 20
77.268155181850517
 30
0.0
 11
115.2184840298461
 21
77.268155181850517
 31
0.0
 12
114.8018173631795
 22
79.768155181850517
 32
0.0
 13
114.8018173631795
 23
79.768155181850517
 33
0.0
  0
SOLID
  5
4B7
  8
2
 62
     0
 10
114.3851506965128
 20
75.268155181850517
 30
0.0
 11
115.2184840298461
 21
75.268155181850517
 31
0.0
 12
114.8018173631795
 22
72.768155181850517
 32
0.0
 13
114.8018173631795
 23
72.768155181850517
 33
0.0
  0
TEXT
  5
4B8
  8
2
 62
     0
 10
114.1768173631795
 20
75.434821848517217
 30
0.0
 40
2.5
  1
7
 50
90.0
  0
POINT
  5
4B9
  8
DEFPOINTS
 62
     0
 10
94.604854237969775
 20
79.768155181850531
 30
0.0
  0
POINT
  5
4BA
  8
DEFPOINTS
 62
     0
 10
94.604854237969775
 20
72.768155181850531
 30
0.0
  0
POINT
  5
4BB
  8
DEFPOINTS
 62
     0
 10
114.8018173631795
 20
72.768155181850517
 30
0.0
  0
ENDBLK
  5
463
  8
0
  0
BLOCK
  8
0
  2
*D5
 70
     1
 10
0.0
 20
0.0
 30
0.0
  3
*D5
  1

  0
LINE
  5
4BC
  8
2
 62
     0
 10
95.229854237969775
 20
79.768155181850531
 30
0.0
 11
121.26648458218691
 21
79.768155181850517
 31
0.0
  0
LINE
  5
4BD
  8
2
 62
     0
 10
110.2298542379697
 20
64.768155181850531
 30
0.0
 11
121.26648458218691
 21
64.768155181850531
 31
0.0
  0
LINE
  5
4BE
  8
2
 62
     0
 10
120.01648458218691
 20
77.268155181850517
 30
0.0
 11
120.01648458218691
 21
67.268155181850531
 31
0.0
  0
SOLID
  5
4BF
  8
2
 62
     0
 10
119.59981791552021
 20
77.268155181850517
 30
0.0
 11
120.4331512488536
 21
77.268155181850517
 31
0.0
 12
120.01648458218691
 22
79.768155181850517
 32
0.0
 13
120.01648458218691
 23
79.768155181850517
 33
0.0
  0
SOLID
  5
4C0
  8
2
 62
     0
 10
119.59981791552021
 20
67.268155181850531
 30
0.0
 11
120.4331512488536
 21
67.268155181850531
 31
0.0
 12
120.01648458218691
 22
64.768155181850531
 32
0.0
 13
120.01648458218691
 23
64.768155181850531
 33
0.0
  0
TEXT
  5
4C1
  8
2
 62
     0
 10
119.39148458218691
 20
70.60148851518386
 30
0.0
 40
2.5
  1
15
 50
90.0
  0
POINT
  5
4C2
  8
DEFPOINTS
 62
     0
 10
94.604854237969775
 20
79.768155181850531
 30
0.0
  0
POINT
  5
4C3
  8
DEFPOINTS
 62
     0
 10
109.6048542379697
 20
64.768155181850531
 30
0.0
  0
POINT
  5
4C4
  8
DEFPOINTS
 62
     0
 10
120.01648458218691
 20
64.768155181850531
 30
0.0
  0
ENDBLK
  5
470
  8
0
  0
BLOCK
  8
0
  2
*D6
 70
     1
 10
0.0
 20
0.0
 30
0.0
  3
*D6
  1

  0
LINE
  5
4FC
  8
2
 62
     0
 10
59.604854237969782
 20
64.143155181850531
 30
0.0
 11
59.604854237969782
 21
56.609604685348131
 31
0.0
  0
LINE
  5
4FD
  8
2
 62
     0
 10
109.6048542379697
 20
64.143155181850531
 30
0.0
 11
109.6048542379697
 21
56.609604685348131
 31
0.0
  0
LINE
  5
4FE
  8
2
 62
     0
 10
62.104854237969782
 20
57.859604685348131
 30
0.0
 11
107.1048542379697
 21
57.859604685348131
 31
0.0
  0
SOLID
  5
4FF
  8
2
 62
     0
 10
62.104854237969782
 20
58.276271352014788
 30
0.0
 11
62.104854237969782
 21
57.44293801868146
 31
0.0
 12
59.604854237969782
 22
57.859604685348131
 32
0.0
 13
59.604854237969782
 23
57.859604685348131
 33
0.0
  0
SOLID
  5
500
  8
2
 62
     0
 10
107.1048542379697
 20
58.276271352014788
 30
0.0
 11
107.1048542379697
 21
57.44293801868146
 31
0.0
 12
109.6048542379697
 22
57.859604685348131
 32
0.0
 13
109.6048542379697
 23
57.859604685348131
 33
0.0
  0
INSERT
  5
501
  8
2
  2
*U11
 10
0.0
 20
0.0
 30
0.0
  0
POINT
  5
502
  8
DEFPOINTS
 62
     0
 10
59.604854237969782
 20
64.768155181850531
 30
0.0
  0
POINT
  5
503
  8
DEFPOINTS
 62
     0
 10
109.6048542379697
 20
64.768155181850531
 30
0.0
  0
POINT
  5
504
  8
DEFPOINTS
 62
     0
 10
109.6048542379697
 20
57.859604685348131
 30
0.0
  0
ENDBLK
  5
47F
  8
0
  0
BLOCK
  8
0
  2
*D7
 70
     1
 10
0.0
 20
0.0
 30
0.0
  3
*D7
  1

  0
LINE
  5
4C5
  8
2
 62
     0
 10
58.979854237969782
 20
64.768155181850531
 30
0.0
 11
50.169867166260921
 21
64.768155181850531
 31
0.0
  0
LINE
  5
4C6
  8
2
 62
     0
 10
69.609903624442609
 20
68.768155181850531
 30
0.0
 11
50.169867166260921
 21
68.768155181850531
 31
0.0
  0
LINE
  5
4C7
  8
2
 62
     0
 10
51.419867166260921
 20
62.268155181850531
 30
0.0
 11
51.419867166260921
 21
59.768155181850531
 31
0.0
  0
LINE
  5
4C8
  8
2
 62
     0
 10
51.419867166260921
 20
71.268155181850531
 30
0.0
 11
51.419867166260921
 21
73.768155181850531
 31
0.0
  0
LINE
  5
4C9
  8
2
 62
     0
 10
51.419867166260921
 20
64.768155181850531
 30
0.0
 11
51.419867166260921
 21
68.768155181850531
 31
0.0
  0
SOLID
  5
4CA
  8
2
 62
     0
 10
51.003200499594257
 20
62.268155181850531
 30
0.0
 11
51.836533832927593
 21
62.268155181850531
 31
0.0
 12
51.419867166260921
 22
64.768155181850531
 32
0.0
 13
51.419867166260921
 23
64.768155181850531
 33
0.0
  0
SOLID
  5
4CB
  8
2
 62
     0
 10
51.003200499594257
 20
71.268155181850531
 30
0.0
 11
51.836533832927593
 21
71.268155181850531
 31
0.0
 12
51.419867166260921
 22
68.768155181850531
 32
0.0
 13
51.419867166260921
 23
68.768155181850531
 33
0.0
  0
TEXT
  5
4CC
  8
2
 62
     0
 10
50.794867166260921
 20
65.934821848517217
 30
0.0
 40
2.5
  1
4
 50
90.0
  0
POINT
  5
4CD
  8
DEFPOINTS
 62
     0
 10
59.604854237969782
 20
64.768155181850531
 30
0.0
  0
POINT
  5
4CE
  8
DEFPOINTS
 62
     0
 10
70.234903624442609
 20
68.768155181850531
 30
0.0
  0
POINT
  5
4CF
  8
DEFPOINTS
 62
     0
 10
51.419867166260921
 20
68.768155181850531
 30
0.0
  0
ENDBLK
  5
48E
  8
0
  0
BLOCK
  8
0
  2
*U8
 70
     1
 10
0.0
 20
0.0
 30
0.0
  3
*U8
  1

  0
TEXT
  5
518
  8
2
 62
     0
 10
81.271520904636446
 20
96.270934400846144
 30
0.0
 40
2.5
  1
\U+2205
  0
TEXT
  5
519
  8
2
 62
     0
 10
83.771520904636446
 20
96.270934400846144
 30
0.0
 40
2.5
  1
23
  0
ENDBLK
  5
51B
  8
0
  0
BLOCK
  8
0
  2
*U9
 70
     1
 10
0.0
 20
0.0
 30
0.0
  3
*U9
  1

  0
TEXT
  5
51D
  8
2
 62
     0
 10
81.479854237969775
 20
91.699924586080826
 30
0.0
 40
2.5
  1
\U+2205
  0
TEXT
  5
51E
  8
2
 62
     0
 10
83.979854237969775
 20
91.699924586080826
 30
0.0
 40
2.5
  1
20
  0
ENDBLK
  5
520
  8
0
  0
BLOCK
  8
0
  2
*U10
 70
     1
 10
0.0
 20
0.0
 30
0.0
  3
*U10
  1

  0
TEXT
  5
522
  8
2
 62
     0
 10
82.521520904636446
 20
87.216519843229406
 30
0.0
 40
2.5
  1
\U+2205
  0
TEXT
  5
523
  8
2
 62
     0
 10
85.021520904636446
 20
87.216519843229406
 30
0.0
 40
2.5
  1
8
  0
ENDBLK
  5
525
  8
0
  0
BLOCK
  8
0
  2
*U11
 70
     1
 10
0.0
 20
0.0
 30
0.0
  3
*U11
  1

  0
TEXT
  5
527
  8
2
 62
     0
 10
81.479854237969761
 20
58.484604685348131
 30
0.0
 40
2.5
  1
\U+2205
  0
TEXT
  5
528
  8
2
 62
     0
 10
83.979854237969761
 20
58.484604685348131
 30
0.0
 40
2.5
  1
50
  0
ENDBLK
  5
52A
  8
0
  0
ENDSEC
  0
SECTION
  2
ENTITIES
  0
TEXT
  5
B5
  8
2
 10
60.369034678459059
 20
45.256491302139374
 30
0.0
 40
2.5399440000000002
  1
No. 102.050.065._
 51
-0.0000015352344868
  7
\U+00C9L\U+00C9R_\U+00C2S\U+00C2V\U+00C2B\U+00C2N
  0
LINE
  5
13A
  8
0
 39
7.5150300599999991
 10
70.234903624442609
 20
68.768155181850531
 30
0.0
 11
68.078245800147343
 21
67.56026295845372
 31
0.0
  0
LINE
  5
13B
  8
0
 39
7.5150300599999991
 10
68.078245800147343
 20
67.56026295845372
 30
0.0
 11
67.512645857230623
 21
67.258131884682385
 31
0.0
  0
LINE
  5
13C
  8
0
 39
7.5150300599999991
 10
67.512645857230623
 20
67.258131884682385
 30
0.0
 11
66.964549735411211
 21
66.980751335348415
 31
0.0
  0
LINE
  5
13D
  8
0
 39
7.5150300599999991
 10
66.964549735411211
 20
66.980751335348415
 30
0.0
 11
66.429947330425293
 21
66.726702201350804
 31
0.0
  0
LINE
  5
13E
  8
0
 39
7.5150300599999991
 10
66.429947330425293
 20
66.726702201350804
 30
0.0
 11
65.904535358845806
 21
66.493244821466476
 31
0.0
  0
LINE
  5
13F
  8
0
 39
7.5150300599999991
 10
65.904535358845806
 20
66.493244821466476
 30
0.0
 11
65.384711324986895
 21
66.278715632193098
 31
0.0
  0
LINE
  5
140
  8
0
 39
7.5150300599999991
 10
65.384711324986895
 20
66.278715632193098
 30
0.0
 11
64.866155519258314
 21
66.08099445982441
 31
0.0
  0
LINE
  5
141
  8
0
 39
7.5150300599999991
 10
64.866155519258314
 20
66.08099445982441
 30
0.0
 11
64.345232870511651
 21
65.898271012844475
 31
0.0
  0
LINE
  5
142
  8
0
 39
7.5150300599999991
 10
64.345232870511651
 20
65.898271012844475
 30
0.0
 11
63.816971606177333
 21
65.728261963370301
 31
0.0
  0
LINE
  5
143
  8
0
 39
7.5150300599999991
 10
63.816971606177333
 20
65.728261963370301
 30
0.0
 11
63.278535446099809
 21
65.569287598600184
 31
0.0
  0
LINE
  5
144
  8
0
 39
7.5150300599999991
 10
63.278535446099809
 20
65.569287598600184
 30
0.0
 11
62.725099345723002
 21
65.419032015188478
 31
0.0
  0
LINE
  5
145
  8
0
 39
7.5150300599999991
 10
62.725099345723002
 20
65.419032015188478
 30
0.0
 11
62.153207537374669
 21
65.275799074170237
 31
0.0
  0
LINE
  5
146
  8
0
 39
7.5150300599999991
 10
62.153207537374669
 20
65.275799074170237
 30
0.0
 11
61.558181704512293
 21
65.137240296737303
 31
0.0
  0
LINE
  5
147
  8
0
 39
7.5150300599999991
 10
61.558181704512293
 20
65.137240296737303
 30
0.0
 11
60.936451926912582
 21
65.001838847400847
 31
0.0
  0
LINE
  5
148
  8
0
 39
7.5150300599999991
 10
60.936451926912582
 20
65.001838847400847
 30
0.0
 11
60.283926800087251
 21
64.867115945502377
 31
0.0
  0
LINE
  5
149
  8
0
 39
7.5150300599999991
 10
60.283926800087251
 20
64.867115945502377
 30
0.0
 11
59.782554968984023
 21
64.768155181850531
 31
0.0
  0
LINE
  5
154
  8
0
 39
7.5150300599999991
 10
73.789408227148456
 20
79.768155181850545
 30
0.0
 11
73.604509489922691
 21
79.726666574179646
 31
0.0
  0
LINE
  5
155
  8
0
 39
7.5150300599999991
 10
73.604509489922691
 20
79.726666574179646
 30
0.0
 11
73.291049268971904
 21
79.634446537245992
 31
0.0
  0
LINE
  5
156
  8
0
 39
7.5150300599999991
 10
73.291049268971904
 20
79.634446537245992
 30
0.0
 11
72.991629258061351
 21
79.522943578842586
 31
0.0
  0
LINE
  5
157
  8
0
 39
7.5150300599999991
 10
72.991629258061351
 20
79.522943578842586
 30
0.0
 11
72.705222637959963
 21
79.391000024160462
 31
0.0
  0
LINE
  5
158
  8
0
 39
7.5150300599999991
 10
72.705222637959963
 20
79.391000024160462
 30
0.0
 11
72.432351169796775
 21
79.238192115322207
 31
0.0
  0
LINE
  5
159
  8
0
 39
7.5150300599999991
 10
72.432351169796775
 20
79.238192115322207
 30
0.0
 11
72.172428218381413
 21
79.063264451131047
 31
0.0
  0
LINE
  5
15A
  8
0
 39
7.5150300599999991
 10
72.172428218381413
 20
79.063264451131047
 30
0.0
 11
71.925535360802243
 21
78.865891000097335
 31
0.0
  0
LINE
  5
15B
  8
0
 39
7.5150300599999991
 10
71.925535360802243
 20
78.865891000097335
 30
0.0
 11
71.69105338640631
 21
78.644669633010849
 31
0.0
  0
LINE
  5
15C
  8
0
 39
7.5150300599999991
 10
71.69105338640631
 20
78.644669633010849
 30
0.0
 11
71.468917144268531
 21
78.39930689384444
 31
0.0
  0
LINE
  5
15D
  8
0
 39
7.5150300599999991
 10
71.468917144268531
 20
78.39930689384444
 30
0.0
 11
71.259012758701687
 21
78.128596383027244
 31
0.0
  0
LINE
  5
15E
  8
0
 39
7.5150300599999991
 10
71.259012758701687
 20
78.128596383027244
 30
0.0
 11
71.061128350767035
 21
77.832277219994694
 31
0.0
  0
LINE
  5
15F
  8
0
 39
7.5150300599999991
 10
71.061128350767035
 20
77.832277219994694
 30
0.0
 11
71.061128350767035
 21
77.832277219994694
 31
0.0
  0
LINE
  5
160
  8
0
 39
7.5150300599999991
 10
71.061128350767035
 20
77.832277219994694
 30
0.0
 11
70.42271016470076
 21
76.854723602630685
 31
0.0
  0
LINE
  5
161
  8
0
 39
7.5150300599999991
 10
70.42271016470076
 20
76.854723602630685
 30
0.0
 11
69.768329539437929
 21
75.88918165698442
 31
0.0
  0
LINE
  5
162
  8
0
 39
7.5150300599999991
 10
69.768329539437929
 20
75.88918165698442
 30
0.0
 11
69.098556684005672
 21
74.937526271769428
 31
0.0
  0
LINE
  5
163
  8
0
 39
7.5150300599999991
 10
69.098556684005672
 20
74.937526271769428
 30
0.0
 11
68.415265933389918
 21
74.001958644052635
 31
0.0
  0
LINE
  5
164
  8
0
 39
7.5150300599999991
 10
68.415265933389918
 20
74.001958644052635
 30
0.0
 11
67.719320952644864
 21
73.084288511622333
 31
0.0
  0
LINE
  5
165
  8
0
 39
7.5150300599999991
 10
67.719320952644864
 20
73.084288511622333
 30
0.0
 11
67.012155892715668
 21
72.18681479793328
 31
0.0
  0
LINE
  5
166
  8
0
 39
7.5150300599999991
 10
67.012155892715668
 20
72.18681479793328
 30
0.0
 11
66.294927874683793
 21
71.311282089848589
 31
0.0
  0
LINE
  5
167
  8
0
 39
7.5150300599999991
 10
66.294927874683793
 20
71.311282089848589
 30
0.0
 11
65.569429656446601
 21
70.460217615924932
 31
0.0
  0
LINE
  5
168
  8
0
 39
7.5150300599999991
 10
65.569429656446601
 20
70.460217615924932
 30
0.0
 11
64.835986992629998
 21
69.635088656297739
 31
0.0
  0
LINE
  5
169
  8
0
 39
7.5150300599999991
 10
64.835986992629998
 20
69.635088656297739
 30
0.0
 11
64.096865400634698
 21
68.838471441149395
 31
0.0
  0
LINE
  5
16A
  8
0
 39
7.5150300599999991
 10
64.096865400634698
 20
68.838471441149395
 30
0.0
 11
63.35274924203874
 21
68.072061555717255
 31
0.0
  0
LINE
  5
16B
  8
0
 39
7.5150300599999991
 10
63.35274924203874
 20
68.072061555717255
 30
0.0
 11
62.605251971263549
 21
67.338272076007044
 31
0.0
  0
LINE
  5
16C
  8
0
 39
7.5150300599999991
 10
62.605251971263549
 20
67.338272076007044
 30
0.0
 11
61.855204677900751
 21
66.638766011793507
 31
0.0
  0
LINE
  5
16D
  8
0
 39
7.5150300599999991
 10
61.855204677900751
 20
66.638766011793507
 30
0.0
 11
61.104367544385227
 21
65.975923863619769
 31
0.0
  0
LINE
  5
16E
  8
0
 39
7.5150300599999991
 10
61.104367544385227
 20
65.975923863619769
 30
0.0
 11
60.353636811233812
 21
65.351702097287628
 31
0.0
  0
LINE
  5
16F
  8
0
 39
7.5150300599999991
 10
60.353636811233812
 20
65.351702097287628
 30
0.0
 11
59.604854237969782
 21
64.768155181850531
 31
0.0
  0
LINE
  5
2D1
  8
0
 10
80.604854237969775
 20
79.768155181850531
 30
0.0
 11
80.604854237969775
 21
72.768155181850531
 31
0.0
  0
LINE
  5
2D2
  8
0
 10
74.604854237969775
 20
72.768155181850531
 30
0.0
 11
74.604854237969775
 21
68.768155181850531
 31
0.0
  0
LINE
  5
2D6
  8
0
 10
84.604854237969775
 20
64.768155181850531
 30
0.0
 11
59.604854237969782
 21
64.768155181850531
 31
0.0
  0
LINE
  5
2D9
  8
0
 10
74.604854237969775
 20
72.768155181850531
 30
0.0
 11
84.604854237969775
 21
72.768155181850531
 31
0.0
  0
LINE
  5
2E6
  8
0
 10
70.234903624442595
 20
68.768155181850517
 30
0.0
 11
84.604854237969775
 21
68.768155181850531
 31
0.0
  0
LINE
  5
3CD
  8
0
 10
73.7894082271484
 20
79.768155181850531
 30
0.0
 11
84.604854237969775
 21
79.768155181850531
 31
0.0
  0
LINE
  5
3E9
  8
1
 10
84.604854237969775
 20
80.268155181850531
 30
0.0
 11
84.604854237969775
 21
64.268155181850531
 31
0.0
  0
LINE
  5
3EA
  8
0
 39
7.5150300599999991
 10
98.974804851496941
 20
68.768155181850531
 30
0.0
 11
101.13146267579221
 21
67.56026295845372
 31
0.0
  0
LINE
  5
3EB
  8
0
 39
7.5150300599999991
 10
95.420300248791094
 20
79.768155181850545
 30
0.0
 11
95.605198986016859
 21
79.726666574179646
 31
0.0
  0
LINE
  5
3EC
  8
0
 39
7.5150300599999991
 10
108.92578167585231
 20
64.867115945502377
 30
0.0
 11
109.42715350695551
 21
64.768155181850531
 31
0.0
  0
LINE
  5
3ED
  8
0
 39
7.5150300599999991
 10
108.85607166470569
 20
65.351702097287628
 30
0.0
 11
109.6048542379697
 21
64.768155181850531
 31
0.0
  0
LINE
  5
3EE
  8
0
 39
7.5150300599999991
 10
108.1053409315543
 20
65.975923863619769
 30
0.0
 11
108.85607166470569
 21
65.351702097287628
 31
0.0
  0
LINE
  5
3EF
  8
0
 39
7.5150300599999991
 10
107.35450379803871
 20
66.638766011793507
 30
0.0
 11
108.1053409315543
 21
65.975923863619769
 31
0.0
  0
LINE
  5
3F0
  8
0
 39
7.5150300599999991
 10
106.60445650467599
 20
67.338272076007044
 30
0.0
 11
107.35450379803871
 21
66.638766011793507
 31
0.0
  0
LINE
  5
3F1
  8
0
 39
7.5150300599999991
 10
105.8569592339008
 20
68.072061555717255
 30
0.0
 11
106.60445650467599
 21
67.338272076007044
 31
0.0
  0
LINE
  5
3F2
  8
0
 39
7.5150300599999991
 10
105.1128430753048
 20
68.838471441149395
 30
0.0
 11
105.8569592339008
 21
68.072061555717255
 31
0.0
  0
LINE
  5
3F3
  8
0
 39
7.5150300599999991
 10
104.3737214833095
 20
69.635088656297739
 30
0.0
 11
105.1128430753048
 21
68.838471441149395
 31
0.0
  0
LINE
  5
3F4
  8
0
 39
7.5150300599999991
 10
103.64027881949291
 20
70.460217615924932
 30
0.0
 11
104.3737214833095
 21
69.635088656297739
 31
0.0
  0
LINE
  5
3F5
  8
0
 39
7.5150300599999991
 10
102.9147806012557
 20
71.311282089848589
 30
0.0
 11
103.64027881949291
 21
70.460217615924932
 31
0.0
  0
LINE
  5
3F6
  8
0
 39
7.5150300599999991
 10
102.1975525832238
 20
72.18681479793328
 30
0.0
 11
102.9147806012557
 21
71.311282089848589
 31
0.0
  0
LINE
  5
3F7
  8
0
 39
7.5150300599999991
 10
101.4903875232946
 20
73.084288511622333
 30
0.0
 11
102.1975525832238
 21
72.18681479793328
 31
0.0
  0
LINE
  5
3F8
  8
0
 39
7.5150300599999991
 10
100.7944425425496
 20
74.001958644052635
 30
0.0
 11
101.4903875232946
 21
73.084288511622333
 31
0.0
  0
LINE
  5
3F9
  8
0
 39
7.5150300599999991
 10
100.11115179193381
 20
74.937526271769428
 30
0.0
 11
100.7944425425496
 21
74.001958644052635
 31
0.0
  0
LINE
  5
3FA
  8
0
 39
7.5150300599999991
 10
99.441378936501636
 20
75.88918165698442
 30
0.0
 11
100.11115179193381
 21
74.937526271769428
 31
0.0
  0
LINE
  5
3FB
  8
0
 39
7.5150300599999991
 10
98.786998311238804
 20
76.854723602630685
 30
0.0
 11
99.441378936501636
 21
75.88918165698442
 31
0.0
  0
LINE
  5
3FC
  8
0
 39
7.5150300599999991
 10
98.148580125172515
 20
77.832277219994694
 30
0.0
 11
98.786998311238804
 21
76.854723602630685
 31
0.0
  0
LINE
  5
3FD
  8
0
 39
7.5150300599999991
 10
98.148580125172515
 20
77.832277219994694
 30
0.0
 11
98.148580125172515
 21
77.832277219994694
 31
0.0
  0
LINE
  5
3FE
  8
0
 39
7.5150300599999991
 10
97.950695717237863
 20
78.128596383027244
 30
0.0
 11
98.148580125172515
 21
77.832277219994694
 31
0.0
  0
LINE
  5
3FF
  8
0
 39
7.5150300599999991
 10
97.740791331671019
 20
78.39930689384444
 30
0.0
 11
97.950695717237863
 21
78.128596383027244
 31
0.0
  0
LINE
  5
400
  8
0
 39
7.5150300599999991
 10
97.51865508953324
 20
78.644669633010849
 30
0.0
 11
97.740791331671019
 21
78.39930689384444
 31
0.0
  0
LINE
  5
401
  8
0
 39
7.5150300599999991
 10
97.284173115137307
 20
78.865891000097335
 30
0.0
 11
97.51865508953324
 21
78.644669633010849
 31
0.0
  0
LINE
  5
402
  8
0
 39
7.5150300599999991
 10
97.037280257558152
 20
79.063264451131047
 30
0.0
 11
97.284173115137307
 21
78.865891000097335
 31
0.0
  0
LINE
  5
403
  8
0
 39
7.5150300599999991
 10
96.777357306142775
 20
79.238192115322207
 30
0.0
 11
97.037280257558152
 21
79.063264451131047
 31
0.0
  0
LINE
  5
404
  8
0
 39
7.5150300599999991
 10
96.504485837979601
 20
79.391000024160462
 30
0.0
 11
96.777357306142775
 21
79.238192115322207
 31
0.0
  0
LINE
  5
405
  8
0
 39
7.5150300599999991
 10
96.218079217878184
 20
79.522943578842586
 30
0.0
 11
96.504485837979601
 21
79.391000024160462
 31
0.0
  0
LINE
  5
406
  8
0
 39
7.5150300599999991
 10
95.918659206967632
 20
79.634446537245992
 30
0.0
 11
96.218079217878184
 21
79.522943578842586
 31
0.0
  0
LINE
  5
407
  8
0
 39
7.5150300599999991
 10
95.605198986016859
 20
79.726666574179646
 30
0.0
 11
95.918659206967632
 21
79.634446537245992
 31
0.0
  0
LINE
  5
408
  8
0
 39
7.5150300599999991
 10
108.2732565490269
 20
65.001838847400847
 30
0.0
 11
108.92578167585231
 21
64.867115945502377
 31
0.0
  0
LINE
  5
409
  8
0
 39
7.5150300599999991
 10
107.6515267714272
 20
65.137240296737303
 30
0.0
 11
108.2732565490269
 21
65.001838847400847
 31
0.0
  0
LINE
  5
40A
  8
0
 39
7.5150300599999991
 10
107.0565009385648
 20
65.275799074170237
 30
0.0
 11
107.6515267714272
 21
65.137240296737303
 31
0.0
  0
LINE
  5
40B
  8
0
 39
7.5150300599999991
 10
106.4846091302165
 20
65.419032015188478
 30
0.0
 11
107.0565009385648
 21
65.275799074170237
 31
0.0
  0
LINE
  5
40C
  8
0
 39
7.5150300599999991
 10
105.9311730298397
 20
65.569287598600184
 30
0.0
 11
106.4846091302165
 21
65.419032015188478
 31
0.0
  0
LINE
  5
40D
  8
0
 39
7.5150300599999991
 10
105.3927368697622
 20
65.728261963370301
 30
0.0
 11
105.9311730298397
 21
65.569287598600184
 31
0.0
  0
LINE
  5
40E
  8
0
 39
7.5150300599999991
 10
104.8644756054279
 20
65.898271012844475
 30
0.0
 11
105.3927368697622
 21
65.728261963370301
 31
0.0
  0
LINE
  5
40F
  8
0
 39
7.5150300599999991
 10
104.34355295668119
 20
66.08099445982441
 30
0.0
 11
104.8644756054279
 21
65.898271012844475
 31
0.0
  0
LINE
  5
410
  8
0
 39
7.5150300599999991
 10
103.8249971509526
 20
66.278715632193098
 30
0.0
 11
104.34355295668119
 21
66.08099445982441
 31
0.0
  0
LINE
  5
411
  8
0
 39
7.5150300599999991
 10
103.3051731170937
 20
66.493244821466476
 30
0.0
 11
103.8249971509526
 21
66.278715632193098
 31
0.0
  0
LINE
  5
412
  8
0
 39
7.5150300599999991
 10
102.7797611455142
 20
66.726702201350804
 30
0.0
 11
103.3051731170937
 21
66.493244821466476
 31
0.0
  0
LINE
  5
413
  8
0
 39
7.5150300599999991
 10
102.2451587405283
 20
66.980751335348415
 30
0.0
 11
102.7797611455142
 21
66.726702201350804
 31
0.0
  0
LINE
  5
414
  8
0
 39
7.5150300599999991
 10
101.6970626187089
 20
67.258131884682385
 30
0.0
 11
102.2451587405283
 21
66.980751335348415
 31
0.0
  0
LINE
  5
415
  8
0
 39
7.5150300599999991
 10
101.13146267579221
 20
67.56026295845372
 30
0.0
 11
101.6970626187089
 21
67.258131884682385
 31
0.0
  0
LINE
  5
416
  8
0
 10
98.974804851496955
 20
68.768155181850517
 30
0.0
 11
84.604854237969775
 21
68.768155181850531
 31
0.0
  0
LINE
  5
417
  8
0
 10
95.420300248791165
 20
79.768155181850531
 30
0.0
 11
84.604854237969775
 21
79.768155181850531
 31
0.0
  0
LINE
  5
418
  8
0
 10
94.604854237969775
 20
72.768155181850531
 30
0.0
 11
84.604854237969775
 21
72.768155181850531
 31
0.0
  0
LINE
  5
419
  8
0
 10
84.604854237969775
 20
64.768155181850531
 30
0.0
 11
109.6048542379697
 21
64.768155181850531
 31
0.0
  0
LINE
  5
41A
  8
0
 10
94.604854237969775
 20
72.768155181850531
 30
0.0
 11
94.604854237969775
 21
68.768155181850531
 31
0.0
  0
LINE
  5
41B
  8
0
 10
88.604854237969775
 20
79.768155181850531
 30
0.0
 11
88.604854237969775
 21
72.768155181850531
 31
0.0
  0
LINE
  5
422
  8
2
 10
73.304854237969778
 20
80.168155181850537
 30
0.0
 11
72.904854237969772
 21
80.168155181850537
 31
0.0
  0
LINE
  5
424
  8
2
 10
73.104854237969775
 20
79.968155181850534
 30
0.0
 11
73.104854237969775
 21
80.36815518185054
 31
0.0
  0
LINE
  5
42C
  8
2
 10
96.104854237969775
 20
79.968155181850534
 30
0.0
 11
96.104854237969775
 21
80.36815518185054
 31
0.0
  0
LINE
  5
42D
  8
2
 10
95.904854237969772
 20
80.168155181850537
 30
0.0
 11
96.304854237969778
 21
80.168155181850537
 31
0.0
  0
DIMENSION
  5
42F
  8
2
  2
*D1
 10
88.604854237969775
 20
86.591519843229406
 30
0.0
 11
84.604854237969775
 21
88.466519843229406
 31
0.0
 70
     0
  1
%%c<>
 13
80.604854237969775
 23
79.768155181850531
 33
0.0
 14
88.604854237969775
 24
79.768155181850531
 34
0.0
1001
ACAD
1000
DSTYLE
1002
{
1070
   271
1070
     6
1002
}
  0
DIMENSION
  5
43C
  8
2
  2
*D2
 10
94.604854237969775
 20
91.074924586080826
 30
0.0
 11
84.604854237969775
 21
92.949924586080826
 31
0.0
 70
     0
  1
%%c<>
 13
74.604854237969775
 23
72.768155181850531
 33
0.0
 14
94.604854237969775
 24
72.768155181850531
 34
0.0
1001
ACAD
1000
DSTYLE
1002
{
1070
   271
1070
     6
1002
}
  0
DIMENSION
  5
449
  8
2
  2
*D3
 10
96.104854237969775
 20
95.645934400846116
 30
0.0
 11
84.604854237969775
 21
97.520934400846144
 31
0.0
 70
     0
  1
%%c<>
 13
73.104854237969775
 23
80.168155181850537
 33
0.0
 14
96.104854237969775
 24
80.168155181850537
 34
0.0
1001
ACAD
1000
DSTYLE
1002
{
1070
   271
1070
     6
1002
}
  0
DIMENSION
  5
457
  8
2
  2
*D4
 10
114.8018173631795
 20
72.768155181850517
 30
0.0
 11
112.9268173631794
 21
76.268155181850545
 31
0.0
 70
     0
 13
94.604854237969775
 23
79.768155181850531
 33
0.0
 14
94.604854237969775
 24
72.768155181850531
 34
0.0
 50
90.0
1001
ACAD
1000
DSTYLE
1002
{
1070
   271
1070
     6
1002
}
  0
DIMENSION
  5
464
  8
2
  2
*D5
 10
120.01648458218691
 20
64.768155181850531
 30
0.0
 11
118.14148458218691
 21
72.268155181850531
 31
0.0
 70
     0
 13
94.604854237969775
 23
79.768155181850531
 33
0.0
 14
109.6048542379697
 24
64.768155181850531
 34
0.0
 50
90.0
1001
ACAD
1000
DSTYLE
1002
{
1070
   271
1070
     6
1002
}
  0
DIMENSION
  5
473
  8
2
  2
*D6
 10
109.6048542379697
 20
57.859604685348131
 30
0.0
 11
84.604854237969761
 21
59.734604685348131
 31
0.0
 70
     0
  1
%%c<>
 13
59.604854237969782
 23
64.768155181850531
 33
0.0
 14
109.6048542379697
 24
64.768155181850531
 34
0.0
1001
ACAD
1000
DSTYLE
1002
{
1070
   271
1070
     6
1002
}
  0
DIMENSION
  5
480
  8
2
  2
*D7
 10
51.419867166260921
 20
68.768155181850531
 30
0.0
 11
49.544867166260921
 21
66.768155181850545
 31
0.0
 70
     0
 13
59.604854237969782
 23
64.768155181850531
 33
0.0
 14
70.234903624442609
 24
68.768155181850531
 34
0.0
 50
90.0
1001
ACAD
1000
DSTYLE
1002
{
1070
   271
1070
     6
1002
}
  0
ENDSEC
  0
EOF
