  0
SECTION
  2
HEADER
  9
$ACADVER
  1
AC1009
  9
$INSBASE
 10
0.0
 20
0.0
 30
0.0
  9
$EXTMIN
 10
58.65054665740427
 20
26.19339289630355
 30
0.0
  9
$EXTMAX
 10
160.89754456004911
 20
89.19252641867331
 30
8.3153191930003505
  9
$LIMMIN
 10
0.0
 20
0.0
  9
$LIMMAX
 10
420.0
 20
297.0
  9
$ORTHOMODE
 70
     0
  9
$REGENMODE
 70
     1
  9
$FILLMODE
 70
     1
  9
$QTEXTMODE
 70
     0
  9
$MIRRTEXT
 70
     1
  9
$DRAGMODE
 70
     2
  9
$LTSCALE
 40
0.3
  9
$OSMODE
 70
    37
  9
$ATTMODE
 70
     1
  9
$TEXTSIZE
 40
2.5
  9
$TRACEWID
 40
1.0
  9
$TEXTSTYLE
  7
STANDARD
  9
$CLAYER
  8
2
  9
$CELTYPE
  6
BYLAYER
  9
$CECOLOR
 62
   256
  9
$DIMSCALE
 40
1.0
  9
$DIMASZ
 40
2.5
  9
$DIMEXO
 40
0.625
  9
$DIMDLI
 40
3.75
  9
$DIMRND
 40
0.0
  9
$DIMDLE
 40
0.0
  9
$DIMEXE
 40
1.25
  9
$DIMTP
 40
0.0
  9
$DIMTM
 40
0.0
  9
$DIMTXT
 40
2.5
  9
$DIMCEN
 40
2.5
  9
$DIMTSZ
 40
0.0
  9
$DIMTOL
 70
     0
  9
$DIMLIM
 70
     0
  9
$DIMTIH
 70
     0
  9
$DIMTOH
 70
     0
  9
$DIMSE1
 70
     0
  9
$DIMSE2
 70
     0
  9
$DIMTAD
 70
     1
  9
$DIMZIN
 70
     8
  9
$DIMBLK
  1

  9
$DIMASO
 70
     1
  9
$DIMSHO
 70
     1
  9
$DIMPOST
  1

  9
$DIMAPOST
  1

  9
$DIMALT
 70
     0
  9
$DIMALTD
 70
     3
  9
$DIMALTF
 40
0.03937007874016
  9
$DIMLFAC
 40
1.0
  9
$DIMTOFL
 70
     1
  9
$DIMTVP
 40
0.0
  9
$DIMTIX
 70
     0
  9
$DIMSOXD
 70
     0
  9
$DIMSAH
 70
     0
  9
$DIMBLK1
  1

  9
$DIMBLK2
  1

  9
$DIMSTYLE
  2
ISO-25
  9
$DIMCLRD
 70
     0
  9
$DIMCLRE
 70
     0
  9
$DIMCLRT
 70
     0
  9
$DIMTFAC
 40
1.0
  9
$DIMGAP
 40
0.625
  9
$LUNITS
 70
     2
  9
$LUPREC
 70
     4
  9
$SKETCHINC
 40
1.0
  9
$FILLETRAD
 40
10.0
  9
$AUNITS
 70
     0
  9
$AUPREC
 70
     0
  9
$MENU
  1
.
  9
$ELEVATION
 40
0.0
  9
$PELEVATION
 40
0.0
  9
$THICKNESS
 40
0.0
  9
$LIMCHECK
 70
     0
  9
$BLIPMODE
 70
     0
  9
$CHAMFERA
 40
10.0
  9
$CHAMFERB
 40
10.0
  9
$SKPOLY
 70
     0
  9
$TDCREATE
 40
2453436.9989488311
  9
$TDUPDATE
 40
2453551.9022555789
  9
$TDINDWG
 40
0.0390733333
  9
$TDUSRTIMER
 40
0.0390732176
  9
$USRTIMER
 70
     1
  9
$ANGBASE
 50
0.0
  9
$ANGDIR
 70
     0
  9
$PDMODE
 70
     0
  9
$PDSIZE
 40
0.0
  9
$PLINEWID
 40
0.0
  9
$COORDS
 70
     1
  9
$SPLFRAME
 70
     0
  9
$SPLINETYPE
 70
     6
  9
$SPLINESEGS
 70
     8
  9
$ATTDIA
 70
     0
  9
$ATTREQ
 70
     1
  9
$HANDLING
 70
-16383
  9
$HANDSEED
  5
485
  9
$SURFTAB1
 70
     6
  9
$SURFTAB2
 70
     6
  9
$SURFTYPE
 70
     6
  9
$SURFU
 70
     6
  9
$SURFV
 70
     6
  9
$UCSNAME
  2

  9
$UCSORG
 10
0.0
 20
0.0
 30
0.0
  9
$UCSXDIR
 10
1.0
 20
0.0
 30
0.0
  9
$UCSYDIR
 10
0.0
 20
1.0
 30
0.0
  9
$PUCSNAME
  2

  9
$PUCSORG
 10
0.0
 20
0.0
 30
0.0
  9
$PUCSXDIR
 10
1.0
 20
0.0
 30
0.0
  9
$PUCSYDIR
 10
0.0
 20
1.0
 30
0.0
  9
$USERI1
 70
     0
  9
$USERI2
 70
     0
  9
$USERI3
 70
     0
  9
$USERI4
 70
     0
  9
$USERI5
 70
     0
  9
$USERR1
 40
0.0
  9
$USERR2
 40
0.0
  9
$USERR3
 40
0.0
  9
$USERR4
 40
0.0
  9
$USERR5
 40
0.0
  9
$WORLDVIEW
 70
     1
  9
$SHADEDGE
 70
     3
  9
$SHADEDIF
 70
    70
  9
$TILEMODE
 70
     1
  9
$MAXACTVP
 70
    64
  9
$PLIMCHECK
 70
     0
  9
$PEXTMIN
 10
1.0000000000000000E+020
 20
1.0000000000000000E+020
 30
1.0000000000000000E+020
  9
$PEXTMAX
 10
-1.0000000000000000E+020
 20
-1.0000000000000000E+020
 30
-1.0000000000000000E+020
  9
$PLIMMIN
 10
0.0
 20
0.0
  9
$PLIMMAX
 10
420.0
 20
297.0
  9
$UNITMODE
 70
     0
  9
$VISRETAIN
 70
     1
  9
$PLINEGEN
 70
     0
  9
$PSLTSCALE
 70
     1
  0
ENDSEC
  0
SECTION
  2
TABLES
  0
TABLE
  2
VPORT
 70
     2
  0
VPORT
  2
*ACTIVE
 70
     0
 10
0.0
 20
0.0
 11
1.0
 21
1.0
 12
149.79970643531311
 22
49.556914421133733
 13
0.0
 23
0.0
 14
10.0
 24
10.0
 15
10.0
 25
10.0
 16
0.0
 26
0.0
 36
1.0
 17
0.0
 27
0.0
 37
0.0
 40
92.704526271308083
 41
2.5392405063291141
 42
50.0
 43
0.0
 44
0.0
 50
0.0
 51
0.0
 71
     0
 72
   100
 73
     1
 74
     3
 75
     0
 76
     0
 77
     0
 78
     0
  0
ENDTAB
  0
TABLE
  2
LTYPE
 70
     2
  0
LTYPE
  2
CONTINUOUS
 70
     0
  3
Solid line
 72
    65
 73
     0
 40
0.0
  0
LTYPE
  2
CENTER
 70
     0
  3
Center ____ _ ____ _ ____ _ ____ _ ____ _ ____
 72
    65
 73
     4
 40
50.799999999999997
 49
31.75
 49
-6.3499999999999988
 49
6.3499999999999988
 49
-6.3499999999999988
  0
ENDTAB
  0
TABLE
  2
LAYER
 70
     4
  0
LAYER
  2
0
 70
     0
 62
     7
  6
CONTINUOUS
  0
LAYER
  2
1
 70
     0
 62
     7
  6
CENTER
  0
LAYER
  2
DEFPOINTS
 70
     0
 62
     7
  6
CONTINUOUS
  0
LAYER
  2
2
 70
     0
 62
     7
  6
CONTINUOUS
  0
ENDTAB
  0
TABLE
  2
STYLE
 70
     3
  0
STYLE
  2
STANDARD
 70
     0
 40
0.0
 41
1.0
 50
0.0
 71
     0
 42
2.5
  3
txt
  4

  0
STYLE
  2
\U+00C9L\U+00C9R_\U+00C2S\U+00C2V\U+00C2B\U+00C2N
 70
     0
 40
1.0
 41
1.0
 50
0.0
 71
     0
 42
1.0
  3
\U+00E9l\U+00E9r \U+00E2S\U+00E2V\U+00E2b\U+00E2N
  4

  0
STYLE
  2

 70
     1
 40
0.0
 41
1.0
 50
0.0
 71
     0
 42
2.5
  3
ltypeshp.shx
  4

  0
ENDTAB
  0
TABLE
  2
VIEW
 70
     0
  0
ENDTAB
  0
TABLE
  2
UCS
 70
     0
  0
ENDTAB
  0
TABLE
  2
APPID
 70
     1
  0
APPID
  2
ACAD
 70
     0
  0
ENDTAB
  0
TABLE
  2
DIMSTYLE
 70
     2
  0
DIMSTYLE
  2
ISO-25
 70
     0
  3

  4

  5

  6

  7

 40
1.0
 41
2.5
 42
0.625
 43
3.75
 44
1.25
 45
0.0
 46
0.0
 47
0.0
 48
0.0
140
2.5
141
2.5
142
0.0
143
0.03937007874016
144
1.0
145
0.0
146
1.0
147
0.625
 71
     0
 72
     0
 73
     0
 74
     0
 75
     0
 76
     0
 77
     1
 78
     8
170
     0
171
     3
172
     1
173
     0
174
     0
175
     0
176
     0
177
     0
178
     0
  0
DIMSTYLE
  2
STANDARD
 70
     0
  3

  4

  5

  6

  7

 40
1.0
 41
0.18
 42
0.0625
 43
0.38
 44
0.18
 45
0.0
 46
0.0
 47
0.0
 48
0.0
140
0.18
141
0.09
142
0.0
143
25.399999999999999
144
1.0
145
0.0
146
1.0
147
0.09
 71
     0
 72
     0
 73
     1
 74
     1
 75
     0
 76
     0
 77
     0
 78
     0
170
     0
171
     2
172
     0
173
     0
174
     0
175
     0
176
     0
177
     0
178
     0
  0
ENDTAB
  0
ENDSEC
  0
SECTION
  2
BLOCKS
  0
BLOCK
  8
0
  2
$MODEL_SPACE
 70
     0
 10
0.0
 20
0.0
 30
0.0
  3
$MODEL_SPACE
  1

  0
ENDBLK
  5
21
  8
0
  0
BLOCK
 67
     1
  8
0
  2
$PAPER_SPACE
 70
     0
 10
0.0
 20
0.0
 30
0.0
  3
$PAPER_SPACE
  1

  0
ENDBLK
  5
1D
 67
     1
  8
0
  0
BLOCK
  8
0
  2
*D1
 70
     1
 10
0.0
 20
0.0
 30
0.0
  3
*D1
  1

  0
LINE
  5
424
  8
2
 62
     0
 10
90.150546657404277
 20
74.771743801290995
 30
0.0
 11
90.150546657404277
 21
82.468996435149137
 31
0.0
  0
LINE
  5
425
  8
2
 62
     0
 10
107.15054665740421
 20
74.771743801290995
 30
0.0
 11
107.15054665740421
 21
82.468996435149137
 31
0.0
  0
LINE
  5
426
  8
2
 62
     0
 10
92.650546657404277
 20
81.218996435149137
 30
0.0
 11
104.65054665740421
 21
81.218996435149137
 31
0.0
  0
SOLID
  5
427
  8
2
 62
     0
 10
92.650546657404277
 20
81.635663101815808
 30
0.0
 11
92.650546657404277
 21
80.802329768482466
 31
0.0
 12
90.150546657404277
 22
81.218996435149137
 32
0.0
 13
90.150546657404277
 23
81.218996435149137
 33
0.0
  0
SOLID
  5
428
  8
2
 62
     0
 10
104.65054665740421
 20
81.635663101815808
 30
0.0
 11
104.65054665740421
 21
80.802329768482466
 31
0.0
 12
107.15054665740421
 22
81.218996435149137
 32
0.0
 13
107.15054665740421
 23
81.218996435149137
 33
0.0
  0
INSERT
  5
429
  8
2
  2
*U8
 10
0.0
 20
0.0
 30
0.0
  0
POINT
  5
42A
  8
DEFPOINTS
 62
     0
 10
90.150546657404277
 20
74.146743801290995
 30
0.0
  0
POINT
  5
42B
  8
DEFPOINTS
 62
     0
 10
107.15054665740421
 20
74.146743801290995
 30
0.0
  0
POINT
  5
42C
  8
DEFPOINTS
 62
     0
 10
107.15054665740421
 20
81.218996435149137
 30
0.0
  0
ENDBLK
  5
3D4
  8
0
  0
BLOCK
  8
0
  2
*D2
 70
     1
 10
0.0
 20
0.0
 30
0.0
  3
*D2
  1

  0
LINE
  5
41B
  8
2
 62
     0
 10
72.150546657404277
 20
74.771743801290995
 30
0.0
 11
72.150546657404277
 21
87.31752641867331
 31
0.0
  0
LINE
  5
41C
  8
2
 62
     0
 10
125.15054665740421
 20
74.771743801290995
 30
0.0
 11
125.15054665740421
 21
87.31752641867331
 31
0.0
  0
LINE
  5
41D
  8
2
 62
     0
 10
74.650546657404277
 20
86.06752641867331
 30
0.0
 11
122.65054665740421
 21
86.06752641867331
 31
0.0
  0
SOLID
  5
41E
  8
2
 62
     0
 10
74.650546657404277
 20
86.484193085339982
 30
0.0
 11
74.650546657404277
 21
85.650859752006639
 31
0.0
 12
72.150546657404277
 22
86.06752641867331
 32
0.0
 13
72.150546657404277
 23
86.06752641867331
 33
0.0
  0
SOLID
  5
41F
  8
2
 62
     0
 10
122.65054665740421
 20
86.484193085339982
 30
0.0
 11
122.65054665740421
 21
85.650859752006639
 31
0.0
 12
125.15054665740421
 22
86.06752641867331
 32
0.0
 13
125.15054665740421
 23
86.06752641867331
 33
0.0
  0
INSERT
  5
420
  8
2
  2
*U7
 10
0.0
 20
0.0
 30
0.0
  0
POINT
  5
421
  8
DEFPOINTS
 62
     0
 10
72.150546657404277
 20
74.146743801290995
 30
0.0
  0
POINT
  5
422
  8
DEFPOINTS
 62
     0
 10
125.15054665740421
 20
74.146743801290995
 30
0.0
  0
POINT
  5
423
  8
DEFPOINTS
 62
     0
 10
125.15054665740421
 20
86.06752641867331
 30
0.0
  0
ENDBLK
  5
3E1
  8
0
  0
BLOCK
  8
0
  2
*D3
 70
     1
 10
0.0
 20
0.0
 30
0.0
  3
*D3
  1

  0
LINE
  5
3E4
  8
2
 62
     0
 10
123.1321974221222
 20
74.146743801290995
 30
0.0
 11
150.44551807171499
 21
74.146743801290995
 31
0.0
  0
LINE
  5
3E5
  8
2
 62
     0
 10
118.13153076583571
 20
72.146743801290995
 30
0.0
 11
150.44551807171499
 21
72.146743801290995
 31
0.0
  0
LINE
  5
3E6
  8
2
 62
     0
 10
149.19551807171499
 20
76.646743801290995
 30
0.0
 11
149.19551807171499
 21
79.146743801290995
 31
0.0
  0
LINE
  5
3E7
  8
2
 62
     0
 10
149.19551807171499
 20
69.646743801290995
 30
0.0
 11
149.19551807171499
 21
64.230077134624324
 31
0.0
  0
LINE
  5
3E8
  8
2
 62
     0
 10
149.19551807171499
 20
74.146743801290995
 30
0.0
 11
149.19551807171499
 21
72.146743801290995
 31
0.0
  0
SOLID
  5
3E9
  8
2
 62
     0
 10
148.7788514050483
 20
76.646743801290995
 30
0.0
 11
149.61218473838159
 21
76.646743801290995
 31
0.0
 12
149.19551807171499
 22
74.146743801290995
 32
0.0
 13
149.19551807171499
 23
74.146743801290995
 33
0.0
  0
SOLID
  5
3EA
  8
2
 62
     0
 10
148.7788514050483
 20
69.646743801290995
 30
0.0
 11
149.61218473838159
 21
69.646743801290995
 31
0.0
 12
149.19551807171499
 22
72.146743801290995
 32
0.0
 13
149.19551807171499
 23
72.146743801290995
 33
0.0
  0
TEXT
  5
3EB
  8
2
 62
     0
 10
148.5705180717149
 20
64.855077134624352
 30
0.0
 40
2.5
  1
2
 50
90.0
  0
POINT
  5
3EC
  8
DEFPOINTS
 62
     0
 10
122.5071974221222
 20
74.146743801290995
 30
0.0
  0
POINT
  5
3ED
  8
DEFPOINTS
 62
     0
 10
117.50653076583571
 20
72.146743801290995
 30
0.0
  0
POINT
  5
3EE
  8
DEFPOINTS
 62
     0
 10
149.19551807171499
 20
72.146743801290995
 30
0.0
  0
ENDBLK
  5
3F0
  8
0
  0
BLOCK
  8
0
  2
*D4
 70
     1
 10
0.0
 20
0.0
 30
0.0
  3
*D4
  1

  0
LINE
  5
3F3
  8
2
 62
     0
 10
123.1321974221222
 20
74.146743801290995
 30
0.0
 11
155.86508737803209
 21
74.146743801290995
 31
0.0
  0
LINE
  5
3F4
  8
2
 62
     0
 10
124.059641428662
 20
62.146743801291002
 30
0.0
 11
155.86508737803209
 21
62.146743801290988
 31
0.0
  0
LINE
  5
3F5
  8
2
 62
     0
 10
154.61508737803209
 20
71.646743801290995
 30
0.0
 11
154.61508737803209
 21
64.646743801290995
 31
0.0
  0
SOLID
  5
3F6
  8
2
 62
     0
 10
154.19842071136549
 20
71.646743801290995
 30
0.0
 11
155.0317540446988
 21
71.646743801290995
 31
0.0
 12
154.61508737803209
 22
74.146743801290995
 32
0.0
 13
154.61508737803209
 23
74.146743801290995
 33
0.0
  0
SOLID
  5
3F7
  8
2
 62
     0
 10
154.19842071136549
 20
64.646743801290995
 30
0.0
 11
155.0317540446988
 21
64.646743801290995
 31
0.0
 12
154.61508737803209
 22
62.146743801290988
 32
0.0
 13
154.61508737803209
 23
62.146743801290988
 33
0.0
  0
TEXT
  5
3F8
  8
2
 62
     0
 10
153.99008737803209
 20
66.480077134624324
 30
0.0
 40
2.5
  1
12
 50
90.0
  0
POINT
  5
3F9
  8
DEFPOINTS
 62
     0
 10
122.5071974221222
 20
74.146743801290995
 30
0.0
  0
POINT
  5
3FA
  8
DEFPOINTS
 62
     0
 10
123.434641428662
 20
62.146743801291002
 30
0.0
  0
POINT
  5
3FB
  8
DEFPOINTS
 62
     0
 10
154.61508737803209
 20
62.146743801290988
 30
0.0
  0
ENDBLK
  5
3FD
  8
0
  0
BLOCK
  8
0
  2
*D5
 70
     1
 10
0.0
 20
0.0
 30
0.0
  3
*D5
  1

  0
LINE
  5
448
  8
2
 62
     0
 10
123.1321974221222
 20
74.146743801290995
 30
0.0
 11
160.89754456004911
 21
74.146743801290981
 31
0.0
  0
LINE
  5
449
  8
2
 62
     0
 10
138.06749708504509
 20
56.146743801290988
 30
0.0
 11
160.89754456004911
 21
56.146743801290981
 31
0.0
  0
LINE
  5
44A
  8
2
 62
     0
 10
159.64754456004911
 20
71.646743801290995
 30
0.0
 11
159.64754456004911
 21
58.646743801290981
 31
0.0
  0
SOLID
  5
44B
  8
2
 62
     0
 10
159.23087789338251
 20
71.646743801290995
 30
0.0
 11
160.0642112267158
 21
71.646743801290981
 31
0.0
 12
159.64754456004911
 22
74.146743801290995
 32
0.0
 13
159.64754456004911
 23
74.146743801290995
 33
0.0
  0
SOLID
  5
44C
  8
2
 62
     0
 10
159.2308778933824
 20
58.646743801290981
 30
0.0
 11
160.06421122671571
 21
58.646743801290981
 31
0.0
 12
159.64754456004911
 22
56.146743801290981
 32
0.0
 13
159.64754456004911
 23
56.146743801290981
 33
0.0
  0
TEXT
  5
44D
  8
2
 62
     0
 10
159.02254456004911
 20
63.480077134624338
 30
0.0
 40
2.5
  1
18
 50
90.0
  0
POINT
  5
44E
  8
DEFPOINTS
 62
     0
 10
122.5071974221222
 20
74.146743801290995
 30
0.0
  0
POINT
  5
44F
  8
DEFPOINTS
 62
     0
 10
137.44249708504509
 20
56.146743801290988
 30
0.0
  0
POINT
  5
450
  8
DEFPOINTS
 62
     0
 10
159.64754456004911
 20
56.146743801290981
 30
0.0
  0
ENDBLK
  5
40B
  8
0
  0
BLOCK
  8
0
  2
*D6
 70
     1
 10
0.0
 20
0.0
 30
0.0
  3
*D6
  1

  0
LINE
  5
43F
  8
2
 62
     0
 10
58.65054665740427
 20
56.394187091020598
 30
0.0
 11
58.65054665740427
 21
44.622522528866106
 31
0.0
  0
LINE
  5
440
  8
2
 62
     0
 10
138.65054665740419
 20
56.394187091020598
 30
0.0
 11
138.65054665740419
 21
44.622522528866106
 31
0.0
  0
LINE
  5
441
  8
2
 62
     0
 10
61.15054665740427
 20
45.872522528866106
 30
0.0
 11
136.15054665740419
 21
45.872522528866106
 31
0.0
  0
SOLID
  5
442
  8
2
 62
     0
 10
61.15054665740427
 20
46.289189195532771
 30
0.0
 11
61.15054665740427
 21
45.455855862199449
 31
0.0
 12
58.65054665740427
 22
45.872522528866106
 32
0.0
 13
58.65054665740427
 23
45.872522528866106
 33
0.0
  0
SOLID
  5
443
  8
2
 62
     0
 10
136.15054665740419
 20
46.289189195532771
 30
0.0
 11
136.15054665740419
 21
45.455855862199449
 31
0.0
 12
138.65054665740419
 22
45.872522528866106
 32
0.0
 13
138.65054665740419
 23
45.872522528866106
 33
0.0
  0
INSERT
  5
444
  8
2
  2
*U9
 10
0.0
 20
0.0
 30
0.0
  0
POINT
  5
445
  8
DEFPOINTS
 62
     0
 10
58.65054665740427
 20
57.019187091020598
 30
0.0
  0
POINT
  5
446
  8
DEFPOINTS
 62
     0
 10
138.65054665740419
 20
57.019187091020598
 30
0.0
  0
POINT
  5
447
  8
DEFPOINTS
 62
     0
 10
138.65054665740419
 20
45.872522528866106
 30
0.0
  0
ENDBLK
  5
419
  8
0
  0
BLOCK
  8
0
  2
*U7
 70
     1
 10
0.0
 20
0.0
 30
0.0
  3
*U7
  1

  0
TEXT
  5
472
  8
2
 62
     0
 10
95.317213324070934
 20
86.69252641867331
 30
0.0
 40
2.5
  1
\U+2205
  0
TEXT
  5
473
  8
2
 62
     0
 10
97.817213324070934
 20
86.69252641867331
 30
0.0
 40
2.5
  1
53
  0
ENDBLK
  5
475
  8
0
  0
BLOCK
  8
0
  2
*U8
 70
     1
 10
0.0
 20
0.0
 30
0.0
  3
*U8
  1

  0
TEXT
  5
477
  8
2
 62
     0
 10
95.733879990737606
 20
81.843996435149137
 30
0.0
 40
2.5
  1
\U+2205
  0
TEXT
  5
478
  8
2
 62
     0
 10
98.233879990737606
 20
81.843996435149137
 30
0.0
 40
2.5
  1
17
  0
ENDBLK
  5
47A
  8
0
  0
BLOCK
  8
0
  2
*U9
 70
     1
 10
0.0
 20
0.0
 30
0.0
  3
*U9
  1

  0
TEXT
  5
47C
  8
2
 62
     0
 10
95.525546657404277
 20
46.497522528866106
 30
0.0
 40
2.5
  1
\U+2205
  0
TEXT
  5
47D
  8
2
 62
     0
 10
98.025546657404277
 20
46.497522528866106
 30
0.0
 40
2.5
  1
80
  0
ENDBLK
  5
47F
  8
0
  0
ENDSEC
  0
SECTION
  2
ENTITIES
  0
TEXT
  5
C7
  8
2
 10
76.917895417471186
 20
26.435292324874979
 30
0.0
 40
2.5399440000000002
  1
No. 102.080.304._
 51
-0.0000015352344868
  7
\U+00C9L\U+00C9R_\U+00C2S\U+00C2V\U+00C2B\U+00C2N
  0
LINE
  5
146
  8
0
 39
8.3153191930003505
 10
91.791239855098297
 20
66.123791231116527
 30
0.0
 11
91.791239855098297
 21
66.123791231116527
 31
0.0
  0
LINE
  5
14B
  8
0
 39
8.3153191930003505
 10
90.059325173580191
 20
63.352627956857233
 30
0.0
 11
90.059325173580191
 21
63.352627956857233
 31
0.0
  0
LINE
  5
14E
  8
0
 39
8.3153191930003505
 10
98.650546657404277
 20
63.349967054715471
 30
0.0
 11
84.610130200023193
 21
63.349967054715471
 31
0.0
  0
LINE
  5
14F
  8
0
 39
8.3153191930003505
 10
84.610130200023193
 20
63.349967054715471
 30
0.0
 11
84.610130200023164
 21
62.146743801291002
 31
0.0
  0
LINE
  5
152
  8
0
 39
8.3153191930003505
 10
73.866451886146479
 20
62.146743801291002
 30
0.0
 11
65.101737593717814
 21
59.170027553482079
 31
0.0
  0
LINE
  5
153
  8
0
 39
8.3153191930003505
 10
65.101737593717814
 20
59.170027553482079
 30
0.0
 11
65.101737593717814
 21
59.170027553482079
 31
0.0
  0
LINE
  5
154
  8
0
 39
8.3153191930003505
 10
65.101737593717814
 20
59.170027553482079
 30
0.0
 11
64.587019335671101
 21
59.049621731567427
 31
0.0
  0
LINE
  5
155
  8
0
 39
8.3153191930003505
 10
64.587019335671101
 20
59.049621731567427
 30
0.0
 11
64.108888482073553
 21
58.927053926662587
 31
0.0
  0
LINE
  5
156
  8
0
 39
8.3153191930003505
 10
64.108888482073553
 20
58.927053926662587
 30
0.0
 11
63.665016743551199
 21
58.800661074928982
 31
0.0
  0
LINE
  5
157
  8
0
 39
8.3153191930003505
 10
63.665016743551199
 20
58.800661074928982
 30
0.0
 11
63.252743217962262
 21
58.669112725295719
 31
0.0
  0
LINE
  5
158
  8
0
 39
8.3153191930003505
 10
63.252743217962262
 20
58.669112725295719
 30
0.0
 11
62.870072228700373
 21
58.53041320115647
 31
0.0
  0
LINE
  5
159
  8
0
 39
8.3153191930003505
 10
62.870072228700373
 20
58.53041320115647
 30
0.0
 11
62.51384395447225
 21
58.38356466420808
 31
0.0
  0
LINE
  5
15A
  8
0
 39
8.3153191930003505
 10
62.51384395447225
 20
58.38356466420808
 30
0.0
 11
62.182062718671538
 21
58.22657143784425
 31
0.0
  0
LINE
  5
15B
  8
0
 39
8.3153191930003505
 10
62.182062718671538
 20
58.22657143784425
 30
0.0
 11
61.871735006388768
 21
58.058269377377911
 31
0.0
  0
LINE
  5
15C
  8
0
 39
8.3153191930003505
 10
61.871735006388768
 20
58.058269377377911
 30
0.0
 11
61.581031447401458
 21
57.876829112586648
 31
0.0
  0
LINE
  5
15D
  8
0
 39
8.3153191930003505
 10
61.581031447401458
 20
57.876829112586648
 30
0.0
 11
61.306958526800152
 21
57.680920192399547
 31
0.0
  0
LINE
  5
15E
  8
0
 39
8.3153191930003505
 10
61.306958526800152
 20
57.680920192399547
 30
0.0
 11
61.047187955210852
 21
57.46904585936192
 31
0.0
  0
LINE
  5
15F
  8
0
 39
8.3153191930003505
 10
61.047187955210852
 20
57.46904585936192
 30
0.0
 11
60.798726217723967
 21
57.239709356018963
 31
0.0
  0
LINE
  5
160
  8
0
 39
8.3153191930003505
 10
60.798726217723967
 20
57.239709356018963
 30
0.0
 11
60.559910250501019
 21
56.991081312148239
 31
0.0
  0
LINE
  5
161
  8
0
 39
8.3153191930003505
 10
60.559910250501019
 20
56.991081312148239
 30
0.0
 11
60.327580232248579
 21
56.72216388944662
 31
0.0
  0
LINE
  5
162
  8
0
 39
8.3153191930003505
 10
60.327580232248579
 20
56.72216388944662
 30
0.0
 11
60.099740486360368
 21
56.430961411307749
 31
0.0
  0
LINE
  5
163
  8
0
 39
8.3153191930003505
 10
60.099740486360368
 20
56.430961411307749
 30
0.0
 11
59.895139860122093
 21
56.146743801290981
 31
0.0
  0
LINE
  5
16C
  8
0
 39
8.3153191930003505
 10
74.793895892686294
 20
74.146743801290995
 30
0.0
 11
74.343704511577243
 21
74.093858371223504
 31
0.0
  0
LINE
  5
16D
  8
0
 39
8.3153191930003505
 10
74.343704511577243
 20
74.093858371223504
 30
0.0
 11
73.947230092454987
 21
74.006381213313148
 31
0.0
  0
LINE
  5
16E
  8
0
 39
8.3153191930003505
 10
73.947230092454987
 20
74.006381213313148
 30
0.0
 11
73.60064758849073
 21
73.887804761620956
 31
0.0
  0
LINE
  5
16F
  8
0
 39
8.3153191930003505
 10
73.60064758849073
 20
73.887804761620956
 30
0.0
 11
73.299633033704112
 21
73.741954062975722
 31
0.0
  0
LINE
  5
170
  8
0
 39
8.3153191930003505
 10
73.299633033704112
 20
73.741954062975722
 30
0.0
 11
73.040527687650226
 21
73.572155245054674
 31
0.0
  0
LINE
  5
171
  8
0
 39
8.3153191930003505
 10
73.040527687650226
 20
73.572155245054674
 30
0.0
 11
72.819007584348697
 21
73.38273227383813
 31
0.0
  0
LINE
  5
172
  8
0
 39
8.3153191930003505
 10
72.819007584348697
 20
73.38273227383813
 30
0.0
 11
72.630915064203052
 21
73.176844970619427
 31
0.0
  0
LINE
  5
173
  8
0
 39
8.3153191930003505
 10
72.630915064203052
 20
73.176844970619427
 30
0.0
 11
72.472092467616704
 21
72.95848468861125
 31
0.0
  0
LINE
  5
174
  8
0
 39
8.3153191930003505
 10
72.472092467616704
 20
72.95848468861125
 30
0.0
 11
72.339047360528724
 21
72.730977555490753
 31
0.0
  0
LINE
  5
175
  8
0
 39
8.3153191930003505
 10
72.339047360528724
 20
72.730977555490753
 30
0.0
 11
72.226790551423207
 21
72.498481230854466
 31
0.0
  0
LINE
  5
176
  8
0
 39
8.3153191930003505
 10
72.226790551423207
 20
72.498481230854466
 30
0.0
 11
72.132162219006872
 21
72.264321842379573
 31
0.0
  0
LINE
  5
177
  8
0
 39
8.3153191930003505
 10
72.132162219006872
 20
72.264321842379573
 30
0.0
 11
72.050173171763873
 21
72.032657049662575
 31
0.0
  0
LINE
  5
178
  8
0
 39
8.3153191930003505
 10
72.050173171763873
 20
72.032657049662575
 30
0.0
 11
71.977663588400929
 21
71.806646673996823
 31
0.0
  0
LINE
  5
179
  8
0
 39
8.3153191930003505
 10
71.977663588400929
 20
71.806646673996823
 30
0.0
 11
71.909644277402165
 21
71.590448374978806
 31
0.0
  0
LINE
  5
17A
  8
0
 39
8.3153191930003505
 10
71.909644277402165
 20
71.590448374978806
 30
0.0
 11
71.842622804706593
 21
71.387554586669609
 31
0.0
  0
LINE
  5
17B
  8
0
 39
8.3153191930003505
 10
71.842622804706593
 20
71.387554586669609
 30
0.0
 11
71.772108897949963
 21
71.201790355897984
 31
0.0
  0
LINE
  5
17C
  8
0
 39
8.3153191930003505
 10
71.772108897949963
 20
71.201790355897984
 30
0.0
 11
71.772108897949963
 21
71.201790355897984
 31
0.0
  0
LINE
  5
17D
  8
0
 39
8.3153191930003505
 10
71.772108897949963
 20
71.201790355897984
 30
0.0
 11
71.638398565326526
 21
70.816624770878207
 31
0.0
  0
LINE
  5
17E
  8
0
 39
8.3153191930003505
 10
71.638398565326526
 20
70.816624770878207
 30
0.0
 11
71.498202283732525
 21
70.447590905092852
 31
0.0
  0
LINE
  5
17F
  8
0
 39
8.3153191930003505
 10
71.498202283732525
 20
70.447590905092852
 30
0.0
 11
71.350854827632574
 21
70.092693081935607
 31
0.0
  0
LINE
  5
180
  8
0
 39
8.3153191930003505
 10
71.350854827632574
 20
70.092693081935607
 30
0.0
 11
71.195025745955704
 21
69.750600850335545
 31
0.0
  0
LINE
  5
181
  8
0
 39
8.3153191930003505
 10
71.195025745955704
 20
69.750600850335545
 30
0.0
 11
71.03021611955046
 21
69.419651146454143
 31
0.0
  0
LINE
  5
182
  8
0
 39
8.3153191930003505
 10
71.03021611955046
 20
69.419651146454143
 30
0.0
 11
70.855261803729746
 21
69.098846131988196
 31
0.0
  0
LINE
  5
183
  8
0
 39
8.3153191930003505
 10
70.855261803729746
 20
69.098846131988196
 30
0.0
 11
70.668998653806511
 21
68.786190130331363
 31
0.0
  0
LINE
  5
184
  8
0
 39
8.3153191930003505
 10
70.668998653806511
 20
68.786190130331363
 30
0.0
 11
70.470761444245412
 21
68.480685303180536
 31
0.0
  0
LINE
  5
185
  8
0
 39
8.3153191930003505
 10
70.470761444245412
 20
68.480685303180536
 30
0.0
 11
70.259552336743184
 21
68.180169667545513
 31
0.0
  0
LINE
  5
186
  8
0
 39
8.3153191930003505
 10
70.259552336743184
 20
68.180169667545513
 30
0.0
 11
70.034373492996735
 21
67.883977997890838
 31
0.0
  0
LINE
  5
187
  8
0
 39
8.3153191930003505
 10
70.034373492996735
 20
67.883977997890838
 30
0.0
 11
69.794227074702903
 21
67.590114617610212
 31
0.0
  0
LINE
  5
188
  8
0
 39
8.3153191930003505
 10
69.794227074702903
 20
67.590114617610212
 30
0.0
 11
69.53811524355848
 21
67.297581688400456
 31
0.0
  0
LINE
  5
189
  8
0
 39
8.3153191930003505
 10
69.53811524355848
 20
67.297581688400456
 30
0.0
 11
69.265372774028066
 21
67.004217227271397
 31
0.0
  0
LINE
  5
18A
  8
0
 39
8.3153191930003505
 10
69.265372774028066
 20
67.004217227271397
 30
0.0
 11
68.974336602273056
 21
66.70918970230376
 31
0.0
  0
LINE
  5
18B
  8
0
 39
8.3153191930003505
 10
68.974336602273056
 20
66.70918970230376
 30
0.0
 11
68.664840421909574
 21
66.410503436891176
 31
0.0
  0
LINE
  5
18C
  8
0
 39
8.3153191930003505
 10
68.664840421909574
 20
66.410503436891176
 30
0.0
 11
68.335054862715211
 21
66.107326899114383
 31
0.0
  0
LINE
  5
18D
  8
0
 39
8.3153191930003505
 10
68.335054862715211
 20
66.107326899114383
 30
0.0
 11
63.182229311205589
 21
61.73896226496759
 31
0.0
  0
LINE
  5
18E
  8
0
 39
8.3153191930003505
 10
63.182229311205589
 20
61.73896226496759
 30
0.0
 11
63.182229311205589
 21
61.73896226496759
 31
0.0
  0
LINE
  5
18F
  8
0
 39
8.3153191930003505
 10
63.182229311205589
 20
61.73896226496759
 30
0.0
 11
62.727713964116212
 21
61.409343012157052
 31
0.0
  0
LINE
  5
190
  8
0
 39
8.3153191930003505
 10
62.727713964116212
 20
61.409343012157052
 30
0.0
 11
62.309786021476008
 21
61.09469133389392
 31
0.0
  0
LINE
  5
191
  8
0
 39
8.3153191930003505
 10
62.309786021476008
 20
61.09469133389392
 30
0.0
 11
61.925950887527137
 21
60.792678940804137
 31
0.0
  0
LINE
  5
192
  8
0
 39
8.3153191930003505
 10
61.925950887527137
 20
60.792678940804137
 30
0.0
 11
61.572716128208477
 21
60.50131015628142
 31
0.0
  0
LINE
  5
193
  8
0
 39
8.3153191930003505
 10
61.572716128208477
 20
60.50131015628142
 30
0.0
 11
61.247420841378279
 21
60.217924078183977
 31
0.0
  0
LINE
  5
194
  8
0
 39
8.3153191930003505
 10
61.247420841378279
 20
60.217924078183977
 30
0.0
 11
60.947071512127117
 21
59.940691336289341
 31
0.0
  0
LINE
  5
195
  8
0
 39
8.3153191930003505
 10
60.947071512127117
 20
59.940691336289341
 30
0.0
 11
60.668508319161617
 21
59.667283641223477
 31
0.0
  0
LINE
  5
196
  8
0
 39
8.3153191930003505
 10
60.668508319161617
 20
59.667283641223477
 30
0.0
 11
60.408571441188393
 21
59.395871622763948
 31
0.0
  0
LINE
  5
197
  8
0
 39
8.3153191930003505
 10
60.408571441188393
 20
59.395871622763948
 30
0.0
 11
60.164932588833501
 21
59.123461766001263
 31
0.0
  0
LINE
  5
198
  8
0
 39
8.3153191930003505
 10
60.164932588833501
 20
59.123461766001263
 30
0.0
 11
59.933933021651967
 21
58.848557313480669
 31
0.0
  0
LINE
  5
199
  8
0
 39
8.3153191930003505
 10
59.933933021651967
 20
58.848557313480669
 30
0.0
 11
59.712911837502013
 21
58.56866366944427
 31
0.0
  0
LINE
  5
19A
  8
0
 39
8.3153191930003505
 10
59.712911837502013
 20
58.56866366944427
 30
0.0
 11
59.498709215090301
 21
58.281951463669628
 31
0.0
  0
LINE
  5
19B
  8
0
 39
8.3153191930003505
 10
59.498709215090301
 20
58.281951463669628
 30
0.0
 11
59.288497945891272
 21
57.985427181247211
 31
0.0
  0
LINE
  5
19C
  8
0
 39
8.3153191930003505
 10
59.288497945891272
 20
57.985427181247211
 30
0.0
 11
59.078951902227651
 21
57.677760371106231
 31
0.0
  0
LINE
  5
19D
  8
0
 39
8.3153191930003505
 10
59.078951902227651
 20
57.677760371106231
 30
0.0
 11
58.867410181957737
 21
57.356290131104821
 31
0.0
  0
LINE
  5
19E
  8
0
 39
8.3153191930003505
 10
58.867410181957737
 20
57.356290131104821
 30
0.0
 11
58.65054665740427
 21
57.019187091020598
 31
0.0
  0
LINE
  5
19F
  8
0
 39
8.3153191930003505
 10
58.65054665740427
 20
57.019187091020598
 30
0.0
 11
59.858596229763371
 21
56.146743801290988
 31
0.0
  0
LINE
  5
1AB
  8
0
 39
8.3153191930003505
 10
79.794562548972834
 20
66.123791231116527
 30
0.0
 11
98.650546657404249
 21
66.123791231116527
 31
0.0
  0
LINE
  5
1AE
  8
0
 39
8.3153191930003505
 10
79.794562548972834
 20
72.146743801290995
 30
0.0
 11
79.794562548972834
 21
66.123791231116527
 31
0.0
  0
LINE
  5
1AF
  8
0
 39
8.3153191930003505
 10
79.794562548972834
 20
66.123791231116527
 30
0.0
 11
79.794562548972834
 21
66.123791231116527
 31
0.0
  0
LINE
  5
1B1
  8
0
 39
8.3153191930003505
 10
80.115533869822642
 20
62.146743801291002
 30
0.0
 11
80.115533869822642
 21
63.349967054715471
 31
0.0
  0
LINE
  5
1B2
  8
0
 39
8.3153191930003505
 10
80.115533869822642
 20
63.349967054715471
 30
0.0
 11
75.316929469925995
 21
63.349967054715471
 31
0.0
  0
LINE
  5
1B3
  8
0
 39
8.3153191930003505
 10
75.316929469925995
 20
63.349967054715471
 30
0.0
 11
75.316929469925967
 21
62.146743801291002
 31
0.0
  0
LINE
  5
1B5
  8
0
 10
74.793895892686294
 20
74.146743801290995
 30
0.0
 11
98.650546657404277
 21
74.146743801290995
 31
0.0
  0
LINE
  5
305
  8
0
 10
79.794562548972834
 20
72.146743801290995
 30
0.0
 11
98.650546657404277
 21
72.146743801290995
 31
0.0
  0
LINE
  5
307
  8
0
 10
98.650546657404277
 20
56.146743801290988
 30
0.0
 11
59.858596229763371
 21
56.146743801290988
 31
0.0
  0
LINE
  5
309
  8
1
 10
72.350546657404266
 20
74.146743801290995
 30
0.0
 11
71.950546657404274
 21
74.146743801290995
 31
0.0
  0
LINE
  5
30B
  8
0
 10
90.150546657404277
 20
74.146743801290995
 30
0.0
 11
90.150546657404277
 21
72.146743801290995
 31
0.0
  0
LINE
  5
30C
  8
1
 10
72.150546657404277
 20
74.346743801290984
 30
0.0
 11
72.150546657404277
 21
73.946743801290992
 31
0.0
  0
LINE
  5
313
  8
0
 10
90.150546657404277
 20
66.123791231116527
 30
0.0
 11
90.150546657404277
 21
63.349967054715471
 31
0.0
  0
LINE
  5
318
  8
0
 10
73.866451886146479
 20
62.146743801291002
 30
0.0
 11
98.650546657404277
 21
62.146743801291002
 31
0.0
  0
LINE
  5
324
  8
0
 10
98.650546657404277
 20
58.132935793027059
 30
0.0
 11
65.121784944902629
 21
58.132935793027059
 31
0.0
  0
LINE
  5
327
  8
1
 10
98.650546657404277
 20
74.646743801290995
 30
0.0
 11
98.650546657404277
 21
55.646743801290988
 31
0.0
  0
LINE
  5
368
  8
0
 39
8.3153191930003505
 10
121.9841638448825
 20
63.349967054715471
 30
0.0
 11
121.9841638448825
 21
62.146743801291002
 31
0.0
  0
LINE
  5
369
  8
0
 39
8.3153191930003505
 10
117.1855594449859
 20
63.349967054715471
 30
0.0
 11
121.9841638448825
 21
63.349967054715471
 31
0.0
  0
LINE
  5
36A
  8
0
 39
8.3153191930003505
 10
117.1855594449859
 20
62.146743801291002
 30
0.0
 11
117.1855594449859
 21
63.349967054715471
 31
0.0
  0
LINE
  5
36B
  8
0
 39
8.3153191930003505
 10
117.50653076583571
 20
66.123791231116527
 30
0.0
 11
117.50653076583571
 21
66.123791231116527
 31
0.0
  0
LINE
  5
36C
  8
0
 39
8.3153191930003505
 10
117.50653076583571
 20
72.146743801290995
 30
0.0
 11
117.50653076583571
 21
66.123791231116527
 31
0.0
  0
LINE
  5
36D
  8
0
 39
8.3153191930003505
 10
117.50653076583571
 20
66.123791231116527
 30
0.0
 11
98.650546657404306
 21
66.123791231116527
 31
0.0
  0
LINE
  5
36E
  8
0
 39
8.3153191930003505
 10
138.65054665740419
 20
57.019187091020598
 30
0.0
 11
137.44249708504509
 21
56.146743801290988
 31
0.0
  0
LINE
  5
36F
  8
0
 39
8.3153191930003505
 10
138.4336831328508
 20
57.356290131104821
 30
0.0
 11
138.65054665740419
 21
57.019187091020598
 31
0.0
  0
LINE
  5
370
  8
0
 39
8.3153191930003505
 10
138.22214141258081
 20
57.677760371106231
 30
0.0
 11
138.4336831328508
 21
57.356290131104821
 31
0.0
  0
LINE
  5
371
  8
0
 39
8.3153191930003505
 10
138.01259536891729
 20
57.985427181247211
 30
0.0
 11
138.22214141258081
 21
57.677760371106231
 31
0.0
  0
LINE
  5
372
  8
0
 39
8.3153191930003505
 10
137.80238409971821
 20
58.281951463669628
 30
0.0
 11
138.01259536891729
 21
57.985427181247211
 31
0.0
  0
LINE
  5
373
  8
0
 39
8.3153191930003505
 10
137.58818147730651
 20
58.56866366944427
 30
0.0
 11
137.80238409971821
 21
58.281951463669628
 31
0.0
  0
LINE
  5
374
  8
0
 39
8.3153191930003505
 10
137.3671602931565
 20
58.848557313480669
 30
0.0
 11
137.58818147730651
 21
58.56866366944427
 31
0.0
  0
LINE
  5
375
  8
0
 39
8.3153191930003505
 10
137.136160725975
 20
59.123461766001263
 30
0.0
 11
137.3671602931565
 21
58.848557313480669
 31
0.0
  0
LINE
  5
376
  8
0
 39
8.3153191930003505
 10
136.8925218736201
 20
59.395871622763948
 30
0.0
 11
137.136160725975
 21
59.123461766001263
 31
0.0
  0
LINE
  5
377
  8
0
 39
8.3153191930003505
 10
136.63258499564691
 20
59.667283641223477
 30
0.0
 11
136.8925218736201
 21
59.395871622763948
 31
0.0
  0
LINE
  5
378
  8
0
 39
8.3153191930003505
 10
136.35402180268139
 20
59.940691336289341
 30
0.0
 11
136.63258499564691
 21
59.667283641223477
 31
0.0
  0
LINE
  5
379
  8
0
 39
8.3153191930003505
 10
136.0536724734302
 20
60.217924078183977
 30
0.0
 11
136.35402180268139
 21
59.940691336289341
 31
0.0
  0
LINE
  5
37A
  8
0
 39
8.3153191930003505
 10
135.7283771866
 20
60.50131015628142
 30
0.0
 11
136.0536724734302
 21
60.217924078183977
 31
0.0
  0
LINE
  5
37B
  8
0
 39
8.3153191930003505
 10
135.37514242728139
 20
60.792678940804137
 30
0.0
 11
135.7283771866
 21
60.50131015628142
 31
0.0
  0
LINE
  5
37C
  8
0
 39
8.3153191930003505
 10
134.99130729333251
 20
61.09469133389392
 30
0.0
 11
135.37514242728139
 21
60.792678940804137
 31
0.0
  0
LINE
  5
37D
  8
0
 39
8.3153191930003505
 10
134.57337935069231
 20
61.409343012157052
 30
0.0
 11
134.99130729333251
 21
61.09469133389392
 31
0.0
  0
LINE
  5
37E
  8
0
 39
8.3153191930003505
 10
134.11886400360291
 20
61.73896226496759
 30
0.0
 11
134.57337935069231
 21
61.409343012157052
 31
0.0
  0
LINE
  5
37F
  8
0
 39
8.3153191930003505
 10
134.11886400360291
 20
61.73896226496759
 30
0.0
 11
134.11886400360291
 21
61.73896226496759
 31
0.0
  0
LINE
  5
380
  8
0
 39
8.3153191930003505
 10
128.9660384520933
 20
66.107326899114383
 30
0.0
 11
134.11886400360291
 21
61.73896226496759
 31
0.0
  0
LINE
  5
381
  8
0
 39
8.3153191930003505
 10
128.63625289289891
 20
66.410503436891176
 30
0.0
 11
128.9660384520933
 21
66.107326899114383
 31
0.0
  0
LINE
  5
382
  8
0
 39
8.3153191930003505
 10
128.3267567125354
 20
66.70918970230376
 30
0.0
 11
128.63625289289891
 21
66.410503436891176
 31
0.0
  0
LINE
  5
383
  8
0
 39
8.3153191930003505
 10
128.0357205407804
 20
67.004217227271397
 30
0.0
 11
128.3267567125354
 21
66.70918970230376
 31
0.0
  0
LINE
  5
384
  8
0
 39
8.3153191930003505
 10
127.76297807125
 20
67.297581688400456
 30
0.0
 11
128.0357205407804
 21
67.004217227271397
 31
0.0
  0
LINE
  5
385
  8
0
 39
8.3153191930003505
 10
127.50686624010559
 20
67.590114617610212
 30
0.0
 11
127.76297807125
 21
67.297581688400456
 31
0.0
  0
LINE
  5
386
  8
0
 39
8.3153191930003505
 10
127.2667198218118
 20
67.883977997890838
 30
0.0
 11
127.50686624010559
 21
67.590114617610212
 31
0.0
  0
LINE
  5
387
  8
0
 39
8.3153191930003505
 10
127.0415409780653
 20
68.180169667545513
 30
0.0
 11
127.2667198218118
 21
67.883977997890838
 31
0.0
  0
LINE
  5
388
  8
0
 39
8.3153191930003505
 10
126.8303318705631
 20
68.480685303180536
 30
0.0
 11
127.0415409780653
 21
68.180169667545513
 31
0.0
  0
LINE
  5
389
  8
0
 39
8.3153191930003505
 10
126.632094661002
 20
68.786190130331363
 30
0.0
 11
126.8303318705631
 21
68.480685303180536
 31
0.0
  0
LINE
  5
38A
  8
0
 39
8.3153191930003505
 10
126.44583151107879
 20
69.098846131988196
 30
0.0
 11
126.632094661002
 21
68.786190130331363
 31
0.0
  0
LINE
  5
38B
  8
0
 39
8.3153191930003505
 10
126.270877195258
 20
69.419651146454143
 30
0.0
 11
126.44583151107879
 21
69.098846131988196
 31
0.0
  0
LINE
  5
38C
  8
0
 39
8.3153191930003505
 10
126.10606756885279
 20
69.750600850335545
 30
0.0
 11
126.270877195258
 21
69.419651146454143
 31
0.0
  0
LINE
  5
38D
  8
0
 39
8.3153191930003505
 10
125.95023848717589
 20
70.092693081935607
 30
0.0
 11
126.10606756885279
 21
69.750600850335545
 31
0.0
  0
LINE
  5
38E
  8
0
 39
8.3153191930003505
 10
125.802891031076
 20
70.447590905092852
 30
0.0
 11
125.95023848717589
 21
70.092693081935607
 31
0.0
  0
LINE
  5
38F
  8
0
 39
8.3153191930003505
 10
125.662694749482
 20
70.816624770878207
 30
0.0
 11
125.802891031076
 21
70.447590905092852
 31
0.0
  0
LINE
  5
390
  8
0
 39
8.3153191930003505
 10
125.52898441685861
 20
71.201790355897984
 30
0.0
 11
125.662694749482
 21
70.816624770878207
 31
0.0
  0
LINE
  5
391
  8
0
 39
8.3153191930003505
 10
125.52898441685861
 20
71.201790355897984
 30
0.0
 11
125.52898441685861
 21
71.201790355897984
 31
0.0
  0
LINE
  5
392
  8
0
 39
8.3153191930003505
 10
125.4584705101019
 20
71.387554586669609
 30
0.0
 11
125.52898441685861
 21
71.201790355897984
 31
0.0
  0
LINE
  5
393
  8
0
 39
8.3153191930003505
 10
125.3914490374063
 20
71.590448374978806
 30
0.0
 11
125.4584705101019
 21
71.387554586669609
 31
0.0
  0
LINE
  5
394
  8
0
 39
8.3153191930003505
 10
125.3234297264076
 20
71.806646673996823
 30
0.0
 11
125.3914490374063
 21
71.590448374978806
 31
0.0
  0
LINE
  5
395
  8
0
 39
8.3153191930003505
 10
125.2509201430446
 20
72.032657049662575
 30
0.0
 11
125.3234297264076
 21
71.806646673996823
 31
0.0
  0
LINE
  5
396
  8
0
 39
8.3153191930003505
 10
125.1689310958016
 20
72.264321842379573
 30
0.0
 11
125.2509201430446
 21
72.032657049662575
 31
0.0
  0
LINE
  5
397
  8
0
 39
8.3153191930003505
 10
125.0743027633853
 20
72.498481230854466
 30
0.0
 11
125.1689310958016
 21
72.264321842379573
 31
0.0
  0
LINE
  5
398
  8
0
 39
8.3153191930003505
 10
124.9620459542798
 20
72.730977555490753
 30
0.0
 11
125.0743027633853
 21
72.498481230854466
 31
0.0
  0
LINE
  5
399
  8
0
 39
8.3153191930003505
 10
124.82900084719179
 20
72.95848468861125
 30
0.0
 11
124.9620459542798
 21
72.730977555490753
 31
0.0
  0
LINE
  5
39A
  8
0
 39
8.3153191930003505
 10
124.6701782506055
 20
73.176844970619427
 30
0.0
 11
124.82900084719179
 21
72.95848468861125
 31
0.0
  0
LINE
  5
39B
  8
0
 39
8.3153191930003505
 10
124.4820857304598
 20
73.38273227383813
 30
0.0
 11
124.6701782506055
 21
73.176844970619427
 31
0.0
  0
LINE
  5
39C
  8
0
 39
8.3153191930003505
 10
124.2605656271583
 20
73.572155245054674
 30
0.0
 11
124.4820857304598
 21
73.38273227383813
 31
0.0
  0
LINE
  5
39D
  8
0
 39
8.3153191930003505
 10
124.0014602811044
 20
73.741954062975722
 30
0.0
 11
124.2605656271583
 21
73.572155245054674
 31
0.0
  0
LINE
  5
39E
  8
0
 39
8.3153191930003505
 10
123.7004457263178
 20
73.887804761620956
 30
0.0
 11
124.0014602811044
 21
73.741954062975722
 31
0.0
  0
LINE
  5
39F
  8
0
 39
8.3153191930003505
 10
123.3538632223535
 20
74.006381213313148
 30
0.0
 11
123.7004457263178
 21
73.887804761620956
 31
0.0
  0
LINE
  5
3A0
  8
0
 39
8.3153191930003505
 10
122.9573888032313
 20
74.093858371223504
 30
0.0
 11
123.3538632223535
 21
74.006381213313148
 31
0.0
  0
LINE
  5
3A1
  8
0
 39
8.3153191930003505
 10
122.5071974221222
 20
74.146743801290995
 30
0.0
 11
122.9573888032313
 21
74.093858371223504
 31
0.0
  0
LINE
  5
3A2
  8
0
 39
8.3153191930003505
 10
137.20135282844811
 20
56.430961411307749
 30
0.0
 11
137.4059534546864
 21
56.146743801290981
 31
0.0
  0
LINE
  5
3A3
  8
0
 39
8.3153191930003505
 10
136.97351308255989
 20
56.72216388944662
 30
0.0
 11
137.20135282844811
 21
56.430961411307749
 31
0.0
  0
LINE
  5
3A4
  8
0
 39
8.3153191930003505
 10
136.74118306430751
 20
56.991081312148239
 30
0.0
 11
136.97351308255989
 21
56.72216388944662
 31
0.0
  0
LINE
  5
3A5
  8
0
 39
8.3153191930003505
 10
136.50236709708449
 20
57.239709356018963
 30
0.0
 11
136.74118306430751
 21
56.991081312148239
 31
0.0
  0
LINE
  5
3A6
  8
0
 39
8.3153191930003505
 10
136.25390535959761
 20
57.46904585936192
 30
0.0
 11
136.50236709708449
 21
57.239709356018963
 31
0.0
  0
LINE
  5
3A7
  8
0
 39
8.3153191930003505
 10
135.99413478800841
 20
57.680920192399547
 30
0.0
 11
136.25390535959761
 21
57.46904585936192
 31
0.0
  0
LINE
  5
3A8
  8
0
 39
8.3153191930003505
 10
135.720061867407
 20
57.876829112586648
 30
0.0
 11
135.99413478800841
 21
57.680920192399547
 31
0.0
  0
LINE
  5
3A9
  8
0
 39
8.3153191930003505
 10
135.42935830841969
 20
58.058269377377911
 30
0.0
 11
135.720061867407
 21
57.876829112586648
 31
0.0
  0
LINE
  5
3AA
  8
0
 39
8.3153191930003505
 10
135.11903059613701
 20
58.22657143784425
 30
0.0
 11
135.42935830841969
 21
58.058269377377911
 31
0.0
  0
LINE
  5
3AB
  8
0
 39
8.3153191930003505
 10
134.78724936033629
 20
58.38356466420808
 30
0.0
 11
135.11903059613701
 21
58.22657143784425
 31
0.0
  0
LINE
  5
3AC
  8
0
 39
8.3153191930003505
 10
134.4310210861081
 20
58.53041320115647
 30
0.0
 11
134.78724936033629
 21
58.38356466420808
 31
0.0
  0
LINE
  5
3AD
  8
0
 39
8.3153191930003505
 10
134.04835009684629
 20
58.669112725295719
 30
0.0
 11
134.4310210861081
 21
58.53041320115647
 31
0.0
  0
LINE
  5
3AE
  8
0
 39
8.3153191930003505
 10
133.63607657125729
 20
58.800661074928982
 30
0.0
 11
134.04835009684629
 21
58.669112725295719
 31
0.0
  0
LINE
  5
3AF
  8
0
 39
8.3153191930003505
 10
133.19220483273489
 20
58.927053926662587
 30
0.0
 11
133.63607657125729
 21
58.800661074928982
 31
0.0
  0
LINE
  5
3B0
  8
0
 39
8.3153191930003505
 10
132.7140739791374
 20
59.049621731567427
 30
0.0
 11
133.19220483273489
 21
58.927053926662587
 31
0.0
  0
LINE
  5
3B1
  8
0
 39
8.3153191930003505
 10
132.19935572109071
 20
59.170027553482079
 30
0.0
 11
132.7140739791374
 21
59.049621731567427
 31
0.0
  0
LINE
  5
3B2
  8
0
 39
8.3153191930003505
 10
132.19935572109071
 20
59.170027553482079
 30
0.0
 11
132.19935572109071
 21
59.170027553482079
 31
0.0
  0
LINE
  5
3B3
  8
0
 39
8.3153191930003505
 10
123.434641428662
 20
62.146743801291002
 30
0.0
 11
132.19935572109071
 21
59.170027553482079
 31
0.0
  0
LINE
  5
3B4
  8
0
 39
8.3153191930003505
 10
112.6909631147853
 20
63.349967054715471
 30
0.0
 11
112.6909631147853
 21
62.146743801291002
 31
0.0
  0
LINE
  5
3B5
  8
0
 39
8.3153191930003505
 10
98.650546657404277
 20
63.349967054715471
 30
0.0
 11
112.6909631147853
 21
63.349967054715471
 31
0.0
  0
LINE
  5
3B6
  8
0
 39
8.3153191930003505
 10
107.24176814122831
 20
63.352627956857233
 30
0.0
 11
107.24176814122831
 21
63.352627956857233
 31
0.0
  0
LINE
  5
3B7
  8
0
 39
8.3153191930003505
 10
105.5098534597102
 20
66.123791231116527
 30
0.0
 11
105.5098534597102
 21
66.123791231116527
 31
0.0
  0
LINE
  5
3B9
  8
0
 10
98.650546657404277
 20
58.132935793027059
 30
0.0
 11
132.1793083699059
 21
58.132935793027059
 31
0.0
  0
LINE
  5
3BA
  8
0
 10
123.434641428662
 20
62.146743801291002
 30
0.0
 11
98.650546657404277
 21
62.146743801291002
 31
0.0
  0
LINE
  5
3BB
  8
0
 10
98.650546657404277
 20
56.146743801290988
 30
0.0
 11
137.44249708504509
 21
56.146743801290988
 31
0.0
  0
LINE
  5
3BC
  8
0
 10
122.5071974221222
 20
74.146743801290995
 30
0.0
 11
98.650546657404277
 21
74.146743801290995
 31
0.0
  0
LINE
  5
3BD
  8
1
 10
125.15054665740421
 20
74.346743801290984
 30
0.0
 11
125.15054665740421
 21
73.946743801290992
 31
0.0
  0
LINE
  5
3BE
  8
1
 10
124.9505466574042
 20
74.146743801290995
 30
0.0
 11
125.35054665740419
 21
74.146743801290995
 31
0.0
  0
LINE
  5
3BF
  8
0
 10
117.50653076583571
 20
72.146743801290995
 30
0.0
 11
98.650546657404277
 21
72.146743801290995
 31
0.0
  0
LINE
  5
3C1
  8
0
 10
107.15054665740421
 20
66.123791231116527
 30
0.0
 11
107.15054665740421
 21
63.349967054715471
 31
0.0
  0
LINE
  5
3C2
  8
0
 10
107.15054665740421
 20
74.146743801290995
 30
0.0
 11
107.15054665740421
 21
72.146743801290995
 31
0.0
  0
DIMENSION
  5
3C8
  8
2
  2
*D1
 10
107.15054665740421
 20
81.218996435149137
 30
0.0
 11
98.650546657404277
 21
83.093996435149137
 31
0.0
 70
     0
  1
%%c<>
 13
90.150546657404277
 23
74.146743801290995
 33
0.0
 14
107.15054665740421
 24
74.146743801290995
 34
0.0
  0
DIMENSION
  5
3D5
  8
2
  2
*D2
 10
125.15054665740421
 20
86.06752641867331
 30
0.0
 11
98.650546657404277
 21
87.94252641867331
 31
0.0
 70
     0
  1
%%c<>
 13
72.150546657404277
 23
74.146743801290995
 33
0.0
 14
125.15054665740421
 24
74.146743801290995
 34
0.0
  0
DIMENSION
  5
3E2
  8
2
  2
*D3
 10
149.19551807171499
 20
72.146743801290995
 30
0.0
 11
147.3205180717149
 21
65.688410467957681
 31
0.0
 70
     0
 13
122.5071974221222
 23
74.146743801290995
 33
0.0
 14
117.50653076583571
 24
72.146743801290995
 34
0.0
 50
90.0
  0
DIMENSION
  5
3F1
  8
2
  2
*D4
 10
154.61508737803209
 20
62.146743801290988
 30
0.0
 11
152.74008737803209
 21
68.146743801291009
 31
0.0
 70
     0
 13
122.5071974221222
 23
74.146743801290995
 33
0.0
 14
123.434641428662
 24
62.146743801291002
 34
0.0
 50
90.0
  0
DIMENSION
  5
3FF
  8
2
  2
*D5
 10
159.64754456004911
 20
56.146743801290981
 30
0.0
 11
157.77254456004911
 21
65.146743801290995
 31
0.0
 70
     0
 13
122.5071974221222
 23
74.146743801290995
 33
0.0
 14
137.44249708504509
 24
56.146743801290988
 34
0.0
 50
90.0
1001
ACAD
1000
DSTYLE
1002
{
1070
   271
1070
     6
1002
}
  0
DIMENSION
  5
40D
  8
2
  2
*D6
 10
138.65054665740419
 20
45.872522528866106
 30
0.0
 11
98.650546657404277
 21
47.747522528866106
 31
0.0
 70
     0
  1
%%c<>
 13
58.65054665740427
 23
57.019187091020598
 33
0.0
 14
138.65054665740419
 24
57.019187091020598
 34
0.0
1001
ACAD
1000
DSTYLE
1002
{
1070
   271
1070
     6
1002
}
  0
TEXT
  5
452
  8
2
 10
59.682727850960298
 20
82.992716407450416
 30
0.0
 40
2.5
  1
G1/4
  0
LINE
  5
453
  8
2
 10
92.150546657404277
 20
72.146743801290995
 30
0.0
 11
92.150546657404277
 21
66.123791231116527
 31
0.0
  0
LINE
  5
454
  8
2
 10
105.15054665740421
 20
72.146743801290995
 30
0.0
 11
105.15054665740421
 21
66.123791231116527
 31
0.0
  0
LINE
  5
456
  8
0
 10
92.450546657404274
 20
72.146743801290995
 30
0.0
 11
92.450546657404274
 21
66.123791231116527
 31
0.0
  0
LINE
  5
457
  8
0
 10
104.85054665740419
 20
72.146743801290995
 30
0.0
 11
104.85054665740419
 21
66.123791231116527
 31
0.0
  0
POLYLINE
  8
2
  5
480
  66
     1
 10
0.000000
 20
0.000000
 30
0.000000
  70
     8
  0
VERTEX
  8
2
  5
481
 10
92.1505
 20
69.1353
 30
0.000000
  70
    32
  0
VERTEX
  8
2
  5
482
 10
68.9072
 20
82.6404
 30
0.000000
  70
    32
  0
VERTEX
  8
2
  5
483
 10
59.5705
 20
82.6404
 30
0.000000
  70
    32
  0
SEQEND
  8
2
  5
484
  0
ENDSEC
  0
EOF
