  0
SECTION
  2
HEADER
  9
$ACADVER
  1
AC1009
  9
$INSBASE
 10
0.0
 20
0.0
 30
0.0
  9
$EXTMIN
 10
43.766977517366989
 20
34.226682802450739
 30
0.0
  9
$EXTMAX
 10
163.61492635982
 20
93.503482899775648
 30
8.4474479838345964
  9
$LIMMIN
 10
0.0
 20
0.0
  9
$LIMMAX
 10
420.0
 20
297.0
  9
$ORTHOMODE
 70
     0
  9
$REGENMODE
 70
     1
  9
$FILLMODE
 70
     1
  9
$QTEXTMODE
 70
     0
  9
$MIRRTEXT
 70
     1
  9
$DRAGMODE
 70
     2
  9
$LTSCALE
 40
0.3
  9
$OSMODE
 70
    37
  9
$ATTMODE
 70
     1
  9
$TEXTSIZE
 40
2.5
  9
$TRACEWID
 40
1.0
  9
$TEXTSTYLE
  7
STANDARD
  9
$CLAYER
  8
2
  9
$CELTYPE
  6
BYLAYER
  9
$CECOLOR
 62
   256
  9
$DIMSCALE
 40
1.0
  9
$DIMASZ
 40
2.5
  9
$DIMEXO
 40
0.625
  9
$DIMDLI
 40
3.75
  9
$DIMRND
 40
0.0
  9
$DIMDLE
 40
0.0
  9
$DIMEXE
 40
1.25
  9
$DIMTP
 40
0.0
  9
$DIMTM
 40
0.0
  9
$DIMTXT
 40
2.5
  9
$DIMCEN
 40
2.5
  9
$DIMTSZ
 40
0.0
  9
$DIMTOL
 70
     0
  9
$DIMLIM
 70
     0
  9
$DIMTIH
 70
     0
  9
$DIMTOH
 70
     0
  9
$DIMSE1
 70
     0
  9
$DIMSE2
 70
     0
  9
$DIMTAD
 70
     1
  9
$DIMZIN
 70
     8
  9
$DIMBLK
  1

  9
$DIMASO
 70
     1
  9
$DIMSHO
 70
     1
  9
$DIMPOST
  1

  9
$DIMAPOST
  1

  9
$DIMALT
 70
     0
  9
$DIMALTD
 70
     3
  9
$DIMALTF
 40
0.03937007874016
  9
$DIMLFAC
 40
1.0
  9
$DIMTOFL
 70
     1
  9
$DIMTVP
 40
0.0
  9
$DIMTIX
 70
     0
  9
$DIMSOXD
 70
     0
  9
$DIMSAH
 70
     0
  9
$DIMBLK1
  1

  9
$DIMBLK2
  1

  9
$DIMSTYLE
  2
ISO-25
  9
$DIMCLRD
 70
     0
  9
$DIMCLRE
 70
     0
  9
$DIMCLRT
 70
     0
  9
$DIMTFAC
 40
1.0
  9
$DIMGAP
 40
0.625
  9
$LUNITS
 70
     2
  9
$LUPREC
 70
     4
  9
$SKETCHINC
 40
1.0
  9
$FILLETRAD
 40
10.0
  9
$AUNITS
 70
     0
  9
$AUPREC
 70
     0
  9
$MENU
  1
.
  9
$ELEVATION
 40
0.0
  9
$PELEVATION
 40
0.0
  9
$THICKNESS
 40
0.0
  9
$LIMCHECK
 70
     0
  9
$BLIPMODE
 70
     0
  9
$CHAMFERA
 40
10.0
  9
$CHAMFERB
 40
10.0
  9
$SKPOLY
 70
     0
  9
$TDCREATE
 40
2453437.0164216431
  9
$TDUPDATE
 40
2453551.9031197801
  9
$TDINDWG
 40
0.0522290509
  9
$TDUSRTIMER
 40
0.0522290509
  9
$USRTIMER
 70
     1
  9
$ANGBASE
 50
0.0
  9
$ANGDIR
 70
     0
  9
$PDMODE
 70
     0
  9
$PDSIZE
 40
0.0
  9
$PLINEWID
 40
0.0
  9
$COORDS
 70
     1
  9
$SPLFRAME
 70
     0
  9
$SPLINETYPE
 70
     6
  9
$SPLINESEGS
 70
     8
  9
$ATTDIA
 70
     0
  9
$ATTREQ
 70
     1
  9
$HANDLING
 70
-16383
  9
$HANDSEED
  5
5F6
  9
$SURFTAB1
 70
     6
  9
$SURFTAB2
 70
     6
  9
$SURFTYPE
 70
     6
  9
$SURFU
 70
     6
  9
$SURFV
 70
     6
  9
$UCSNAME
  2

  9
$UCSORG
 10
0.0
 20
0.0
 30
0.0
  9
$UCSXDIR
 10
1.0
 20
0.0
 30
0.0
  9
$UCSYDIR
 10
0.0
 20
1.0
 30
0.0
  9
$PUCSNAME
  2

  9
$PUCSORG
 10
0.0
 20
0.0
 30
0.0
  9
$PUCSXDIR
 10
1.0
 20
0.0
 30
0.0
  9
$PUCSYDIR
 10
0.0
 20
1.0
 30
0.0
  9
$USERI1
 70
     0
  9
$USERI2
 70
     0
  9
$USERI3
 70
     0
  9
$USERI4
 70
     0
  9
$USERI5
 70
     0
  9
$USERR1
 40
0.0
  9
$USERR2
 40
0.0
  9
$USERR3
 40
0.0
  9
$USERR4
 40
0.0
  9
$USERR5
 40
0.0
  9
$WORLDVIEW
 70
     1
  9
$SHADEDGE
 70
     3
  9
$SHADEDIF
 70
    70
  9
$TILEMODE
 70
     1
  9
$MAXACTVP
 70
    64
  9
$PLIMCHECK
 70
     0
  9
$PEXTMIN
 10
1.0000000000000000E+020
 20
1.0000000000000000E+020
 30
1.0000000000000000E+020
  9
$PEXTMAX
 10
-1.0000000000000000E+020
 20
-1.0000000000000000E+020
 30
-1.0000000000000000E+020
  9
$PLIMMIN
 10
0.0
 20
0.0
  9
$PLIMMAX
 10
420.0
 20
297.0
  9
$UNITMODE
 70
     0
  9
$VISRETAIN
 70
     1
  9
$PLINEGEN
 70
     0
  9
$PSLTSCALE
 70
     1
  0
ENDSEC
  0
SECTION
  2
TABLES
  0
TABLE
  2
VPORT
 70
     2
  0
VPORT
  2
*ACTIVE
 70
     0
 10
0.0
 20
0.0
 11
1.0
 21
1.0
 12
132.93991113438221
 22
63.3884911258709
 13
0.0
 23
0.0
 14
10.0
 24
10.0
 15
10.0
 25
10.0
 16
0.0
 26
0.0
 36
1.0
 17
0.0
 27
0.0
 37
0.0
 40
79.841194710572495
 41
2.5392405063291141
 42
50.0
 43
0.0
 44
0.0
 50
0.0
 51
0.0
 71
     0
 72
   100
 73
     1
 74
     3
 75
     0
 76
     0
 77
     0
 78
     0
  0
ENDTAB
  0
TABLE
  2
LTYPE
 70
     2
  0
LTYPE
  2
CONTINUOUS
 70
     0
  3
Solid line
 72
    65
 73
     0
 40
0.0
  0
LTYPE
  2
CENTER
 70
     0
  3
Center ____ _ ____ _ ____ _ ____ _ ____ _ ____
 72
    65
 73
     4
 40
50.799999999999997
 49
31.75
 49
-6.3499999999999988
 49
6.3499999999999988
 49
-6.3499999999999988
  0
ENDTAB
  0
TABLE
  2
LAYER
 70
     4
  0
LAYER
  2
0
 70
     0
 62
     7
  6
CONTINUOUS
  0
LAYER
  2
1
 70
     0
 62
     7
  6
CENTER
  0
LAYER
  2
DEFPOINTS
 70
     0
 62
     7
  6
CONTINUOUS
  0
LAYER
  2
2
 70
     0
 62
     7
  6
CONTINUOUS
  0
ENDTAB
  0
TABLE
  2
STYLE
 70
     3
  0
STYLE
  2
STANDARD
 70
     0
 40
0.0
 41
1.0
 50
0.0
 71
     0
 42
2.5
  3
txt
  4

  0
STYLE
  2
\U+00C9L\U+00C9R_\U+00C2S\U+00C2V\U+00C2B\U+00C2N
 70
     0
 40
1.0
 41
1.0
 50
0.0
 71
     0
 42
1.0
  3
\U+00E9l\U+00E9r \U+00E2S\U+00E2V\U+00E2b\U+00E2N
  4

  0
STYLE
  2

 70
     1
 40
0.0
 41
1.0
 50
0.0
 71
     0
 42
2.5
  3
ltypeshp.shx
  4

  0
ENDTAB
  0
TABLE
  2
VIEW
 70
     0
  0
ENDTAB
  0
TABLE
  2
UCS
 70
     0
  0
ENDTAB
  0
TABLE
  2
APPID
 70
     1
  0
APPID
  2
ACAD
 70
     0
  0
ENDTAB
  0
TABLE
  2
DIMSTYLE
 70
     2
  0
DIMSTYLE
  2
ISO-25
 70
     0
  3

  4

  5

  6

  7

 40
1.0
 41
2.5
 42
0.625
 43
3.75
 44
1.25
 45
0.0
 46
0.0
 47
0.0
 48
0.0
140
2.5
141
2.5
142
0.0
143
0.03937007874016
144
1.0
145
0.0
146
1.0
147
0.625
 71
     0
 72
     0
 73
     0
 74
     0
 75
     0
 76
     0
 77
     1
 78
     8
170
     0
171
     3
172
     1
173
     0
174
     0
175
     0
176
     0
177
     0
178
     0
  0
DIMSTYLE
  2
STANDARD
 70
     0
  3

  4

  5

  6

  7

 40
1.0
 41
0.18
 42
0.0625
 43
0.38
 44
0.18
 45
0.0
 46
0.0
 47
0.0
 48
0.0
140
0.18
141
0.09
142
0.0
143
25.399999999999999
144
1.0
145
0.0
146
1.0
147
0.09
 71
     0
 72
     0
 73
     1
 74
     1
 75
     0
 76
     0
 77
     0
 78
     0
170
     0
171
     2
172
     0
173
     0
174
     0
175
     0
176
     0
177
     0
178
     0
  0
ENDTAB
  0
ENDSEC
  0
SECTION
  2
BLOCKS
  0
BLOCK
  8
0
  2
$MODEL_SPACE
 70
     0
 10
0.0
 20
0.0
 30
0.0
  3
$MODEL_SPACE
  1

  0
ENDBLK
  5
21
  8
0
  0
BLOCK
 67
     1
  8
0
  2
$PAPER_SPACE
 70
     0
 10
0.0
 20
0.0
 30
0.0
  3
$PAPER_SPACE
  1

  0
ENDBLK
  5
1D
 67
     1
  8
0
  0
BLOCK
  8
0
  2
*D1
 70
     1
 10
0.0
 20
0.0
 30
0.0
  3
*D1
  1

  0
LINE
  5
58F
  8
2
 62
     0
 10
82.766977517366996
 20
76.771082290439196
 30
0.0
 11
82.766977517366996
 21
86.348964287098269
 31
0.0
  0
LINE
  5
590
  8
2
 62
     0
 10
99.76697751736701
 20
76.771082290439196
 30
0.0
 11
99.76697751736701
 21
86.348964287098269
 31
0.0
  0
LINE
  5
591
  8
2
 62
     0
 10
85.266977517366996
 20
85.098964287098269
 30
0.0
 11
97.26697751736701
 21
85.098964287098269
 31
0.0
  0
SOLID
  5
592
  8
2
 62
     0
 10
85.266977517366996
 20
85.515630953764955
 30
0.0
 11
85.266977517366996
 21
84.682297620431612
 31
0.0
 12
82.766977517366996
 22
85.098964287098269
 32
0.0
 13
82.766977517366996
 23
85.098964287098269
 33
0.0
  0
SOLID
  5
593
  8
2
 62
     0
 10
97.26697751736701
 20
85.515630953764955
 30
0.0
 11
97.26697751736701
 21
84.682297620431612
 31
0.0
 12
99.76697751736701
 22
85.098964287098269
 32
0.0
 13
99.76697751736701
 23
85.098964287098269
 33
0.0
  0
INSERT
  5
594
  8
2
  2
*U8
 10
0.0
 20
0.0
 30
0.0
  0
POINT
  5
595
  8
DEFPOINTS
 62
     0
 10
82.766977517366996
 20
76.146082290439196
 30
0.0
  0
POINT
  5
596
  8
DEFPOINTS
 62
     0
 10
99.76697751736701
 20
76.146082290439196
 30
0.0
  0
POINT
  5
597
  8
DEFPOINTS
 62
     0
 10
99.76697751736701
 20
85.098964287098269
 30
0.0
  0
ENDBLK
  5
515
  8
0
  0
BLOCK
  8
0
  2
*D2
 70
     1
 10
0.0
 20
0.0
 30
0.0
  3
*D2
  1

  0
LINE
  5
586
  8
2
 62
     0
 10
57.266977517367003
 20
74.738795254488252
 30
0.0
 11
57.266977517367003
 21
91.628482899775634
 31
0.0
  0
LINE
  5
587
  8
2
 62
     0
 10
125.2669775173669
 20
74.738795254488252
 30
0.0
 11
125.2669775173669
 21
91.628482899775634
 31
0.0
  0
LINE
  5
588
  8
2
 62
     0
 10
59.766977517367003
 20
90.378482899775634
 30
0.0
 11
122.766977517367
 21
90.378482899775634
 31
0.0
  0
SOLID
  5
589
  8
2
 62
     0
 10
59.766977517367003
 20
90.795149566442305
 30
0.0
 11
59.766977517367003
 21
89.961816233108962
 31
0.0
 12
57.266977517367003
 22
90.378482899775634
 32
0.0
 13
57.266977517367003
 23
90.378482899775634
 33
0.0
  0
SOLID
  5
58A
  8
2
 62
     0
 10
122.766977517367
 20
90.795149566442305
 30
0.0
 11
122.766977517367
 21
89.961816233108962
 31
0.0
 12
125.2669775173669
 22
90.378482899775634
 32
0.0
 13
125.2669775173669
 23
90.378482899775634
 33
0.0
  0
INSERT
  5
58B
  8
2
  2
*U7
 10
0.0
 20
0.0
 30
0.0
  0
POINT
  5
58C
  8
DEFPOINTS
 62
     0
 10
57.266977517367003
 20
74.113795254488252
 30
0.0
  0
POINT
  5
58D
  8
DEFPOINTS
 62
     0
 10
125.2669775173669
 20
74.113795254488252
 30
0.0
  0
POINT
  5
58E
  8
DEFPOINTS
 62
     0
 10
125.2669775173669
 20
90.378482899775634
 30
0.0
  0
ENDBLK
  5
52B
  8
0
  0
BLOCK
  8
0
  2
*D3
 70
     1
 10
0.0
 20
0.0
 30
0.0
  3
*D3
  1

  0
LINE
  5
540
  8
2
 62
     0
 10
123.0936758982419
 20
76.146082290439196
 30
0.0
 11
153.04152787633379
 21
76.146082290439196
 31
0.0
  0
LINE
  5
541
  8
2
 62
     0
 10
121.891977517367
 20
74.146082290439196
 30
0.0
 11
153.04152787633379
 21
74.146082290439196
 31
0.0
  0
LINE
  5
542
  8
2
 62
     0
 10
151.79152787633379
 20
78.646082290439196
 30
0.0
 11
151.79152787633379
 21
81.146082290439196
 31
0.0
  0
LINE
  5
543
  8
2
 62
     0
 10
151.79152787633379
 20
71.646082290439196
 30
0.0
 11
151.79152787633379
 21
66.229415623772525
 31
0.0
  0
LINE
  5
544
  8
2
 62
     0
 10
151.79152787633379
 20
76.146082290439196
 30
0.0
 11
151.79152787633379
 21
74.146082290439196
 31
0.0
  0
SOLID
  5
545
  8
2
 62
     0
 10
151.3748612096671
 20
78.646082290439196
 30
0.0
 11
152.20819454300039
 21
78.646082290439196
 31
0.0
 12
151.79152787633379
 22
76.146082290439196
 32
0.0
 13
151.79152787633379
 23
76.146082290439196
 33
0.0
  0
SOLID
  5
546
  8
2
 62
     0
 10
151.3748612096671
 20
71.646082290439196
 30
0.0
 11
152.20819454300039
 21
71.646082290439196
 31
0.0
 12
151.79152787633379
 22
74.146082290439196
 32
0.0
 13
151.79152787633379
 23
74.146082290439196
 33
0.0
  0
TEXT
  5
547
  8
2
 62
     0
 10
151.16652787633379
 20
66.854415623772553
 30
0.0
 40
2.5
  1
2
 50
90.0
  0
POINT
  5
548
  8
DEFPOINTS
 62
     0
 10
122.4686758982419
 20
76.146082290439196
 30
0.0
  0
POINT
  5
549
  8
DEFPOINTS
 62
     0
 10
121.2669775173669
 20
74.146082290439196
 30
0.0
  0
POINT
  5
54A
  8
DEFPOINTS
 62
     0
 10
151.79152787633379
 20
74.146082290439196
 30
0.0
  0
ENDBLK
  5
54C
  8
0
  0
BLOCK
  8
0
  2
*D4
 70
     1
 10
0.0
 20
0.0
 30
0.0
  3
*D4
  1

  0
LINE
  5
54F
  8
2
 62
     0
 10
123.0936758982419
 20
76.146082290439196
 30
0.0
 11
158.1520042957782
 21
76.146082290439196
 31
0.0
  0
LINE
  5
550
  8
2
 62
     0
 10
121.821638985731
 20
63.146082290439189
 30
0.0
 11
158.1520042957782
 21
63.146082290439189
 31
0.0
  0
LINE
  5
551
  8
2
 62
     0
 10
156.90200429577831
 20
73.646082290439196
 30
0.0
 11
156.90200429577831
 21
65.646082290439196
 31
0.0
  0
SOLID
  5
552
  8
2
 62
     0
 10
156.4853376291116
 20
73.646082290439196
 30
0.0
 11
157.31867096244491
 21
73.646082290439196
 31
0.0
 12
156.90200429577831
 22
76.146082290439196
 32
0.0
 13
156.90200429577831
 23
76.146082290439196
 33
0.0
  0
SOLID
  5
553
  8
2
 62
     0
 10
156.4853376291116
 20
65.646082290439196
 30
0.0
 11
157.31867096244491
 21
65.646082290439196
 31
0.0
 12
156.9020042957782
 22
63.146082290439189
 32
0.0
 13
156.9020042957782
 23
63.146082290439189
 33
0.0
  0
TEXT
  5
554
  8
2
 62
     0
 10
156.2770042957782
 20
67.979415623772525
 30
0.0
 40
2.5
  1
13
 50
90.0
  0
POINT
  5
555
  8
DEFPOINTS
 62
     0
 10
122.4686758982419
 20
76.146082290439196
 30
0.0
  0
POINT
  5
556
  8
DEFPOINTS
 62
     0
 10
121.196638985731
 20
63.146082290439189
 30
0.0
  0
POINT
  5
557
  8
DEFPOINTS
 62
     0
 10
156.9020042957782
 20
63.146082290439189
 30
0.0
  0
ENDBLK
  5
559
  8
0
  0
BLOCK
  8
0
  2
*D5
 70
     1
 10
0.0
 20
0.0
 30
0.0
  3
*D5
  1

  0
LINE
  5
567
  8
2
 62
     0
 10
123.0936758982419
 20
76.146082290439196
 30
0.0
 11
163.61492635982
 21
76.146082290439182
 31
0.0
  0
LINE
  5
568
  8
2
 62
     0
 10
137.97042294581689
 20
57.146082290439189
 30
0.0
 11
163.61492635982
 21
57.146082290439189
 31
0.0
  0
LINE
  5
569
  8
2
 62
     0
 10
162.36492635982
 20
73.646082290439182
 30
0.0
 11
162.36492635982
 21
59.646082290439189
 31
0.0
  0
SOLID
  5
56A
  8
2
 62
     0
 10
161.9482596931534
 20
73.646082290439182
 30
0.0
 11
162.78159302648669
 21
73.646082290439182
 31
0.0
 12
162.36492635982
 22
76.146082290439182
 32
0.0
 13
162.36492635982
 23
76.146082290439182
 33
0.0
  0
SOLID
  5
56B
  8
2
 62
     0
 10
161.9482596931534
 20
59.646082290439189
 30
0.0
 11
162.78159302648669
 21
59.646082290439189
 31
0.0
 12
162.36492635982
 22
57.146082290439189
 32
0.0
 13
162.36492635982
 23
57.146082290439189
 33
0.0
  0
TEXT
  5
56C
  8
2
 62
     0
 10
161.73992635982
 20
64.979415623772539
 30
0.0
 40
2.5
  1
19
 50
90.0
  0
POINT
  5
56D
  8
DEFPOINTS
 62
     0
 10
122.4686758982419
 20
76.146082290439196
 30
0.0
  0
POINT
  5
56E
  8
DEFPOINTS
 62
     0
 10
137.34542294581689
 20
57.146082290439189
 30
0.0
  0
POINT
  5
56F
  8
DEFPOINTS
 62
     0
 10
162.36492635982
 20
57.146082290439189
 30
0.0
  0
ENDBLK
  5
566
  8
0
  0
BLOCK
  8
0
  2
*D6
 70
     1
 10
0.0
 20
0.0
 30
0.0
  3
*D6
  1

  0
LINE
  5
5AE
  8
2
 62
     0
 10
43.766977517366989
 20
57.38120143891247
 30
0.0
 11
43.766977517366989
 21
47.186560651870359
 31
0.0
  0
LINE
  5
5AF
  8
2
 62
     0
 10
138.76697751736691
 20
57.38120143891247
 30
0.0
 11
138.76697751736691
 21
47.186560651870359
 31
0.0
  0
LINE
  5
5B0
  8
2
 62
     0
 10
46.266977517366989
 20
48.436560651870373
 30
0.0
 11
136.266977517367
 21
48.436560651870373
 31
0.0
  0
SOLID
  5
5B1
  8
2
 62
     0
 10
46.266977517366989
 20
48.85322731853703
 30
0.0
 11
46.266977517366989
 21
48.019893985203701
 31
0.0
 12
43.766977517366989
 22
48.436560651870373
 32
0.0
 13
43.766977517366989
 23
48.436560651870373
 33
0.0
  0
SOLID
  5
5B2
  8
2
 62
     0
 10
136.266977517367
 20
48.85322731853703
 30
0.0
 11
136.266977517367
 21
48.019893985203701
 31
0.0
 12
138.76697751736691
 22
48.436560651870373
 32
0.0
 13
138.76697751736691
 23
48.436560651870373
 33
0.0
  0
INSERT
  5
5B3
  8
2
  2
*U9
 10
0.0
 20
0.0
 30
0.0
  0
POINT
  5
5B4
  8
DEFPOINTS
 62
     0
 10
43.766977517366989
 20
58.00620143891247
 30
0.0
  0
POINT
  5
5B5
  8
DEFPOINTS
 62
     0
 10
138.76697751736691
 20
58.00620143891247
 30
0.0
  0
POINT
  5
5B6
  8
DEFPOINTS
 62
     0
 10
138.76697751736691
 20
48.436560651870373
 30
0.0
  0
ENDBLK
  5
57C
  8
0
  0
BLOCK
  8
0
  2
*U7
 70
     1
 10
0.0
 20
0.0
 30
0.0
  3
*U7
  1

  0
TEXT
  5
5E3
  8
2
 62
     0
 10
87.933644184033668
 20
91.003482899775634
 30
0.0
 40
2.5
  1
\U+2205
  0
TEXT
  5
5E4
  8
2
 62
     0
 10
90.433644184033668
 20
91.003482899775634
 30
0.0
 40
2.5
  1
68
  0
ENDBLK
  5
5E6
  8
0
  0
BLOCK
  8
0
  2
*U8
 70
     1
 10
0.0
 20
0.0
 30
0.0
  3
*U8
  1

  0
TEXT
  5
5E8
  8
2
 62
     0
 10
88.350310850700325
 20
85.723964287098269
 30
0.0
 40
2.5
  1
\U+2205
  0
TEXT
  5
5E9
  8
2
 62
     0
 10
90.850310850700325
 20
85.723964287098269
 30
0.0
 40
2.5
  1
17
  0
ENDBLK
  5
5EB
  8
0
  0
BLOCK
  8
0
  2
*U9
 70
     1
 10
0.0
 20
0.0
 30
0.0
  3
*U9
  1

  0
TEXT
  5
5ED
  8
2
 62
     0
 10
87.933644184033668
 20
49.061560651870373
 30
0.0
 40
2.5
  1
\U+2205
  0
TEXT
  5
5EE
  8
2
 62
     0
 10
90.433644184033668
 20
49.061560651870373
 30
0.0
 40
2.5
  1
95
  0
ENDBLK
  5
5F0
  8
0
  0
ENDSEC
  0
SECTION
  2
ENTITIES
  0
TEXT
  5
BB
  8
2
 10
64.499059446535284
 20
34.468582231022211
 30
0.0
 40
2.5399440000000002
  1
No. 102.095.305._
 51
-0.0000015352344868
  7
\U+00C9L\U+00C9R_\U+00C2S\U+00C2V\U+00C2B\U+00C2N
  0
POLYLINE
  5
D8
  8
0
 66
     1
 10
0.0
 20
0.0
 30
0.0
 39
8.4474479838345964
  0
VERTEX
  5
5DC
  8
0
 10
48.606013607324883
 20
59.721709175469613
 30
0.0
  0
VERTEX
  5
5DD
  8
0
 10
91.266977517366968
 20
59.721709175469613
 30
0.0
  0
SEQEND
  5
5DE
  8
0
  0
LINE
  5
13C
  8
0
 39
8.4474479838345964
 10
61.266977517366989
 20
67.520562103105377
 30
0.0
 11
91.284210311254029
 21
67.520562103105377
 31
0.0
  0
LINE
  5
140
  8
0
 39
8.4474479838345964
 10
68.95219892326952
 20
67.520562103105377
 30
0.0
 11
68.95219892326952
 21
67.520562103105377
 31
0.0
  0
LINE
  5
144
  8
0
 39
8.4474479838345964
 10
81.139501078507394
 20
67.520562103105377
 30
0.0
 11
81.139501078507394
 21
64.954734252495442
 31
0.0
  0
LINE
  5
145
  8
0
 39
8.4474479838345964
 10
81.139501078507394
 20
64.986327707954999
 30
0.0
 11
81.139501078507394
 21
64.986327707954999
 31
0.0
  0
LINE
  5
148
  8
0
 39
8.4474479838345964
 10
91.266977517366996
 20
64.954734252495442
 30
0.0
 11
74.659632679067542
 21
64.954734252495442
 31
0.0
  0
LINE
  5
149
  8
0
 39
8.4474479838345964
 10
74.659632679067542
 20
64.954734252495442
 30
0.0
 11
74.659632679067542
 21
63.146082290439189
 31
0.0
  0
LINE
  5
14C
  8
0
 39
8.4474479838345964
 10
69.343822611800107
 20
63.146082290439189
 30
0.0
 11
69.343822611800107
 21
64.954734252495442
 31
0.0
  0
LINE
  5
14D
  8
0
 39
8.4474479838345964
 10
69.343822611800107
 20
64.954734252495442
 30
0.0
 11
63.63098248929245
 21
64.954734252495442
 31
0.0
  0
LINE
  5
14E
  8
0
 39
8.4474479838345964
 10
63.63098248929245
 20
64.954734252495442
 30
0.0
 11
63.63098248929245
 21
63.146082290439189
 31
0.0
  0
LINE
  5
151
  8
0
 39
8.4474479838345964
 10
61.337316049002972
 20
63.146082290439189
 30
0.0
 11
51.446552466369091
 21
60.63808833275597
 31
0.0
  0
LINE
  5
152
  8
0
 39
8.4474479838345964
 10
51.446552466369091
 20
60.63808833275597
 30
0.0
 11
51.446552466369091
 21
60.63808833275597
 31
0.0
  0
LINE
  5
153
  8
0
 39
8.4474479838345964
 10
51.446552466369091
 20
60.63808833275597
 30
0.0
 11
50.833774589621719
 21
60.494819614950138
 31
0.0
  0
LINE
  5
154
  8
0
 39
8.4474479838345964
 10
50.833774589621719
 20
60.494819614950138
 30
0.0
 11
50.264585544470961
 21
60.348847713789482
 31
0.0
  0
LINE
  5
155
  8
0
 39
8.4474479838345964
 10
50.264585544470961
 20
60.348847713789482
 30
0.0
 11
49.736282147561951
 21
60.198314190717547
 31
0.0
  0
LINE
  5
156
  8
0
 39
8.4474479838345964
 10
49.736282147561951
 20
60.198314190717547
 30
0.0
 11
49.245316470741493
 21
60.041698505097237
 31
0.0
  0
LINE
  5
157
  8
0
 39
8.4474479838345964
 10
49.245316470741493
 20
60.041698505097237
 30
0.0
 11
48.789661126493449
 21
59.876635371493123
 31
0.0
  0
LINE
  5
158
  8
0
 39
8.4474479838345964
 10
48.789661126493449
 20
59.876635371493123
 30
0.0
 11
48.365599237704949
 21
59.701604249268073
 31
0.0
  0
LINE
  5
159
  8
0
 39
8.4474479838345964
 10
48.365599237704949
 20
59.701604249268073
 30
0.0
 11
47.970596569980842
 21
59.514746699865647
 31
0.0
  0
LINE
  5
15A
  8
0
 39
8.4474479838345964
 10
47.970596569980842
 20
59.514746699865647
 30
0.0
 11
47.601274144127594
 21
59.314542182648772
 31
0.0
  0
LINE
  5
15B
  8
0
 39
8.4474479838345964
 10
47.601274144127594
 20
59.314542182648772
 30
0.0
 11
47.255266674709723
 21
59.098456463222291
 31
0.0
  0
LINE
  5
15C
  8
0
 39
8.4474479838345964
 10
47.255266674709723
 20
59.098456463222291
 30
0.0
 11
46.928857284614338
 21
58.865475847828129
 31
0.0
  0
LINE
  5
15D
  8
0
 39
8.4474479838345964
 10
46.928857284614338
 20
58.865475847828129
 30
0.0
 11
46.619342790486641
 21
58.613235051030813
 31
0.0
  0
LINE
  5
15E
  8
0
 39
8.4474479838345964
 10
46.619342790486641
 20
58.613235051030813
 30
0.0
 11
46.323851060012117
 21
58.340213532193289
 31
0.0
  0
LINE
  5
15F
  8
0
 39
8.4474479838345964
 10
46.323851060012117
 20
58.340213532193289
 30
0.0
 11
46.039509960876252
 21
58.04421495483971
 31
0.0
  0
LINE
  5
160
  8
0
 39
8.4474479838345964
 10
46.039509960876252
 20
58.04421495483971
 30
0.0
 11
45.763109462845172
 21
57.724056676252388
 31
0.0
  0
LINE
  5
161
  8
0
 39
8.4474479838345964
 10
45.763109462845172
 20
57.724056676252388
 30
0.0
 11
45.491777433604412
 21
57.377373410995808
 31
0.0
  0
LINE
  5
162
  8
0
 39
8.4474479838345964
 10
45.491777433604412
 20
57.377373410995808
 30
0.0
 11
45.325347934772878
 21
57.146082290439189
 31
0.0
  0
LINE
  5
16D
  8
0
 10
60.065279136492023
 20
76.146082290439196
 30
0.0
 11
91.266977517366996
 21
76.146082290439196
 31
0.0
  0
LINE
  5
170
  8
0
 39
8.4474479838345964
 10
60.065279136492052
 20
76.146082290439196
 30
0.0
 11
60.065279136492052
 21
76.146082290439196
 31
0.0
  0
LINE
  5
171
  8
0
 39
8.4474479838345964
 10
60.065279136492052
 20
76.146082290439196
 30
0.0
 11
59.756778336122423
 21
76.119895201689317
 31
0.0
  0
LINE
  5
172
  8
0
 39
8.4474479838345964
 10
59.756778336122423
 20
76.119895201689317
 30
0.0
 11
59.460103962930148
 21
76.07258949297983
 31
0.0
  0
LINE
  5
173
  8
0
 39
8.4474479838345964
 10
59.460103962930148
 20
76.07258949297983
 30
0.0
 11
59.17728340443135
 21
76.005178858068831
 31
0.0
  0
LINE
  5
174
  8
0
 39
8.4474479838345964
 10
59.17728340443135
 20
76.005178858068831
 30
0.0
 11
58.908992456464773
 21
75.919352786553077
 31
0.0
  0
LINE
  5
175
  8
0
 39
8.4474479838345964
 10
58.908992456464773
 20
75.919352786553077
 30
0.0
 11
58.656920608627139
 21
75.815956023230953
 31
0.0
  0
LINE
  5
176
  8
0
 39
8.4474479838345964
 10
58.656920608627139
 20
75.815956023230953
 30
0.0
 11
58.421574707797532
 21
75.696678057699202
 31
0.0
  0
LINE
  5
177
  8
0
 39
8.4474479838345964
 10
58.421574707797532
 20
75.696678057699202
 30
0.0
 11
58.204813192532299
 21
75.562532583715907
 31
0.0
  0
LINE
  5
178
  8
0
 39
8.4474479838345964
 10
58.204813192532299
 20
75.562532583715907
 30
0.0
 11
58.006973960750912
 21
75.415209090877823
 31
0.0
  0
LINE
  5
179
  8
0
 39
8.4474479838345964
 10
58.006973960750912
 20
75.415209090877823
 30
0.0
 11
57.830253348929077
 21
75.255214426064001
 31
0.0
  0
LINE
  5
17A
  8
0
 39
8.4474479838345964
 10
57.830253348929077
 20
75.255214426064001
 30
0.0
 11
57.674989254986201
 21
75.084575976790532
 31
0.0
  0
LINE
  5
17B
  8
0
 39
8.4474479838345964
 10
57.674989254986201
 20
75.084575976790532
 30
0.0
 11
57.542871168519021
 21
74.904307436815515
 31
0.0
  0
LINE
  5
17C
  8
0
 39
8.4474479838345964
 10
57.542871168519021
 20
74.904307436815515
 30
0.0
 11
57.434743834325943
 21
74.715929346775994
 31
0.0
  0
LINE
  5
17D
  8
0
 39
8.4474479838345964
 10
57.434743834325943
 20
74.715929346775994
 30
0.0
 11
57.352127793044041
 21
74.520455400430066
 31
0.0
  0
LINE
  5
17E
  8
0
 39
8.4474479838345964
 10
57.352127793044041
 20
74.520455400430066
 30
0.0
 11
57.295698840512031
 21
74.319406138414806
 31
0.0
  0
LINE
  5
17F
  8
0
 39
8.4474479838345964
 10
57.295698840512031
 20
74.319406138414806
 30
0.0
 11
57.266977517367003
 21
74.113795254488252
 31
0.0
  0
LINE
  5
180
  8
0
 39
8.4474479838345964
 10
57.266977517367003
 20
74.113795254488252
 30
0.0
 11
57.266977517367003
 21
73.905481187206902
 31
0.0
  0
LINE
  5
181
  8
0
 39
8.4474479838345964
 10
57.266977517367003
 20
73.905481187206902
 30
0.0
 11
57.265456976729908
 21
72.630254439567253
 31
0.0
  0
LINE
  5
182
  8
0
 39
8.4474479838345964
 10
57.265456976729908
 20
72.630254439567253
 30
0.0
 11
57.265456976729908
 21
72.630254439567253
 31
0.0
  0
LINE
  5
183
  8
0
 39
8.4474479838345964
 10
57.265456976729908
 20
72.630254439567253
 30
0.0
 11
57.239776734859049
 21
72.377337846931226
 31
0.0
  0
LINE
  5
184
  8
0
 39
8.4474479838345964
 10
57.239776734859049
 20
72.377337846931226
 30
0.0
 11
57.217982319060773
 21
72.118170142787207
 31
0.0
  0
LINE
  5
185
  8
0
 39
8.4474479838345964
 10
57.217982319060773
 20
72.118170142787207
 30
0.0
 11
57.196694750141482
 21
71.85376502089315
 31
0.0
  0
LINE
  5
186
  8
0
 39
8.4474479838345964
 10
57.196694750141482
 20
71.85376502089315
 30
0.0
 11
57.172197150988382
 21
71.585811970845924
 31
0.0
  0
LINE
  5
187
  8
0
 39
8.4474479838345964
 10
57.172197150988382
 20
71.585811970845924
 30
0.0
 11
57.140941593448183
 21
71.315324686403557
 31
0.0
  0
LINE
  5
188
  8
0
 39
8.4474479838345964
 10
57.140941593448183
 20
71.315324686403557
 30
0.0
 11
57.098873302488677
 21
71.043992657162789
 31
0.0
  0
LINE
  5
189
  8
0
 39
8.4474479838345964
 10
57.098873302488677
 20
71.043992657162789
 30
0.0
 11
57.042444349956668
 21
70.773167474801042
 31
0.0
  0
LINE
  5
18A
  8
0
 39
8.4474479838345964
 10
57.042444349956668
 20
70.773167474801042
 30
0.0
 11
56.967768909779572
 21
70.504369679955431
 31
0.0
  0
LINE
  5
18B
  8
0
 39
8.4474479838345964
 10
56.967768909779572
 20
70.504369679955431
 30
0.0
 11
56.871636951723531
 21
70.238444017424328
 31
0.0
  0
LINE
  5
18C
  8
0
 39
8.4474479838345964
 10
56.871636951723531
 20
70.238444017424328
 30
0.0
 11
56.749824751796652
 21
69.977248925764144
 31
0.0
  0
LINE
  5
18D
  8
0
 39
8.4474479838345964
 10
56.749824751796652
 20
69.977248925764144
 30
0.0
 11
56.598784381845689
 21
69.722135996652355
 31
0.0
  0
LINE
  5
18E
  8
0
 39
8.4474479838345964
 10
56.598784381845689
 20
69.722135996652355
 30
0.0
 11
56.414630015798082
 21
69.474625770725993
 31
0.0
  0
LINE
  5
196
  8
0
 39
8.4474479838345964
 10
49.753514941448969
 20
62.510549652852752
 30
0.0
 11
49.150029257483823
 21
62.379783158062992
 31
0.0
  0
LINE
  5
197
  8
0
 39
8.4474479838345964
 10
49.150029257483823
 20
62.379783158062992
 30
0.0
 11
48.586077630083032
 21
62.216071616136269
 31
0.0
  0
LINE
  5
198
  8
0
 39
8.4474479838345964
 10
48.586077630083032
 20
62.216071616136269
 30
0.0
 11
48.058787926932062
 21
62.021611363548409
 31
0.0
  0
LINE
  5
199
  8
0
 39
8.4474479838345964
 10
48.058787926932062
 20
62.021611363548409
 30
0.0
 11
47.566470658434191
 21
61.798091889896142
 31
0.0
  0
LINE
  5
19A
  8
0
 39
8.4474479838345964
 10
47.566470658434191
 20
61.798091889896142
 30
0.0
 11
47.106253692274883
 21
61.547709531655272
 31
0.0
  0
LINE
  5
19B
  8
0
 39
8.4474479838345964
 10
47.106253692274883
 20
61.547709531655272
 30
0.0
 11
46.676278589897713
 21
61.272491676341971
 31
0.0
  0
LINE
  5
19C
  8
0
 39
8.4474479838345964
 10
46.676278589897713
 20
61.272491676341971
 30
0.0
 11
46.273504270028482
 21
60.974634660431931
 31
0.0
  0
LINE
  5
19D
  8
0
 39
8.4474479838345964
 10
46.273504270028482
 20
60.974634660431931
 30
0.0
 11
45.896410192030089
 21
60.655490075602671
 31
0.0
  0
LINE
  5
19E
  8
0
 39
8.4474479838345964
 10
45.896410192030089
 20
60.655490075602671
 30
0.0
 11
45.541955274628393
 21
60.317761105208973
 31
0.0
  0
LINE
  5
19F
  8
0
 39
8.4474479838345964
 10
45.541955274628393
 20
60.317761105208973
 30
0.0
 11
45.208281079266911
 21
59.962968289887911
 31
0.0
  0
LINE
  5
1A0
  8
0
 39
8.4474479838345964
 10
45.208281079266911
 20
59.962968289887911
 30
0.0
 11
44.892684422590868
 21
59.593476915074987
 31
0.0
  0
LINE
  5
1A1
  8
0
 39
8.4474479838345964
 10
44.892684422590868
 20
59.593476915074987
 30
0.0
 11
44.593306866043768
 21
59.210976470366951
 31
0.0
  0
LINE
  5
1A2
  8
0
 39
8.4474479838345964
 10
44.593306866043768
 20
59.210976470366951
 30
0.0
 11
44.307276277311118
 21
58.81749434327994
 31
0.0
  0
LINE
  5
1A3
  8
0
 39
8.4474479838345964
 10
44.307276277311118
 20
58.81749434327994
 30
0.0
 11
44.03256526887683
 21
58.415226870289729
 31
0.0
  0
LINE
  5
1B4
  8
0
 39
8.4474479838345964
 10
84.117564390728447
 20
67.520562103105377
 30
0.0
 11
91.26697751736701
 21
67.520562103105377
 31
0.0
  0
LINE
  5
1B8
  8
0
 39
8.4474479838345964
 10
84.117564390728447
 20
67.520562103105377
 30
0.0
 11
84.117564390728447
 21
67.520562103105377
 31
0.0
  0
LINE
  5
455
  8
1
 10
91.266977517366996
 20
76.646082290439196
 30
0.0
 11
91.266977517366996
 21
56.646082290439203
 31
0.0
  0
LINE
  5
458
  8
0
 10
82.766977517366996
 20
76.146082290439196
 30
0.0
 11
82.766977517366996
 21
74.146082290439196
 31
0.0
  0
LINE
  5
45B
  8
0
 10
91.266977517366996
 20
74.146082290439196
 30
0.0
 11
61.266977517366989
 21
74.146082290439196
 31
0.0
  0
LINE
  5
45D
  8
0
 10
45.188532088917007
 20
57.146082290439189
 30
0.0
 11
91.266977517366996
 21
57.146082290439189
 31
0.0
  0
LINE
  5
471
  8
0
 10
49.753514941448969
 20
62.510549652852752
 30
0.0
 11
56.414630015798082
 21
69.474625770725993
 31
0.0
  0
LINE
  5
485
  8
0
 10
61.337316049002972
 20
63.146082290439189
 30
0.0
 11
91.266977517366996
 21
63.146082290439189
 31
0.0
  0
LINE
  5
4A1
  8
0
 10
61.266977517366989
 20
74.146082290439196
 30
0.0
 11
61.266977517366989
 21
67.520562103105377
 31
0.0
  0
LINE
  5
4A8
  8
0
 10
44.03256526887683
 20
58.415226870289729
 30
0.0
 11
43.766977517366989
 21
58.00620143891247
 31
0.0
  0
LINE
  5
4AA
  8
0
 10
43.766977517366989
 20
58.00620143891247
 30
0.0
 11
45.188532088917007
 21
57.146082290439189
 31
0.0
  0
LINE
  5
4AE
  8
0
 39
8.4474479838345964
 10
137.04217760112959
 20
57.377373410995808
 30
0.0
 11
137.20860709996111
 21
57.146082290439189
 31
0.0
  0
LINE
  5
4AF
  8
0
 39
8.4474479838345964
 10
121.2669775173669
 20
67.520562103105377
 30
0.0
 11
91.249744723479964
 21
67.520562103105377
 31
0.0
  0
LINE
  5
4B0
  8
0
 39
8.4474479838345964
 10
107.87432235566639
 20
64.954734252495442
 30
0.0
 11
107.87432235566639
 21
63.146082290439189
 31
0.0
  0
LINE
  5
4B1
  8
0
 39
8.4474479838345964
 10
113.1901324229338
 20
63.146082290439189
 30
0.0
 11
113.1901324229338
 21
64.954734252495442
 31
0.0
  0
LINE
  5
4B2
  8
0
 39
8.4474479838345964
 10
118.9029725454415
 20
64.954734252495442
 30
0.0
 11
118.9029725454415
 21
63.146082290439189
 31
0.0
  0
LINE
  5
4B3
  8
0
 39
8.4474479838345964
 10
121.196638985731
 20
63.146082290439189
 30
0.0
 11
131.08740256836481
 21
60.63808833275597
 31
0.0
  0
LINE
  5
4B5
  8
0
 39
8.4474479838345964
 10
122.4686758982419
 20
76.146082290439196
 30
0.0
 11
122.4686758982419
 21
76.146082290439196
 31
0.0
  0
LINE
  5
4B6
  8
0
 39
8.4474479838345964
 10
122.4686758982419
 20
76.146082290439196
 30
0.0
 11
122.7771766986115
 21
76.119895201689317
 31
0.0
  0
LINE
  5
4B7
  8
0
 39
8.4474479838345964
 10
122.7771766986115
 20
76.119895201689317
 30
0.0
 11
123.0738510718038
 21
76.07258949297983
 31
0.0
  0
LINE
  5
4B8
  8
0
 39
8.4474479838345964
 10
123.0738510718038
 20
76.07258949297983
 30
0.0
 11
123.3566716303026
 21
76.005178858068831
 31
0.0
  0
LINE
  5
4B9
  8
0
 39
8.4474479838345964
 10
123.3566716303026
 20
76.005178858068831
 30
0.0
 11
123.6249625782692
 21
75.919352786553077
 31
0.0
  0
LINE
  5
4BA
  8
0
 39
8.4474479838345964
 10
123.6249625782692
 20
75.919352786553077
 30
0.0
 11
123.8770344261068
 21
75.815956023230953
 31
0.0
  0
LINE
  5
4BB
  8
0
 39
8.4474479838345964
 10
123.8770344261068
 20
75.815956023230953
 30
0.0
 11
124.1123803269364
 21
75.696678057699202
 31
0.0
  0
LINE
  5
4BC
  8
0
 39
8.4474479838345964
 10
124.1123803269364
 20
75.696678057699202
 30
0.0
 11
124.32914184220159
 21
75.562532583715907
 31
0.0
  0
LINE
  5
4BD
  8
0
 39
8.4474479838345964
 10
124.32914184220159
 20
75.562532583715907
 30
0.0
 11
124.52698107398299
 21
75.415209090877823
 31
0.0
  0
LINE
  5
4BE
  8
0
 39
8.4474479838345964
 10
124.52698107398299
 20
75.415209090877823
 30
0.0
 11
124.7037016858049
 21
75.255214426064001
 31
0.0
  0
LINE
  5
4BF
  8
0
 39
8.4474479838345964
 10
124.7037016858049
 20
75.255214426064001
 30
0.0
 11
124.85896577974771
 21
75.084575976790532
 31
0.0
  0
LINE
  5
4C0
  8
0
 39
8.4474479838345964
 10
124.85896577974771
 20
75.084575976790532
 30
0.0
 11
124.99108386621489
 21
74.904307436815515
 31
0.0
  0
LINE
  5
4C1
  8
0
 39
8.4474479838345964
 10
124.99108386621489
 20
74.904307436815515
 30
0.0
 11
125.09921120040801
 21
74.715929346775994
 31
0.0
  0
LINE
  5
4C2
  8
0
 39
8.4474479838345964
 10
125.09921120040801
 20
74.715929346775994
 30
0.0
 11
125.1818272416899
 21
74.520455400430066
 31
0.0
  0
LINE
  5
4C3
  8
0
 39
8.4474479838345964
 10
125.1818272416899
 20
74.520455400430066
 30
0.0
 11
125.2382561942219
 21
74.319406138414806
 31
0.0
  0
LINE
  5
4C4
  8
0
 39
8.4474479838345964
 10
125.2382561942219
 20
74.319406138414806
 30
0.0
 11
125.2669775173669
 21
74.113795254488252
 31
0.0
  0
LINE
  5
4C5
  8
0
 39
8.4474479838345964
 10
125.2669775173669
 20
74.113795254488252
 30
0.0
 11
125.2669775173669
 21
73.905481187206902
 31
0.0
  0
LINE
  5
4C6
  8
0
 39
8.4474479838345964
 10
125.2669775173669
 20
73.905481187206902
 30
0.0
 11
125.268498058004
 21
72.630254439567253
 31
0.0
  0
LINE
  5
4C7
  8
0
 39
8.4474479838345964
 10
125.268498058004
 20
72.630254439567253
 30
0.0
 11
125.268498058004
 21
72.630254439567253
 31
0.0
  0
LINE
  5
4C8
  8
0
 39
8.4474479838345964
 10
125.268498058004
 20
72.630254439567253
 30
0.0
 11
125.2941782998749
 21
72.377337846931226
 31
0.0
  0
LINE
  5
4C9
  8
0
 39
8.4474479838345964
 10
125.2941782998749
 20
72.377337846931226
 30
0.0
 11
125.3159727156732
 21
72.118170142787207
 31
0.0
  0
LINE
  5
4CA
  8
0
 39
8.4474479838345964
 10
125.3159727156732
 20
72.118170142787207
 30
0.0
 11
125.3372602845925
 21
71.85376502089315
 31
0.0
  0
LINE
  5
4CB
  8
0
 39
8.4474479838345964
 10
125.3372602845925
 20
71.85376502089315
 30
0.0
 11
125.3617578837456
 21
71.585811970845924
 31
0.0
  0
LINE
  5
4CC
  8
0
 39
8.4474479838345964
 10
125.3617578837456
 20
71.585811970845924
 30
0.0
 11
125.3930134412857
 21
71.315324686403557
 31
0.0
  0
LINE
  5
4CD
  8
0
 39
8.4474479838345964
 10
125.3930134412857
 20
71.315324686403557
 30
0.0
 11
125.43508173224529
 21
71.043992657162789
 31
0.0
  0
LINE
  5
4CE
  8
0
 39
8.4474479838345964
 10
125.43508173224529
 20
71.043992657162789
 30
0.0
 11
125.4915106847773
 21
70.773167474801042
 31
0.0
  0
LINE
  5
4CF
  8
0
 39
8.4474479838345964
 10
125.4915106847773
 20
70.773167474801042
 30
0.0
 11
125.5661861249544
 21
70.504369679955431
 31
0.0
  0
LINE
  5
4D0
  8
0
 39
8.4474479838345964
 10
125.5661861249544
 20
70.504369679955431
 30
0.0
 11
125.6623180830104
 21
70.238444017424328
 31
0.0
  0
LINE
  5
4D1
  8
0
 39
8.4474479838345964
 10
125.6623180830104
 20
70.238444017424328
 30
0.0
 11
125.7841302829373
 21
69.977248925764144
 31
0.0
  0
LINE
  5
4D2
  8
0
 39
8.4474479838345964
 10
125.7841302829373
 20
69.977248925764144
 30
0.0
 11
125.9351706528883
 21
69.722135996652355
 31
0.0
  0
LINE
  5
4D3
  8
0
 39
8.4474479838345964
 10
125.9351706528883
 20
69.722135996652355
 30
0.0
 11
126.1193250189359
 21
69.474625770725993
 31
0.0
  0
LINE
  5
4D4
  8
0
 39
8.4474479838345964
 10
98.41639064400556
 20
67.520562103105377
 30
0.0
 11
98.41639064400556
 21
67.520562103105377
 31
0.0
  0
LINE
  5
4D5
  8
0
 39
8.4474479838345964
 10
98.41639064400556
 20
67.520562103105377
 30
0.0
 11
91.266977517366968
 21
67.520562103105377
 31
0.0
  0
LINE
  5
4D6
  8
0
 39
8.4474479838345964
 10
138.2266787574228
 20
58.81749434327994
 30
0.0
 11
138.50138976585711
 21
58.415226870289729
 31
0.0
  0
LINE
  5
4D7
  8
0
 39
8.4474479838345964
 10
137.94064816869019
 20
59.210976470366951
 30
0.0
 11
138.2266787574228
 21
58.81749434327994
 31
0.0
  0
LINE
  5
4D8
  8
0
 39
8.4474479838345964
 10
137.6412706121431
 20
59.593476915074987
 30
0.0
 11
137.94064816869019
 21
59.210976470366951
 31
0.0
  0
LINE
  5
4D9
  8
0
 39
8.4474479838345964
 10
137.3256739554671
 20
59.962968289887911
 30
0.0
 11
137.6412706121431
 21
59.593476915074987
 31
0.0
  0
LINE
  5
4DA
  8
0
 39
8.4474479838345964
 10
136.99199976010561
 20
60.317761105208973
 30
0.0
 11
137.3256739554671
 21
59.962968289887911
 31
0.0
  0
LINE
  5
4DB
  8
0
 39
8.4474479838345964
 10
136.63754484270379
 20
60.655490075602671
 30
0.0
 11
136.99199976010561
 21
60.317761105208973
 31
0.0
  0
LINE
  5
4DC
  8
0
 39
8.4474479838345964
 10
136.2604507647055
 20
60.974634660431931
 30
0.0
 11
136.63754484270379
 21
60.655490075602671
 31
0.0
  0
LINE
  5
4DD
  8
0
 39
8.4474479838345964
 10
135.85767644483619
 20
61.272491676341971
 30
0.0
 11
136.2604507647055
 21
60.974634660431931
 31
0.0
  0
LINE
  5
4DE
  8
0
 39
8.4474479838345964
 10
135.42770134245899
 20
61.547709531655272
 30
0.0
 11
135.85767644483619
 21
61.272491676341971
 31
0.0
  0
LINE
  5
4DF
  8
0
 39
8.4474479838345964
 10
134.96748437629981
 20
61.798091889896142
 30
0.0
 11
135.42770134245899
 21
61.547709531655272
 31
0.0
  0
LINE
  5
4E0
  8
0
 39
8.4474479838345964
 10
134.47516710780189
 20
62.021611363548409
 30
0.0
 11
134.96748437629981
 21
61.798091889896142
 31
0.0
  0
LINE
  5
4E1
  8
0
 39
8.4474479838345964
 10
133.94787740465091
 20
62.216071616136269
 30
0.0
 11
134.47516710780189
 21
62.021611363548409
 31
0.0
  0
LINE
  5
4E2
  8
0
 39
8.4474479838345964
 10
133.38392577725011
 20
62.379783158062992
 30
0.0
 11
133.94787740465091
 21
62.216071616136269
 31
0.0
  0
LINE
  5
4E3
  8
0
 39
8.4474479838345964
 10
132.78044009328499
 20
62.510549652852752
 30
0.0
 11
133.38392577725011
 21
62.379783158062992
 31
0.0
  0
LINE
  5
4E4
  8
0
 39
8.4474479838345964
 10
136.7708455718888
 20
57.724056676252388
 30
0.0
 11
137.04217760112959
 21
57.377373410995808
 31
0.0
  0
LINE
  5
4E5
  8
0
 39
8.4474479838345964
 10
136.49444507385769
 20
58.04421495483971
 30
0.0
 11
136.7708455718888
 21
57.724056676252388
 31
0.0
  0
LINE
  5
4E6
  8
0
 39
8.4474479838345964
 10
136.21010397472179
 20
58.340213532193289
 30
0.0
 11
136.49444507385769
 21
58.04421495483971
 31
0.0
  0
LINE
  5
4E7
  8
0
 39
8.4474479838345964
 10
135.91461224424731
 20
58.613235051030813
 30
0.0
 11
136.21010397472179
 21
58.340213532193289
 31
0.0
  0
LINE
  5
4E8
  8
0
 39
8.4474479838345964
 10
135.6050977501196
 20
58.865475847828129
 30
0.0
 11
135.91461224424731
 21
58.613235051030813
 31
0.0
  0
LINE
  5
4E9
  8
0
 39
8.4474479838345964
 10
135.2786883600242
 20
59.098456463222291
 30
0.0
 11
135.6050977501196
 21
58.865475847828129
 31
0.0
  0
LINE
  5
4EA
  8
0
 39
8.4474479838345964
 10
134.93268089060629
 20
59.314542182648772
 30
0.0
 11
135.2786883600242
 21
59.098456463222291
 31
0.0
  0
LINE
  5
4EB
  8
0
 39
8.4474479838345964
 10
134.56335846475309
 20
59.514746699865647
 30
0.0
 11
134.93268089060629
 21
59.314542182648772
 31
0.0
  0
LINE
  5
4EC
  8
0
 39
8.4474479838345964
 10
134.16835579702899
 20
59.701604249268073
 30
0.0
 11
134.56335846475309
 21
59.514746699865647
 31
0.0
  0
LINE
  5
4ED
  8
0
 39
8.4474479838345964
 10
133.74429390824051
 20
59.876635371493123
 30
0.0
 11
134.16835579702899
 21
59.701604249268073
 31
0.0
  0
LINE
  5
4EE
  8
0
 39
8.4474479838345964
 10
133.28863856399241
 20
60.041698505097237
 30
0.0
 11
133.74429390824051
 21
59.876635371493123
 31
0.0
  0
LINE
  5
4EF
  8
0
 39
8.4474479838345964
 10
132.79767288717201
 20
60.198314190717547
 30
0.0
 11
133.28863856399241
 21
60.041698505097237
 31
0.0
  0
LINE
  5
4F0
  8
0
 39
8.4474479838345964
 10
132.26936949026299
 20
60.348847713789482
 30
0.0
 11
132.79767288717201
 21
60.198314190717547
 31
0.0
  0
LINE
  5
4F1
  8
0
 39
8.4474479838345964
 10
131.70018044511221
 20
60.494819614950138
 30
0.0
 11
132.26936949026299
 21
60.348847713789482
 31
0.0
  0
LINE
  5
4F2
  8
0
 39
8.4474479838345964
 10
131.08740256836481
 20
60.63808833275597
 30
0.0
 11
131.70018044511221
 21
60.494819614950138
 31
0.0
  0
LINE
  5
4F3
  8
0
 39
8.4474479838345964
 10
131.08740256836481
 20
60.63808833275597
 30
0.0
 11
131.08740256836481
 21
60.63808833275597
 31
0.0
  0
LINE
  5
4F4
  8
0
 39
8.4474479838345964
 10
113.1901324229338
 20
64.954734252495442
 30
0.0
 11
118.9029725454415
 21
64.954734252495442
 31
0.0
  0
LINE
  5
4F5
  8
0
 39
8.4474479838345964
 10
91.266977517366996
 20
64.954734252495442
 30
0.0
 11
107.87432235566639
 21
64.954734252495442
 31
0.0
  0
LINE
  5
4F6
  8
0
 39
8.4474479838345964
 10
101.3944539562265
 20
64.986327707954999
 30
0.0
 11
101.3944539562265
 21
64.986327707954999
 31
0.0
  0
LINE
  5
4F7
  8
0
 39
8.4474479838345964
 10
101.3944539562265
 20
67.520562103105377
 30
0.0
 11
101.3944539562265
 21
64.954734252495442
 31
0.0
  0
LINE
  5
4F8
  8
0
 39
8.4474479838345964
 10
113.5817561114644
 20
67.520562103105377
 30
0.0
 11
113.5817561114644
 21
67.520562103105377
 31
0.0
  0
POLYLINE
  5
4F9
  8
0
 66
     1
 10
0.0
 20
0.0
 30
0.0
 39
8.4474479838345964
  0
VERTEX
  5
5DF
  8
0
 10
133.92794142740911
 20
59.721709175469613
 30
0.0
  0
VERTEX
  5
5E0
  8
0
 10
91.266977517367025
 20
59.721709175469613
 30
0.0
  0
SEQEND
  5
5E1
  8
0
  0
LINE
  5
4FA
  8
0
 10
137.34542294581689
 20
57.146082290439189
 30
0.0
 11
91.266977517366996
 21
57.146082290439189
 31
0.0
  0
LINE
  5
4FB
  8
0
 10
91.266977517366996
 20
74.146082290439196
 30
0.0
 11
121.2669775173669
 21
74.146082290439196
 31
0.0
  0
LINE
  5
4FC
  8
0
 10
121.196638985731
 20
63.146082290439189
 30
0.0
 11
91.266977517366996
 21
63.146082290439189
 31
0.0
  0
LINE
  5
4FD
  8
0
 10
122.4686758982419
 20
76.146082290439196
 30
0.0
 11
91.266977517366996
 21
76.146082290439196
 31
0.0
  0
LINE
  5
4FE
  8
0
 10
138.76697751736691
 20
58.00620143891247
 30
0.0
 11
137.34542294581689
 21
57.146082290439189
 31
0.0
  0
LINE
  5
4FF
  8
0
 10
138.50138976585711
 20
58.415226870289729
 30
0.0
 11
138.76697751736691
 21
58.00620143891247
 31
0.0
  0
LINE
  5
500
  8
0
 10
132.78044009328499
 20
62.510549652852752
 30
0.0
 11
126.1193250189359
 21
69.474625770725993
 31
0.0
  0
LINE
  5
501
  8
0
 10
121.2669775173669
 20
74.146082290439196
 30
0.0
 11
121.2669775173669
 21
67.520562103105377
 31
0.0
  0
LINE
  5
503
  8
0
 10
99.76697751736701
 20
76.146082290439196
 30
0.0
 11
99.76697751736701
 21
74.146082290439196
 31
0.0
  0
DIMENSION
  5
509
  8
2
  2
*D1
 10
99.76697751736701
 20
85.098964287098269
 30
0.0
 11
91.266977517366996
 21
86.973964287098269
 31
0.0
 70
     0
  1
%%c<>
 13
82.766977517366996
 23
76.146082290439196
 33
0.0
 14
99.76697751736701
 24
76.146082290439196
 34
0.0
1001
ACAD
1000
DSTYLE
1002
{
1070
   271
1070
     6
1002
}
  0
DIMENSION
  5
51F
  8
2
  2
*D2
 10
125.2669775173669
 20
90.378482899775634
 30
0.0
 11
91.266977517366996
 21
92.253482899775634
 31
0.0
 70
     0
  1
%%c<>
 13
57.266977517367003
 23
74.113795254488252
 33
0.0
 14
125.2669775173669
 24
74.113795254488252
 34
0.0
1001
ACAD
1000
DSTYLE
1002
{
1070
   271
1070
     6
1002
}
  0
DIMENSION
  5
53E
  8
2
  2
*D3
 10
151.79152787633379
 20
74.146082290439196
 30
0.0
 11
149.9165278763337
 21
67.687748957105882
 31
0.0
 70
     0
 13
122.4686758982419
 23
76.146082290439196
 33
0.0
 14
121.2669775173669
 24
74.146082290439196
 34
0.0
 50
90.0
  0
DIMENSION
  5
54D
  8
2
  2
*D4
 10
156.9020042957782
 20
63.146082290439189
 30
0.0
 11
155.0270042957782
 21
69.64608229043921
 31
0.0
 70
     0
 13
122.4686758982419
 23
76.146082290439196
 33
0.0
 14
121.196638985731
 24
63.146082290439189
 34
0.0
 50
90.0
  0
DIMENSION
  5
55A
  8
2
  2
*D5
 10
162.36492635982
 20
57.146082290439189
 30
0.0
 11
160.48992635982
 21
66.64608229043921
 31
0.0
 70
     0
 13
122.4686758982419
 23
76.146082290439196
 33
0.0
 14
137.34542294581689
 24
57.146082290439189
 34
0.0
 50
90.0
1001
ACAD
1000
DSTYLE
1002
{
1070
   271
1070
     6
1002
}
  0
DIMENSION
  5
570
  8
2
  2
*D6
 10
138.76697751736691
 20
48.436560651870373
 30
0.0
 11
91.266977517366996
 21
50.311560651870373
 31
0.0
 70
     0
  1
%%c<>
 13
43.766977517366989
 23
58.00620143891247
 33
0.0
 14
138.76697751736691
 24
58.00620143891247
 34
0.0
1001
ACAD
1000
DSTYLE
1002
{
1070
   271
1070
     6
1002
}
  0
LINE
  5
5BC
  8
0
 10
85.066977517366993
 20
74.146082290439196
 30
0.0
 11
85.066977517366993
 21
67.520562103105377
 31
0.0
  0
LINE
  5
5BD
  8
2
 10
84.766977517366996
 20
74.146082290439196
 30
0.0
 11
84.766977517366996
 21
67.520562103105377
 31
0.0
  0
LINE
  5
5BE
  8
0
 10
97.466977517366999
 20
74.146082290439196
 30
0.0
 11
97.466977517366999
 21
67.520562103105377
 31
0.0
  0
LINE
  5
5BF
  8
2
 10
97.766977517366996
 20
74.146082290439196
 30
0.0
 11
97.766977517366996
 21
67.520562103105377
 31
0.0
  0
TEXT
  5
5C7
  8
2
 10
64.107717507942141
 20
81.216581906029205
 30
0.0
 40
2.5
  1
G1/4
  0
POLYLINE
  8
2
  5
5F1
  66
     1
 10
0.000000
 20
0.000000
 30
0.000000
  70
     8
  0
VERTEX
  8
2
  5
5F2
 10
85.0670
 20
70.8333
 30
0.000000
  70
    32
  0
VERTEX
  8
2
  5
5F3
 10
73.7241
 20
80.7000
 30
0.000000
  70
    32
  0
VERTEX
  8
2
  5
5F4
 10
63.5785
 20
80.5982
 30
0.000000
  70
    32
  0
SEQEND
  8
2
  5
5F5
  0
ENDSEC
  0
EOF
